osu file format v14

[General]
AudioFilename: audio.mp3
AudioLeadIn: 0
PreviewTime: 60278
Countdown: 0
SampleSet: Normal
StackLeniency: 0.7
Mode: 1
LetterboxInBreaks: 0
WidescreenStoryboard: 1

[Editor]
DistanceSpacing: 1.4
BeatDivisor: 16
GridSize: 4
TimelineZoom: 1.438401

[Metadata]
Title:Charlie Dash!
TitleUnicode:チャーリー ダッシュ!
Artist:Katsuro Tajima
ArtistUnicode:田島勝朗
Creator:Midnaait
Version:Muzukashii!
Source:太鼓の達人
Tags:BNSI Taiko no Tatsujin Vバージョン オリジナルサウンドトラック ベビーカステラ Csárdás Czardas Vittorio Monti Classical Arrangement Videogame Instrumental komasy
BeatmapID:2298701
BeatmapSetID:1100294

[Difficulty]
HPDrainRate:6.5
CircleSize:5
OverallDifficulty:5
ApproachRate:5
SliderMultiplier:1.4
SliderTickRate:1

[Events]
//Background and Video events
0,0,"bg.jpg",0,0
//Break Periods
//Storyboard Layer 0 (Background)
//Storyboard Layer 1 (Fail)
//Storyboard Layer 2 (Pass)
//Storyboard Layer 3 (Foreground)
//Storyboard Layer 4 (Overlay)
//Storyboard Sound Samples

[TimingPoints]
384,375,4,1,0,75,1,0
384,-166.666666666667,4,1,0,75,0,0
1134,400,4,1,0,75,1,8
1134,-156.25,4,1,0,75,0,0
1934,413.793103448276,4,1,0,75,1,0
1934,-151.041667925347,4,1,0,75,0,0
2347,468.75,4,1,0,75,1,8
2347,-133.333333333333,4,1,0,75,0,8
2815,555.555555555556,4,1,0,75,1,8
2815,-112.500112500112,4,1,0,75,0,0
3370,722.89156626506,4,1,0,75,1,8
3370,-86.4583337836371,4,1,0,75,0,0
4092,1224.48979591837,4,1,0,75,1,0
4092,-51.0416666684744,4,1,0,75,0,0
5316,1200,4,1,0,75,1,8
5316,-52.0833333333333,4,1,0,75,0,0
7716,625,4,1,0,75,1,0
14591,625,4,1,0,75,1,0
57062,-100,4,1,0,75,0,0
57218,-98.9399572975144,4,1,0,75,0,0
57530,-96.8857997389896,4,1,0,75,0,0
57687,-95.8904240945786,4,1,0,75,0,0
57843,-94.9152928468988,4,1,0,75,0,0
58155,-93.0232558139535,4,1,0,75,0,0
58312,-92.1052873961283,4,1,0,75,0,0
58468,-91.2051760761527,4,1,0,75,0,0
58624,-90.3225689906363,4,1,0,75,0,0
58937,-88.6076285851754,4,1,0,75,0,0
59591,250,3,1,0,75,1,0
59591,-117.647058823529,3,1,0,75,0,0
60341,250,4,1,0,75,1,1
60341,-111.111111111111,4,1,0,75,0,1
75841,-111.111111111111,4,1,0,75,0,0
76341,625,4,1,0,75,1,8
76341,-54.054054054054,4,1,0,75,0,0
76549,-55.5555555555556,4,1,0,75,0,0
76757,-57.1428571428571,4,1,0,75,0,0
76966,625,4,1,0,75,1,0
76966,-58.8235294117647,4,1,0,75,0,0
77550,-66.6666666666667,4,1,0,75,0,0
77966,-74.0740740740741,4,1,0,75,0,0
78175,-76.9230769230769,4,1,0,75,0,0
78800,-90.9090909090909,4,1,0,75,0,0
79216,-100,4,1,0,75,0,0
86966,193.548387096774,4,1,0,75,1,0
86966,-142.857142857143,4,1,0,75,0,1
89191,-142.857142857143,4,1,0,75,0,0
89288,468.75,4,1,0,75,1,8
89728,-71.4285714285714,4,1,0,75,0,0
90197,-76.9230769230769,4,1,0,75,0,0
90666,-83.3333333333333,4,1,0,75,0,0
91135,-90.9090909090909,4,1,0,75,0,0
91603,-105.263157894737,4,1,0,75,0,0
91916,-114.285714285714,4,1,0,75,0,0
92072,-117.647058823529,4,1,0,75,0,0
92541,-125,4,1,0,75,0,0
92853,-133.333333333333,4,1,0,75,0,0
98663,187.5,4,1,0,75,1,0
98663,-153.846153846154,4,1,0,75,0,1
100819,-153.846153846154,4,1,0,75,0,0
100913,187.5,4,1,0,75,1,8
101663,714.285714285714,4,1,0,75,1,0
101663,-100,4,1,0,75,0,0
102020,-90.7801830491611,4,1,0,75,0,0
102377,612.244897959184,4,1,0,75,1,8
102377,-96.9696969696969,4,1,0,75,0,0
102530,-93.0425938361142,4,1,0,75,0,0
102683,-89.4211234154577,4,1,0,75,0,0
102989,526.315789473684,4,1,0,75,1,8
102989,-96.5079365079365,4,1,0,75,0,0
103252,-90.0074317715244,4,1,0,75,0,0
103515,495.867768595041,4,1,0,75,1,8
103515,-89.5053166897827,4,1,0,75,0,0
103638,-86.7675200689688,4,1,0,75,0,0
103762,-84.1921910949544,4,1,0,75,0,0
104010,408.163265306122,4,1,0,75,1,0
104010,-96.551724137931,4,1,0,75,0,0
104112,-93.9203480312416,4,1,0,75,0,0
104214,-91.4285953119596,4,1,0,75,0,0
104418,361.44578313253,4,1,0,75,1,8
104418,-98.0435585086747,4,1,0,75,0,0
104598,-93.3403399315732,4,1,0,75,0,0
104779,315.789473684211,4,1,0,75,1,8
104779,-101.945003353454,4,1,0,75,0,0
105094,277.777777777778,4,1,0,75,1,8
105371,244.897959183673,4,1,0,75,1,1
105371,-111.111111111111,4,1,0,75,0,1
124962,214.285714285714,4,1,0,75,1,0
124962,-126.984126984127,4,1,0,75,0,1
125211,-125,4,1,0,75,0,1
125599,-123.456790123457,4,1,0,75,0,1
125800,-121.951219512195,4,1,0,75,0,1
127533,-121.951219512195,4,1,0,75,0,0

[HitObjects]
230,158,384,5,4,0:0:0:0:
219,153,1134,1,12,0:0:0:0:
219,153,1934,1,4,0:0:0:0:
256,192,2140,8,0,3851,0:0:0:0:
219,153,4092,5,4,0:0:0:0:
220,139,4857,1,0,0:0:0:0:
220,139,5010,1,8,0:0:0:0:
206,137,5163,1,0,0:0:0:0:
207,159,5316,1,8,0:0:0:0:
198,136,6516,1,8,0:0:0:0:
198,136,6816,1,8,0:0:0:0:
198,136,7716,1,0,0:0:0:0:
192,138,8028,1,0,0:0:0:0:
196,146,8184,1,0,0:0:0:0:
198,136,8341,1,8,0:0:0:0:
198,136,8653,1,8,0:0:0:0:
229,159,8809,1,8,0:0:0:0:
198,136,8966,1,0,0:0:0:0:
182,138,9434,1,0,0:0:0:0:
198,136,9591,1,8,0:0:0:0:
198,136,10216,1,4,0:0:0:0:
198,136,10841,1,12,0:0:0:0:
178,137,11153,1,8,0:0:0:0:
229,142,11257,1,8,0:0:0:0:
178,137,11361,1,8,0:0:0:0:
198,136,11466,1,0,0:0:0:0:
184,130,11778,1,0,0:0:0:0:
198,136,12091,1,8,0:0:0:0:
188,132,12559,1,8,0:0:0:0:
188,132,12716,1,8,0:0:0:0:
174,120,13028,1,0,0:0:0:0:
175,119,13341,1,0,0:0:0:0:
186,126,13809,1,0,0:0:0:0:
174,120,13966,1,8,0:0:0:0:
182,125,14122,1,8,0:0:0:0:
175,119,14278,1,0,0:0:0:0:
174,120,14591,1,0,0:0:0:0:
188,132,15059,1,0,0:0:0:0:
175,119,15216,1,0,0:0:0:0:
181,128,15528,1,8,0:0:0:0:
175,119,15841,1,0,0:0:0:0:
175,119,16153,1,8,0:0:0:0:
156,112,16309,1,0,0:0:0:0:
175,119,16466,1,0,0:0:0:0:
183,113,16622,1,0,0:0:0:0:
175,119,16778,1,8,0:0:0:0:
175,119,17091,1,0,0:0:0:0:
191,115,17559,1,8,0:0:0:0:
175,119,17716,1,0,0:0:0:0:
191,126,17872,1,0,0:0:0:0:
191,116,18028,1,8,0:0:0:0:
175,119,18341,1,0,0:0:0:0:
175,119,18653,1,0,0:0:0:0:
183,113,18809,1,0,0:0:0:0:
175,119,18966,1,8,0:0:0:0:
186,121,19122,1,8,0:0:0:0:
175,119,19278,1,0,0:0:0:0:
175,119,19591,1,4,0:0:0:0:
192,128,20059,1,0,0:0:0:0:
175,119,20216,1,8,0:0:0:0:
188,132,20528,1,8,0:0:0:0:
178,129,20684,1,0,0:0:0:0:
175,119,20841,1,0,0:0:0:0:
180,121,21153,1,8,0:0:0:0:
175,119,21466,1,8,0:0:0:0:
175,119,21778,1,8,0:0:0:0:
175,119,22091,1,0,0:0:0:0:
181,114,22247,1,8,0:0:0:0:
175,119,22403,1,0,0:0:0:0:
182,109,22559,1,0,0:0:0:0:
175,119,22716,1,8,0:0:0:0:
182,109,23028,1,8,0:0:0:0:
175,119,23341,1,0,0:0:0:0:
175,119,23653,1,8,0:0:0:0:
175,119,23809,1,8,0:0:0:0:
175,119,23966,1,0,0:0:0:0:
169,110,24122,1,0,0:0:0:0:
175,119,24278,1,8,0:0:0:0:
175,119,24591,1,0,0:0:0:0:
179,116,24747,1,0,0:0:0:0:
175,119,24903,1,0,0:0:0:0:
169,117,25059,1,0,0:0:0:0:
175,119,25216,1,8,0:0:0:0:
187,101,25684,1,0,0:0:0:0:
197,118,25841,1,0,0:0:0:0:
197,118,26153,1,8,0:0:0:0:
197,118,26466,1,8,0:0:0:0:
166,114,26622,1,0,0:0:0:0:
197,118,26778,1,0,0:0:0:0:
197,118,27091,1,8,0:0:0:0:
197,118,27403,1,0,0:0:0:0:
197,118,27716,1,8,0:0:0:0:
197,118,27872,1,8,0:0:0:0:
197,118,28028,1,0,0:0:0:0:
197,118,28184,1,0,0:0:0:0:
197,118,28341,1,8,0:0:0:0:
188,122,28653,1,0,0:0:0:0:
188,122,28966,1,8,0:0:0:0:
192,128,29122,1,0,0:0:0:0:
188,122,29278,1,0,0:0:0:0:
197,118,29591,1,4,0:0:0:0:
185,105,30059,1,0,0:0:0:0:
197,118,30216,1,8,0:0:0:0:
197,118,30528,1,8,0:0:0:0:
192,111,30684,1,0,0:0:0:0:
197,118,30841,1,0,0:0:0:0:
197,118,31153,1,0,0:0:0:0:
197,118,31466,1,8,0:0:0:0:
197,118,31778,1,8,0:0:0:0:
192,111,31934,1,8,0:0:0:0:
197,118,32091,1,0,0:0:0:0:
197,118,32403,1,0,0:0:0:0:
197,118,32716,1,8,0:0:0:0:
188,99,33028,1,0,0:0:0:0:
185,105,33184,1,8,0:0:0:0:
197,118,33341,1,0,0:0:0:0:
197,118,33653,1,0,0:0:0:0:
192,128,33809,1,0,0:0:0:0:
197,118,33966,1,8,0:0:0:0:
197,118,34278,1,0,0:0:0:0:
197,118,34591,1,8,0:0:0:0:
197,118,34903,1,8,0:0:0:0:
197,118,35216,1,0,0:0:0:0:
186,127,35372,1,0,0:0:0:0:
197,118,35528,1,0,0:0:0:0:
197,118,35841,1,8,0:0:0:0:
196,117,36309,1,0,0:0:0:0:
192,111,36466,1,8,0:0:0:0:
197,118,36778,1,0,0:0:0:0:
197,118,37091,1,8,0:0:0:0:
197,118,37403,1,0,0:0:0:0:
197,118,37559,1,8,0:0:0:0:
197,118,37716,1,0,0:0:0:0:
192,128,37872,1,8,0:0:0:0:
197,118,38028,1,0,0:0:0:0:
197,118,38341,1,12,0:0:0:0:
184,110,38966,1,8,0:0:0:0:
184,110,39122,1,8,0:0:0:0:
184,110,39278,1,0,0:0:0:0:
197,118,39591,1,4,0:0:0:0:
197,118,39903,1,8,0:0:0:0:
197,118,40372,1,8,0:0:0:0:
197,118,40841,1,8,0:0:0:0:
197,118,41153,1,0,0:0:0:0:
195,141,41309,1,0,0:0:0:0:
197,118,41466,1,8,0:0:0:0:
197,118,41778,1,8,0:0:0:0:
197,118,42091,1,0,0:0:0:0:
197,118,42403,1,8,0:0:0:0:
197,118,42716,1,8,0:0:0:0:
197,118,42872,1,0,0:0:0:0:
197,118,43184,1,0,0:0:0:0:
197,118,43341,1,8,0:0:0:0:
198,125,43653,1,0,0:0:0:0:
191,116,43809,1,0,0:0:0:0:
197,118,43966,1,8,0:0:0:0:
197,118,44591,1,4,0:0:0:0:
197,118,44903,1,8,0:0:0:0:
189,108,45059,1,8,0:0:0:0:
197,118,45216,1,0,0:0:0:0:
197,118,45372,1,0,0:0:0:0:
197,118,45528,1,8,0:0:0:0:
197,118,45841,1,0,0:0:0:0:
210,115,46153,1,8,0:0:0:0:
189,108,46309,1,0,0:0:0:0:
197,118,46466,1,8,0:0:0:0:
192,128,46778,1,8,0:0:0:0:
197,118,47091,1,0,0:0:0:0:
197,118,47403,1,8,0:0:0:0:
197,118,47559,1,0,0:0:0:0:
197,118,47716,1,8,0:0:0:0:
201,115,47872,1,8,0:0:0:0:
197,118,48028,1,0,0:0:0:0:
186,119,48184,1,0,0:0:0:0:
197,118,48341,1,8,0:0:0:0:
188,131,48653,1,0,0:0:0:0:
189,119,48809,1,0,0:0:0:0:
197,118,48966,1,8,0:0:0:0:
197,118,49591,1,4,0:0:0:0:
197,118,50059,1,8,0:0:0:0:
197,118,50216,1,8,0:0:0:0:
191,115,50528,1,0,0:0:0:0:
197,118,50841,1,0,0:0:0:0:
197,118,50997,1,8,0:0:0:0:
197,118,51153,1,0,0:0:0:0:
197,118,51466,1,8,0:0:0:0:
197,118,51622,1,8,0:0:0:0:
197,118,51934,1,0,0:0:0:0:
197,118,52091,1,0,0:0:0:0:
201,121,52403,1,0,0:0:0:0:
201,121,52559,1,0,0:0:0:0:
197,118,52716,1,8,0:0:0:0:
203,125,53028,1,0,0:0:0:0:
195,116,53184,1,8,0:0:0:0:
197,118,53341,1,0,0:0:0:0:
190,124,53653,1,0,0:0:0:0:
190,124,53809,1,0,0:0:0:0:
197,118,53966,1,8,0:0:0:0:
187,117,54122,1,0,0:0:0:0:
190,124,54278,1,8,0:0:0:0:
190,124,54591,1,4,0:0:0:0:
190,123,55841,1,0,0:0:0:0:
190,123,55997,1,8,0:0:0:0:
190,123,56153,1,0,0:0:0:0:
190,123,56466,1,8,0:0:0:0:
187,117,56622,1,0,0:0:0:0:
190,123,56778,1,0,0:0:0:0:
190,123,57091,1,0,0:0:0:0:
190,123,57247,1,8,0:0:0:0:
190,123,57559,1,8,0:0:0:0:
190,123,57716,1,0,0:0:0:0:
190,123,57872,1,8,0:0:0:0:
190,123,58184,1,8,0:0:0:0:
190,123,58341,1,0,0:0:0:0:
183,131,58497,1,0,0:0:0:0:
190,123,58653,1,8,0:0:0:0:
190,123,58966,1,4,0:0:0:0:
172,141,59591,2,0,P|155:142|128:167,8,29.7500005674362
224,132,60341,1,0,0:0:0:0:
224,132,60466,1,8,0:0:0:0:
224,132,60716,1,8,0:0:0:0:
224,132,60966,1,0,0:0:0:0:
224,132,61216,1,8,0:0:0:0:
224,132,61341,1,8,0:0:0:0:
224,132,61466,1,0,0:0:0:0:
224,132,61716,1,0,0:0:0:0:
224,132,61841,1,8,0:0:0:0:
224,132,62341,1,0,0:0:0:0:
231,126,62403,1,0,0:0:0:0:
224,132,62466,1,0,0:0:0:0:
224,132,62591,1,8,0:0:0:0:
224,132,62716,1,8,0:0:0:0:
224,132,62841,1,0,0:0:0:0:
215,118,62966,1,0,0:0:0:0:
224,132,63091,1,8,0:0:0:0:
224,132,63341,1,8,0:0:0:0:
224,132,63466,1,8,0:0:0:0:
224,132,63716,1,0,0:0:0:0:
224,132,63841,1,0,0:0:0:0:
224,132,64341,1,8,0:0:0:0:
224,132,64466,1,8,0:0:0:0:
224,132,64591,1,0,0:0:0:0:
234,127,64653,1,0,0:0:0:0:
224,132,64716,1,0,0:0:0:0:
224,132,64841,1,8,0:0:0:0:
221,139,64966,1,0,0:0:0:0:
224,132,65091,1,8,0:0:0:0:
224,132,65341,1,0,0:0:0:0:
222,140,65466,1,0,0:0:0:0:
224,132,65591,1,8,0:0:0:0:
233,126,65653,1,8,0:0:0:0:
224,132,65716,1,8,0:0:0:0:
224,132,65841,1,0,0:0:0:0:
221,139,65966,1,8,0:0:0:0:
224,132,66091,1,0,0:0:0:0:
224,132,66341,1,8,0:0:0:0:
218,128,66466,1,0,0:0:0:0:
224,132,66591,1,0,0:0:0:0:
224,132,66716,1,0,0:0:0:0:
224,132,66841,1,8,0:0:0:0:
221,139,66903,1,8,0:0:0:0:
221,139,66966,1,8,0:0:0:0:
224,132,67091,1,0,0:0:0:0:
224,132,67341,1,8,0:0:0:0:
224,132,67466,1,0,0:0:0:0:
224,132,67716,1,0,0:0:0:0:
224,132,67841,1,8,0:0:0:0:
224,132,68341,1,0,0:0:0:0:
228,150,68466,1,0,0:0:0:0:
224,132,68591,1,8,0:0:0:0:
215,128,68716,1,8,0:0:0:0:
224,132,68841,1,0,0:0:0:0:
228,150,68966,1,0,0:0:0:0:
224,132,69091,1,8,0:0:0:0:
224,132,69341,1,0,0:0:0:0:
224,128,69403,1,0,0:0:0:0:
218,138,69466,1,0,0:0:0:0:
224,132,69591,1,0,0:0:0:0:
229,147,69716,1,0,0:0:0:0:
224,132,69841,1,8,0:0:0:0:
224,132,70341,1,8,0:0:0:0:
229,147,70466,1,8,0:0:0:0:
224,132,70591,1,0,0:0:0:0:
223,139,70716,1,0,0:0:0:0:
224,132,70841,1,8,0:0:0:0:
229,147,70966,1,8,0:0:0:0:
224,132,71091,1,0,0:0:0:0:
224,132,71341,1,8,0:0:0:0:
224,128,71403,1,8,0:0:0:0:
218,138,71466,1,8,0:0:0:0:
224,132,71591,1,8,0:0:0:0:
203,146,71716,1,8,0:0:0:0:
224,132,71841,1,0,0:0:0:0:
224,132,72341,1,8,0:0:0:0:
224,132,72591,1,8,0:0:0:0:
210,138,72716,1,0,0:0:0:0:
224,132,72841,1,8,0:0:0:0:
217,134,72966,1,0,0:0:0:0:
224,132,73091,1,8,0:0:0:0:
224,132,73341,1,0,0:0:0:0:
224,132,73591,1,0,0:0:0:0:
210,138,73716,1,8,0:0:0:0:
224,132,73841,1,0,0:0:0:0:
217,134,73966,1,8,0:0:0:0:
224,132,74091,1,0,0:0:0:0:
224,132,74341,1,8,0:0:0:0:
222,139,74466,1,0,0:0:0:0:
224,132,74591,1,8,0:0:0:0:
223,136,74653,1,8,0:0:0:0:
224,139,74716,1,8,0:0:0:0:
224,132,74841,1,0,0:0:0:0:
217,134,74966,1,8,0:0:0:0:
224,132,75091,1,0,0:0:0:0:
224,132,75341,1,8,0:0:0:0:
217,134,75466,1,0,0:0:0:0:
217,134,75716,1,0,0:0:0:0:
224,132,75841,1,12,0:0:0:0:
214,148,76341,1,0,0:0:0:0:
234,150,76549,1,8,0:0:0:0:
203,145,76757,1,8,0:0:0:0:
224,130,76966,1,4,0:0:0:0:
224,130,77591,1,8,0:0:0:0:
211,132,78007,1,0,0:0:0:0:
213,134,78216,1,0,0:0:0:0:
213,134,78841,1,8,0:0:0:0:
214,140,79257,1,0,0:0:0:0:
213,134,79466,1,8,0:0:0:0:
214,140,80091,1,0,0:0:0:0:
214,140,80507,1,8,0:0:0:0:
214,140,80716,1,0,0:0:0:0:
216,151,81601,1,8,0:0:0:0:
215,140,81966,1,8,0:0:0:0:
215,140,82591,1,0,0:0:0:0:
215,140,83059,1,8,0:0:0:0:
215,140,83216,1,0,0:0:0:0:
219,136,83528,1,0,0:0:0:0:
220,136,83841,1,8,0:0:0:0:
217,135,84153,1,0,0:0:0:0:
219,136,84466,1,8,0:0:0:0:
217,135,85091,1,0,0:0:0:0:
217,135,85507,1,8,0:0:0:0:
217,135,85716,1,12,0:0:0:0:
224,145,86966,1,12,0:0:0:0:
224,145,87256,1,0,0:0:0:0:
224,145,87353,1,0,0:0:0:0:
224,145,87546,1,0,0:0:0:0:
224,145,87740,1,8,0:0:0:0:
224,145,87933,1,0,0:0:0:0:
224,145,88127,1,8,0:0:0:0:
224,145,88321,1,0,0:0:0:0:
222,140,88417,1,0,0:0:0:0:
224,145,88514,1,0,0:0:0:0:
224,145,88708,1,8,0:0:0:0:
224,145,88901,1,0,0:0:0:0:
224,145,89095,1,8,0:0:0:0:
224,145,89192,1,8,0:0:0:0:
216,151,89756,1,0,0:0:0:0:
216,151,90225,1,8,0:0:0:0:
216,151,90694,1,8,0:0:0:0:
216,151,91163,1,4,0:0:0:0:
224,146,91631,1,8,0:0:0:0:
188,157,91944,1,0,0:0:0:0:
223,147,92100,1,0,0:0:0:0:
223,147,92569,1,8,0:0:0:0:
194,159,92881,1,0,0:0:0:0:
194,159,93038,1,8,0:0:0:0:
190,162,93506,1,0,0:0:0:0:
190,162,93819,1,8,0:0:0:0:
190,162,93975,1,0,0:0:0:0:
166,173,94649,1,8,0:0:0:0:
195,164,94913,1,8,0:0:0:0:
207,154,95381,1,0,0:0:0:0:
223,158,95694,1,8,0:0:0:0:
237,147,95850,1,0,0:0:0:0:
208,172,96084,1,0,0:0:0:0:
208,172,96319,1,8,0:0:0:0:
212,172,96553,1,0,0:0:0:0:
213,172,96788,1,8,0:0:0:0:
213,172,97256,1,0,0:0:0:0:
229,165,97569,1,8,0:0:0:0:
213,172,97725,1,12,0:0:0:0:
213,172,98663,1,4,0:0:0:0:
213,172,98850,1,8,0:0:0:0:
215,159,99038,1,0,0:0:0:0:
217,147,99132,1,0,0:0:0:0:
215,160,99225,1,0,0:0:0:0:
215,160,99413,1,8,0:0:0:0:
215,160,99600,1,8,0:0:0:0:
192,161,99694,1,8,0:0:0:0:
215,160,99788,1,8,0:0:0:0:
215,159,99975,1,0,0:0:0:0:
215,160,100163,1,8,0:0:0:0:
215,160,100350,1,0,0:0:0:0:
215,160,100538,1,8,0:0:0:0:
215,160,100725,1,0,0:0:0:0:
215,160,100819,1,0,0:0:0:0:
230,160,101663,1,0,0:0:0:0:
226,150,102020,1,0,0:0:0:0:
230,160,102377,1,8,0:0:0:0:
235,151,102530,1,8,0:0:0:0:
219,166,102683,1,8,0:0:0:0:
230,160,102989,1,0,0:0:0:0:
209,157,103252,1,0,0:0:0:0:
230,160,103515,1,8,0:0:0:0:
235,151,103638,1,8,0:0:0:0:
218,166,103762,1,8,0:0:0:0:
230,160,104010,1,0,0:0:0:0:
240,156,104112,1,0,0:0:0:0:
230,160,104214,1,0,0:0:0:0:
230,160,104418,1,8,0:0:0:0:
230,160,104598,1,0,0:0:0:0:
230,160,104779,1,8,0:0:0:0:
230,160,105371,1,0,0:0:0:0:
221,163,105432,1,0,0:0:0:0:
235,157,105493,1,0,0:0:0:0:
230,160,105615,1,8,0:0:0:0:
235,157,105737,1,8,0:0:0:0:
230,160,105860,1,0,0:0:0:0:
235,150,105982,1,0,0:0:0:0:
230,160,106105,1,8,0:0:0:0:
230,160,106350,1,0,0:0:0:0:
228,149,106411,1,0,0:0:0:0:
235,157,106472,1,0,0:0:0:0:
230,160,106595,1,8,0:0:0:0:
235,150,106717,1,8,0:0:0:0:
230,160,106840,1,0,0:0:0:0:
230,160,107329,1,8,0:0:0:0:
235,157,107452,1,0,0:0:0:0:
230,160,107574,1,8,0:0:0:0:
229,146,107697,1,0,0:0:0:0:
235,150,107819,1,8,0:0:0:0:
224,160,107880,1,8,0:0:0:0:
235,150,107942,1,8,0:0:0:0:
230,160,108064,1,8,0:0:0:0:
230,160,108309,1,0,0:0:0:0:
235,157,108431,1,8,0:0:0:0:
230,160,108554,1,0,0:0:0:0:
238,164,108676,1,8,0:0:0:0:
230,160,108799,1,0,0:0:0:0:
224,160,108860,1,0,0:0:0:0:
235,150,108921,1,0,0:0:0:0:
230,160,109044,1,0,0:0:0:0:
230,160,109288,1,0,0:0:0:0:
224,160,109350,1,0,0:0:0:0:
235,157,109411,1,0,0:0:0:0:
230,160,109533,1,8,0:0:0:0:
236,155,109656,1,8,0:0:0:0:
230,160,109778,1,0,0:0:0:0:
235,150,109901,1,8,0:0:0:0:
230,160,110023,1,8,0:0:0:0:
230,160,110268,1,4,0:0:0:0:
235,148,110391,1,8,0:0:0:0:
235,148,110635,1,8,0:0:0:0:
235,150,110880,1,8,0:0:0:0:
235,148,111125,1,0,0:0:0:0:
235,148,111248,1,8,0:0:0:0:
235,148,111370,1,8,0:0:0:0:
235,148,111615,1,0,0:0:0:0:
235,150,111737,1,0,0:0:0:0:
235,148,112227,1,0,0:0:0:0:
224,128,112288,1,0,0:0:0:0:
245,150,112350,1,0,0:0:0:0:
235,148,112472,1,8,0:0:0:0:
235,148,112595,1,8,0:0:0:0:
235,150,112717,1,0,0:0:0:0:
235,148,112839,1,0,0:0:0:0:
235,148,112962,1,8,0:0:0:0:
235,148,113207,1,8,0:0:0:0:
235,148,113329,1,8,0:0:0:0:
235,150,113574,1,0,0:0:0:0:
235,150,113697,1,0,0:0:0:0:
235,148,114186,1,8,0:0:0:0:
235,148,114309,1,0,0:0:0:0:
235,150,114431,1,8,0:0:0:0:
235,150,114554,1,8,0:0:0:0:
235,150,114676,1,0,0:0:0:0:
235,150,114737,1,0,0:0:0:0:
235,148,114799,1,0,0:0:0:0:
235,148,114921,1,8,0:0:0:0:
235,148,115166,1,0,0:0:0:0:
236,136,115288,1,8,0:0:0:0:
235,150,115411,1,0,0:0:0:0:
236,136,115533,1,0,0:0:0:0:
235,150,115656,1,8,0:0:0:0:
235,150,115717,1,8,0:0:0:0:
235,150,115778,1,8,0:0:0:0:
235,148,115901,1,0,0:0:0:0:
235,148,116146,1,8,0:0:0:0:
229,135,116268,1,0,0:0:0:0:
235,150,116391,1,8,0:0:0:0:
236,136,116513,1,0,0:0:0:0:
235,150,116635,1,8,0:0:0:0:
224,128,116697,1,8,0:0:0:0:
235,150,116758,1,8,0:0:0:0:
235,148,116880,1,0,0:0:0:0:
235,148,117125,1,0,0:0:0:0:
235,148,117248,1,0,0:0:0:0:
235,150,117493,1,8,0:0:0:0:
235,150,117615,1,8,0:0:0:0:
224,166,117860,1,0,0:0:0:0:
224,167,117982,1,8,0:0:0:0:
220,148,118105,1,4,0:0:0:0:
220,148,118227,1,8,0:0:0:0:
220,148,118472,1,8,0:0:0:0:
220,148,118717,1,8,0:0:0:0:
220,148,118962,1,0,0:0:0:0:
220,148,119084,1,8,0:0:0:0:
220,148,119207,1,8,0:0:0:0:
220,148,119452,1,0,0:0:0:0:
220,148,119574,1,0,0:0:0:0:
240,164,120064,1,0,0:0:0:0:
224,160,120186,1,8,0:0:0:0:
226,162,120309,1,8,0:0:0:0:
224,160,120431,1,8,0:0:0:0:
231,156,120554,1,0,0:0:0:0:
224,160,120615,1,0,0:0:0:0:
232,155,120676,1,0,0:0:0:0:
225,161,120799,1,8,0:0:0:0:
225,161,121044,1,8,0:0:0:0:
226,162,121166,1,8,0:0:0:0:
231,156,121411,1,0,0:0:0:0:
231,156,121533,1,0,0:0:0:0:
233,155,122023,1,8,0:0:0:0:
224,160,122146,1,8,0:0:0:0:
231,156,122268,1,0,0:0:0:0:
231,156,122391,1,8,0:0:0:0:
231,156,122513,1,0,0:0:0:0:
231,156,122574,1,0,0:0:0:0:
233,155,122635,1,0,0:0:0:0:
233,155,122758,1,8,0:0:0:0:
233,155,123003,1,0,0:0:0:0:
256,160,123125,1,0,0:0:0:0:
231,156,123248,1,8,0:0:0:0:
224,160,123370,1,0,0:0:0:0:
231,156,123493,1,8,0:0:0:0:
231,156,123554,1,8,0:0:0:0:
233,155,123615,1,8,0:0:0:0:
233,155,123737,1,0,0:0:0:0:
233,155,123983,1,8,0:0:0:0:
256,160,124105,1,0,0:0:0:0:
231,156,124227,1,8,0:0:0:0:
231,156,124350,1,0,0:0:0:0:
231,156,124473,1,8,0:0:0:0:
256,160,124534,1,8,0:0:0:0:
233,155,124595,1,8,0:0:0:0:
233,155,124717,1,0,0:0:0:0:
256,160,124840,1,0,0:0:0:0:
233,155,124962,1,12,0:0:0:0:
217,152,125283,1,8,0:0:0:0:
231,156,125390,1,8,0:0:0:0:
221,155,125604,1,0,0:0:0:0:
233,155,125818,1,12,0:0:0:0:
231,156,126033,1,0,0:0:0:0:
233,155,126140,1,0,0:0:0:0:
231,156,126247,1,8,0:0:0:0:
222,155,126354,1,8,0:0:0:0:
231,156,126461,1,0,0:0:0:0:
224,160,126568,1,0,0:0:0:0:
233,155,126676,1,12,0:0:0:0:
213,164,126890,1,0,0:0:0:0:
224,160,126997,1,0,0:0:0:0:
214,163,127104,1,12,0:0:0:0:
214,162,127318,1,8,0:0:0:0:
224,160,127426,1,8,0:0:0:0:
219,156,127533,1,4,0:0:0:0:
155,146,127961,1,8,0:0:0:0:
155,146,128390,1,8,0:0:0:0:
