osu file format v14

[General]
AudioFilename: audio.mp3
AudioLeadIn: 0
PreviewTime: 60278
Countdown: 0
SampleSet: Normal
StackLeniency: 0.7
Mode: 1
LetterboxInBreaks: 0
WidescreenStoryboard: 1

[Editor]
DistanceSpacing: 1.4
BeatDivisor: 6
GridSize: 4
TimelineZoom: 0.9384019

[Metadata]
Title:Charlie Dash!
TitleUnicode:チャーリー ダッシュ!
Artist:Katsuro Tajima
ArtistUnicode:田島勝朗
Creator:Midnaait
Version:Futsuu!
Source:太鼓の達人
Tags:BNSI Taiko no Tatsujin Vバージョン オリジナルサウンドトラック ベビーカステラ Csárdás Czardas Vittorio Monti Classical Arrangement Videogame Instrumental komasy
BeatmapID:2298699
BeatmapSetID:1100294

[Difficulty]
HPDrainRate:7
CircleSize:5
OverallDifficulty:4.5
ApproachRate:5
SliderMultiplier:1.4
SliderTickRate:1

[Events]
//Background and Video events
0,0,"bg.jpg",0,0
//Break Periods
//Storyboard Layer 0 (Background)
//Storyboard Layer 1 (Fail)
//Storyboard Layer 2 (Pass)
//Storyboard Layer 3 (Foreground)
//Storyboard Layer 4 (Overlay)
//Storyboard Sound Samples

[TimingPoints]
384,375,4,1,0,75,1,0
384,-166.666666666667,4,1,0,75,0,0
1134,400,4,1,0,75,1,8
1134,-156.25,4,1,0,75,0,0
1934,413.793103448276,4,1,0,75,1,0
1934,-151.041667925347,4,1,0,75,0,0
2347,468.75,4,1,0,75,1,8
2347,-133.333333333333,4,1,0,75,0,8
2815,555.555555555556,4,1,0,75,1,8
2815,-112.500112500112,4,1,0,75,0,0
3370,722.89156626506,4,1,0,75,1,8
3370,-86.4583337836371,4,1,0,75,0,0
4092,1224.48979591837,4,1,0,75,1,0
4092,-51.0416666684744,4,1,0,75,0,0
5316,1200,4,1,0,75,1,8
5316,-52.0833333333333,4,1,0,75,0,0
7716,625,4,1,0,75,1,0
14591,625,4,1,0,75,1,0
57062,-100,4,1,0,75,0,0
57218,-98.9399572975144,4,1,0,75,0,0
57687,-95.8904240945786,4,1,0,75,0,0
57843,-94.9152928468988,4,1,0,75,0,0
58155,-93.0232558139535,4,1,0,75,0,0
58312,-92.1052873961283,4,1,0,75,0,0
58624,-90.3225689906363,4,1,0,75,0,0
58937,-88.6076285851754,4,1,0,75,0,0
59591,250,3,1,0,75,1,0
59591,-133.333333333333,3,1,0,75,0,0
60341,250,4,1,0,75,1,1
60341,-121.212121212121,4,1,0,75,0,1
75841,-121.212121212121,4,1,0,75,0,0
76341,625,4,1,0,75,1,8
76966,625,4,1,0,75,1,0
76966,-66.6666666666667,4,1,0,75,0,0
78175,-80,4,1,0,75,0,0
79216,-100,4,1,0,75,0,0
86966,193.548387096774,4,1,0,75,1,0
86966,-150.15015015015,4,1,0,75,0,1
89191,-150.15015015015,4,1,0,75,0,0
89288,468.75,4,1,0,75,1,8
91135,-95.2380952380952,4,1,0,75,0,0
92072,-111.111111111111,4,1,0,75,0,0
92853,-133.333333333333,4,1,0,75,0,0
98663,187.5,4,1,0,75,1,0
98663,-180.18018018018,4,1,0,75,0,1
100819,-180.18018018018,4,1,0,75,0,0
100913,187.5,4,1,0,75,1,8
101663,714.285714285714,4,1,0,75,1,0
101663,-100,4,1,0,75,0,0
102020,-91.9209737004902,4,1,0,75,0,0
102377,612.244897959184,4,1,0,75,1,8
102377,-99.2248272991881,4,1,0,75,0,0
102989,526.315789473684,4,1,0,75,1,8
102989,-100.412919062748,4,1,0,75,0,0
103252,-94.2818457527169,4,1,0,75,0,0
103515,495.867768595041,4,1,0,75,1,8
103515,-94.3124921744014,4,1,0,75,0,0
104010,408.163265306122,4,1,0,75,1,0
104010,-102.752293577982,4,1,0,75,0,0
104418,361.44578313253,4,1,0,75,1,8
104418,-105.177719172246,4,1,0,75,0,0
104598,-100.477602731267,4,1,0,75,0,0
104779,315.789473684211,4,1,0,75,1,8
104779,-110.085071889492,4,1,0,75,0,0
105094,277.777777777778,4,1,0,75,1,8
105371,244.897959183673,4,1,0,75,1,1
105371,-121.212121212121,4,1,0,75,0,1
124962,214.285714285714,4,1,0,75,1,0
124962,-138.528138528139,4,1,0,75,0,1
125211,-136.986301369863,4,1,0,75,0,1
125599,-135.135135135135,4,1,0,75,0,1
125800,-133.333333333333,4,1,0,75,0,1
127533,-133.333333333333,4,1,0,75,0,0

[HitObjects]
230,158,384,5,4,0:0:0:0:
219,153,1134,1,12,0:0:0:0:
219,153,1934,1,4,0:0:0:0:
256,192,2140,8,0,3851,0:0:0:0:
219,153,4092,5,4,0:0:0:0:
220,139,5010,1,0,0:0:0:0:
207,159,5316,1,0,0:0:0:0:
198,136,6516,1,8,0:0:0:0:
198,136,6816,1,8,0:0:0:0:
198,136,7716,1,0,0:0:0:0:
192,138,8028,1,0,0:0:0:0:
198,136,8341,1,8,0:0:0:0:
198,136,8653,1,8,0:0:0:0:
198,136,8966,1,0,0:0:0:0:
198,136,9591,1,8,0:0:0:0:
198,136,10216,1,4,0:0:0:0:
198,136,10841,1,12,0:0:0:0:
198,136,11466,1,0,0:0:0:0:
198,136,11778,1,8,0:0:0:0:
198,136,12091,1,0,0:0:0:0:
188,132,12559,1,8,0:0:0:0:
188,132,12716,1,8,0:0:0:0:
174,120,13028,1,0,0:0:0:0:
175,119,13341,1,0,0:0:0:0:
182,125,13809,1,0,0:0:0:0:
174,120,13966,1,0,0:0:0:0:
175,119,14278,1,8,0:0:0:0:
174,120,14591,1,0,0:0:0:0:
175,119,15216,1,0,0:0:0:0:
181,128,15528,1,8,0:0:0:0:
175,119,15841,1,0,0:0:0:0:
175,119,16153,1,8,0:0:0:0:
156,112,16309,1,0,0:0:0:0:
175,119,16466,1,0,0:0:0:0:
175,119,16778,1,8,0:0:0:0:
175,119,17091,1,0,0:0:0:0:
175,119,17716,1,0,0:0:0:0:
191,116,18028,1,8,0:0:0:0:
175,119,18341,1,0,0:0:0:0:
175,119,18653,1,0,0:0:0:0:
175,119,18966,1,8,0:0:0:0:
186,121,19122,1,8,0:0:0:0:
175,119,19278,1,8,0:0:0:0:
175,119,19591,1,4,0:0:0:0:
175,119,20216,1,8,0:0:0:0:
188,132,20528,1,8,0:0:0:0:
178,129,20684,1,0,0:0:0:0:
175,119,20841,1,0,0:0:0:0:
180,121,21153,1,8,0:0:0:0:
175,119,21466,1,8,0:0:0:0:
175,119,21778,1,8,0:0:0:0:
175,119,22091,1,0,0:0:0:0:
181,114,22247,1,0,0:0:0:0:
175,119,22403,1,0,0:0:0:0:
175,119,22716,1,8,0:0:0:0:
175,119,23341,1,0,0:0:0:0:
175,119,23653,1,8,0:0:0:0:
175,119,23809,1,8,0:0:0:0:
175,119,23966,1,0,0:0:0:0:
175,119,24278,1,8,0:0:0:0:
175,119,24591,1,0,0:0:0:0:
175,119,24903,1,0,0:0:0:0:
169,117,25059,1,0,0:0:0:0:
175,119,25216,1,8,0:0:0:0:
197,118,25841,1,0,0:0:0:0:
197,118,26153,1,8,0:0:0:0:
197,118,26466,1,8,0:0:0:0:
166,114,26622,1,0,0:0:0:0:
197,118,26778,1,0,0:0:0:0:
197,118,27091,1,8,0:0:0:0:
197,118,27403,1,0,0:0:0:0:
197,118,27716,1,8,0:0:0:0:
197,118,27872,1,8,0:0:0:0:
197,118,28028,1,0,0:0:0:0:
197,118,28184,1,0,0:0:0:0:
197,118,28341,1,8,0:0:0:0:
188,122,28966,1,8,0:0:0:0:
188,122,29278,1,0,0:0:0:0:
197,118,29591,1,4,0:0:0:0:
197,118,30216,1,8,0:0:0:0:
192,111,30684,1,0,0:0:0:0:
197,118,30841,1,0,0:0:0:0:
197,118,31153,1,8,0:0:0:0:
197,118,31466,1,8,0:0:0:0:
197,118,31778,1,8,0:0:0:0:
192,111,31934,1,8,0:0:0:0:
197,118,32091,1,0,0:0:0:0:
197,118,32403,1,0,0:0:0:0:
197,118,32716,1,8,0:0:0:0:
197,118,33341,1,0,0:0:0:0:
197,118,33653,1,8,0:0:0:0:
197,118,33966,1,8,0:0:0:0:
197,118,34278,1,0,0:0:0:0:
197,118,34591,1,8,0:0:0:0:
197,118,34903,1,8,0:0:0:0:
197,118,35216,1,0,0:0:0:0:
186,127,35372,1,0,0:0:0:0:
197,118,35528,1,0,0:0:0:0:
197,118,35841,1,8,0:0:0:0:
192,111,36466,1,8,0:0:0:0:
197,118,36778,1,0,0:0:0:0:
197,118,37091,1,8,0:0:0:0:
197,118,37403,1,0,0:0:0:0:
197,118,37559,1,8,0:0:0:0:
197,118,37716,1,0,0:0:0:0:
197,118,38028,1,0,0:0:0:0:
197,118,38341,1,12,0:0:0:0:
197,118,39591,1,4,0:0:0:0:
197,118,39903,1,8,0:0:0:0:
197,118,40372,1,8,0:0:0:0:
197,118,40841,1,8,0:0:0:0:
197,118,41153,1,0,0:0:0:0:
195,141,41309,1,0,0:0:0:0:
197,118,41466,1,8,0:0:0:0:
197,118,41778,1,8,0:0:0:0:
197,118,42091,1,0,0:0:0:0:
197,118,42403,1,0,0:0:0:0:
197,118,42716,1,8,0:0:0:0:
197,118,42872,1,8,0:0:0:0:
197,118,43184,1,0,0:0:0:0:
197,118,43341,1,0,0:0:0:0:
198,125,43653,1,0,0:0:0:0:
191,116,43809,1,0,0:0:0:0:
197,118,43966,1,8,0:0:0:0:
197,118,44278,1,8,0:0:0:0:
197,118,44591,1,4,0:0:0:0:
197,118,44903,1,8,0:0:0:0:
197,118,45216,1,8,0:0:0:0:
197,118,45372,1,8,0:0:0:0:
197,118,45528,1,8,0:0:0:0:
197,118,45841,1,0,0:0:0:0:
210,115,46153,1,8,0:0:0:0:
197,118,46466,1,8,0:0:0:0:
197,118,47091,1,0,0:0:0:0:
197,118,47403,1,8,0:0:0:0:
197,118,47559,1,8,0:0:0:0:
197,118,47716,1,8,0:0:0:0:
197,118,48028,1,0,0:0:0:0:
189,119,48184,1,0,0:0:0:0:
197,118,48341,1,8,0:0:0:0:
188,131,48653,1,0,0:0:0:0:
197,118,48966,1,8,0:0:0:0:
197,118,49591,1,4,0:0:0:0:
197,118,50059,1,8,0:0:0:0:
197,118,50216,1,8,0:0:0:0:
191,115,50528,1,0,0:0:0:0:
197,118,50841,1,8,0:0:0:0:
197,118,50997,1,8,0:0:0:0:
197,118,51153,1,8,0:0:0:0:
197,118,51466,1,8,0:0:0:0:
197,118,51622,1,8,0:0:0:0:
197,118,51934,1,0,0:0:0:0:
197,118,52091,1,0,0:0:0:0:
201,121,52403,1,0,0:0:0:0:
201,121,52559,1,8,0:0:0:0:
197,118,52716,1,0,0:0:0:0:
190,124,53653,1,0,0:0:0:0:
190,124,53809,1,0,0:0:0:0:
197,118,53966,1,8,0:0:0:0:
190,124,54278,1,8,0:0:0:0:
190,124,54591,1,4,0:0:0:0:
190,123,55841,1,0,0:0:0:0:
190,123,55997,1,8,0:0:0:0:
190,123,56153,1,0,0:0:0:0:
190,123,56466,1,8,0:0:0:0:
190,123,56622,1,0,0:0:0:0:
190,123,56778,1,0,0:0:0:0:
190,123,57091,1,0,0:0:0:0:
190,123,57403,1,8,0:0:0:0:
190,123,57716,1,0,0:0:0:0:
190,123,57872,1,8,0:0:0:0:
190,123,58184,1,8,0:0:0:0:
190,123,58341,1,0,0:0:0:0:
190,123,58653,1,8,0:0:0:0:
190,123,58966,1,4,0:0:0:0:
167,122,59591,2,0,P|148:121|127:138,8,26.2500010013581
224,132,60341,1,0,0:0:0:0:
224,132,60466,1,8,0:0:0:0:
224,132,60716,1,8,0:0:0:0:
224,132,60966,1,0,0:0:0:0:
224,132,61216,1,8,0:0:0:0:
224,132,61341,1,8,0:0:0:0:
224,132,61466,1,0,0:0:0:0:
224,132,61716,1,0,0:0:0:0:
224,132,61841,1,8,0:0:0:0:
224,132,62341,1,0,0:0:0:0:
224,132,62591,1,8,0:0:0:0:
224,132,62841,1,0,0:0:0:0:
215,118,62966,1,0,0:0:0:0:
224,132,63091,1,8,0:0:0:0:
224,132,63341,1,8,0:0:0:0:
224,132,63466,1,8,0:0:0:0:
224,132,63716,1,0,0:0:0:0:
224,132,63841,1,0,0:0:0:0:
224,132,64341,1,8,0:0:0:0:
224,132,64591,1,8,0:0:0:0:
224,132,64841,1,8,0:0:0:0:
221,139,64966,1,8,0:0:0:0:
224,132,65091,1,8,0:0:0:0:
224,132,65341,1,0,0:0:0:0:
224,132,65591,1,0,0:0:0:0:
224,132,65841,1,0,0:0:0:0:
221,139,65966,1,0,0:0:0:0:
224,132,66091,1,0,0:0:0:0:
224,132,66341,1,8,0:0:0:0:
224,132,66591,1,0,0:0:0:0:
224,132,66841,1,8,0:0:0:0:
221,139,66966,1,8,0:0:0:0:
224,132,67091,1,0,0:0:0:0:
224,132,67341,1,8,0:0:0:0:
224,132,67466,1,0,0:0:0:0:
224,132,67716,1,0,0:0:0:0:
224,132,67841,1,8,0:0:0:0:
224,132,68341,1,0,0:0:0:0:
224,132,68591,1,8,0:0:0:0:
215,128,68716,1,8,0:0:0:0:
224,132,68841,1,0,0:0:0:0:
224,132,69091,1,8,0:0:0:0:
224,132,69341,1,0,0:0:0:0:
218,138,69466,1,0,0:0:0:0:
224,132,69591,1,0,0:0:0:0:
224,132,69841,1,8,0:0:0:0:
224,132,70341,1,8,0:0:0:0:
224,132,70591,1,0,0:0:0:0:
223,139,70716,1,0,0:0:0:0:
224,132,70841,1,8,0:0:0:0:
224,132,71091,1,0,0:0:0:0:
224,132,71341,1,8,0:0:0:0:
218,138,71466,1,8,0:0:0:0:
224,132,71591,1,8,0:0:0:0:
224,132,71841,1,0,0:0:0:0:
224,132,72341,1,8,0:0:0:0:
224,132,72591,1,8,0:0:0:0:
224,132,72841,1,8,0:0:0:0:
217,134,72966,1,0,0:0:0:0:
224,132,73091,1,8,0:0:0:0:
224,132,73341,1,0,0:0:0:0:
224,132,73591,1,0,0:0:0:0:
224,132,73841,1,0,0:0:0:0:
217,134,73966,1,8,0:0:0:0:
224,132,74091,1,0,0:0:0:0:
224,132,74341,1,8,0:0:0:0:
224,132,74591,1,0,0:0:0:0:
224,132,74841,1,8,0:0:0:0:
217,134,74966,1,8,0:0:0:0:
224,132,75091,1,0,0:0:0:0:
224,132,75341,1,8,0:0:0:0:
217,134,75466,1,0,0:0:0:0:
217,134,75716,1,0,0:0:0:0:
224,132,75841,1,12,0:0:0:0:
224,130,76966,1,4,0:0:0:0:
213,134,78216,1,8,0:0:0:0:
214,140,79257,1,0,0:0:0:0:
213,134,79466,1,8,0:0:0:0:
214,140,80091,1,0,0:0:0:0:
214,140,80507,1,8,0:0:0:0:
214,140,80716,1,0,0:0:0:0:
215,140,81966,1,8,0:0:0:0:
215,140,82591,1,0,0:0:0:0:
215,140,83216,1,0,0:0:0:0:
219,136,83528,1,0,0:0:0:0:
220,136,83841,1,8,0:0:0:0:
217,135,84153,1,0,0:0:0:0:
219,136,84466,1,8,0:0:0:0:
217,135,85091,1,0,0:0:0:0:
217,135,85507,1,8,0:0:0:0:
217,135,85716,1,12,0:0:0:0:
224,145,86966,1,12,0:0:0:0:
224,145,87353,1,0,0:0:0:0:
224,145,87547,1,0,0:0:0:0:
224,145,87740,1,8,0:0:0:0:
224,145,87934,1,0,0:0:0:0:
224,145,88127,1,8,0:0:0:0:
224,145,88514,1,8,0:0:0:0:
224,145,88707,1,8,0:0:0:0:
224,145,88901,1,0,0:0:0:0:
224,145,89095,1,8,0:0:0:0:
224,145,89192,1,8,0:0:0:0:
216,151,91163,1,4,0:0:0:0:
223,147,92100,1,8,0:0:0:0:
194,159,92881,1,0,0:0:0:0:
194,159,93038,1,8,0:0:0:0:
190,162,93506,1,0,0:0:0:0:
190,162,93819,1,8,0:0:0:0:
190,162,93975,1,0,0:0:0:0:
195,164,94913,1,8,0:0:0:0:
207,154,95381,1,0,0:0:0:0:
237,147,95850,1,0,0:0:0:0:
208,172,96084,1,0,0:0:0:0:
208,172,96319,1,8,0:0:0:0:
212,172,96553,1,0,0:0:0:0:
213,172,96788,1,8,0:0:0:0:
213,172,97256,1,0,0:0:0:0:
229,165,97569,1,8,0:0:0:0:
213,172,97725,1,12,0:0:0:0:
213,172,98663,1,4,0:0:0:0:
215,159,99037,1,0,0:0:0:0:
215,160,99225,1,0,0:0:0:0:
215,160,99412,1,8,0:0:0:0:
215,160,99600,1,8,0:0:0:0:
215,160,99787,1,0,0:0:0:0:
215,160,100162,1,8,0:0:0:0:
215,160,100350,1,0,0:0:0:0:
215,160,100537,1,8,0:0:0:0:
215,160,100725,1,0,0:0:0:0:
215,160,100819,1,0,0:0:0:0:
230,160,101663,1,0,0:0:0:0:
226,150,102020,1,0,0:0:0:0:
230,160,102377,1,8,0:0:0:0:
230,160,102989,1,0,0:0:0:0:
209,157,103252,1,0,0:0:0:0:
230,160,103515,1,8,0:0:0:0:
230,160,104010,1,0,0:0:0:0:
230,160,104418,1,8,0:0:0:0:
230,160,104598,1,0,0:0:0:0:
230,160,104779,1,8,0:0:0:0:
230,160,105371,1,0,0:0:0:0:
230,160,105615,1,8,0:0:0:0:
230,160,105860,1,0,0:0:0:0:
235,150,105983,1,0,0:0:0:0:
230,160,106105,1,8,0:0:0:0:
230,160,106350,1,0,0:0:0:0:
230,160,106595,1,8,0:0:0:0:
235,150,106717,1,8,0:0:0:0:
230,160,106840,1,0,0:0:0:0:
230,160,107330,1,8,0:0:0:0:
230,160,107575,1,8,0:0:0:0:
235,150,107819,1,8,0:0:0:0:
235,150,107942,1,0,0:0:0:0:
230,160,108064,1,8,0:0:0:0:
230,160,108309,1,0,0:0:0:0:
230,160,108554,1,0,0:0:0:0:
230,160,108799,1,0,0:0:0:0:
235,150,108922,1,8,0:0:0:0:
230,160,109044,1,0,0:0:0:0:
230,160,109289,1,0,0:0:0:0:
230,160,109534,1,8,0:0:0:0:
230,160,109779,1,0,0:0:0:0:
235,150,109901,1,8,0:0:0:0:
230,160,110024,1,8,0:0:0:0:
230,160,110268,1,4,0:0:0:0:
235,148,110758,1,8,0:0:0:0:
235,150,111003,1,0,0:0:0:0:
235,148,111248,1,8,0:0:0:0:
235,148,111370,1,8,0:0:0:0:
235,148,111615,1,0,0:0:0:0:
235,150,111738,1,0,0:0:0:0:
235,148,112228,1,0,0:0:0:0:
235,148,112473,1,8,0:0:0:0:
235,150,112717,1,0,0:0:0:0:
235,148,112840,1,0,0:0:0:0:
235,148,112962,1,8,0:0:0:0:
235,148,113207,1,8,0:0:0:0:
235,148,113330,1,8,0:0:0:0:
235,150,113575,1,0,0:0:0:0:
235,150,113697,1,0,0:0:0:0:
235,148,114187,1,8,0:0:0:0:
235,150,114432,1,0,0:0:0:0:
235,150,114677,1,8,0:0:0:0:
235,148,114799,1,8,0:0:0:0:
235,148,114922,1,8,0:0:0:0:
235,148,115166,1,0,0:0:0:0:
235,150,115411,1,8,0:0:0:0:
235,150,115656,1,0,0:0:0:0:
235,150,115779,1,0,0:0:0:0:
235,148,115901,1,0,0:0:0:0:
235,148,116146,1,8,0:0:0:0:
235,150,116391,1,0,0:0:0:0:
235,150,116636,1,8,0:0:0:0:
235,150,116758,1,0,0:0:0:0:
235,148,116881,1,8,0:0:0:0:
235,148,117126,1,0,0:0:0:0:
235,148,117248,1,0,0:0:0:0:
235,150,117493,1,8,0:0:0:0:
235,150,117615,1,8,0:0:0:0:
220,148,118105,1,4,0:0:0:0:
220,148,118595,1,8,0:0:0:0:
220,148,118840,1,0,0:0:0:0:
220,148,119085,1,8,0:0:0:0:
220,148,119207,1,8,0:0:0:0:
220,148,119452,1,0,0:0:0:0:
220,148,119575,1,0,0:0:0:0:
240,164,120064,1,0,0:0:0:0:
226,162,120309,1,8,0:0:0:0:
231,156,120554,1,0,0:0:0:0:
232,155,120677,1,0,0:0:0:0:
225,161,120799,1,8,0:0:0:0:
225,161,121044,1,8,0:0:0:0:
226,162,121166,1,8,0:0:0:0:
231,156,121411,1,0,0:0:0:0:
231,156,121534,1,0,0:0:0:0:
233,155,122024,1,8,0:0:0:0:
231,156,122268,1,0,0:0:0:0:
231,156,122513,1,8,0:0:0:0:
233,155,122636,1,8,0:0:0:0:
233,155,122758,1,8,0:0:0:0:
233,155,123003,1,0,0:0:0:0:
231,156,123248,1,8,0:0:0:0:
231,156,123493,1,0,0:0:0:0:
233,155,123615,1,0,0:0:0:0:
233,155,123738,1,0,0:0:0:0:
233,155,123983,1,8,0:0:0:0:
231,156,124228,1,0,0:0:0:0:
231,156,124473,1,8,0:0:0:0:
233,155,124595,1,8,0:0:0:0:
233,155,124717,1,0,0:0:0:0:
233,155,124962,1,12,0:0:0:0:
231,156,125390,1,8,0:0:0:0:
217,152,125604,1,0,0:0:0:0:
233,155,125818,1,12,0:0:0:0:
231,156,126033,1,0,0:0:0:0:
245,154,126140,1,0,0:0:0:0:
231,156,126247,1,8,0:0:0:0:
222,155,126354,1,8,0:0:0:0:
231,156,126461,1,0,0:0:0:0:
233,155,126675,1,12,0:0:0:0:
213,164,126890,1,0,0:0:0:0:
214,163,127104,1,12,0:0:0:0:
214,162,127318,1,8,0:0:0:0:
219,156,127533,1,4,0:0:0:0:
155,146,127961,1,8,0:0:0:0:
155,146,128390,1,8,0:0:0:0:
