osu file format v14

[General]
AudioFilename: 18 Mazai (3).mp3
AudioLeadIn: 0
PreviewTime: 525
Countdown: 0
SampleSet: Normal
StackLeniency: 0.7
Mode: 1
LetterboxInBreaks: 0
WidescreenStoryboard: 1

[Editor]
Bookmarks: 68581
DistanceSpacing: 1.2
BeatDivisor: 2
GridSize: 32
TimelineZoom: 0.8999999

[Metadata]
Title:Manzai (3)
TitleUnicode:漫才 (3)
Artist:Katsumi Tanaka
ArtistUnicode:田中勝己
Creator:meiqth
Version:Futsuu
Source:ぷよぷよSUN
Tags:漫才(3) Puyo Puyo SUN Saturn Akiyoshi 松島剛史 tysuyoshi matsushima 大成康二 kohji oonari 嶋崎聡 shimazaki satoshi 長尾 英之助 einosuke nagao Nagaou 長尾亮利 electronic video game music vgm instrumental
BeatmapID:4173184
BeatmapSetID:1904080

[Difficulty]
HPDrainRate:10
CircleSize:2
OverallDifficulty:3.5
ApproachRate:5
SliderMultiplier:1.7
SliderTickRate:1

[Events]
//Background and Video events
0,0,"puyo-puyo-sun_1.jpg",0,0
//Break Periods
//Storyboard Layer 0 (Background)
//Storyboard Layer 1 (Fail)
//Storyboard Layer 2 (Pass)
//Storyboard Layer 3 (Foreground)
//Storyboard Layer 4 (Overlay)
//Storyboard Sound Samples

[TimingPoints]
-58493,468.75,4,1,0,50,1,0
1507,-100,4,1,0,50,0,1
16507,-100,4,1,0,50,0,0
16624,-100,4,1,0,50,0,0
30966,-100,4,1,0,35,0,0
31155,-100,4,1,0,25,0,0
31448,-100,4,1,0,15,0,0

[HitObjects]
256,192,569,5,0,0:0:0:0:
256,192,1038,1,8,0:0:0:0:
256,192,1507,1,4,0:0:0:0:
256,192,2092,1,8,0:0:0:0:
256,192,2327,1,8,0:0:0:0:
256,192,2913,1,0,0:0:0:0:
256,192,3382,1,8,0:0:0:0:
256,192,3967,1,0,0:0:0:0:
256,192,4202,1,0,0:0:0:0:
256,192,4788,1,8,0:0:0:0:
256,192,5022,1,0,0:0:0:0:
256,192,5257,1,8,0:0:0:0:
256,192,5842,1,8,0:0:0:0:
256,192,6077,1,0,0:0:0:0:
256,192,6663,1,0,0:0:0:0:
256,192,6897,1,8,0:0:0:0:
256,192,7132,1,0,0:0:0:0:
256,192,7366,1,0,0:0:0:0:
256,192,7600,1,8,0:0:0:0:
256,192,8538,1,8,0:0:0:0:
256,192,9007,1,4,0:0:0:0:
256,192,9592,1,8,0:0:0:0:
256,192,9827,1,0,0:0:0:0:
256,192,10413,1,0,0:0:0:0:
256,192,10882,1,8,0:0:0:0:
256,192,11467,1,0,0:0:0:0:
256,192,11702,1,0,0:0:0:0:
256,192,12288,1,0,0:0:0:0:
256,192,12522,1,8,0:0:0:0:
256,192,12757,1,0,0:0:0:0:
256,192,13342,1,8,0:0:0:0:
256,192,13577,1,8,0:0:0:0:
256,192,14163,1,8,0:0:0:0:
256,192,14397,1,8,0:0:0:0:
256,192,14632,1,0,0:0:0:0:
256,192,14866,1,0,0:0:0:0:
256,192,15100,1,8,0:0:0:0:
256,192,16038,1,8,0:0:0:0:
256,192,16507,1,4,0:0:0:0:
256,192,17327,1,8,0:0:0:0:
256,192,18382,1,8,0:0:0:0:
256,192,19202,1,0,0:0:0:0:
256,192,20257,1,8,0:0:0:0:
256,192,21077,1,8,0:0:0:0:
256,192,22600,1,0,0:0:0:0:
256,192,23069,1,8,0:0:0:0:
256,192,23538,1,8,0:0:0:0:
256,192,24007,1,4,0:0:0:0:
256,192,24592,1,8,0:0:0:0:
256,192,24827,1,8,0:0:0:0:
256,192,25413,1,8,0:0:0:0:
256,192,25882,1,0,0:0:0:0:
256,192,26467,1,8,0:0:0:0:
256,192,26702,1,0,0:0:0:0:
256,192,27288,1,8,0:0:0:0:
256,192,27757,1,0,0:0:0:0:
256,192,28342,1,8,0:0:0:0:
256,192,28577,1,8,0:0:0:0:
256,192,29163,1,8,0:0:0:0:
256,192,29397,1,0,0:0:0:0:
256,192,29632,1,8,0:0:0:0:
256,192,30217,1,0,0:0:0:0:
256,192,30452,1,8,0:0:0:0:
256,192,31038,1,8,0:0:0:0:
256,192,31507,1,4,0:0:0:0:
