osu file format v14

[General]
AudioFilename: optc.mp3
AudioLeadIn: 0
PreviewTime: 195182
Countdown: 0
SampleSet: Soft
StackLeniency: 0.7
Mode: 0
LetterboxInBreaks: 0
EpilepsyWarning: 1
WidescreenStoryboard: 1

[Editor]
Bookmarks: 8296,24034,55509,86985,118460,134198,165673,197149,228624,246329,277805,293542
DistanceSpacing: 1.7
BeatDivisor: 4
GridSize: 32
TimelineZoom: 1.799999

[Metadata]
Title:Kisetsu o Dakishimete
TitleUnicode:季節を抱きしめて
Artist:Katou Megumi (CV: Yasuno Kiyono)
ArtistUnicode:加藤恵 (CV: 安野希世乃)
Creator:Shad0w1and
Version:Takaramono
Source:やるドラ
Tags:Yarudora 冴えない彼女の育てかた♭ Saenai Heroine no Sodatekata Flat Saekano Katou 安野希世乃 Kiyono Yasuno Hazu- ShallICompareThee
BeatmapID:1548455
BeatmapSetID:733753

[Difficulty]
HPDrainRate:5
CircleSize:4
OverallDifficulty:6
ApproachRate:7
SliderMultiplier:1.4
SliderTickRate:2

[Events]
//Background and Video events
0,0,"BG.jpg",0,0
//Break Periods
//Storyboard Layer 0 (Background)
//Storyboard Layer 1 (Fail)
//Storyboard Layer 2 (Pass)
//Storyboard Layer 3 (Foreground)
//Storyboard Sound Samples

[TimingPoints]
428,491.803278688525,4,2,1,70,1,0
8296,-100,4,2,1,90,0,0
24034,-100,4,2,1,70,0,0
71247,-100,4,2,1,80,0,0
79116,-100,4,2,1,90,0,0
86985,-100,4,2,1,100,0,1
118460,-100,4,2,1,90,0,0
134198,-100,4,2,1,70,0,0
181411,-100,4,2,1,80,0,0
189280,-100,4,2,1,90,0,0
197149,-100,4,2,1,100,0,1
244362,-100,4,2,1,100,0,0
246329,-100,4,2,1,100,0,1
277805,-100,4,2,1,90,0,0
293665,-100,4,2,1,30,0,0
295509,-100,4,2,1,20,0,0
297477,-100,4,2,1,5,0,0

[Colours]
Combo1 : 255,230,151
Combo2 : 166,255,166
Combo3 : 218,119,255
Combo4 : 249,145,160
SliderTrackOverride : 60,45,80
SliderBorder : 220,185,235

[HitObjects]
100,80,182,5,2,0:0:0:0:
104,92,305,1,2,0:0:0:0:
108,104,428,6,0,P|120:160|132:260,1,140,6|8,0:0|0:0,0:0:0:0:
332,136,1165,2,0,P|284:96|208:100,1,140,2|0,0:0|0:0,0:0:0:0:
209,99,1903,1,8,0:0:0:0:
192,204,2149,5,2,0:0:0:0:
112,72,2395,1,2,0:0:0:0:
24,200,2641,2,0,P|60:196|108:196,1,70,2|8,0:0|0:0,0:0:0:0:
284,96,3132,2,0,P|248:100|200:100,1,70,2|0,0:0|0:0,0:0:0:0:
160,268,3624,2,0,P|196:264|244:264,1,70,2|8,0:0|0:0,0:0:0:0:
150,64,4116,1,2,0:0:0:0:
138,68,4239,1,2,0:0:0:0:
126,72,4362,6,0,P|86:126|102:208,1,140,2|8,0:0|0:0,0:0:0:0:
276,248,5100,2,0,P|249:186|170:159,1,140,2|0,0:0|0:0,0:0:0:0:
112,292,5837,2,0,P|140:288|189:240,1,70,8|0,0:0|0:0,0:0:0:0:
104,153,6329,5,2,0:0:0:0:
0,176,6575,2,0,P|4:200|8:248,1,70,2|8,0:0|0:0,0:0:0:0:
112,84,7067,2,0,P|108:108|104:156,1,70,2|0,0:0|0:0,0:0:0:0:
16,28,7559,1,10,0:3:0:0:
200,64,7805,1,10,0:3:0:0:
0,120,8050,1,10,0:3:0:0:
204,176,8296,6,0,B|288:184|256:136|348:144,1,140,6|10,0:0|0:0,0:0:0:0:
440,256,9034,2,0,P|416:252|344:248,1,70,2|0,0:0|0:0,0:0:0:0:
432,112,9526,2,0,P|466:114|501:119,1,70,2|8,0:0|0:0,0:0:0:0:
195,106,10264,6,0,P|199:131|203:175,1,70,2|0,0:0|0:0,0:0:0:0:
140,336,10755,2,0,P|135:310|131:266,1,70,10|0,0:0|0:0,0:0:0:0:
52,120,11247,1,2,0:0:0:0:
16,260,11493,1,2,0:0:0:0:
133,181,11739,2,0,P|169:177|222:175,1,70,10|0,0:0|0:0,0:0:0:0:
384,136,12231,6,0,P|372:208|368:292,1,140,6|8,0:0|0:0,0:0:0:0:
283,136,12968,2,0,P|280:100|276:60,1,70,2|0,0:0|0:0,0:0:0:0:
264,256,13460,1,2,0:0:0:0:
384,136,13706,1,10,0:0:0:0:
144,164,13952,6,0,P|154:233|159:302,1,140,6|2,0:0|0:0,0:0:0:0:
332,228,14690,1,10,0:0:0:0:
228,184,14936,1,2,0:0:0:0:
312,316,15182,5,2,0:0:0:0:
324,136,15428,1,2,0:0:0:0:
324,136,15550,1,0,0:0:0:0:
324,136,15673,1,10,0:0:0:0:
220,272,15919,1,2,0:0:0:0:
444,308,16165,6,0,P|436:244|432:164,1,140,6|8,0:0|0:0,0:0:0:0:
308,64,16903,1,2,0:0:0:0:
348,200,17149,1,2,0:0:0:0:
424,44,17395,1,2,0:0:0:0:
248,148,17641,1,10,0:0:0:0:
459,209,17887,6,0,P|456:174|452:140,1,70,2|0,0:0|0:0,0:0:0:0:
328,60,18378,1,2,0:0:0:0:
296,244,18624,2,0,P|324:240|368:236,1,70,10|0,0:0|0:0,0:0:0:0:
196,88,19116,2,0,P|168:92|124:96,1,70,2|0,0:0|0:0,0:0:0:0:
326,128,19608,2,0,P|334:96|322:48,1,70,10|0,0:0|0:0,0:0:0:0:
160,216,20100,6,0,P|171:280|179:368,1,140,6|8,0:0|0:0,0:0:0:0:
224,112,20837,1,0,0:0:0:0:
224,112,20960,1,0,0:0:0:0:
224,112,21083,1,8,0:3:0:0:
264,260,21329,1,8,0:3:0:0:
112,140,21575,1,8,0:3:0:0:
352,176,21821,6,0,P|400:236|384:308,1,140,6|2,0:0|0:0,0:0:0:0:
316,360,22559,1,10,0:0:0:0:
300,264,22805,1,2,0:0:0:0:
136,336,23050,5,2,0:0:0:0:
224,320,23296,1,2,0:0:0:0:
204,228,23542,1,10,0:0:0:0:
116,244,23788,1,2,0:0:0:0:
336,216,24034,6,0,P|324:272|316:360,1,140,6|8,0:0|0:0,0:0:0:0:
260,136,24772,1,2,0:0:0:0:
224,248,25018,1,2,0:0:0:0:
168,104,25264,2,0,P|136:96|88:96,1,70,2|8,0:0|0:0,0:0:0:0:
0,244,25755,6,0,B|88:232|44:276|140:264,1,140,2|0,0:0|0:0,0:0:0:0:
248,232,26493,2,0,P|240:268|236:320,1,70,8|0,0:0|0:0,0:0:0:0:
140,160,26985,2,0,P|124:108|168:32,1,140,2|10,0:0|0:0,0:0:0:0:
304,84,27723,1,2,0:0:0:0:
316,88,27846,1,0,0:0:0:0:
328,92,27968,6,0,P|356:88|424:88,1,70,4|0,0:3|0:0,0:0:0:0:
236,136,28460,1,8,0:0:0:0:
136,40,28706,2,0,P|144:88|152:184,1,140,2|0,0:0|0:0,0:0:0:0:
88,272,29444,1,8,0:0:0:0:
52,168,29690,1,0,0:0:0:0:
200,284,29936,6,0,B|251:280|251:280|284:294|284:294|336:289,1,140,2|8,0:0|0:0,0:0:0:0:
476,192,30673,2,0,P|441:189|406:184,1,70,2|0,0:0|0:0,0:0:0:0:
232,172,31165,1,2,0:0:0:0:
332,120,31411,1,10,0:0:0:0:
200,92,31657,1,2,0:0:0:0:
421,45,31903,6,0,P|413:97|405:205,1,140,4|8,0:3|0:0,0:0:0:0:
368,304,32641,1,2,0:0:0:0:
320,208,32887,1,2,0:0:0:0:
464,288,33132,2,0,P|468:312|472:364,1,70,2|8,0:0|0:0,0:0:0:0:
442,182,33624,6,0,P|370:170|318:210,1,140,2|0,0:0|0:0,0:0:0:0:
324,320,34362,1,10,0:0:0:0:
216,192,34608,2,0,P|224:228|228:276,1,70,2|0,0:0|0:0,0:0:0:0:
152,96,35100,1,2,0:0:0:0:
272,120,35346,1,10,0:0:0:0:
108,184,35591,1,2,0:0:0:0:
100,192,35714,1,0,0:0:0:0:
92,200,35837,6,0,B|80:240|80:240|100:336,1,140,4|8,0:3|0:0,0:0:0:0:
300,320,36575,2,0,P|272:284|184:276,1,140,2|0,0:0|0:0,0:0:0:0:
100,336,37313,1,10,0:0:0:0:
188,372,37559,1,2,0:0:0:0:
8,380,37804,6,0,P|12:320|16:232,1,140,2|8,0:0|0:0,0:0:0:0:
108,124,38542,2,0,P|108:156|112:204,2,70,2|2|2,0:0|0:0|0:0,0:0:0:0:
144,300,39280,1,10,0:0:0:0:
15,240,39526,1,2,0:0:0:0:
264,224,39772,6,0,P|252:284|244:384,1,140,6|8,0:3|0:0,0:0:0:0:
176,152,40509,1,2,0:0:0:0:
140,272,40755,1,2,0:0:0:0:
68,104,41001,2,0,P|72:132|76:184,1,70,2|8,0:0|0:0,0:0:0:0:
256,248,41493,1,2,0:0:0:0:
260,236,41616,1,0,0:0:0:0:
264,224,41739,6,0,P|261:189|256:154,2,70,0|0|8,0:0|0:0|0:0,0:0:0:0:
348,108,42477,2,0,B|436:96|396:140|492:128,1,140,2|2,0:0|0:0,0:0:0:0:
236,48,43214,5,10,0:0:0:0:
248,172,43460,1,2,0:0:0:0:
136,124,43706,1,2,0:0:0:0:
348,108,43952,2,0,P|336:172|328:256,1,140,2|2,0:0|0:0,0:0:0:0:
260,44,44690,1,2,0:0:0:0:
460,32,44937,2,0,P|432:28|388:24,1,70,2|8,0:0|0:0,0:0:0:0:
264,144,45428,1,2,0:0:0:0:
272,152,45550,1,0,0:0:0:0:
280,160,45673,6,0,P|376:168|432:176,1,140,4|8,0:3|0:0,0:0:0:0:
512,68,46411,2,0,P|484:64|440:60,1,70,2|2,0:0|0:0,0:0:0:0:
272,40,46903,1,2,0:0:0:0:
344,108,47149,1,10,0:0:0:0:
208,120,47395,1,2,0:0:0:0:
348,212,47641,6,0,B|422:219|416:178|486:185,1,140,6|10,0:0|0:0,0:0:0:0:
464,344,48378,2,0,P|458:274|512:296,1,140,2|0,0:0|0:0,0:0:0:0:
504,283,49116,1,8,0:0:0:0:
296,296,49362,5,2,0:0:0:0:
388,232,49608,1,2,0:0:0:0:
196,212,49854,2,0,P|204:256|212:368,1,140,2|2,0:0|0:0,0:0:0:0:
280,136,50591,1,2,0:0:0:0:
388,252,50837,2,0,P|356:248|316:248,1,70,2|8,0:0|0:0,0:0:0:0:
460,176,51329,1,2,0:0:0:0:
468,168,51452,1,0,0:0:0:0:
476,160,51575,6,0,P|492:104|444:40,1,140,4|8,0:3|0:0,0:0:0:0:
376,168,52313,2,0,P|384:220|392:308,1,140,2|2,0:0|0:0,0:0:0:0:
476,160,53050,1,8,0:0:0:0:
332,80,53296,6,0,B|244:72|292:120|192:108,1,140,6|8,0:0|0:3,0:0:0:0:
100,72,54034,1,10,0:3:0:0:
120,172,54280,1,8,0:3:0:0:
172,24,54526,5,10,0:3:0:0:
40,128,54772,1,8,0:3:0:0:
216,196,55018,1,10,0:0:0:0:
152,112,55264,1,0,0:0:0:0:
140,116,55387,1,0,0:0:0:0:
128,120,55509,6,0,P|136:184|140:280,1,140,6|8,0:0|0:0,0:0:0:0:
224,64,56247,1,2,0:0:0:0:
276,164,56493,1,2,0:0:0:0:
326,10,56739,2,0,P|354:14|402:18,1,70,2|8,0:0|0:0,0:0:0:0:
476,235,57231,6,0,P|444:167|478:103,1,140,2|0,0:0|0:0,0:0:0:0:
469,111,57968,1,8,0:0:0:0:
336,184,58214,1,2,0:0:0:0:
272,52,58460,2,0,P|296:56|348:64,1,70,2|0,0:0|0:0,0:0:0:0:
192,148,58952,1,8,0:0:0:0:
92,12,59198,1,2,0:0:0:0:
88,20,59321,1,0,0:0:0:0:
84,28,59444,6,0,P|90:56|92:110,1,70,4|0,0:3|0:0,0:0:0:0:
24,208,59935,1,8,0:0:0:0:
172,160,60181,2,0,P|160:224|152:300,1,140,2|0,0:0|0:0,0:0:0:0:
92,97,60919,1,8,0:0:0:0:
0,220,61165,6,0,P|32:212|75:210,1,70,2|0,0:0|0:0,0:0:0:0:
100,368,61657,2,0,P|75:342|56:313,1,70,2|8,0:0|0:0,0:0:0:0:
184,208,62149,2,0,P|174:239|155:277,1,70,2|0,0:0|0:0,0:0:0:0:
140,84,62641,1,2,0:0:0:0:
92,184,62886,1,10,0:0:0:0:
224,100,63132,1,2,0:0:0:0:
0,72,63378,6,0,P|8:120|12:212,1,140,4|8,0:3|0:0,0:0:0:0:
140,32,64116,1,2,0:0:0:0:
108,160,64362,1,2,0:0:0:0:
272,116,64608,2,0,P|237:110|202:107,1,70,2|8,0:0|0:0,0:0:0:0:
400,212,65100,6,0,P|390:144|432:91,1,140,2|0,0:0|0:0,0:0:0:0:
328,16,65837,1,10,0:0:0:0:
296,136,66083,1,2,0:0:0:0:
164,44,66329,2,0,P|198:46|233:51,1,70,2|0,0:0|0:0,0:0:0:0:
84,144,66821,1,10,0:0:0:0:
272,136,67066,1,2,0:0:0:0:
284,136,67189,1,0,0:0:0:0:
296,136,67313,6,0,P|318:200|272:257,1,140,4|8,0:3|0:0,0:0:0:0:
132,364,68050,2,0,P|121:297|168:249,1,140,2|2,0:0|0:0,0:0:0:0:
248,360,68788,1,8,0:0:0:0:
418,270,69034,6,0,P|370:262|274:254,1,140,6|0,0:0|0:0,0:0:0:0:
208,152,69772,2,0,P|176:156|112:160,2,70,10|0|2,0:0|0:0|0:0,0:0:0:0:
372,92,70509,1,2,0:0:0:0:
296,204,70755,1,10,0:0:0:0:
272,56,71001,1,2,0:0:0:0:
416,200,71247,6,0,B|428:244|428:244|416:360,1,140,6|8,0:3|0:0,0:0:0:0:
418,337,71985,1,0,0:0:0:0:
312,220,72231,1,2,0:0:0:0:
200,320,72477,2,0,P|228:316|284:312,1,70,2|8,0:0|0:0,0:0:0:0:
424,244,72968,1,2,0:0:0:0:
428,232,73091,1,0,0:0:0:0:
432,220,73214,6,0,P|432:180|416:136,1,70,4|0,0:3|0:0,0:0:0:0:
284,144,73706,1,8,0:0:0:0:
332,352,73952,2,0,P|328:312|320:268,1,70,2|0,0:3|0:0,0:0:0:0:
176,176,74444,1,2,0:0:0:0:
228,312,74689,1,10,0:0:0:0:
280,144,74935,1,2,0:0:0:0:
428,268,75182,6,0,B|344:284|372:232|295:244,1,140,6|8,0:3|0:0,0:0:0:0:
152,344,75919,1,2,0:0:0:0:
184,168,76165,2,0,P|188:196|192:252,1,70,2|0,0:0|0:0,0:0:0:0:
72,76,76657,1,10,0:0:0:0:
0,216,76903,1,2,0:0:0:0:
8,228,77025,1,0,0:0:0:0:
16,240,77149,6,0,P|48:236|97:235,1,70,4|0,0:3|0:0,0:0:0:0:
212,136,77641,1,8,0:0:0:0:
80,64,77886,2,0,P|84:96|84:136,1,70,2|0,0:0|0:0,0:0:0:0:
176,296,78378,2,0,P|175:261|180:226,1,70,2|8,0:0|0:0,0:0:0:0:
272,80,78870,1,2,0:0:0:0:
384,224,79116,6,0,P|356:220|300:216,1,70,6|0,0:0|0:0,0:0:0:0:
480,92,79608,2,0,P|452:96|396:100,1,70,10|0,0:0|0:0,0:0:0:0:
288,32,80100,1,2,0:0:0:0:
216,184,80346,2,0,P|212:132|208:104,1,70,2|8,0:0|0:0,0:0:0:0:
64,36,80837,1,2,0:0:0:0:
60,48,80960,1,0,0:0:0:0:
56,60,81083,6,0,P|64:132|68:208,1,140,4|8,0:3|0:0,0:0:0:0:
120,348,81821,1,2,0:0:0:0:
0,288,82066,1,2,0:0:0:0:
164,200,82313,2,0,P|160:224|156:284,1,70,2|8,0:0|0:0,0:0:0:0:
16,80,82804,1,2,0:0:0:0:
20,92,82927,1,0,0:0:0:0:
24,104,83050,6,0,P|28:128|32:188,1,70,6|2,0:0|0:0,0:0:0:0:
224,80,83542,1,10,0:0:0:0:
96,40,83788,1,2,0:0:0:0:
166,185,84034,2,0,P|196:180|240:176,1,70,2|2,0:0|0:0,0:0:0:0:
104,292,84525,1,10,0:0:0:0:
12,128,84772,6,0,P|16:156|20:212,1,70,6|0,0:0|0:0,0:0:0:0:
184,80,85264,1,10,0:0:0:0:
108,180,85509,1,10,0:0:0:0:
96,52,85755,1,10,0:0:0:0:
204,200,86001,5,10,0:3:0:0:
28,116,86247,1,8,0:3:0:0:
272,100,86493,1,10,0:3:0:0:
112,272,86739,1,0,0:0:0:0:
108,260,86862,1,0,0:0:0:0:
104,248,86985,6,0,P|108:208|112:164,1,70,6|2,0:0|0:0,0:0:0:0:
200,356,87477,1,10,0:0:0:0:
348,260,87723,2,0,P|308:216|220:224,1,140,2|0,0:0|0:0,0:0:0:0:
104,316,88460,1,8,0:0:0:0:
108,152,88706,2,0,P|113:171|116:200,2,35,2|2|2,0:0|0:0|0:0,0:0:0:0:
8,280,89198,5,2,0:0:0:0:
200,208,89444,1,10,0:0:0:0:
0,152,89690,1,2,0:0:0:0:
124,340,89936,2,0,P|126:305|131:270,1,70,2|0,0:0|0:0,0:0:0:0:
82,77,90428,2,0,P|86:111|89:146,1,70,10|0,0:0|0:0,0:0:0:0:
252,212,90919,5,6,0:3:0:0:
176,108,91165,1,2,0:0:0:0:
348,168,91411,1,10,0:0:0:0:
160,288,91657,2,0,P|157:253|152:218,1,70,2|0,0:0|0:0,0:0:0:0:
276,56,92149,2,0,P|272:80|268:144,1,70,2|8,0:0|0:0,0:0:0:0:
396,268,92641,6,0,P|340:228|252:260,1,140,2|0,0:0|0:0,0:0:0:0:
224,368,93378,1,8,0:0:0:0:
120,224,93624,2,0,P|124:256|128:320,1,70,2|0,0:0|0:0,0:0:0:0:
204,112,94116,1,2,0:0:0:0:
224,240,94362,1,10,0:0:0:0:
108,136,94608,1,2,0:0:0:0:
328,96,94854,6,0,P|320:152|316:248,1,140,6|10,0:0|0:0,0:0:0:0:
160,364,95591,2,0,P|136:308|184:224,1,140,2|0,0:0|0:0,0:0:0:0:
315,235,96329,1,10,0:0:0:0:
232,124,96575,1,2,0:0:0:0:
240,344,96821,6,0,P|300:336|404:328,1,140,6|10,0:0|0:0,0:0:0:0:
480,200,97559,2,0,P|476:224|472:280,1,70,2|0,0:0|0:0,0:0:0:0:
368,144,98050,2,0,P|365:109|360:74,1,70,2|8,0:0|0:0,0:0:0:0:
320,256,98542,1,2,0:0:0:0:
152,176,98788,6,0,P|192:172|244:168,1,70,6|0,0:0|0:0,0:0:0:0:
80,288,99280,2,0,P|120:284|172:280,1,70,10|0,0:0|0:0,0:0:0:0:
308,220,99772,1,2,0:0:0:0:
256,384,100018,2,0,P|252:340|248:308,1,70,2|8,0:0|0:0,0:0:0:0:
404,192,100509,2,0,P|400:220|396:261,1,70,6|0,0:0|0:0,0:0:0:0:
280,64,101001,5,10,0:3:0:0:
300,172,101247,1,10,0:0:0:0:
384,92,101493,1,10,0:3:0:0:
192,128,101739,2,0,P|196:160|200:212,1,70,10|8,0:3|0:3,0:0:0:0:
404,276,102231,2,0,P|400:244|396:192,1,70,10|0,0:0|0:0,0:0:0:0:
404,196,102600,1,0,0:0:0:0:
412,188,102723,6,0,P|416:220|420:272,1,70,6|2,0:0|0:0,0:0:0:0:
316,92,103214,1,10,0:0:0:0:
176,240,103460,2,0,P|232:200|324:228,1,140,2|0,0:0|0:0,0:0:0:0:
340,344,104198,1,8,0:0:0:0:
428,204,104444,2,0,P|424:220|420:260,1,35,2|2,0:0|0:0,0:0:0:0:
408,212,104690,6,0,P|416:168|420:128,2,70,2|0|8,0:0|0:0|0:0,0:0:0:0:
336,40,105428,1,2,0:0:0:0:
220,168,105673,2,0,P|244:164|304:160,1,70,2|0,0:0|0:0,0:0:0:0:
124,44,106165,2,0,P|148:48|208:52,1,70,10|0,0:0|0:0,0:0:0:0:
92,184,106657,5,6,0:3:0:0:
20,64,106903,1,2,0:0:0:0:
168,144,107149,1,10,0:0:0:0:
8,232,107395,2,0,P|5:197|0:162,1,70,2|0,0:0|0:0,0:0:0:0:
72,356,107887,1,2,0:0:0:0:
120,224,108132,1,10,0:0:0:0:
296,336,108378,6,0,B|204:352|240:296|152:312,1,140,2|0,0:0|0:0,0:0:0:0:
40,376,109116,1,8,0:0:0:0:
68,212,109362,2,0,P|72:240|76:296,1,70,2|0,0:0|0:0,0:0:0:0:
208,112,109854,1,2,0:0:0:0:
164,236,110100,1,10,0:0:0:0:
108,88,110346,1,2,0:0:0:0:
276,196,110591,6,0,P|268:252|260:340,1,140,6|10,0:0|0:0,0:0:0:0:
384,204,111329,2,0,P|386:169|391:134,1,70,2|0,0:0|0:0,0:0:0:0:
368,344,111821,1,2,0:0:0:0:
480,256,112067,1,10,0:0:0:0:
468,384,112313,1,2,0:0:0:0:
312,260,112559,6,0,B|232:248|272:304|168:288,1,140,6|10,0:0|0:0,0:0:0:0:
44,224,113297,2,0,P|48:256|48:304,1,70,2|0,0:0|0:0,0:0:0:0:
172,124,113788,1,2,0:0:0:0:
64,80,114034,1,10,0:0:0:0:
136,212,114280,1,2,0:0:0:0:
224,40,114526,6,0,P|189:35|154:34,1,70,6|2,0:0|0:0,0:0:0:0:
320,140,115018,2,0,P|354:139|389:134,1,70,10|2,0:0|0:0,0:0:0:0:
208,216,115510,1,2,0:0:0:0:
224,40,115755,2,0,P|228:69|232:109,1,70,2|10,0:0|0:0,0:0:0:0:
112,280,116247,6,0,P|80:212|116:144,1,140,6|8,0:0|0:3,0:0:0:0:
301,116,116985,2,0,P|269:112|221:108,1,70,8|8,0:0|0:3,0:0:0:0:
300,260,117477,2,0,P|344:256|427:252,2,105,2|2|2,0:0|0:0|0:0,0:0:0:0:
148,196,118460,6,0,B|160:244|160:244|148:348,1,140,6|10,0:0|0:0,0:0:0:0:
376,232,119198,2,0,P|332:188|248:196,1,140,2|0,0:0|0:0,0:0:0:0:
258,190,119936,1,8,0:0:0:0:
184,280,120182,5,2,0:0:0:0:
144,124,120428,1,2,0:0:0:0:
36,224,120673,2,0,P|60:220|105:215,1,70,2|8,0:0|0:0,0:0:0:0:
296,120,121165,2,0,P|272:124|226:128,1,70,2|0,0:0|0:0,0:0:0:0:
152,312,121657,2,0,P|176:308|221:303,1,70,2|8,0:0|0:0,0:0:0:0:
140,96,122149,1,2,0:0:0:0:
128,100,122272,1,2,0:0:0:0:
116,104,122395,6,0,P|76:148|104:240,1,140,6|8,0:3|0:0,0:0:0:0:
192,336,123132,2,0,P|128:328|32:324,1,140,2|0,0:0|0:0,0:0:0:0:
220,232,123870,1,8,0:0:0:0:
322,369,124116,6,0,P|320:334|316:300,1,70,2|0,0:0|0:0,0:0:0:0:
448,204,124608,2,0,P|443:238|441:273,1,70,2|8,0:0|0:0,0:0:0:0:
332,100,125100,2,0,P|335:121|339:181,1,70,2|0,0:0|0:0,0:0:0:0:
204,296,125591,1,2,0:0:0:0:
236,152,125837,1,10,0:0:0:0:
324,312,126083,1,2,0:0:0:0:
120,356,126329,6,0,P|115:286|108:216,1,140,6|10,0:0|0:0,0:0:0:0:
228,80,127067,2,0,P|222:124|220:157,1,70,2|0,0:0|0:0,0:0:0:0:
88,20,127559,2,0,P|94:64|96:97,1,70,2|8,0:0|0:0,0:0:0:0:
396,60,128296,6,0,P|364:52|300:52,1,70,2|0,0:0|0:0,0:0:0:0:
236,188,128788,2,0,P|270:185|304:177,1,70,10|0,0:0|0:0,0:0:0:0:
156,84,129280,1,2,0:0:0:0:
108,224,129526,1,2,0:0:0:0:
40,72,129772,1,10,0:0:0:0:
236,188,130264,6,0,B|248:236|248:236|224:352,1,140,6|8,0:0|0:0,0:0:0:0:
424,192,131001,2,0,P|400:184|348:180,1,70,2|0,0:0|0:0,0:0:0:0:
440,316,131493,2,0,P|474:313|508:303,1,70,2|8,0:0|0:0,0:0:0:0:
312,380,131985,6,0,P|328:312|284:248,1,140,6|10,0:0|0:3,0:0:0:0:
212,208,132723,1,10,0:0:0:0:
212,300,132968,1,10,0:3:0:0:
280,164,133214,5,10,0:3:0:0:
128,260,133460,1,10,0:3:0:0:
312,328,133706,1,10,0:0:0:0:
172,168,133952,1,10,0:3:0:0:
416,244,134198,6,0,P|412:292|408:404,1,140,6|8,0:0|0:0,0:0:0:0:
336,184,134936,1,2,0:0:0:0:
288,284,135182,1,2,0:0:0:0:
240,152,135428,2,0,P|220:148|148:144,1,70,2|8,0:0|0:0,0:0:0:0:
60,224,135919,6,0,P|68:152|12:100,1,140,2|0,0:0|0:0,0:0:0:0:
25,105,136657,1,8,0:0:0:0:
170,143,136903,1,2,0:0:0:0:
104,28,137149,2,0,P|173:30|243:35,1,140,2|8,0:0|0:0,0:0:0:0:
300,208,137887,1,2,0:0:0:0:
308,200,138010,1,0,0:0:0:0:
316,192,138132,6,0,P|324:160|316:112,1,70,4|0,0:3|0:0,0:0:0:0:
220,148,138624,1,8,0:0:0:0:
200,296,138870,2,0,P|264:288|352:284,1,140,2|0,0:0|0:0,0:0:0:0:
432,232,139608,1,8,0:0:0:0:
432,332,139854,1,0,0:0:0:0:
344,188,140100,6,0,P|288:156|212:180,1,140,2|8,0:0|0:0,0:0:0:0:
124,264,140837,2,0,P|120:216|116:188,1,70,2|0,0:0|0:0,0:0:0:0:
160,44,141329,1,2,0:0:0:0:
212,136,141575,1,10,0:0:0:0:
248,12,141821,1,2,0:0:0:0:
320,160,142067,6,0,B|328:204|328:204|304:308,1,140,4|8,0:3|0:0,0:0:0:0:
192,360,142805,2,0,B|184:316|184:316|208:212,1,140,2|0,0:3|0:0,0:0:0:0:
88,136,143542,2,0,P|92:160|96:212,1,70,10|0,0:0|0:0,0:0:0:0:
272,80,144034,6,0,P|244:72|180:80,1,70,2|0,0:0|0:0,0:0:0:0:
352,188,144526,2,0,P|386:189|420:180,1,70,10|0,0:0|0:0,0:0:0:0:
228,160,145018,1,2,0:0:0:0:
284,328,145264,2,0,P|280:276|276:252,1,70,2|8,0:0|0:0,0:0:0:0:
144,184,145755,1,2,0:0:0:0:
132,184,145878,1,0,0:0:0:0:
120,184,146001,6,0,P|80:228|108:324,1,140,4|8,0:3|0:0,0:0:0:0:
312,320,146739,2,0,B|228:308|276:360|176:344,1,140,2|0,0:3|0:0,0:0:0:0:
88,303,147477,1,10,0:0:0:0:
168,248,147723,1,2,0:0:0:0:
0,200,147969,6,0,P|4:252|8:344,1,140,2|8,0:0|0:0,0:0:0:0:
100,172,148706,2,0,P|96:120|92:88,1,70,2|2,0:0|0:0,0:0:0:0:
108,296,149198,1,2,0:0:0:0:
184,184,149444,1,10,0:0:0:0:
196,336,149690,1,2,0:0:0:0:
392,288,149936,6,0,P|344:252|264:272,1,140,6|8,0:3|0:0,0:0:0:0:
196,336,150673,1,2,0:0:0:0:
168,208,150919,1,2,0:0:0:0:
112,368,151165,2,0,P|88:364|32:360,1,70,2|8,0:0|0:0,0:0:0:0:
12,212,151657,1,2,0:0:0:0:
20,204,151780,1,0,0:0:0:0:
28,196,151903,6,0,P|92:200|172:208,1,140,0|8,0:0|0:0,0:0:0:0:
292,296,152641,2,0,P|278:228|322:168,1,140,2|2,0:0|0:0,0:0:0:0:
404,124,153378,1,10,0:0:0:0:
404,212,153624,5,2,0:0:0:0:
328,80,153870,1,2,0:0:0:0:
496,164,154116,2,0,P|492:200|488:316,1,140,2|0,0:0|0:0,0:0:0:0:
404,212,154854,1,2,0:0:0:0:
332,304,155101,2,0,P|364:300|404:300,1,70,2|8,0:0|0:0,0:0:0:0:
280,184,155592,1,2,0:0:0:0:
272,176,155714,1,0,0:0:0:0:
264,168,155837,6,0,P|168:172|111:177,1,140,4|8,0:3|0:0,0:0:0:0:
12,108,156575,2,0,P|16:132|20:180,1,70,2|2,0:0|0:0,0:0:0:0:
92,56,157067,1,2,0:0:0:0:
124,175,157313,1,10,0:0:0:0:
184,44,157559,1,2,0:0:0:0:
224,232,157805,6,0,P|276:200|364:220,1,140,6|10,0:0|0:0,0:0:0:0:
456,312,158542,2,0,P|460:240|468:172,1,140,2|0,0:0|0:0,0:0:0:0:
404,60,159280,1,10,0:0:0:0:
351,211,159526,6,0,B|280:216|304:166|218:173,1,140,2|0,0:0|0:0,0:0:0:0:
160,256,160264,1,10,0:0:0:0:
64,192,160509,2,0,P|72:240|80:340,1,140,2|0,0:0|0:0,0:0:0:0:
160,256,161247,1,10,0:0:0:0:
244,340,161493,1,2,0:0:0:0:
252,336,161616,1,0,0:0:0:0:
264,328,161739,6,0,P|292:276|268:196,1,140,4|8,0:3|0:0,0:0:0:0:
408,128,162477,2,0,P|400:184|396:268,1,140,2|2,0:0|0:0,0:0:0:0:
316,68,163214,1,8,0:0:0:0:
272,201,163460,6,0,B|220:197|220:197|193:171|193:171|126:166,1,140,6|8,0:0|0:3,0:0:0:0:
64,224,164198,1,10,0:0:0:0:
52,132,164444,1,8,0:3:0:0:
148,264,164690,5,10,0:3:0:0:
128,80,164936,1,8,0:3:0:0:
64,224,165182,1,10,0:0:0:0:
172,160,165428,1,0,0:0:0:0:
184,156,165551,1,0,0:0:0:0:
196,152,165673,6,0,P|252:156|336:168,1,140,6|8,0:0|0:0,0:0:0:0:
424,128,166411,1,2,0:0:0:0:
328,68,166657,1,2,0:0:0:0:
512,52,166903,2,0,P|508:76|504:136,1,70,2|8,0:0|0:0,0:0:0:0:
444,276,167395,6,0,P|386:238|318:248,1,140,2|0,0:0|0:0,0:0:0:0:
318,248,168132,1,8,0:0:0:0:
264,340,168378,1,2,0:0:0:0:
208,212,168624,1,2,0:0:0:0:
164,352,168870,2,0,P|144:348|88:344,1,70,2|8,0:0|0:0,0:0:0:0:
8,212,169362,1,2,0:0:0:0:
20,204,169485,1,0,0:0:0:0:
32,196,169608,6,0,P|52:200|108:204,1,70,4|0,0:3|0:0,0:0:0:0:
192,136,170099,1,8,0:0:0:0:
272,256,170345,2,0,P|277:186|287:116,1,140,2|0,0:0|0:0,0:0:0:0:
216,32,171083,1,8,0:0:0:0:
122,143,171329,6,0,P|146:139|194:135,1,70,2|0,0:0|0:0,0:0:0:0:
96,244,171821,2,0,P|120:240|168:236,1,70,2|8,0:0|0:0,0:0:0:0:
72,340,172313,2,0,P|96:336|144:332,1,70,2|0,0:0|0:0,0:0:0:0:
296,308,172805,1,2,0:0:0:0:
165,236,173050,1,10,0:0:0:0:
220,372,173296,1,2,0:0:0:0:
272,196,173542,6,0,B|352:180|324:236|416:216,1,140,4|8,0:3|0:0,0:0:0:0:
512,124,174280,2,0,P|504:188|500:284,1,140,2|0,0:0|0:0,0:0:0:0:
432,32,175018,1,10,0:0:0:0:
392,176,175264,6,0,P|336:204|260:172,1,140,2|0,0:0|0:0,0:0:0:0:
160,120,176001,2,0,P|166:151|170:199,1,70,10|0,0:0|0:0,0:0:0:0:
92,304,176493,2,0,P|88:269|82:234,1,70,2|0,0:0|0:0,0:0:0:0:
56,104,176985,1,8,0:0:0:0:
169,189,177231,1,2,0:0:0:0:
177,197,177353,1,0,0:0:0:0:
185,205,177476,6,0,B|273:221|233:161|337:177,1,140,4|8,0:3|0:0,0:0:0:0:
452,280,178214,2,0,P|404:224|464:208,1,140,2|2,0:0|0:0,0:0:0:0:
344,332,178952,1,8,0:0:0:0:
228,232,179198,6,0,P|236:280|244:384,1,140,6|0,0:0|0:0,0:0:0:0:
328,216,179936,2,0,P|328:172|332:132,2,70,10|0|2,0:0|0:0|0:0,0:0:0:0:
260,32,180673,1,2,0:0:0:0:
384,72,180919,1,10,0:0:0:0:
228,120,181165,1,2,0:0:0:0:
432,176,181411,6,0,P|428:224|424:328,1,140,6|8,0:3|0:0,0:0:0:0:
424,315,182149,1,0,0:0:0:0:
512,216,182395,1,2,0:0:0:0:
336,160,182641,2,0,P|340:188|344:236,1,70,2|8,0:0|0:0,0:0:0:0:
456,40,183132,1,2,0:0:0:0:
460,52,183255,1,0,0:0:0:0:
464,64,183378,6,0,P|460:92|456:140,1,70,4|0,0:3|0:0,0:0:0:0:
364,24,183870,1,8,0:0:0:0:
328,148,184116,2,0,B|248:168|276:112|193:129,1,140,2|0,0:0|0:0,0:0:0:0:
72,184,184853,1,10,0:0:0:0:
108,68,185099,1,2,0:0:0:0:
140,256,185346,6,0,P|196:248|292:240,1,140,6|8,0:3|0:0,0:0:0:0:
392,280,186083,1,2,0:0:0:0:
242,347,186329,2,0,P|277:343|312:340,1,70,2|0,0:0|0:0,0:0:0:0:
432,380,186821,1,10,0:0:0:0:
400,202,187067,1,2,0:0:0:0:
392,206,187189,1,0,0:0:0:0:
384,210,187313,6,0,P|388:238|392:290,1,70,4|0,0:3|0:0,0:0:0:0:
296,140,187805,1,8,0:0:0:0:
196,236,188050,2,0,P|230:236|265:240,1,70,2|0,0:0|0:0,0:0:0:0:
448,128,188542,2,0,P|413:127|378:123,1,70,2|8,0:0|0:0,0:0:0:0:
284,40,189034,1,2,0:0:0:0:
265,240,189280,6,0,P|262:205|257:170,1,70,6|0,0:0|0:0,0:0:0:0:
352,352,189773,2,0,P|354:317|359:282,1,70,10|0,0:0|0:0,0:0:0:0:
416,152,190264,1,2,0:0:0:0:
480,320,190509,2,0,P|482:285|487:250,1,70,2|8,0:0|0:0,0:0:0:0:
320,156,191001,1,2,0:0:0:0:
308,152,191124,1,0,0:0:0:0:
296,148,191247,6,0,P|248:216|276:280,1,140,4|8,0:3|0:0,0:0:0:0:
352,344,191985,1,2,0:0:0:0:
220,368,192230,1,2,0:0:0:0:
364,256,192477,2,0,P|404:260|452:268,1,70,2|8,0:0|0:0,0:0:0:0:
232,144,192968,1,2,0:0:0:0:
224,152,193091,1,0,0:0:0:0:
216,160,193214,6,0,P|204:200|208:236,1,70,6|2,0:0|0:0,0:0:0:0:
360,140,193706,1,10,0:0:0:0:
264,56,193952,1,2,0:0:0:0:
308,240,194198,2,0,P|344:236|396:232,1,70,2|2,0:0|0:0,0:0:0:0:
188,136,194689,1,10,0:0:0:0:
120,320,194936,6,0,P|116:272|104:224,1,70,6|0,0:0|0:0,0:0:0:0:
316,280,195428,1,10,0:0:0:0:
236,208,195673,1,10,0:0:0:0:
220,312,195919,1,10,0:0:0:0:
320,192,196165,5,10,0:3:0:0:
296,384,196411,1,8,0:3:0:0:
148,248,196657,1,10,0:3:0:0:
400,292,196903,1,0,0:0:0:0:
412,296,197026,1,0,0:0:0:0:
424,300,197149,6,0,P|420:324|416:384,1,70,6|2,0:0|0:0,0:0:0:0:
352,188,197641,1,10,0:0:0:0:
200,300,197887,2,0,P|266:288|319:330,1,140,2|0,0:0|0:0,0:0:0:0:
200,172,198624,1,8,0:0:0:0:
64,256,198870,2,0,P|81:254|98:254,2,35,2|2|2,0:0|0:0|0:0,0:0:0:0:
120,92,199362,5,2,0:0:0:0:
192,264,199608,1,10,0:0:0:0:
20,168,199854,1,2,0:0:0:0:
236,88,200100,2,0,P|232:112|228:176,1,70,2|0,0:0|0:0,0:0:0:0:
88,320,200591,2,0,P|90:285|95:250,1,70,10|0,0:0|0:0,0:0:0:0:
116,84,201083,5,6,0:3:0:0:
184,236,201329,1,2,0:0:0:0:
36,144,201575,1,10,0:0:0:0:
228,64,201821,2,0,P|222:98|219:133,1,70,2|0,0:0|0:0,0:0:0:0:
100,304,202313,2,0,P|97:269|91:234,1,70,2|8,0:0|0:0,0:0:0:0:
320,280,202805,6,0,P|276:236|184:256,1,140,2|0,0:0|0:0,0:0:0:0:
160,352,203542,1,8,0:0:0:0:
56,260,203788,2,0,P|60:292|64:348,1,70,2|0,0:0|0:0,0:0:0:0:
104,132,204280,1,2,0:0:0:0:
164,260,204526,1,10,0:0:0:0:
200,96,204772,1,2,0:0:0:0:
380,224,205018,6,0,B|289:239|333:183|233:199,1,140,6|10,0:0|0:0,0:0:0:0:
136,296,205755,2,0,P|132:236|128:216,1,70,2|0,0:0|0:0,0:0:0:0:
192,72,206247,1,2,0:0:0:0:
247,197,206493,1,10,0:0:0:0:
108,128,206739,1,2,0:0:0:0:
344,88,206985,6,0,P|336:148|332:228,1,140,6|10,0:0|0:0,0:0:0:0:
232,352,207723,2,0,P|229:317|224:282,1,70,2|0,0:0|0:0,0:0:0:0:
168,132,208214,1,2,0:0:0:0:
120,264,208460,1,10,0:0:0:0:
260,156,208706,1,2,0:0:0:0:
68,96,208952,6,0,P|72:124|76:192,1,70,6|0,0:0|0:0,0:0:0:0:
208,304,209444,2,0,P|204:276|200:208,1,70,10|0,0:0|0:0,0:0:0:0:
248,72,209936,1,2,0:0:0:0:
396,168,210182,2,0,P|356:172|308:184,1,70,2|8,0:0|0:0,0:0:0:0:
112,160,210673,2,0,P|146:152|181:149,1,70,6|0,0:0|0:0,0:0:0:0:
16,296,211165,5,10,0:3:0:0:
100,251,211411,1,10,0:0:0:0:
17,197,211657,1,10,0:3:0:0:
104,360,211903,2,0,P|132:344|176:328,1,70,10|8,0:3|0:3,0:0:0:0:
196,124,212395,2,0,P|168:140|124:156,1,70,10|0,0:0|0:0,0:0:0:0:
120,152,212764,1,0,0:0:0:0:
108,148,212887,6,0,P|136:132|180:116,1,70,6|2,0:0|0:0,0:0:0:0:
296,200,213379,1,10,0:0:0:0:
191,343,213625,2,0,P|161:288|195:222,1,140,2|0,0:0|0:0,0:0:0:0:
92,128,214362,1,8,0:0:0:0:
40,276,214608,2,0,P|40:268|37:241,1,35,2|2,0:0|0:0,0:0:0:0:
56,264,214854,6,0,P|60:320|64:360,2,70,2|0|8,0:0|0:0|0:0,0:0:0:0:
120,148,215591,1,2,0:0:0:0:
256,260,215838,2,0,P|228:256|172:252,1,70,2|0,0:0|0:0,0:0:0:0:
380,188,216329,2,0,P|408:192|464:196,1,70,10|0,0:0|0:0,0:0:0:0:
252,104,216821,5,6,0:3:0:0:
348,276,217067,1,2,0:0:0:0:
384,76,217313,1,10,0:0:0:0:
248,216,217559,2,0,B|164:232|200:172|108:184,1,140,2|0,0:0|0:0,0:0:0:0:
104,312,218296,1,10,0:0:0:0:
0,164,218543,6,0,P|8:228|12:308,1,140,2|0,0:0|0:0,0:0:0:0:
84,112,219280,1,8,0:0:0:0:
192,232,219526,2,0,P|157:229|122:230,1,70,2|0,0:0|0:0,0:0:0:0:
340,156,220018,1,2,0:0:0:0:
292,280,220264,1,10,0:0:0:0:
232,140,220510,1,2,0:0:0:0:
396,244,220756,6,0,P|388:312|384:392,1,140,6|8,0:0|0:0,0:0:0:0:
212,248,221493,2,0,P|248:240|296:248,1,70,2|0,0:0|0:0,0:0:0:0:
120,348,221985,1,2,0:0:0:0:
124,224,222231,1,10,0:0:0:0:
216,352,222477,1,2,0:0:0:0:
28,372,222723,6,0,B|12:328|12:328|32:228,1,140,6|10,0:0|0:0,0:0:0:0:
160,144,223461,2,0,P|156:168|148:228,1,70,2|0,0:0|0:0,0:0:0:0:
124,360,223952,1,2,0:0:0:0:
232,256,224198,1,10,0:0:0:0:
64,276,224444,1,2,0:0:0:0:
256,356,224690,6,0,P|284:352|344:348,2,70,6|2|10,0:0|0:0|0:0,0:0:0:0:
416,216,225428,2,0,P|428:252|424:292,1,70,2|2,0:0|0:0,0:0:0:0:
344,128,225919,2,0,P|342:93|354:60,1,70,2|10,0:0|0:0,0:0:0:0:
300,244,226411,6,0,B|208:260|256:200|160:216,1,140,6|8,0:0|0:3,0:0:0:0:
56,136,227149,2,0,P|61:170|64:205,1,70,8|8,0:0|0:3,0:0:0:0:
160,24,227641,2,0,P|152:76|148:128,2,105,2|2|2,0:0|0:0|0:0,0:0:0:0:
248,192,228624,6,0,P|332:192|372:144,1,140,6|10,0:0|0:0,0:0:0:0:
480,68,229362,2,0,P|472:120|464:212,1,140,2|0,0:0|0:0,0:0:0:0:
504,320,230100,1,10,0:0:0:0:
372,276,230346,6,0,P|376:304|380:368,1,70,2|0,0:0|0:0,0:0:0:0:
272,192,230837,2,0,P|274:157|279:122,1,70,2|8,0:0|0:0,0:0:0:0:
256,328,231329,1,2,0:0:0:0:
112,236,231575,2,0,P|146:239|181:247,2,70,2|0|10,0:0|0:0|0:0,0:0:0:0:
24,108,232313,1,0,0:0:0:0:
20,120,232436,1,0,0:0:0:0:
16,132,232559,6,0,P|24:204|28:272,1,140,6|8,0:3|0:0,0:0:0:0:
120,116,233296,2,0,P|176:80|260:108,1,140,2|0,0:0|0:0,0:0:0:0:
275,205,234034,2,0,P|342:220|400:184,1,140,10|0,0:0|0:0,0:0:0:0:
512,92,234772,2,0,P|501:161|496:231,1,140,2|0,0:0|0:0,0:0:0:0:
376,20,235509,6,0,P|380:52|384:96,1,70,6|0,0:0|0:0,0:0:0:0:
296,257,236001,2,0,P|299:222|304:188,1,70,6|0,0:0|0:0,0:0:0:0:
196,40,236493,6,0,P|200:72|204:116,1,70,6|2,0:0|0:0,0:0:0:0:
147,226,236985,1,10,0:0:0:0:
24,136,237231,2,0,P|58:130|93:126,2,70,2|0|0,0:0|0:0|0:0,0:0:0:0:
176,40,237969,1,10,0:0:0:0:
268,168,238214,6,0,P|272:104|280:28,1,140,6|2,0:0|0:0,0:0:0:0:
384,208,238952,2,0,P|380:244|376:300,1,70,10|2,0:0|0:0,0:0:0:0:
392,104,239444,1,2,0:0:0:0:
476,160,239690,1,2,0:0:0:0:
384,208,239936,1,10,0:0:0:0:
476,60,240182,1,2,0:0:0:0:
264,40,240428,6,0,P|272:100|276:204,1,140,6|10,0:0|0:0,0:0:0:0:
168,332,241165,2,0,P|148:272|184:196,1,140,6|10,0:0|0:0,0:0:0:0:
392,288,241903,2,0,P|344:280|252:272,1,140,14|14,0:0|0:0,0:0:0:0:
116,348,242641,6,0,P|116:328|111:284,2,35,2|2|10,0:0|0:0|0:0,0:0:0:0:
156,216,243132,1,2,0:0:0:0:
204,336,243378,1,2,0:0:0:0:
244,172,243624,1,2,0:0:0:0:
296,356,243870,1,10,0:0:0:0:
372,224,244116,2,0,P|352:224|313:227,2,35,2|2|6,0:0|0:0|0:0,0:0:0:0:
168,252,244608,5,10,0:0:0:0:
276,120,244854,1,10,0:0:0:0:
308,308,245100,1,10,0:0:0:0:
172,120,245346,5,10,0:3:0:0:
372,180,245591,1,8,0:3:0:0:
100,224,245837,1,10,0:3:0:0:
88,216,246329,6,0,P|93:245|97:293,1,70,6|2,0:0|0:0,0:0:0:0:
164,112,246821,1,10,0:0:0:0:
312,236,247067,2,0,B|228:252|268:196|180:212,1,140,2|0,0:0|0:0,0:0:0:0:
360,128,247804,1,8,0:0:0:0:
432,288,248050,2,0,P|432:272|436:240,2,35,2|2|2,0:0|0:0|0:0,0:0:0:0:
452,76,248542,5,2,0:0:0:0:
328,232,248788,1,10,0:0:0:0:
512,156,249034,1,2,0:0:0:0:
324,40,249280,2,0,P|332:76|336:124,1,70,2|0,0:0|0:0,0:0:0:0:
420,284,249772,2,0,P|423:249|431:215,1,70,10|0,0:0|0:0,0:0:0:0:
228,232,250263,5,6,0:3:0:0:
335,108,250509,1,2,0:0:0:0:
324,304,250755,1,10,0:0:0:0:
148,152,251001,2,0,P|172:148|236:144,1,70,2|0,0:0|0:0,0:0:0:0:
420,204,251493,2,0,P|396:208|332:212,1,70,2|8,0:0|0:0,0:0:0:0:
244,364,251985,6,0,P|269:312|217:228,1,140,2|0,0:0|0:0,0:0:0:0:
148,152,252722,1,8,0:0:0:0:
56,240,252968,2,0,P|90:240|125:244,1,70,2|0,0:0|0:0,0:0:0:0:
276,160,253460,1,2,0:0:0:0:
216,308,253706,1,10,0:0:0:0:
168,128,253952,1,2,0:0:0:0:
352,232,254198,6,0,P|344:296|340:372,1,140,6|10,0:0|0:0,0:0:0:0:
476,244,254936,2,0,P|496:176|444:104,1,140,2|0,0:0|0:0,0:0:0:0:
376,28,255673,1,10,0:0:0:0:
360,160,255919,1,2,0:0:0:0:
224,44,256165,6,0,B|144:28|172:84|84:64,1,140,6|10,0:0|0:0,0:0:0:0:
16,208,256903,2,0,P|12:168|0:128,1,70,2|0,0:0|0:0,0:0:0:0:
124,240,257395,2,0,P|115:273|112:308,1,70,2|8,0:0|0:0,0:0:0:0:
176,120,257886,1,2,0:0:0:0:
312,232,258132,6,0,P|276:228|232:228,1,70,6|0,0:0|0:0,0:0:0:0:
404,128,258624,2,0,P|368:124|324:124,1,70,10|0,0:0|0:0,0:0:0:0:
472,220,259116,1,2,0:0:0:0:
512,44,259362,2,0,P|508:92|508:128,1,70,2|8,0:0|0:0,0:0:0:0:
384,288,259854,2,0,P|383:253|379:218,1,70,6|0,0:0|0:0,0:0:0:0:
276,56,260345,5,10,0:3:0:0:
268,160,260591,1,10,0:0:0:0:
360,112,260837,1,10,0:3:0:0:
168,96,261083,2,0,P|172:124|176:184,1,70,10|8,0:3|0:3,0:0:0:0:
352,304,261575,2,0,P|348:276|344:216,1,70,10|0,0:0|0:3,0:0:0:0:
352,224,261944,1,0,0:0:0:0:
360,216,262067,6,0,P|364:244|368:304,1,70,6|2,0:0|0:3,0:0:0:0:
336,88,262559,1,10,0:0:0:0:
472,188,262805,2,0,B|484:227|484:227|476:336,1,140,2|0,0:0|0:0,0:0:0:0:
372,164,263542,1,8,0:0:0:0:
289,273,263788,2,0,P|308:272|324:272,1,35,2|2,0:0|0:0,0:0:0:0:
300,296,264034,6,0,P|260:296|216:300,2,70,2|0|8,0:0|0:0|0:0,0:0:0:0:
144,372,264772,1,2,0:0:0:0:
64,232,265018,2,0,P|60:266|58:301,1,70,2|0,0:0|0:0,0:0:0:0:
176,132,265509,2,0,P|172:166|170:201,1,70,10|0,0:0|0:0,0:0:0:0:
72,48,266001,5,6,0:3:0:0:
264,112,266247,1,2,0:0:0:0:
52,196,266493,1,10,0:0:0:0:
268,280,266739,2,0,P|264:244|260:192,1,70,2|0,0:0|0:0,0:0:0:0:
172,68,267231,1,2,0:0:0:0:
144,244,267476,1,10,0:0:0:0:
284,104,267723,6,0,B|368:96|336:152|420:140,1,140,2|0,0:0|0:0,0:0:0:0:
408,24,268460,1,8,0:0:0:0:
512,164,268706,2,0,P|508:128|504:72,1,70,2|0,0:0|0:0,0:0:0:0:
464,280,269198,1,2,0:0:0:0:
400,164,269444,1,10,0:0:0:0:
368,336,269690,1,2,0:0:0:0:
288,156,269936,6,0,P|232:120|148:148,1,140,6|10,0:0|0:0,0:0:0:0:
64,212,270673,2,0,P|60:160|56:140,1,70,2|0,0:0|0:0,0:0:0:0:
108,32,271165,1,2,0:0:0:0:
163,134,271411,1,10,0:0:0:0:
220,4,271657,1,2,0:0:0:0:
268,192,271903,6,0,B|316:200|316:200|360:184|360:184|432:196,1,140,6|10,0:0|0:0,0:0:0:0:
512,120,272641,2,0,P|507:154|504:189,1,70,2|0,0:0|0:0,0:0:0:0:
432,52,273132,1,2,0:0:0:0:
403,191,273378,1,10,0:0:0:0:
320,32,273624,1,2,0:0:0:0:
284,224,273870,6,0,P|252:220|192:216,1,70,6|2,0:0|0:0,0:0:0:0:
116,76,274362,2,0,P|148:80|208:84,1,70,10|2,0:0|0:0,0:0:0:0:
76,192,274854,1,2,0:0:0:0:
0,40,275100,2,0,P|4:68|6:109,1,70,2|10,0:0|0:0,0:0:0:0:
176,188,275591,6,0,B|264:204|224:148|316:168,1,140,6|8,0:0|0:3,0:0:0:0:
384,288,276329,2,0,P|360:284|308:280,1,70,8|8,0:0|0:3,0:0:0:0:
512,216,276821,2,0,P|504:260|496:344,2,105,2|2|2,0:0|0:0|0:0,0:0:0:0:
300,168,277804,6,0,P|356:128|436:152,1,140,6|10,0:0|0:0,0:0:0:0:
512,216,278542,1,2,0:0:0:0:
496,80,278788,1,2,0:0:0:0:
424,256,279034,2,0,P|400:252|348:248,1,70,2|8,0:0|0:0,0:0:0:0:
144,176,279526,6,0,B|228:192|192:136|276:152,1,140,2|0,0:0|0:0,0:0:0:0:
409,241,280264,2,0,P|412:206|421:172,1,70,10|0,0:0|0:0,0:0:0:0:
272,248,280755,2,0,P|300:268|325:292,1,70,2|0,0:0|0:0,0:0:0:0:
341,128,281247,2,0,P|309:142|275:151,1,70,10|0,0:0|0:0,0:0:0:0:
476,200,281739,6,0,P|448:136|492:68,1,140,6|8,0:3|0:0,0:0:0:0:
336,16,282476,2,0,P|342:46|346:86,2,70,2|2|2,0:0|0:0|0:0,0:0:0:0:
288,200,283214,1,10,0:0:0:0:
152,120,283460,6,0,P|186:117|221:112,1,70,2|0,0:0|0:0,0:0:0:0:
396,180,283952,1,2,0:0:0:0:
208,260,284198,1,10,0:0:0:0:
332,80,284444,1,2,0:0:0:0:
324,312,284690,5,2,0:0:0:0:
296,212,284935,1,2,0:0:0:0:
396,180,285181,1,10,0:0:0:0:
428,280,285427,1,2,0:0:0:0:
228,272,285673,6,0,B|140:260|180:312|96:304,1,140,6|8,0:3|0:0,0:0:0:0:
12,228,286411,1,2,0:0:0:0:
32,376,286657,1,2,0:0:0:0:
76,160,286903,1,2,0:0:0:0:
97,304,287149,1,10,0:0:0:0:
213,87,287395,6,0,P|178:84|144:88,1,70,2|0,0:0|0:0,0:0:0:0:
300,184,287887,1,2,0:0:0:0:
364,24,288132,2,0,P|367:58|369:93,1,70,10|0,0:0|0:0,0:0:0:0:
476,192,288624,2,0,P|472:157|470:122,1,70,2|0,0:0|0:0,0:0:0:0:
300,184,289116,2,0,P|303:218|305:253,1,70,10|0,0:0|0:0,0:0:0:0:
400,384,289608,6,0,B|412:340|412:340|400:232,1,140,6|8,0:3|0:0,0:0:0:0:
512,148,290345,2,0,P|508:182|507:217,1,70,2|2,0:0|0:0,0:0:0:0:
452,36,290837,1,2,0:0:0:0:
416,168,291083,1,10,0:0:0:0:
336,28,291329,6,8,B|256:16|288:68|196:52,1,140,6|10,0:0|0:3,0:0:0:0:
117,240,292067,1,10,0:0:0:0:
317,211,292313,1,10,0:3:0:0:
160,146,292559,5,10,0:3:0:0:
217,225,292805,1,10,0:3:0:0:
257,133,293050,1,10,0:3:0:0:
99,73,293296,1,10,0:3:0:0:
117,240,293542,5,6,0:0:0:0:
256,192,293665,12,0,297477,0:0:0:0:
