osu file format v14

[General]
AudioFilename: audio.mp3
AudioLeadIn: 0
PreviewTime: 63457
Countdown: 0
SampleSet: None
StackLeniency: 0.7
Mode: 3
LetterboxInBreaks: 0
SpecialStyle: 0
WidescreenStoryboard: 0

[Editor]
Bookmarks: 37211
DistanceSpacing: 2
BeatDivisor: 4
GridSize: 16
TimelineZoom: 1.4

[Metadata]
Title:M Flat
TitleUnicode:M♭
Artist:Kato Megumi (CV.Kiyono Yasuno)
ArtistUnicode:Kato Megumi (CV.Kiyono Yasuno)
Creator:DandyHD
Version:Blessing
Source:Saenai Heroine no Sodatekata
Tags:SaenaiHeroinenoSodatekata Anime J-POP MegumiKato
BeatmapID:1419737
BeatmapSetID:671478

[Difficulty]
HPDrainRate:8
CircleSize:4
OverallDifficulty:8
ApproachRate:5
SliderMultiplier:1.4
SliderTickRate:1

[Events]
//Background and Video events
0,0,"679017.jpg",0,0
//Break Periods
//Storyboard Layer 0 (Background)
//Storyboard Layer 1 (Fail)
//Storyboard Layer 2 (Pass)
//Storyboard Layer 3 (Foreground)
//Storyboard Sound Samples

[TimingPoints]
930,375,4,2,2,30,1,0
10492,-100,4,2,1,25,0,0
62898,-100,4,2,1,10,0,0
63180,-100,4,2,1,25,0,0
76211,-66.6666666666667,4,2,1,25,0,0
76398,-500,4,2,1,25,0,0
76492,-100,4,2,1,25,0,0
77148,-1000,4,2,1,25,0,0
77242,-66.6666666666667,4,2,1,25,0,0
77336,-133.333333333333,4,2,1,25,0,0
77430,-100,4,2,1,25,0,0
87648,-66.6666666666667,4,2,1,25,0,0
87930,-133.333333333333,4,2,1,25,0,0
88117,-100,4,2,1,25,0,0
151211,-1000,4,2,1,25,0,0
151398,-133.333333333333,4,2,1,25,0,0
151492,-100,4,2,1,25,0,0
152148,-1000,4,2,1,25,0,0
152242,-66.6666666666667,4,2,1,25,0,0
152336,-133.333333333333,4,2,1,25,0,0
152430,-100,4,2,1,25,0,0

[HitObjects]
64,192,930,5,0,0:0:0:0:
320,192,1023,1,0,0:0:0:0:
64,192,1117,1,2,0:0:0:0:
320,192,1305,1,2,0:0:0:0:
192,192,1492,1,2,0:0:0:0:
320,192,1680,1,2,0:0:0:0:
64,192,1867,1,2,0:0:0:0:
192,192,2055,1,2,0:0:0:0:
64,192,2242,1,0,0:0:0:0:
448,192,2242,1,2,0:0:0:0:
192,192,2336,1,2,0:0:0:0:
320,192,2430,1,2,0:0:0:0:
64,192,2523,1,0,0:0:0:0:
448,192,2523,1,2,0:0:0:0:
192,192,2617,1,0,0:0:0:0:
448,192,2711,1,0,0:0:0:0:
192,192,2805,1,0,0:0:0:0:
320,192,2992,1,0,0:0:0:0:
192,192,3180,1,2,0:0:0:0:
448,192,3180,1,0,0:0:0:0:
64,192,3367,1,0,0:0:0:0:
192,192,3555,1,0,0:0:0:0:
320,192,3555,1,0,0:0:0:0:
320,192,3742,1,0,0:0:0:0:
192,192,3930,1,0,0:0:0:0:
320,192,4117,1,2,0:0:0:0:
64,192,4117,1,0,0:0:0:0:
192,192,4305,1,2,0:0:0:0:
320,192,4492,1,2,0:0:0:0:
448,192,4680,1,2,0:0:0:0:
320,192,4867,1,2,0:0:0:0:
448,192,5055,1,2,0:0:0:0:
64,192,5055,1,0,0:0:0:0:
320,192,5148,1,0,0:0:0:0:
192,192,5242,1,2,0:0:0:0:
448,192,5336,1,0,0:0:0:0:
192,192,5430,1,2,0:0:0:0:
64,192,5523,1,0,0:0:0:0:
448,192,5523,1,0,0:0:0:0:
192,192,5711,1,2,0:0:0:0:
64,192,5898,1,0,0:0:0:0:
448,192,5898,1,2,0:0:0:0:
192,192,6086,1,2,0:0:0:0:
448,192,6273,1,2,0:0:0:0:
64,192,6273,1,0,0:0:0:0:
320,192,6461,1,0,0:0:0:0:
448,192,6648,1,0,0:0:0:0:
192,192,6648,1,2,0:0:0:0:
192,192,6836,1,2,0:0:0:0:
64,192,7023,1,0,0:0:0:0:
448,192,7023,1,2,0:0:0:0:
192,192,7211,1,2,0:0:0:0:
320,192,7398,1,2,0:0:0:0:
448,192,7586,1,2,0:0:0:0:
192,192,7586,1,0,0:0:0:0:
320,192,7773,1,2,0:0:0:0:
448,192,7961,1,2,0:0:0:0:
64,192,8055,1,0,0:0:0:0:
192,192,8055,1,0,0:0:0:0:
192,192,8242,1,2,0:0:0:0:
320,192,8430,1,2,0:0:0:0:
192,192,8523,1,2,0:0:0:0:
64,192,8617,1,2,0:0:0:0:
448,192,8617,1,0,0:0:0:0:
320,192,8711,1,2,0:0:0:0:
192,192,8898,1,2,0:0:0:0:
64,192,9086,1,0,0:0:0:0:
448,192,9086,1,2,0:0:0:0:
320,192,9180,1,2,0:0:0:0:
192,192,9273,1,2,0:0:0:0:
64,192,9461,1,0,0:0:0:0:
448,192,9461,1,2,0:0:0:0:
192,192,9648,1,2,0:0:0:0:
192,192,9836,128,0,10117:0:0:0:0:
320,192,9836,1,2,0:0:0:0:
64,192,10117,1,0,0:0:0:0:
448,192,10117,1,0,0:0:0:0:
320,192,10117,1,4,0:0:0:0:
192,192,10305,1,2,0:0:0:0:
192,192,10586,1,0,0:0:0:0:
320,192,10586,1,2,0:0:0:0:
64,192,10586,1,0,0:0:0:0:
64,192,10773,1,0,0:0:0:0:
192,192,10773,1,2,0:0:0:0:
448,192,10773,1,0,0:0:0:0:
320,192,10961,1,2,0:0:0:0:
448,192,10961,1,0,0:0:0:0:
64,192,10961,1,0,0:0:0:0:
448,192,11148,1,0,0:0:0:0:
192,192,11148,1,2,0:0:0:0:
320,192,11148,1,0,0:0:0:0:
192,192,11336,1,0,0:0:0:0:
448,192,11336,1,2,0:0:0:0:
64,192,11336,1,0,0:0:0:0:
448,192,11523,1,0,0:0:0:0:
320,192,11523,1,2,0:0:0:0:
64,192,11523,1,4,0:0:0:0:
64,192,11711,1,0,0:0:0:0:
192,192,11711,1,4,0:0:0:0:
448,192,11711,1,2,0:0:0:0:
64,192,11898,1,0,0:0:0:0:
320,192,11898,1,4,0:0:0:0:
448,192,11898,1,0,0:0:0:0:
64,192,12367,1,0,0:0:0:0:
320,192,12367,1,0,0:0:0:0:
448,192,12367,1,2,0:0:0:0:
192,192,12555,1,6,0:0:0:0:
320,192,12555,1,0,0:0:0:0:
448,192,12555,1,0,0:0:0:0:
448,192,13117,1,0,0:0:0:0:
64,192,13117,1,4,0:0:0:0:
192,192,13117,1,0,0:0:0:0:
320,192,13305,1,0,0:0:0:0:
192,192,13305,1,2,0:0:0:0:
64,192,13305,1,0,0:0:0:0:
64,192,13492,1,0,0:0:0:0:
448,192,13492,1,0,0:0:0:0:
320,192,13492,1,8,0:0:0:0:
192,192,13867,1,2,0:0:0:0:
64,192,13867,1,0,0:0:0:0:
448,192,13867,1,0,0:0:0:0:
192,192,14055,1,2,0:0:0:0:
320,192,14055,1,0,0:0:0:0:
448,192,14055,1,0,0:0:0:0:
320,192,14242,1,8,0:0:0:0:
64,192,14242,1,0,0:0:0:0:
448,192,14242,1,0,0:0:0:0:
64,192,14617,1,0,0:0:0:0:
320,192,14617,1,2,0:0:0:0:
448,192,14617,1,0,0:0:0:0:
64,192,14805,1,0,0:0:0:0:
320,192,14805,1,2,0:0:0:0:
192,192,14805,1,0,0:0:0:0:
448,192,14992,1,8,0:0:0:0:
64,192,14992,1,0,0:0:0:0:
320,192,14992,1,0,0:0:0:0:
64,192,15367,1,0,0:0:0:0:
320,192,15367,1,2,0:0:0:0:
448,192,15367,1,0,0:0:0:0:
192,192,15555,1,2,0:0:0:0:
448,192,15555,1,0,0:0:0:0:
320,192,15555,1,0,0:0:0:0:
192,192,15742,1,0,0:0:0:0:
448,192,15742,1,0,0:0:0:0:
64,192,15742,1,8,0:0:0:0:
320,192,16117,1,2,0:0:0:0:
64,192,16117,1,0,0:0:0:0:
448,192,16117,1,0,0:0:0:0:
320,192,16305,1,2,0:0:0:0:
64,192,16305,1,0,0:0:0:0:
192,192,16305,1,0,0:0:0:0:
64,192,16492,1,0,0:0:0:0:
192,192,16492,1,0,0:0:0:0:
448,192,16492,1,8,0:0:0:0:
192,192,16867,1,2,0:0:0:0:
448,192,16867,1,0,0:0:0:0:
64,192,16867,1,0,0:0:0:0:
448,192,17055,1,0,0:0:0:0:
192,192,17055,1,2,0:0:0:0:
320,192,17055,1,0,0:0:0:0:
64,192,17242,1,8,0:0:0:0:
448,192,17242,1,0,0:0:0:0:
192,192,17242,1,0,0:0:0:0:
448,192,17430,1,4,0:0:0:0:
320,192,17430,1,0,0:0:0:0:
64,192,17430,1,0,0:0:0:0:
192,192,17617,1,0,0:0:0:0:
448,192,17617,1,0,0:0:0:0:
64,192,17805,1,2,0:0:0:0:
320,192,17805,1,0,0:0:0:0:
448,192,17805,1,0,0:0:0:0:
192,192,17992,1,0,0:0:0:0:
320,192,18086,1,2,0:0:0:0:
64,192,18180,1,4,0:0:0:0:
192,192,18180,1,0,0:0:0:0:
448,192,18180,1,0,0:0:0:0:
320,192,18367,1,0,0:0:0:0:
192,192,18461,1,0,0:0:0:0:
64,192,18555,1,2,0:0:0:0:
448,192,18555,1,0,0:0:0:0:
192,192,18648,1,0,0:0:0:0:
448,192,18742,1,0,0:0:0:0:
64,192,18836,1,8,0:0:0:0:
192,192,18836,1,0,0:0:0:0:
320,192,18930,1,0,0:0:0:0:
448,192,18930,1,8,0:0:0:0:
64,192,19023,1,8,0:0:0:0:
192,192,19023,1,0,0:0:0:0:
320,192,19117,1,2,0:0:0:0:
64,192,19211,1,0,0:0:0:0:
192,192,19211,1,4,0:0:0:0:
448,192,19211,1,0,0:0:0:0:
192,192,19367,1,2,0:0:0:0:
320,192,19367,1,0,0:0:0:0:
448,192,19367,1,0,0:0:0:0:
64,192,19492,1,8,0:0:0:0:
320,192,19492,1,0,0:0:0:0:
448,192,19492,1,0,0:0:0:0:
192,192,19680,1,2,0:0:0:0:
448,192,19867,1,0,0:0:0:0:
320,192,19867,1,8,0:0:0:0:
64,192,19867,1,0,0:0:0:0:
320,192,20055,1,2,0:0:0:0:
64,192,20242,1,0,0:0:0:0:
192,192,20242,1,8,0:0:0:0:
448,192,20242,1,0,0:0:0:0:
192,192,20430,1,2,0:0:0:0:
320,192,20617,1,8,0:0:0:0:
448,192,20617,1,0,0:0:0:0:
64,192,20617,1,0,0:0:0:0:
320,192,20805,1,0,0:0:0:0:
64,192,20992,1,0,0:0:0:0:
192,192,20992,1,0,0:0:0:0:
448,192,20992,1,8,0:0:0:0:
192,192,21180,1,0,0:0:0:0:
64,192,21367,1,8,0:0:0:0:
320,192,21367,1,0,0:0:0:0:
448,192,21367,1,0,0:0:0:0:
320,192,21555,1,0,0:0:0:0:
192,192,21742,1,8,0:0:0:0:
64,192,21742,1,0,0:0:0:0:
448,192,21742,1,0,0:0:0:0:
192,192,21930,1,0,0:0:0:0:
64,192,22117,1,0,0:0:0:0:
320,192,22117,1,8,0:0:0:0:
448,192,22117,1,0,0:0:0:0:
320,192,22305,1,0,0:0:0:0:
64,192,22492,1,0,0:0:0:0:
448,192,22492,1,0,0:0:0:0:
192,192,22492,1,8,0:0:0:0:
192,192,22680,1,0,0:0:0:0:
64,192,22867,1,0,0:0:0:0:
320,192,22867,1,8,0:0:0:0:
448,192,22867,1,0,0:0:0:0:
320,192,23055,1,0,0:0:0:0:
64,192,23242,1,0,0:0:0:0:
192,192,23242,1,8,0:0:0:0:
448,192,23242,1,0,0:0:0:0:
64,192,23523,1,0,0:0:0:0:
192,192,23523,1,4,0:0:0:0:
448,192,23523,1,0,0:0:0:0:
320,192,23523,128,0,23805:0:0:0:0:
448,192,23805,1,2,0:0:0:0:
192,192,23805,1,0,0:0:0:0:
64,192,23805,128,0,23992:0:0:0:0:
192,192,23992,128,0,24273:0:0:0:0:
448,192,23992,1,0,0:0:0:0:
64,192,24273,1,0,0:0:0:0:
320,192,24273,1,4,0:0:0:0:
448,192,24273,1,0,0:0:0:0:
64,192,24648,1,2,0:1:0:0:
192,192,24742,1,2,0:1:0:0:
448,192,24836,1,2,0:1:0:0:
64,192,24836,1,0,0:0:0:0:
320,192,25211,1,0,0:0:0:0:
64,192,25211,1,2,0:0:0:0:
448,192,25211,1,4,0:0:0:0:
192,192,25211,128,0,25867:0:0:0:0:
448,192,25492,1,2,0:0:0:0:
448,192,25867,1,2,0:0:0:0:
320,192,25867,128,0,26617:0:0:0:0:
64,192,26242,1,2,0:0:0:0:
192,192,26617,1,2,0:0:0:0:
64,192,26617,128,0,27367:0:0:0:0:
320,192,26992,1,2,0:0:0:0:
192,192,27367,1,2,0:0:0:0:
448,192,27367,128,0,28117:0:0:0:0:
64,192,27742,1,2,0:0:0:0:
320,192,28117,1,2,0:0:0:0:
64,192,28117,128,0,28867:0:0:0:0:
192,192,28492,1,2,0:0:0:0:
320,192,28867,1,2,0:0:0:0:
448,192,28867,128,0,29617:0:0:0:0:
192,192,29242,1,2,0:0:0:0:
320,192,29617,1,2,0:0:0:0:
64,192,29617,128,0,30367:0:0:0:0:
192,192,29992,1,2,0:0:0:0:
448,192,29992,128,0,30180:0:0:0:0:
320,192,30180,128,0,30367:0:0:0:0:
192,192,30367,128,2,30555:0:1:0:0:
448,192,30367,1,2,0:0:0:0:
320,192,30555,128,2,30742:0:1:0:0:
448,192,30742,128,2,31117:0:1:0:0:
64,192,30742,1,2,0:0:0:0:
64,192,31117,1,4,0:0:0:0:
320,192,31117,1,2,0:0:0:0:
192,192,31117,128,2,31867:0:1:0:0:
320,192,31305,1,0,0:1:0:0:
64,192,31492,1,2,0:0:0:0:
448,192,31492,1,0,0:0:0:0:
320,192,31680,1,0,0:0:0:0:
64,192,31867,1,2,0:0:0:0:
448,192,31867,1,0,0:0:0:0:
320,192,31867,128,2,32617:0:1:0:0:
192,192,32055,1,0,0:0:0:0:
64,192,32242,1,2,0:1:0:0:
448,192,32242,1,2,0:0:0:0:
192,192,32430,1,2,0:1:0:0:
448,192,32617,1,2,0:0:0:0:
192,192,32617,1,0,0:0:0:0:
64,192,32617,128,2,33367:0:1:0:0:
192,192,32805,1,0,0:0:0:0:
320,192,32992,1,2,0:1:0:0:
448,192,32992,1,2,0:0:0:0:
320,192,33180,1,0,0:0:0:0:
192,192,33367,1,2,0:0:0:0:
448,192,33367,1,0,0:0:0:0:
320,192,33367,128,2,34117:0:1:0:0:
192,192,33555,1,2,0:1:0:0:
448,192,33742,1,0,0:0:0:0:
64,192,33742,1,2,0:1:0:0:
448,192,33930,1,2,0:0:0:0:
192,192,33930,1,2,0:1:0:0:
448,192,34117,1,2,0:0:0:0:
192,192,34117,1,0,0:0:0:0:
64,192,34117,128,2,34867:0:1:0:0:
448,192,34305,1,0,0:0:0:0:
192,192,34492,1,2,0:0:0:0:
320,192,34492,1,2,0:1:0:0:
192,192,34680,1,2,0:1:0:0:
192,192,34867,1,2,0:0:0:0:
448,192,34867,1,0,0:0:0:0:
320,192,34867,128,2,35617:0:1:0:0:
192,192,35055,1,2,0:1:0:0:
64,192,35242,1,2,0:1:0:0:
192,192,35430,1,2,0:1:0:0:
64,192,35617,1,2,0:0:0:0:
448,192,35617,1,0,0:0:0:0:
192,192,35617,1,0,0:0:0:0:
64,192,35805,1,0,0:0:0:0:
192,192,35805,1,8,0:0:0:0:
320,192,35898,1,0,0:0:0:0:
448,192,35898,1,8,0:0:0:0:
64,192,35992,1,0,0:0:0:0:
192,192,35992,1,8,0:0:0:0:
320,192,36086,1,8,0:0:0:0:
448,192,36086,1,2,0:0:0:0:
192,192,36180,1,8,0:0:0:0:
64,192,36180,1,0,0:0:0:0:
320,192,36273,1,8,0:0:0:0:
448,192,36273,1,0,0:0:0:0:
192,192,36367,1,8,0:0:0:0:
64,192,36367,1,0,0:0:0:0:
320,192,36461,1,8,0:0:0:0:
448,192,36461,1,0,0:0:0:0:
192,192,36555,1,0,0:0:0:0:
64,192,36648,1,0,0:0:0:0:
448,192,36648,1,0,0:0:0:0:
320,192,36648,1,4,0:0:0:0:
64,192,36836,1,0,0:0:0:0:
448,192,36836,1,4,0:0:0:0:
192,192,36836,1,0,0:0:0:0:
64,192,37117,1,0,0:0:0:0:
448,192,37117,1,2,0:0:0:0:
192,192,37305,1,2,0:0:0:0:
448,192,37305,1,2,0:1:0:0:
64,192,37492,1,2,0:1:0:0:
320,192,37492,1,0,0:0:0:0:
448,192,37492,1,8,0:0:0:0:
192,192,37680,1,2,0:1:0:0:
64,192,37867,1,0,0:0:0:0:
448,192,37867,1,0,0:0:0:0:
320,192,37867,1,2,0:0:0:0:
64,192,38055,1,0,0:0:0:0:
448,192,38055,1,2,0:1:0:0:
192,192,38055,1,2,0:0:0:0:
192,192,38242,1,8,0:0:0:0:
320,192,38242,1,0,0:0:0:0:
64,192,38242,1,0,0:0:0:0:
448,192,38430,1,2,0:1:0:0:
64,192,38430,1,2,0:0:0:0:
192,192,38617,1,2,0:0:0:0:
448,192,38617,1,2,0:1:0:0:
320,192,38617,1,0,0:0:0:0:
64,192,38805,1,0,0:0:0:0:
320,192,38805,1,2,0:0:0:0:
448,192,38805,1,0,0:0:0:0:
64,192,38992,1,0,0:0:0:0:
448,192,38992,1,0,0:0:0:0:
192,192,38992,1,8,0:0:0:0:
320,192,39180,1,0,0:0:0:0:
64,192,39180,1,2,0:0:0:0:
192,192,39367,1,2,0:0:0:0:
448,192,39367,1,0,0:0:0:0:
64,192,39367,1,2,0:1:0:0:
64,192,39555,1,2,0:1:0:0:
320,192,39555,1,2,0:0:0:0:
448,192,39555,1,0,0:0:0:0:
448,192,39742,1,2,0:1:0:0:
192,192,39742,1,8,0:0:0:0:
64,192,39742,1,0,0:0:0:0:
192,192,39930,1,2,0:0:0:0:
448,192,39930,1,0,0:0:0:0:
64,192,40117,1,2,0:0:0:0:
320,192,40117,1,0,0:0:0:0:
448,192,40117,1,2,0:1:0:0:
448,192,40305,1,2,0:1:0:0:
192,192,40305,1,2,0:0:0:0:
64,192,40305,1,0,0:0:0:0:
64,192,40492,1,0,0:0:0:0:
448,192,40492,1,2,0:1:0:0:
192,192,40492,1,8,0:0:0:0:
64,192,40680,1,2,0:0:0:0:
320,192,40680,1,0,0:0:0:0:
64,192,40867,1,0,0:0:0:0:
448,192,40867,1,2,0:1:0:0:
320,192,40867,1,2,0:0:0:0:
64,192,41055,1,0,0:0:0:0:
192,192,41055,1,2,0:0:0:0:
448,192,41055,1,2,0:1:0:0:
64,192,41242,1,8,0:0:0:0:
320,192,41242,1,2,0:1:0:0:
192,192,41242,1,0,0:0:0:0:
192,192,41430,1,0,0:0:0:0:
448,192,41430,1,2,0:0:0:0:
64,192,41617,1,0,0:0:0:0:
320,192,41617,1,2,0:0:0:0:
448,192,41617,1,2,0:1:0:0:
64,192,41805,1,0,0:0:0:0:
448,192,41805,1,2,0:1:0:0:
192,192,41805,1,2,0:0:0:0:
320,192,41992,1,0,0:0:0:0:
192,192,41992,1,8,0:0:0:0:
448,192,41992,1,2,0:1:0:0:
64,192,42180,1,2,0:0:0:0:
320,192,42180,1,0,0:0:0:0:
64,192,42367,1,2,0:0:0:0:
320,192,42367,1,0,0:0:0:0:
448,192,42367,1,0,0:0:0:0:
64,192,42555,1,0,0:0:0:0:
192,192,42555,1,2,0:0:0:0:
448,192,42555,1,0,0:0:0:0:
64,192,42742,1,2,0:1:0:0:
448,192,42742,1,0,0:0:0:0:
320,192,42742,1,8,0:0:0:0:
448,192,42930,1,0,0:0:0:0:
192,192,42930,1,2,0:0:0:0:
64,192,43117,1,2,0:1:0:0:
320,192,43117,1,4,0:0:0:0:
448,192,43117,1,0,0:0:0:0:
64,192,43305,1,2,0:0:0:0:
448,192,43305,1,2,0:1:0:0:
192,192,43305,1,0,0:0:0:0:
320,192,43492,1,8,0:0:0:0:
448,192,43492,1,0,0:0:0:0:
64,192,43492,1,2,0:1:0:0:
192,192,43680,1,0,0:0:0:0:
448,192,43680,1,2,0:0:0:0:
64,192,43867,1,2,0:1:0:0:
320,192,43867,1,0,0:0:0:0:
448,192,43867,1,2,0:0:0:0:
64,192,44055,1,2,0:1:0:0:
192,192,44055,1,0,0:0:0:0:
448,192,44055,1,2,0:0:0:0:
448,192,44242,1,0,0:0:0:0:
320,192,44242,1,8,0:0:0:0:
192,192,44242,1,2,0:1:0:0:
192,192,44430,1,2,0:0:0:0:
448,192,44430,1,0,0:0:0:0:
64,192,44617,1,2,0:0:0:0:
448,192,44617,1,0,0:0:0:0:
320,192,44617,1,2,0:1:0:0:
64,192,44805,1,2,0:0:0:0:
448,192,44805,1,0,0:0:0:0:
192,192,44805,1,2,0:1:0:0:
320,192,44992,1,2,0:1:0:0:
448,192,44992,1,8,0:0:0:0:
64,192,44992,1,0,0:0:0:0:
192,192,45180,1,0,0:0:0:0:
448,192,45180,1,2,0:0:0:0:
64,192,45367,1,2,0:0:0:0:
192,192,45367,1,0,0:0:0:0:
320,192,45367,1,2,0:1:0:0:
192,192,45555,1,2,0:0:0:0:
320,192,45555,1,0,0:0:0:0:
448,192,45555,1,2,0:1:0:0:
64,192,45742,1,8,0:0:0:0:
320,192,45742,1,2,0:1:0:0:
448,192,45742,1,0,0:0:0:0:
448,192,45930,1,2,0:0:0:0:
192,192,45930,1,0,0:0:0:0:
448,192,46117,1,0,0:0:0:0:
192,192,46117,1,2,0:0:0:0:
64,192,46117,1,0,0:0:0:0:
64,192,46305,1,2,0:0:0:0:
448,192,46305,1,0,0:0:0:0:
192,192,46305,1,0,0:0:0:0:
320,192,46305,128,2,46492:0:1:0:0:
448,192,46492,1,0,0:0:0:0:
192,192,46492,128,2,46680:0:1:0:0:
64,192,46492,1,8,0:0:0:0:
64,192,46680,1,2,0:0:0:0:
448,192,46680,1,0,0:0:0:0:
320,192,46680,128,2,47055:0:1:0:0:
192,192,47055,1,0,0:0:0:0:
448,192,47055,1,0,0:0:0:0:
64,192,47055,128,2,47242:0:0:0:0:
192,192,47242,1,0,0:0:0:0:
320,192,47242,128,0,47430:0:0:0:0:
448,192,47242,1,8,0:0:0:0:
64,192,47430,1,2,0:0:0:0:
192,192,47430,128,2,47805:0:1:0:0:
448,192,47430,1,0,0:0:0:0:
320,192,47617,1,0,0:0:0:0:
64,192,47805,1,2,0:0:0:0:
448,192,47805,1,0,0:0:0:0:
320,192,47805,128,2,47992:0:1:0:0:
192,192,47992,1,0,0:0:0:0:
448,192,47992,1,8,0:0:0:0:
64,192,47992,128,2,48180:0:1:0:0:
192,192,48180,1,0,0:0:0:0:
320,192,48180,1,2,0:0:0:0:
448,192,48180,128,2,48555:0:1:0:0:
64,192,48555,1,0,0:0:0:0:
320,192,48555,1,2,0:0:0:0:
192,192,48555,128,2,48742:0:1:0:0:
64,192,48742,1,0,0:0:0:0:
320,192,48742,1,8,0:0:0:0:
448,192,48742,1,0,0:0:0:0:
192,192,48930,1,2,0:0:0:0:
448,192,48930,1,0,0:0:0:0:
448,192,49117,1,4,0:0:0:0:
320,192,49117,1,0,0:0:0:0:
192,192,49117,1,0,0:0:0:0:
64,192,49117,128,0,49398:0:0:0:0:
192,192,49398,128,0,49680:0:0:0:0:
320,192,49398,1,0,0:0:0:0:
64,192,49680,1,2,0:0:0:0:
448,192,49680,1,0,0:0:0:0:
320,192,49680,128,0,49867:0:0:0:0:
64,192,49867,1,2,0:0:0:0:
448,192,49867,128,0,50055:0:0:0:0:
192,192,50055,128,0,50242:0:0:0:0:
64,192,50242,1,0,0:0:0:0:
320,192,50242,1,8,0:0:0:0:
448,192,50242,1,0,0:0:0:0:
192,192,50430,1,0,0:0:0:0:
64,192,50430,128,0,50617:0:0:0:0:
448,192,50617,1,2,0:0:0:0:
320,192,50617,128,0,50805:0:0:0:0:
64,192,50805,128,0,50992:0:0:0:0:
448,192,50992,128,0,51180:0:0:0:0:
320,192,51180,1,2,0:0:0:0:
64,192,51180,1,0,0:0:0:0:
192,192,51180,128,0,51367:0:0:0:0:
64,192,51367,1,2,0:0:0:0:
448,192,51367,1,0,0:0:0:0:
320,192,51367,128,0,51555:0:0:0:0:
192,192,51555,128,0,51742:0:0:0:0:
64,192,51742,1,8,0:0:0:0:
448,192,51742,1,0,0:0:0:0:
320,192,51742,128,0,51930:0:0:0:0:
192,192,51930,1,0,0:0:0:0:
448,192,51930,128,0,52117:0:0:0:0:
64,192,52117,1,0,0:0:0:0:
320,192,52117,1,2,0:0:0:0:
192,192,52117,128,0,52305:0:0:0:0:
320,192,52305,128,0,52492:0:0:0:0:
64,192,52492,128,0,52680:0:0:0:0:
448,192,52492,1,0,0:0:0:0:
192,192,52680,1,2,0:0:0:0:
448,192,52680,1,0,0:0:0:0:
320,192,52680,128,0,52867:0:0:0:0:
64,192,52867,1,2,0:0:0:0:
448,192,52867,128,0,53055:0:0:0:0:
192,192,53055,1,0,0:0:0:0:
320,192,53055,128,0,53242:0:0:0:0:
64,192,53242,128,0,53430:0:0:0:0:
192,192,53242,1,8,0:0:0:0:
448,192,53242,1,0,0:0:0:0:
320,192,53430,1,0,0:0:0:0:
192,192,53430,128,0,53617:0:0:0:0:
64,192,53617,1,0,0:0:0:0:
448,192,53617,1,2,0:0:0:0:
320,192,53617,128,0,53805:0:0:0:0:
64,192,53805,128,0,53992:0:0:0:0:
320,192,53992,1,0,0:0:0:0:
192,192,53992,128,2,54180:0:1:0:0:
320,192,54180,1,0,0:0:0:0:
64,192,54180,1,2,0:0:0:0:
448,192,54180,128,2,54367:0:1:0:0:
192,192,54367,128,2,54555:0:1:0:0:
64,192,54367,1,0,0:0:0:0:
320,192,54555,128,0,54742:0:0:0:0:
448,192,54555,1,0,0:0:0:0:
64,192,54742,1,8,0:0:0:0:
448,192,54742,1,0,0:0:0:0:
320,192,54930,1,8,0:0:0:0:
448,192,54930,1,0,0:0:0:0:
64,192,55023,1,0,0:0:0:0:
192,192,55023,1,8,0:0:0:0:
320,192,55117,1,8,0:0:0:0:
448,192,55117,1,0,0:0:0:0:
64,192,55211,1,8,0:0:0:0:
192,192,55211,1,0,0:0:0:0:
448,192,55305,1,0,0:0:0:0:
320,192,55305,1,8,0:0:0:0:
64,192,55492,1,2,0:0:0:0:
448,192,55492,1,0,0:0:0:0:
192,192,55680,1,0,0:0:0:0:
448,192,55680,1,2,0:0:0:0:
64,192,55867,1,0,0:0:0:0:
448,192,55867,1,2,0:0:0:0:
64,192,56055,1,2,0:0:0:0:
320,192,56055,1,0,0:0:0:0:
448,192,56242,1,0,0:0:0:0:
64,192,56242,1,2,0:0:0:0:
192,192,56242,1,8,0:0:0:0:
64,192,56430,1,2,0:0:0:0:
320,192,56430,1,0,0:0:0:0:
64,192,56617,1,0,0:0:0:0:
448,192,56617,1,2,0:0:0:0:
448,192,56805,1,2,0:0:0:0:
192,192,56805,1,0,0:0:0:0:
448,192,56992,1,2,0:0:0:0:
192,192,56992,1,0,0:0:0:0:
64,192,56992,1,8,0:0:0:0:
64,192,57180,1,2,0:0:0:0:
320,192,57180,1,0,0:0:0:0:
64,192,57367,1,2,0:0:0:0:
448,192,57367,1,0,0:0:0:0:
64,192,57555,1,2,0:0:0:0:
320,192,57555,1,0,0:0:0:0:
192,192,57742,1,2,0:0:0:0:
320,192,57742,1,0,0:0:0:0:
448,192,57742,1,8,0:0:0:0:
64,192,57742,128,0,58117:0:0:0:0:
448,192,57930,1,0,0:0:0:0:
192,192,57930,1,2,0:0:0:0:
448,192,58117,1,0,0:0:0:0:
192,192,58117,1,2,0:0:0:0:
320,192,58117,128,0,58492:0:0:0:0:
64,192,58305,1,2,0:0:0:0:
448,192,58305,1,0,0:0:0:0:
192,192,58492,1,8,0:0:0:0:
448,192,58492,1,0,0:0:0:0:
64,192,58492,1,2,0:0:0:0:
320,192,58680,1,0,0:0:0:0:
64,192,58680,1,2,0:0:0:0:
64,192,58867,1,2,0:0:0:0:
448,192,58867,1,0,0:0:0:0:
64,192,59055,1,2,0:0:0:0:
320,192,59055,1,0,0:0:0:0:
64,192,59242,1,2,0:0:0:0:
448,192,59242,1,0,0:0:0:0:
192,192,59242,1,8,0:0:0:0:
448,192,59430,1,2,0:0:0:0:
192,192,59430,1,0,0:0:0:0:
64,192,59617,1,2,0:0:0:0:
448,192,59617,1,0,0:0:0:0:
192,192,59805,1,2,0:0:0:0:
448,192,59805,1,0,0:0:0:0:
64,192,59992,1,2,0:0:0:0:
320,192,59992,1,8,0:0:0:0:
448,192,59992,1,0,0:0:0:0:
64,192,60180,1,2,0:0:0:0:
320,192,60180,1,0,0:0:0:0:
64,192,60367,1,2,0:0:0:0:
448,192,60367,1,0,0:0:0:0:
64,192,60555,1,2,0:0:0:0:
320,192,60555,1,0,0:0:0:0:
64,192,60742,1,2,0:0:0:0:
320,192,60742,1,0,0:0:0:0:
448,192,60742,1,8,0:0:0:0:
192,192,60930,1,8,0:0:0:0:
64,192,60930,1,0,0:0:0:0:
320,192,61023,1,8,0:0:0:0:
448,192,61023,1,0,0:0:0:0:
448,192,61117,1,4,0:0:0:0:
64,192,61117,1,0,0:0:0:0:
192,192,61117,1,2,0:0:0:0:
192,192,61305,1,0,0:0:0:0:
64,192,61305,128,0,61492:0:0:0:0:
320,192,61492,1,2,0:0:0:0:
448,192,61492,128,0,61680:0:0:0:0:
64,192,61680,1,8,0:0:0:0:
192,192,61680,128,0,61867:0:0:0:0:
320,192,61680,1,0,0:0:0:0:
320,192,61867,128,0,62055:0:0:0:0:
448,192,61867,1,0,0:0:0:0:
64,192,62055,1,2,0:0:0:0:
448,192,62055,128,0,62242:0:0:0:0:
320,192,62242,1,0,0:0:0:0:
192,192,62242,128,0,62430:0:0:0:0:
64,192,62242,1,8,0:0:0:0:
64,192,62430,128,0,62617:0:0:0:0:
320,192,62617,1,4,0:0:0:0:
192,192,62617,128,0,62805:0:0:0:0:
448,192,62617,1,0,0:0:0:0:
64,192,62805,1,0,0:0:0:0:
320,192,62805,1,4,0:0:0:0:
448,192,62805,1,0,0:0:0:0:
64,192,62898,1,8,0:0:0:0:
192,192,62992,1,8,0:0:0:0:
320,192,63086,1,8,0:0:0:0:
64,192,63180,1,4,0:0:0:0:
448,192,63180,1,0,0:0:0:0:
192,192,63180,1,2,0:0:0:0:
64,192,63367,1,0,0:0:0:0:
320,192,63367,1,2,0:0:0:0:
320,192,63555,1,2,0:0:0:0:
448,192,63555,1,0,0:0:0:0:
64,192,63555,1,0,0:0:0:0:
192,192,63648,1,0,0:0:0:0:
320,192,63742,1,2,0:0:0:0:
448,192,63742,1,2,0:1:0:0:
192,192,63836,1,2,0:1:0:0:
64,192,63836,1,8,0:0:0:0:
192,192,63930,1,2,0:1:0:0:
320,192,64023,1,2,0:1:0:0:
448,192,64023,1,8,0:0:0:0:
192,192,64117,1,2,0:1:0:0:
64,192,64211,1,4,0:0:0:0:
448,192,64211,1,0,0:0:0:0:
320,192,64211,128,0,65617:0:0:0:0:
64,192,64492,1,0,0:0:0:0:
448,192,64492,1,2,0:0:0:0:
192,192,64680,1,0,0:0:0:0:
448,192,64867,1,0,0:0:0:0:
64,192,64867,1,2,0:0:0:0:
192,192,65055,1,2,0:0:0:0:
448,192,65055,1,0,0:0:0:0:
192,192,65242,1,8,0:0:0:0:
448,192,65242,1,2,0:0:0:0:
64,192,65242,1,0,0:0:0:0:
192,192,65430,1,0,0:0:0:0:
192,192,65617,128,0,66367:0:0:0:0:
64,192,65617,1,2,0:0:0:0:
448,192,65617,1,0,0:0:0:0:
320,192,65805,1,0,0:0:0:0:
64,192,65992,1,8,0:0:0:0:
448,192,65992,1,2,0:0:0:0:
320,192,65992,1,0,0:0:0:0:
320,192,66180,1,0,0:0:0:0:
448,192,66367,1,0,0:0:0:0:
64,192,66367,1,2,0:0:0:0:
320,192,66367,128,0,66742:0:0:0:0:
192,192,66555,1,0,0:0:0:0:
64,192,66742,1,2,0:0:0:0:
448,192,66742,1,8,0:0:0:0:
192,192,66742,128,0,67117:0:0:0:0:
320,192,66930,1,0,0:0:0:0:
64,192,67117,1,2,0:0:0:0:
448,192,67117,1,0,0:0:0:0:
320,192,67117,128,0,68430:0:0:0:0:
192,192,67305,1,0,0:0:0:0:
64,192,67492,1,0,0:0:0:0:
448,192,67492,1,2,0:0:0:0:
192,192,67492,1,8,0:0:0:0:
192,192,67680,1,0,0:0:0:0:
64,192,67867,1,2,0:0:0:0:
448,192,67867,1,0,0:0:0:0:
192,192,68055,1,0,0:0:0:0:
64,192,68242,1,0,0:0:0:0:
448,192,68242,1,8,0:0:0:0:
192,192,68242,1,2,0:0:0:0:
448,192,68430,1,0,0:0:0:0:
64,192,68430,128,0,69555:0:0:0:0:
192,192,68617,1,0,0:0:0:0:
448,192,68617,1,2,0:0:0:0:
320,192,68805,1,0,0:0:0:0:
192,192,68992,1,8,0:0:0:0:
448,192,68992,1,2,0:0:0:0:
320,192,68992,1,0,0:0:0:0:
320,192,69180,1,0,0:0:0:0:
192,192,69367,1,2,0:0:0:0:
448,192,69367,1,0,0:0:0:0:
192,192,69555,1,0,0:0:0:0:
448,192,69555,1,0,0:0:0:0:
320,192,69555,1,4,0:0:0:0:
192,192,69742,1,8,0:0:0:0:
448,192,69742,1,0,0:0:0:0:
64,192,69742,1,0,0:0:0:0:
320,192,69930,1,2,0:0:0:0:
448,192,69930,1,0,0:0:0:0:
64,192,70023,1,0,0:0:0:0:
192,192,70023,1,8,0:0:0:0:
320,192,70117,1,8,0:0:0:0:
448,192,70117,1,0,0:0:0:0:
192,192,70211,1,0,0:0:0:0:
64,192,70211,1,2,0:0:0:0:
192,192,70492,1,2,0:0:0:0:
448,192,70492,1,0,0:0:0:0:
192,192,70680,1,0,0:0:0:0:
64,192,70867,1,0,0:0:0:0:
320,192,70867,1,2,0:0:0:0:
320,192,71055,1,0,0:0:0:0:
192,192,71242,1,2,0:0:0:0:
448,192,71242,1,0,0:0:0:0:
192,192,71430,1,0,0:0:0:0:
64,192,71617,1,0,0:0:0:0:
320,192,71617,1,2,0:0:0:0:
320,192,71805,1,0,0:0:0:0:
192,192,71992,1,2,0:0:0:0:
448,192,71992,1,0,0:0:0:0:
192,192,72180,1,0,0:0:0:0:
64,192,72367,1,0,0:0:0:0:
320,192,72367,1,2,0:0:0:0:
320,192,72555,1,0,0:0:0:0:
448,192,72742,1,0,0:0:0:0:
192,192,72742,1,2,0:0:0:0:
192,192,72930,1,0,0:0:0:0:
64,192,73117,1,0,0:0:0:0:
320,192,73117,1,4,0:0:0:0:
448,192,73117,1,2,0:0:0:0:
192,192,73305,1,8,0:3:0:0:
448,192,73305,1,0,0:0:0:0:
64,192,73492,1,8,0:3:0:0:
320,192,73492,1,0,0:0:0:0:
192,192,73680,1,8,0:3:0:0:
448,192,73680,1,2,0:0:0:0:
64,192,73867,1,0,0:0:0:0:
448,192,73867,1,0,0:0:0:0:
320,192,73867,1,4,0:0:0:0:
192,192,74055,1,8,0:0:0:0:
320,192,74148,1,8,0:0:0:0:
64,192,74242,1,2,0:0:0:0:
448,192,74242,1,8,0:3:0:0:
320,192,74430,1,2,0:0:0:0:
192,192,74430,1,8,0:3:0:0:
320,192,74711,1,4,0:0:0:0:
448,192,74711,1,0,0:0:0:0:
64,192,74711,1,0,0:0:0:0:
448,192,74898,1,2,0:0:0:0:
320,192,74898,1,8,0:0:0:0:
64,192,74898,1,0,0:0:0:0:
192,192,74992,1,8,0:0:0:0:
320,192,75086,1,8,0:0:0:0:
192,192,75180,1,4,0:0:0:0:
64,192,75180,1,0,0:0:0:0:
448,192,75180,1,2,0:0:0:0:
448,192,75367,1,0,0:0:0:0:
320,192,75367,1,8,0:3:0:0:
64,192,75461,1,0,0:0:0:0:
192,192,75461,1,8,0:0:0:0:
448,192,75555,1,8,0:0:0:0:
320,192,75555,1,0,0:0:0:0:
192,192,75648,1,8,0:0:0:0:
64,192,75648,1,0,0:0:0:0:
448,192,75742,1,2,0:1:0:0:
320,192,75836,1,2,0:1:0:0:
192,192,75930,1,2,0:1:0:0:
64,192,76023,1,2,0:1:0:0:
192,192,76117,1,0,0:0:0:0:
320,192,76117,1,2,0:0:0:0:
448,192,76117,1,0,0:0:0:0:
64,192,76492,1,0,0:0:0:0:
320,192,76492,1,4,0:0:0:0:
448,192,76492,1,0,0:0:0:0:
320,192,76867,1,2,0:0:0:0:
64,192,77055,1,0,0:0:0:0:
192,192,77055,1,4,0:0:0:0:
448,192,77055,1,0,0:0:0:0:
64,192,77430,1,0,0:0:0:0:
320,192,77430,1,4,0:0:0:0:
448,192,77430,1,0,0:0:0:0:
192,192,77805,1,0,0:0:0:0:
64,192,77992,1,0,0:0:0:0:
320,192,77992,1,8,0:0:0:0:
448,192,77992,1,0,0:0:0:0:
320,192,78180,1,0,0:0:0:0:
64,192,78367,1,2,0:0:0:0:
448,192,78367,1,0,0:0:0:0:
192,192,78555,1,0,0:0:0:0:
64,192,78742,1,8,0:0:0:0:
320,192,78742,1,2,0:0:0:0:
448,192,78742,1,0,0:0:0:0:
320,192,78930,1,0,0:0:0:0:
192,192,79117,1,2,0:0:0:0:
448,192,79117,1,0,0:0:0:0:
192,192,79305,1,0,0:0:0:0:
64,192,79492,1,0,0:0:0:0:
448,192,79492,1,2,0:0:0:0:
320,192,79492,1,8,0:0:0:0:
320,192,79680,1,0,0:0:0:0:
192,192,79867,1,0,0:0:0:0:
448,192,79867,1,2,0:0:0:0:
320,192,80055,1,0,0:0:0:0:
448,192,80242,1,8,0:0:0:0:
192,192,80242,1,2,0:0:0:0:
64,192,80242,1,0,0:0:0:0:
192,192,80430,1,0,0:0:0:0:
64,192,80617,1,0,0:0:0:0:
320,192,80617,1,2,0:0:0:0:
192,192,80805,1,0,0:0:0:0:
64,192,80992,1,0,0:0:0:0:
320,192,80992,1,8,0:0:0:0:
448,192,80992,1,2,0:0:0:0:
192,192,81180,1,0,0:0:0:0:
64,192,81367,1,0,0:0:0:0:
320,192,81367,1,2,0:0:0:0:
64,192,81555,1,0,0:0:0:0:
192,192,81555,1,4,0:0:0:0:
448,192,81555,1,8,0:0:0:0:
64,192,81742,1,4,0:0:0:0:
448,192,81742,1,0,0:0:0:0:
320,192,81742,1,8,0:0:0:0:
192,192,82117,128,0,82492:0:0:0:0:
64,192,82117,1,0,0:0:0:0:
320,192,82117,1,4,0:0:0:0:
448,192,82117,1,0,0:0:0:0:
64,192,82492,1,2,0:0:0:0:
448,192,82492,128,0,82867:0:0:0:0:
192,192,82680,1,0,0:0:0:0:
320,192,82867,128,0,83242:0:0:0:0:
64,192,82867,1,2,0:0:0:0:
192,192,83055,1,0,0:0:0:0:
64,192,83242,1,8,0:0:0:0:
448,192,83242,1,0,0:0:0:0:
192,192,83242,128,0,83430:0:0:0:0:
448,192,83430,1,0,0:0:0:0:
64,192,83430,128,0,83617:0:0:0:0:
320,192,83617,1,2,0:0:0:0:
448,192,83617,128,0,83805:0:0:0:0:
192,192,83805,128,0,83992:0:0:0:0:
64,192,83992,1,2,0:0:0:0:
448,192,83992,1,8,0:0:0:0:
320,192,83992,128,0,84367:0:0:0:0:
192,192,84180,1,0,0:0:0:0:
64,192,84367,1,0,0:0:0:0:
448,192,84367,1,2,0:0:0:0:
192,192,84367,128,0,84555:0:0:0:0:
320,192,84555,128,0,84742:0:0:0:0:
64,192,84742,1,2,0:0:0:0:
448,192,84742,128,0,84930:0:0:0:0:
192,192,84930,1,0,0:0:0:0:
320,192,84930,128,0,85117:0:0:0:0:
64,192,85117,1,2,0:0:0:0:
192,192,85117,128,0,85867:0:0:0:0:
320,192,85305,1,0,0:0:0:0:
64,192,85492,1,0,0:0:0:0:
448,192,85492,1,2,0:0:0:0:
320,192,85492,1,8,0:0:0:0:
320,192,85680,1,0,0:0:0:0:
64,192,85867,1,0,0:0:0:0:
448,192,85867,1,2,0:0:0:0:
64,192,85961,1,0,0:0:0:0:
192,192,85961,1,8,0:3:0:0:
320,192,86055,1,0,0:0:0:0:
448,192,86055,1,8,0:3:0:0:
64,192,86148,1,0,0:0:0:0:
192,192,86148,1,8,0:3:0:0:
320,192,86242,1,0,0:0:0:0:
448,192,86242,1,8,0:3:0:0:
64,192,86336,1,2,0:0:0:0:
192,192,86336,1,8,0:0:0:0:
448,192,86430,1,2,0:1:0:0:
192,192,86523,1,2,0:0:0:0:
64,192,86711,1,0,0:0:0:0:
320,192,86711,1,0,0:0:0:0:
448,192,86711,1,4,0:0:0:0:
64,192,86898,1,0,0:0:0:0:
448,192,86898,1,4,0:0:0:0:
192,192,86898,1,0,0:0:0:0:
192,192,87367,1,0,0:0:0:0:
64,192,87367,1,0,0:0:0:0:
448,192,87367,1,4,0:0:0:0:
64,192,87555,1,0,0:0:0:0:
448,192,87555,1,4,0:0:0:0:
320,192,87555,1,0,0:0:0:0:
192,192,88117,1,4,0:0:0:0:
448,192,88117,1,2,0:0:0:0:
64,192,88117,1,0,0:0:0:0:
320,192,88305,1,2,0:0:0:0:
64,192,88305,1,0,0:0:0:0:
448,192,88305,1,0,0:0:0:0:
64,192,88492,1,0,0:0:0:0:
192,192,88492,1,8,0:0:0:0:
448,192,88492,1,0,0:0:0:0:
64,192,88867,1,0,0:0:0:0:
448,192,88867,1,0,0:0:0:0:
320,192,88867,1,2,0:0:0:0:
192,192,89055,1,2,0:0:0:0:
448,192,89055,1,0,0:0:0:0:
64,192,89055,1,0,0:0:0:0:
64,192,89242,1,0,0:0:0:0:
448,192,89242,1,8,0:0:0:0:
320,192,89242,1,0,0:0:0:0:
448,192,89617,1,0,0:0:0:0:
192,192,89617,1,2,0:0:0:0:
64,192,89617,1,0,0:0:0:0:
64,192,89805,1,0,0:0:0:0:
320,192,89805,1,2,0:0:0:0:
448,192,89805,1,0,0:0:0:0:
64,192,89992,1,0,0:0:0:0:
448,192,89992,1,8,0:0:0:0:
192,192,89992,1,0,0:0:0:0:
320,192,90367,1,2,0:0:0:0:
448,192,90367,1,0,0:0:0:0:
64,192,90367,1,0,0:0:0:0:
448,192,90555,1,0,0:0:0:0:
192,192,90555,1,2,0:0:0:0:
64,192,90555,1,0,0:0:0:0:
320,192,90742,1,0,0:0:0:0:
448,192,90742,1,8,0:0:0:0:
64,192,90742,1,0,0:0:0:0:
192,192,91117,1,2,0:0:0:0:
448,192,91117,1,0,0:0:0:0:
64,192,91117,1,0,0:0:0:0:
320,192,91305,1,2,0:0:0:0:
64,192,91305,1,0,0:0:0:0:
448,192,91305,1,0,0:0:0:0:
192,192,91492,1,0,0:0:0:0:
448,192,91492,1,8,0:0:0:0:
64,192,91492,1,0,0:0:0:0:
64,192,91867,1,2,0:0:0:0:
320,192,91867,1,0,0:0:0:0:
448,192,91867,1,0,0:0:0:0:
64,192,92055,1,2,0:0:0:0:
448,192,92055,1,0,0:0:0:0:
192,192,92055,1,0,0:0:0:0:
64,192,92242,1,0,0:0:0:0:
448,192,92242,1,0,0:0:0:0:
320,192,92242,1,8,0:0:0:0:
64,192,92430,1,0,0:0:0:0:
448,192,92430,1,4,0:0:0:0:
192,192,92430,1,2,0:0:0:0:
64,192,92805,1,2,0:0:0:0:
448,192,92805,1,0,0:0:0:0:
320,192,92805,1,0,0:0:0:0:
192,192,92992,1,0,0:0:0:0:
320,192,93086,1,2,0:0:0:0:
448,192,93273,1,0,0:0:0:0:
64,192,93273,1,4,0:0:0:0:
192,192,93273,1,0,0:0:0:0:
320,192,93367,1,0,0:0:0:0:
192,192,93461,1,0,0:0:0:0:
448,192,93555,1,0,0:0:0:0:
64,192,93555,1,2,0:0:0:0:
192,192,93648,1,0,0:0:0:0:
448,192,93742,1,8,0:3:0:0:
64,192,93742,1,0,0:0:0:0:
320,192,93836,1,8,0:0:0:0:
64,192,93930,1,8,0:0:0:0:
448,192,93930,1,0,0:0:0:0:
320,192,94023,1,0,0:0:0:0:
192,192,94117,1,4,0:0:0:0:
64,192,94117,1,0,0:0:0:0:
448,192,94117,1,0,0:0:0:0:
192,192,94305,1,0,0:0:0:0:
64,192,94492,1,0,0:0:0:0:
320,192,94492,1,8,0:0:0:0:
448,192,94492,1,0,0:0:0:0:
320,192,94680,1,0,0:0:0:0:
448,192,94867,1,0,0:0:0:0:
192,192,94867,1,8,0:0:0:0:
64,192,94867,1,0,0:0:0:0:
192,192,95055,1,0,0:0:0:0:
64,192,95242,1,0,0:0:0:0:
320,192,95242,1,8,0:0:0:0:
448,192,95242,1,0,0:0:0:0:
320,192,95430,1,0,0:0:0:0:
192,192,95617,1,8,0:0:0:0:
448,192,95617,1,0,0:0:0:0:
64,192,95617,1,0,0:0:0:0:
192,192,95805,1,0,0:0:0:0:
64,192,95992,1,0,0:0:0:0:
320,192,95992,1,0,0:0:0:0:
448,192,95992,1,8,0:0:0:0:
320,192,96180,1,0,0:0:0:0:
192,192,96367,1,8,0:0:0:0:
448,192,96367,1,0,0:0:0:0:
64,192,96367,1,0,0:0:0:0:
192,192,96555,1,0,0:0:0:0:
64,192,96742,1,0,0:0:0:0:
320,192,96742,1,8,0:0:0:0:
448,192,96742,1,0,0:0:0:0:
320,192,96930,1,0,0:0:0:0:
192,192,97117,1,8,0:0:0:0:
448,192,97117,1,0,0:0:0:0:
64,192,97117,1,0,0:0:0:0:
192,192,97305,1,0,0:0:0:0:
448,192,97492,1,0,0:0:0:0:
64,192,97492,1,0,0:0:0:0:
320,192,97492,1,8,0:0:0:0:
320,192,97680,1,0,0:0:0:0:
64,192,97867,1,0,0:0:0:0:
192,192,97867,1,8,0:0:0:0:
448,192,97867,1,0,0:0:0:0:
192,192,98055,1,0,0:0:0:0:
64,192,98242,1,0,0:0:0:0:
320,192,98242,1,0,0:0:0:0:
448,192,98242,1,8,0:0:0:0:
320,192,98430,128,0,98711:0:0:0:0:
448,192,98430,1,0,0:0:0:0:
64,192,98430,1,0,0:0:0:0:
192,192,98430,1,4,0:0:0:0:
64,192,98711,128,0,98898:0:0:0:0:
320,192,98898,1,2,0:0:0:0:
448,192,98898,1,0,0:0:0:0:
192,192,98898,128,0,99180:0:0:0:0:
448,192,99180,1,0,0:0:0:0:
320,192,99180,1,4,0:0:0:0:
64,192,99180,1,0,0:0:0:0:
64,192,99555,1,2,0:1:0:0:
192,192,99648,1,2,0:1:0:0:
64,192,99742,1,0,0:0:0:0:
448,192,99742,1,2,0:1:0:0:
320,192,99930,128,0,100023:0:0:0:0:
448,192,99930,1,2,0:0:0:0:
192,192,100023,1,2,0:0:0:0:
64,192,100211,1,0,0:0:0:0:
320,192,100211,1,4,0:0:0:0:
192,192,100211,128,0,100961:0:0:0:0:
448,192,100211,1,0,0:0:0:0:
320,192,100492,1,0,0:0:0:0:
64,192,100961,1,0,0:0:0:0:
320,192,100961,128,0,101617:0:0:0:0:
192,192,101148,1,0,0:0:0:0:
64,192,101336,1,0,0:0:0:0:
192,192,101617,1,0,0:0:0:0:
448,192,101617,128,0,103117:0:0:0:0:
64,192,101805,1,0,0:0:0:0:
192,192,101992,1,0,0:0:0:0:
64,192,102180,1,0,0:0:0:0:
192,192,102367,1,0,0:0:0:0:
192,192,102555,1,0,0:0:0:0:
64,192,102742,1,0,0:0:0:0:
192,192,102930,1,0,0:0:0:0:
64,192,103117,128,0,104055:0:0:0:0:
320,192,103117,1,0,0:0:0:0:
192,192,103305,1,0,0:0:0:0:
448,192,103492,1,0,0:0:0:0:
448,192,103680,1,0,0:0:0:0:
320,192,103867,1,0,0:0:0:0:
448,192,104055,128,0,104617:0:0:0:0:
320,192,104055,1,0,0:0:0:0:
192,192,104242,1,0,0:0:0:0:
64,192,104430,1,0,0:0:0:0:
192,192,104617,1,0,0:0:0:0:
320,192,104805,1,0,0:0:0:0:
64,192,104992,128,2,105367:0:1:0:0:
192,192,104992,1,0,0:0:0:0:
320,192,105180,1,0,0:0:0:0:
320,192,105367,128,2,105742:0:1:0:0:
448,192,105367,1,0,0:0:0:0:
192,192,105742,128,2,106117:0:1:0:0:
448,192,105742,1,0,0:0:0:0:
64,192,105742,1,2,0:0:0:0:
64,192,106117,1,2,0:0:0:0:
448,192,106117,1,0,0:0:0:0:
320,192,106117,128,2,106492:0:1:0:0:
192,192,106492,1,0,0:0:0:0:
448,192,106492,1,0,0:0:0:0:
64,192,106492,1,8,0:0:0:0:
192,192,106867,128,2,107242:0:1:0:0:
64,192,106867,1,0,0:0:0:0:
448,192,106867,1,2,0:0:0:0:
64,192,107242,1,0,0:0:0:0:
320,192,107242,1,8,0:0:0:0:
448,192,107242,1,0,0:0:0:0:
64,192,107617,1,0,0:0:0:0:
448,192,107617,1,2,0:0:0:0:
320,192,107617,128,2,107992:0:1:0:0:
192,192,107805,1,2,0:1:0:0:
64,192,107992,1,0,0:0:0:0:
192,192,107992,1,8,0:0:0:0:
448,192,107992,1,0,0:0:0:0:
64,192,108367,1,2,0:0:0:0:
448,192,108367,1,2,0:1:0:0:
192,192,108555,1,2,0:1:0:0:
448,192,108742,1,0,0:0:0:0:
320,192,108742,1,8,0:0:0:0:
64,192,108742,1,0,0:0:0:0:
192,192,108742,128,2,108930:0:1:0:0:
64,192,109117,1,0,0:0:0:0:
448,192,109117,1,2,0:0:0:0:
192,192,109305,1,2,0:1:0:0:
448,192,109492,1,0,0:0:0:0:
320,192,109492,1,8,0:0:0:0:
64,192,109492,1,0,0:0:0:0:
192,192,109680,1,2,0:1:0:0:
64,192,109867,1,2,0:0:0:0:
448,192,109867,128,2,110242:0:1:0:0:
64,192,110242,1,0,0:0:0:0:
192,192,110242,1,0,0:0:0:0:
320,192,110242,1,8,0:0:0:0:
64,192,110617,1,2,0:1:0:0:
192,192,110711,1,2,0:1:0:0:
320,192,110805,1,2,0:1:0:0:
448,192,110805,1,2,0:0:0:0:
64,192,110898,1,0,0:0:0:0:
192,192,110898,1,2,0:0:0:0:
320,192,110992,1,8,0:0:0:0:
448,192,110992,1,0,0:0:0:0:
192,192,111086,1,8,0:0:0:0:
64,192,111086,1,0,0:0:0:0:
320,192,111180,1,8,0:0:0:0:
448,192,111180,1,0,0:0:0:0:
192,192,111273,1,0,0:0:0:0:
64,192,111367,1,0,0:0:0:0:
448,192,111367,1,0,0:0:0:0:
320,192,111367,1,2,0:0:0:0:
64,192,111555,1,0,0:0:0:0:
320,192,111555,1,4,0:0:0:0:
448,192,111555,1,0,0:0:0:0:
192,192,111742,1,4,0:0:0:0:
448,192,111742,1,0,0:0:0:0:
64,192,111742,1,0,0:0:0:0:
448,192,112117,1,2,0:0:0:0:
64,192,112117,1,2,0:1:0:0:
320,192,112117,1,0,0:0:0:0:
448,192,112305,1,2,0:0:0:0:
192,192,112305,1,2,0:1:0:0:
448,192,112492,1,8,0:0:0:0:
64,192,112492,1,2,0:1:0:0:
320,192,112492,1,0,0:0:0:0:
64,192,112680,1,2,0:1:0:0:
320,192,112680,1,2,0:0:0:0:
192,192,112867,1,2,0:1:0:0:
448,192,112867,1,2,0:0:0:0:
448,192,113055,1,2,0:1:0:0:
64,192,113055,1,2,0:0:0:0:
64,192,113242,1,2,0:1:0:0:
320,192,113242,1,0,0:0:0:0:
448,192,113242,1,8,0:0:0:0:
64,192,113430,1,2,0:1:0:0:
448,192,113430,1,2,0:0:0:0:
192,192,113617,1,2,0:1:0:0:
448,192,113617,1,2,0:0:0:0:
64,192,113805,1,2,0:1:0:0:
448,192,113805,1,2,0:0:0:0:
192,192,113992,1,0,0:0:0:0:
64,192,113992,1,2,0:1:0:0:
448,192,113992,1,8,0:0:0:0:
320,192,114180,1,2,0:0:0:0:
64,192,114180,1,2,0:1:0:0:
448,192,114367,1,2,0:0:0:0:
192,192,114367,1,2,0:1:0:0:
448,192,114555,1,2,0:1:0:0:
64,192,114555,1,2,0:0:0:0:
320,192,114742,1,0,0:0:0:0:
64,192,114742,1,2,0:1:0:0:
448,192,114742,1,8,0:0:0:0:
448,192,114930,1,2,0:0:0:0:
64,192,114930,1,2,0:1:0:0:
448,192,115117,1,2,0:0:0:0:
192,192,115117,1,2,0:1:0:0:
64,192,115305,1,2,0:1:0:0:
448,192,115305,1,2,0:0:0:0:
448,192,115492,1,8,0:0:0:0:
192,192,115492,1,0,0:0:0:0:
64,192,115492,1,2,0:1:0:0:
64,192,115680,1,2,0:1:0:0:
320,192,115680,1,2,0:0:0:0:
192,192,115867,1,2,0:1:0:0:
448,192,115867,1,2,0:0:0:0:
64,192,116055,1,2,0:0:0:0:
448,192,116055,1,2,0:1:0:0:
448,192,116242,1,8,0:0:0:0:
64,192,116242,1,2,0:1:0:0:
320,192,116242,1,0,0:0:0:0:
64,192,116430,1,2,0:1:0:0:
448,192,116430,1,2,0:0:0:0:
192,192,116617,1,2,0:1:0:0:
448,192,116617,1,2,0:0:0:0:
448,192,116805,1,2,0:0:0:0:
64,192,116805,1,2,0:1:0:0:
64,192,116992,1,2,0:1:0:0:
192,192,116992,1,0,0:0:0:0:
448,192,116992,1,8,0:0:0:0:
192,192,117180,1,2,0:1:0:0:
448,192,117180,1,2,0:0:0:0:
64,192,117367,1,2,0:0:0:0:
192,192,117367,1,4,0:0:0:0:
448,192,117367,1,2,0:1:0:0:
64,192,117555,1,2,0:0:0:0:
320,192,117555,1,4,0:0:0:0:
448,192,117555,1,2,0:1:0:0:
64,192,117742,1,2,0:0:0:0:
320,192,117742,1,2,0:1:0:0:
64,192,117930,1,2,0:0:0:0:
448,192,117930,1,2,0:1:0:0:
64,192,118117,1,2,0:1:0:0:
320,192,118117,1,4,0:0:0:0:
448,192,118117,1,0,0:0:0:0:
448,192,118305,1,2,0:1:0:0:
64,192,118305,1,2,0:0:0:0:
64,192,118492,1,2,0:1:0:0:
448,192,118492,1,8,0:0:0:0:
320,192,118492,1,0,0:0:0:0:
64,192,118680,1,2,0:0:0:0:
320,192,118680,1,2,0:1:0:0:
64,192,118867,1,2,0:0:0:0:
448,192,118867,1,2,0:1:0:0:
64,192,119055,1,2,0:0:0:0:
320,192,119055,1,2,0:1:0:0:
448,192,119242,1,8,0:0:0:0:
192,192,119242,1,0,0:0:0:0:
64,192,119242,1,2,0:1:0:0:
64,192,119430,1,2,0:1:0:0:
320,192,119430,1,2,0:0:0:0:
192,192,119617,1,2,0:1:0:0:
448,192,119617,1,2,0:0:0:0:
64,192,119805,1,2,0:0:0:0:
448,192,119805,1,2,0:1:0:0:
448,192,119992,1,8,0:0:0:0:
64,192,119992,1,2,0:1:0:0:
320,192,119992,1,0,0:0:0:0:
64,192,120180,1,2,0:1:0:0:
448,192,120180,1,2,0:0:0:0:
192,192,120367,1,2,0:1:0:0:
448,192,120367,1,2,0:0:0:0:
448,192,120555,1,2,0:0:0:0:
64,192,120555,1,2,0:1:0:0:
448,192,120742,1,0,0:0:0:0:
64,192,120742,1,2,0:1:0:0:
192,192,120742,1,8,0:0:0:0:
192,192,120930,1,2,0:1:0:0:
448,192,120930,1,2,0:0:0:0:
64,192,121117,1,2,0:0:0:0:
448,192,121117,1,0,0:0:0:0:
192,192,121117,1,0,0:0:0:0:
320,192,121117,128,2,121305:0:1:0:0:
448,192,121305,1,0,0:0:0:0:
192,192,121305,128,2,121492:0:1:0:0:
64,192,121492,1,8,0:0:0:0:
448,192,121492,1,0,0:0:0:0:
320,192,121492,128,2,121773:0:1:0:0:
192,192,121773,1,0,0:0:0:0:
448,192,121773,1,0,0:0:0:0:
64,192,121773,128,2,122055:0:0:0:0:
448,192,122055,1,2,0:0:0:0:
192,192,122055,1,0,0:0:0:0:
320,192,122055,128,2,122242:0:1:0:0:
192,192,122242,128,2,122430:0:1:0:0:
448,192,122242,1,8,0:0:0:0:
448,192,122430,1,0,0:0:0:0:
64,192,122430,128,2,123742:0:1:0:0:
320,192,122430,1,4,0:0:0:0:
320,192,122805,1,2,0:0:0:0:
448,192,122992,1,8,0:0:0:0:
192,192,122992,128,2,123180:0:1:0:0:
448,192,123180,1,4,0:0:0:0:
320,192,123180,128,2,123367:0:1:0:0:
320,192,123555,1,2,0:0:0:0:
448,192,123742,1,0,0:0:0:0:
320,192,123742,1,8,0:0:0:0:
192,192,123742,1,0,0:0:0:0:
192,192,123930,1,2,0:0:0:0:
448,192,124117,1,4,0:0:0:0:
64,192,124117,1,0,0:0:0:0:
192,192,124117,1,0,0:0:0:0:
320,192,124117,128,0,124398:0:0:0:0:
192,192,124398,128,0,124680:0:0:0:0:
64,192,124398,1,0,0:0:0:0:
64,192,124680,1,2,0:0:0:0:
448,192,124680,1,0,0:0:0:0:
320,192,124680,128,0,124867:0:0:0:0:
64,192,124867,1,2,0:0:0:0:
448,192,124867,128,0,125055:0:0:0:0:
192,192,125055,128,0,125242:0:0:0:0:
64,192,125242,1,0,0:0:0:0:
320,192,125242,1,8,0:0:0:0:
448,192,125242,1,0,0:0:0:0:
192,192,125430,1,0,0:0:0:0:
64,192,125430,128,0,125617:0:0:0:0:
448,192,125617,1,2,0:0:0:0:
320,192,125617,128,0,125805:0:0:0:0:
64,192,125805,128,0,125992:0:0:0:0:
448,192,125992,128,0,126180:0:0:0:0:
320,192,126180,1,2,0:0:0:0:
64,192,126180,1,0,0:0:0:0:
192,192,126180,128,0,126367:0:0:0:0:
64,192,126367,1,2,0:0:0:0:
448,192,126367,1,0,0:0:0:0:
320,192,126367,128,0,126555:0:0:0:0:
192,192,126555,128,0,126742:0:0:0:0:
64,192,126742,1,8,0:0:0:0:
448,192,126742,1,0,0:0:0:0:
320,192,126742,128,0,126930:0:0:0:0:
192,192,126930,1,0,0:0:0:0:
448,192,126930,128,0,127117:0:0:0:0:
64,192,127117,1,0,0:0:0:0:
320,192,127117,1,2,0:0:0:0:
192,192,127117,128,0,127305:0:0:0:0:
320,192,127305,128,0,127492:0:0:0:0:
64,192,127492,128,0,127680:0:0:0:0:
448,192,127492,1,0,0:0:0:0:
192,192,127680,1,2,0:0:0:0:
448,192,127680,1,0,0:0:0:0:
320,192,127680,128,0,127867:0:0:0:0:
64,192,127867,1,2,0:0:0:0:
448,192,127867,128,0,128055:0:0:0:0:
192,192,128055,1,0,0:0:0:0:
320,192,128055,128,0,128242:0:0:0:0:
64,192,128242,128,0,128430:0:0:0:0:
192,192,128242,1,8,0:0:0:0:
448,192,128242,1,0,0:0:0:0:
320,192,128430,1,0,0:0:0:0:
192,192,128430,128,0,128617:0:0:0:0:
64,192,128617,1,0,0:0:0:0:
448,192,128617,1,2,0:0:0:0:
320,192,128617,128,0,128805:0:0:0:0:
64,192,128805,128,0,128992:0:0:0:0:
320,192,128992,1,0,0:0:0:0:
192,192,128992,128,2,129180:0:1:0:0:
320,192,129180,1,0,0:0:0:0:
64,192,129180,1,2,0:0:0:0:
448,192,129180,128,2,129367:0:1:0:0:
192,192,129367,128,2,129555:0:1:0:0:
64,192,129367,1,0,0:0:0:0:
320,192,129555,128,0,129742:0:0:0:0:
448,192,129555,1,0,0:0:0:0:
64,192,129742,1,8,0:0:0:0:
448,192,129742,1,2,0:1:0:0:
64,192,129930,1,8,0:0:0:0:
192,192,129930,1,2,0:1:0:0:
320,192,130023,1,8,0:0:0:0:
448,192,130023,1,0,0:0:0:0:
192,192,130117,1,8,0:0:0:0:
64,192,130117,1,0,0:0:0:0:
448,192,130211,1,0,0:0:0:0:
320,192,130211,1,8,0:0:0:0:
64,192,130492,1,2,0:0:0:0:
448,192,130492,1,0,0:0:0:0:
192,192,130680,1,0,0:0:0:0:
448,192,130680,1,2,0:0:0:0:
64,192,130867,1,0,0:0:0:0:
448,192,130867,1,2,0:0:0:0:
64,192,131055,1,2,0:0:0:0:
320,192,131055,1,0,0:0:0:0:
448,192,131242,1,0,0:0:0:0:
64,192,131242,1,2,0:0:0:0:
192,192,131242,1,8,0:0:0:0:
64,192,131430,1,2,0:0:0:0:
320,192,131430,1,0,0:0:0:0:
64,192,131617,1,0,0:0:0:0:
448,192,131617,1,2,0:0:0:0:
448,192,131805,1,2,0:0:0:0:
192,192,131805,1,0,0:0:0:0:
448,192,131992,1,2,0:0:0:0:
192,192,131992,1,0,0:0:0:0:
64,192,131992,1,8,0:0:0:0:
64,192,132180,1,2,0:0:0:0:
320,192,132180,1,0,0:0:0:0:
64,192,132367,1,2,0:0:0:0:
448,192,132367,1,0,0:0:0:0:
64,192,132555,1,2,0:0:0:0:
320,192,132555,1,0,0:0:0:0:
448,192,132742,1,8,0:0:0:0:
320,192,132742,128,0,133117:0:0:0:0:
192,192,132742,1,2,0:0:0:0:
64,192,132742,1,0,0:0:0:0:
64,192,132930,1,2,0:0:0:0:
448,192,132930,1,0,0:0:0:0:
64,192,133117,128,0,133492:0:0:0:0:
192,192,133117,1,2,0:0:0:0:
448,192,133117,1,0,0:0:0:0:
448,192,133305,1,0,0:0:0:0:
192,192,133305,1,2,0:0:0:0:
320,192,133492,1,2,0:0:0:0:
448,192,133492,1,0,0:0:0:0:
192,192,133492,1,8,0:0:0:0:
64,192,133680,1,2,0:0:0:0:
320,192,133680,1,0,0:0:0:0:
448,192,133867,1,0,0:0:0:0:
64,192,133867,1,2,0:0:0:0:
320,192,134055,1,0,0:0:0:0:
64,192,134055,1,2,0:0:0:0:
192,192,134242,1,8,0:0:0:0:
448,192,134242,1,0,0:0:0:0:
64,192,134242,1,2,0:0:0:0:
192,192,134430,1,0,0:0:0:0:
448,192,134430,1,2,0:0:0:0:
448,192,134617,1,0,0:0:0:0:
64,192,134617,1,2,0:0:0:0:
448,192,134805,1,0,0:0:0:0:
192,192,134805,1,2,0:0:0:0:
448,192,134992,1,0,0:0:0:0:
320,192,134992,1,8,0:0:0:0:
64,192,134992,1,2,0:0:0:0:
320,192,135180,1,0,0:0:0:0:
64,192,135180,1,2,0:0:0:0:
448,192,135367,1,0,0:0:0:0:
64,192,135367,1,2,0:0:0:0:
320,192,135555,1,0,0:0:0:0:
64,192,135555,1,2,0:0:0:0:
448,192,135742,1,8,0:0:0:0:
320,192,135742,1,0,0:0:0:0:
64,192,135742,1,2,0:0:0:0:
320,192,135930,1,2,0:0:0:0:
448,192,135930,1,0,0:0:0:0:
192,192,136023,1,2,0:0:0:0:
64,192,136023,1,0,0:0:0:0:
64,192,136117,1,0,0:0:0:0:
320,192,136117,1,4,0:0:0:0:
448,192,136117,1,0,0:0:0:0:
192,192,136305,1,0,0:0:0:0:
64,192,136305,128,0,136492:0:0:0:0:
448,192,136492,128,0,136680:0:0:0:0:
320,192,136492,1,2,0:0:0:0:
192,192,136680,128,0,136867:0:0:0:0:
64,192,136680,1,8,0:0:0:0:
320,192,136680,1,0,0:0:0:0:
448,192,136867,1,0,0:0:0:0:
320,192,136867,128,0,137055:0:0:0:0:
448,192,137055,128,0,137242:0:0:0:0:
64,192,137055,1,2,0:0:0:0:
64,192,137242,1,8,0:0:0:0:
192,192,137242,128,0,137430:0:0:0:0:
320,192,137242,1,0,0:0:0:0:
64,192,137430,128,0,137617:0:0:0:0:
448,192,137617,1,0,0:0:0:0:
320,192,137617,1,4,0:0:0:0:
192,192,137617,128,0,137805:0:0:0:0:
448,192,137805,1,0,0:0:0:0:
64,192,137805,1,0,0:0:0:0:
320,192,137805,1,4,0:0:0:0:
192,192,137992,1,2,0:1:0:0:
64,192,137992,1,8,0:0:0:0:
448,192,138086,1,8,0:0:0:0:
320,192,138086,1,2,0:1:0:0:
192,192,138180,1,2,0:0:0:0:
64,192,138273,1,0,0:0:0:0:
320,192,138273,1,4,0:0:0:0:
448,192,138273,128,0,138555:0:0:0:0:
192,192,138555,1,2,0:0:0:0:
320,192,138742,1,0,0:0:0:0:
64,192,138742,1,2,0:1:0:0:
192,192,138836,1,2,0:1:0:0:
448,192,138930,1,8,0:0:0:0:
320,192,138930,1,2,0:1:0:0:
64,192,139117,1,4,0:0:0:0:
448,192,139117,1,0,0:0:0:0:
320,192,139117,128,0,140617:0:0:0:0:
448,192,139492,1,2,0:0:0:0:
64,192,139492,1,0,0:0:0:0:
192,192,139680,1,0,0:0:0:0:
64,192,139867,1,2,0:0:0:0:
448,192,139867,1,0,0:0:0:0:
448,192,140055,1,0,0:0:0:0:
192,192,140055,1,2,0:0:0:0:
64,192,140242,1,0,0:0:0:0:
448,192,140242,1,2,0:0:0:0:
192,192,140242,1,8,0:0:0:0:
192,192,140430,1,0,0:0:0:0:
448,192,140617,1,0,0:0:0:0:
64,192,140617,1,2,0:0:0:0:
192,192,140617,128,0,141367:0:0:0:0:
320,192,140805,1,0,0:0:0:0:
320,192,140992,1,0,0:0:0:0:
448,192,140992,1,2,0:0:0:0:
64,192,140992,1,8,0:0:0:0:
320,192,141180,1,0,0:0:0:0:
320,192,141367,128,0,141742:0:0:0:0:
64,192,141367,1,2,0:0:0:0:
448,192,141367,1,0,0:0:0:0:
192,192,141555,1,0,0:0:0:0:
192,192,141742,128,0,142117:0:0:0:0:
448,192,141742,1,8,0:0:0:0:
64,192,141742,1,2,0:0:0:0:
320,192,141930,1,0,0:0:0:0:
320,192,142117,128,0,143430:0:0:0:0:
448,192,142117,1,0,0:0:0:0:
64,192,142117,1,2,0:0:0:0:
192,192,142305,1,0,0:0:0:0:
192,192,142492,1,8,0:0:0:0:
448,192,142492,1,2,0:0:0:0:
64,192,142492,1,0,0:0:0:0:
192,192,142680,1,0,0:0:0:0:
448,192,142867,1,0,0:0:0:0:
64,192,142867,1,2,0:0:0:0:
192,192,143055,1,0,0:0:0:0:
192,192,143242,1,2,0:0:0:0:
448,192,143242,1,8,0:0:0:0:
64,192,143242,1,0,0:0:0:0:
64,192,143430,128,0,144555:0:0:0:0:
448,192,143430,1,0,0:0:0:0:
448,192,143617,1,2,0:0:0:0:
192,192,143617,1,0,0:0:0:0:
320,192,143805,1,0,0:0:0:0:
320,192,143992,1,0,0:0:0:0:
448,192,143992,1,2,0:0:0:0:
192,192,143992,1,8,0:0:0:0:
320,192,144180,1,0,0:0:0:0:
448,192,144367,1,0,0:0:0:0:
192,192,144367,1,2,0:0:0:0:
320,192,144555,1,4,0:0:0:0:
448,192,144555,1,0,0:0:0:0:
192,192,144555,1,0,0:0:0:0:
64,192,144742,1,0,0:0:0:0:
448,192,144742,1,0,0:0:0:0:
192,192,144742,1,8,0:0:0:0:
448,192,144930,1,0,0:0:0:0:
320,192,144930,1,2,0:0:0:0:
192,192,145023,1,8,0:0:0:0:
64,192,145023,1,0,0:0:0:0:
448,192,145117,1,0,0:0:0:0:
320,192,145117,1,8,0:0:0:0:
64,192,145211,1,2,0:0:0:0:
192,192,145211,1,0,0:0:0:0:
448,192,145492,1,0,0:0:0:0:
192,192,145492,1,2,0:0:0:0:
192,192,145680,1,0,0:0:0:0:
320,192,145867,1,2,0:0:0:0:
64,192,145867,1,0,0:0:0:0:
320,192,146055,1,0,0:0:0:0:
448,192,146242,1,0,0:0:0:0:
192,192,146242,1,2,0:0:0:0:
192,192,146430,1,0,0:0:0:0:
320,192,146617,1,2,0:0:0:0:
64,192,146617,1,0,0:0:0:0:
320,192,146805,1,0,0:0:0:0:
448,192,146992,1,0,0:0:0:0:
192,192,146992,1,2,0:0:0:0:
192,192,147180,1,0,0:0:0:0:
320,192,147367,1,2,0:0:0:0:
64,192,147367,1,0,0:0:0:0:
320,192,147555,1,0,0:0:0:0:
192,192,147742,1,2,0:0:0:0:
448,192,147742,1,0,0:0:0:0:
192,192,147930,1,0,0:0:0:0:
448,192,148117,1,2,0:0:0:0:
320,192,148117,1,4,0:0:0:0:
64,192,148117,1,0,0:0:0:0:
448,192,148305,1,0,0:0:0:0:
192,192,148305,1,8,0:3:0:0:
320,192,148492,1,0,0:0:0:0:
64,192,148492,1,8,0:3:0:0:
448,192,148680,1,2,0:0:0:0:
192,192,148680,1,8,0:3:0:0:
320,192,148867,1,4,0:0:0:0:
448,192,148867,1,0,0:0:0:0:
64,192,148867,1,0,0:0:0:0:
192,192,149055,1,8,0:0:0:0:
320,192,149148,1,8,0:0:0:0:
448,192,149242,1,8,0:3:0:0:
64,192,149242,1,2,0:0:0:0:
192,192,149430,1,8,0:3:0:0:
320,192,149430,1,2,0:0:0:0:
64,192,149711,1,0,0:0:0:0:
448,192,149711,1,0,0:0:0:0:
320,192,149711,1,4,0:0:0:0:
64,192,149898,1,0,0:0:0:0:
320,192,149898,1,8,0:0:0:0:
448,192,149898,1,2,0:0:0:0:
192,192,149992,1,8,0:0:0:0:
320,192,150086,1,8,0:0:0:0:
448,192,150180,1,2,0:0:0:0:
64,192,150180,1,0,0:0:0:0:
192,192,150180,1,4,0:0:0:0:
320,192,150367,1,8,0:3:0:0:
448,192,150367,1,0,0:0:0:0:
192,192,150461,1,8,0:0:0:0:
64,192,150461,1,0,0:0:0:0:
320,192,150555,1,0,0:0:0:0:
448,192,150555,1,8,0:0:0:0:
64,192,150648,1,0,0:0:0:0:
192,192,150648,1,8,0:0:0:0:
448,192,150742,1,2,0:1:0:0:
320,192,150836,1,2,0:1:0:0:
192,192,150930,1,2,0:1:0:0:
64,192,151023,1,2,0:1:0:0:
448,192,151117,1,0,0:0:0:0:
320,192,151117,1,2,0:0:0:0:
192,192,151117,1,0,0:0:0:0:
64,192,151492,1,0,0:0:0:0:
320,192,151492,1,4,0:0:0:0:
448,192,151492,1,0,0:0:0:0:
320,192,151867,1,2,0:0:0:0:
64,192,152055,1,0,0:0:0:0:
192,192,152055,1,4,0:0:0:0:
448,192,152055,1,0,0:0:0:0:
64,192,152430,1,0,0:0:0:0:
320,192,152430,1,4,0:0:0:0:
448,192,152430,1,0,0:0:0:0:
192,192,152617,128,0,152805:0:0:0:0:
64,192,152805,128,0,152992:0:0:0:0:
192,192,152992,1,0,0:0:0:0:
448,192,152992,1,2,0:0:0:0:
64,192,153180,1,2,0:0:0:0:
448,192,153180,1,0,0:0:0:0:
192,192,153367,1,0,0:0:0:0:
320,192,153555,1,2,0:0:0:0:
64,192,153555,1,0,0:0:0:0:
320,192,153742,1,8,0:0:0:0:
64,192,153742,1,0,0:0:0:0:
448,192,153742,1,0,0:0:0:0:
192,192,153930,1,2,0:0:0:0:
448,192,153930,1,0,0:0:0:0:
64,192,154117,1,0,0:0:0:0:
448,192,154117,1,2,0:0:0:0:
192,192,154305,1,0,0:0:0:0:
448,192,154305,1,2,0:0:0:0:
320,192,154492,1,8,0:0:0:0:
64,192,154492,1,0,0:0:0:0:
448,192,154492,1,0,0:0:0:0:
192,192,154680,1,0,0:0:0:0:
448,192,154680,1,2,0:0:0:0:
64,192,154867,1,0,0:0:0:0:
448,192,154867,1,2,0:0:0:0:
448,192,155055,1,2,0:0:0:0:
192,192,155055,1,0,0:0:0:0:
448,192,155242,1,8,0:0:0:0:
64,192,155242,1,0,0:0:0:0:
192,192,155242,1,0,0:0:0:0:
64,192,155430,1,2,0:0:0:0:
320,192,155430,1,0,0:0:0:0:
64,192,155617,1,2,0:0:0:0:
448,192,155617,1,0,0:0:0:0:
320,192,155805,1,0,0:0:0:0:
64,192,155805,1,2,0:0:0:0:
192,192,155992,1,8,0:0:0:0:
320,192,155992,1,0,0:0:0:0:
448,192,155992,1,0,0:0:0:0:
64,192,156180,1,0,0:0:0:0:
320,192,156180,1,2,0:0:0:0:
192,192,156367,1,0,0:0:0:0:
64,192,156555,1,0,0:0:0:0:
192,192,156555,1,4,0:0:0:0:
448,192,156555,1,8,0:0:0:0:
64,192,156742,1,4,0:0:0:0:
448,192,156742,1,0,0:0:0:0:
320,192,156742,1,8,0:0:0:0:
320,192,157117,1,2,0:0:0:0:
64,192,157117,128,0,157492:0:0:0:0:
192,192,157492,1,2,0:0:0:0:
448,192,157492,1,0,0:0:0:0:
320,192,157492,128,0,157867:0:0:0:0:
448,192,157867,1,2,0:0:0:0:
192,192,157867,1,0,0:0:0:0:
64,192,157867,128,0,158242:0:0:0:0:
320,192,158055,1,0,0:0:0:0:
192,192,158242,1,8,0:0:0:0:
448,192,158242,1,0,0:0:0:0:
320,192,158242,128,0,158617:0:0:0:0:
64,192,158430,1,0,0:0:0:0:
192,192,158617,1,2,0:0:0:0:
448,192,158617,128,0,159180:0:0:0:0:
64,192,158805,1,0,0:0:0:0:
64,192,158992,1,0,0:0:0:0:
320,192,158992,1,0,0:0:0:0:
192,192,158992,1,8,0:0:0:0:
64,192,159180,1,0,0:0:0:0:
320,192,159180,128,0,159742:0:0:0:0:
192,192,159367,1,0,0:0:0:0:
448,192,159367,1,2,0:0:0:0:
64,192,159555,1,0,0:0:0:0:
448,192,159555,1,2,0:0:0:0:
192,192,159742,1,8,0:0:0:0:
64,192,159742,1,0,0:0:0:0:
448,192,159742,128,0,160117:0:0:0:0:
192,192,159930,1,0,0:0:0:0:
64,192,160117,1,0,0:0:0:0:
320,192,160117,1,2,0:0:0:0:
192,192,160117,128,0,160492:0:0:0:0:
320,192,160305,1,0,0:0:0:0:
448,192,160492,128,2,160680:0:1:0:0:
64,192,160492,1,0,0:0:0:0:
320,192,160492,1,8,0:0:0:0:
320,192,160680,1,0,0:0:0:0:
64,192,160867,1,2,0:0:0:0:
192,192,160867,1,0,0:0:0:0:
320,192,160961,1,2,0:0:0:0:
448,192,160961,1,0,0:0:0:0:
192,192,161055,1,8,0:0:0:0:
64,192,161055,1,0,0:0:0:0:
320,192,161148,1,8,0:0:0:0:
448,192,161148,1,0,0:0:0:0:
192,192,161242,1,8,0:0:0:0:
64,192,161242,1,0,0:0:0:0:
448,192,161336,128,2,161617:0:1:0:0:
320,192,161336,1,8,0:0:0:0:
64,192,161617,1,4,0:0:0:0:
320,192,161617,1,0,0:0:0:0:
192,192,161617,1,0,0:0:0:0:
64,192,161805,1,4,0:0:0:0:
448,192,161805,1,0,0:0:0:0:
320,192,161805,1,0,0:0:0:0:
64,192,162367,1,4,0:0:0:0:
448,192,162367,1,0,0:0:0:0:
192,192,162367,1,0,0:0:0:0:
320,192,162555,1,0,0:0:0:0:
448,192,162555,1,0,0:0:0:0:
64,192,162555,1,4,0:0:0:0:
192,192,162742,1,8,0:0:0:0:
448,192,162742,1,0,0:0:0:0:
64,192,162742,1,0,0:0:0:0:
320,192,162930,1,8,0:0:0:0:
448,192,162930,1,0,0:0:0:0:
64,192,163023,1,0,0:0:0:0:
192,192,163023,1,8,0:0:0:0:
320,192,163117,1,8,0:0:0:0:
448,192,163117,1,0,0:0:0:0:
192,192,163211,1,8,0:0:0:0:
64,192,163211,128,2,163773:0:1:0:0:
448,192,163398,1,2,0:1:0:0:
192,192,163492,1,2,0:0:0:0:
448,192,163586,1,2,0:1:0:0:
192,192,163773,128,2,164617:0:1:0:0:
448,192,163867,1,2,0:1:0:0:
64,192,163961,1,2,0:0:0:0:
320,192,164055,1,2,0:1:0:0:
64,192,164242,1,8,0:0:0:0:
448,192,164242,1,0,0:0:0:0:
320,192,164242,1,2,0:1:0:0:
64,192,164430,1,2,0:1:0:0:
320,192,164523,1,2,0:1:0:0:
448,192,164617,128,2,165180:0:1:0:0:
64,192,164617,1,2,0:0:0:0:
192,192,164805,1,2,0:1:0:0:
64,192,164992,1,0,0:0:0:0:
320,192,164992,1,8,0:0:0:0:
192,192,165180,128,2,165555:0:1:0:0:
448,192,165367,1,2,0:0:0:0:
64,192,165555,128,2,166117:0:1:0:0:
192,192,165742,1,0,0:0:0:0:
448,192,165742,1,8,0:0:0:0:
320,192,165930,1,2,0:1:0:0:
448,192,166117,1,2,0:0:0:0:
192,192,166117,1,4,0:0:0:0:
320,192,166117,128,2,166492:0:1:0:0:
64,192,166305,1,2,0:1:0:0:
64,192,166492,1,0,0:0:0:0:
448,192,166492,1,8,0:0:0:0:
192,192,166492,1,0,0:0:0:0:
320,192,166680,1,0,0:0:0:0:
64,192,166867,1,8,0:0:0:0:
448,192,166867,1,0,0:0:0:0:
320,192,166867,128,2,167242:0:1:0:0:
192,192,166867,1,0,0:0:0:0:
192,192,167055,1,0,0:0:0:0:
192,192,167242,128,2,167617:0:1:0:0:
64,192,167242,1,0,0:0:0:0:
448,192,167242,1,8,0:0:0:0:
320,192,167430,1,0,0:0:0:0:
64,192,167617,1,8,0:0:0:0:
448,192,167617,128,2,167992:0:1:0:0:
320,192,167617,1,0,0:0:0:0:
192,192,167805,1,0,0:0:0:0:
192,192,167992,128,2,168367:0:1:0:0:
64,192,167992,1,8,0:0:0:0:
320,192,167992,1,0,0:0:0:0:
64,192,168367,128,2,168742:0:1:0:0:
320,192,168367,1,2,0:0:0:0:
192,192,168555,1,0,0:0:0:0:
448,192,168555,1,8,0:0:0:0:
320,192,168742,128,2,169117:0:1:0:0:
192,192,168742,1,8,0:0:0:0:
448,192,168742,1,0,0:0:0:0:
64,192,168930,1,8,0:0:0:0:
64,192,169117,128,2,169305:0:1:0:0:
192,192,169117,1,8,0:0:0:0:
448,192,169117,1,0,0:0:0:0:
192,192,169305,128,2,169492:0:1:0:0:
320,192,169492,128,2,169680:0:1:0:0:
64,192,169492,1,0,0:0:0:0:
448,192,169492,1,8,0:0:0:0:
64,192,169680,1,8,0:0:0:0:
448,192,169680,1,0,0:0:0:0:
192,192,169680,128,2,170055:0:1:0:0:
64,192,170055,1,0,0:0:0:0:
320,192,170055,1,8,0:0:0:0:
448,192,170055,128,2,170242:0:1:0:0:
320,192,170242,128,2,170617:0:0:0:0:
64,192,170242,1,2,0:0:0:0:
192,192,170336,1,2,0:0:0:0:
448,192,170430,1,2,0:0:0:0:
192,192,170523,1,2,0:0:0:0:
448,192,170617,1,8,0:0:0:0:
64,192,170617,128,2,170805:0:1:0:0:
320,192,170805,128,2,170992:0:1:0:0:
192,192,170992,128,2,171180:0:1:0:0:
64,192,170992,1,8,0:0:0:0:
448,192,170992,1,0,0:0:0:0:
64,192,171180,1,0,0:0:0:0:
448,192,171180,1,4,0:0:0:0:
320,192,171180,128,2,171555:0:1:0:0:
64,192,171555,1,8,0:0:0:0:
448,192,171555,128,2,171742:0:1:0:0:
192,192,171648,1,2,0:0:0:0:
64,192,171742,128,2,171930:0:1:0:0:
320,192,171742,1,2,0:0:0:0:
448,192,171930,1,2,0:0:0:0:
64,192,172023,1,2,0:0:0:0:
448,192,172117,1,2,0:0:0:0:
64,192,172211,1,4,0:0:0:0:
320,192,172211,128,2,172398:0:1:0:0:
192,192,172398,128,2,172586:0:1:0:0:
448,192,172586,128,2,172773:0:1:0:0:
64,192,172586,1,2,0:0:0:0:
320,192,172773,1,8,0:0:0:0:
64,192,172773,1,0,0:0:0:0:
192,192,172773,128,2,173055:0:1:0:0:
448,192,173055,1,2,0:0:0:0:
320,192,173055,128,2,173242:0:1:0:0:
448,192,173242,128,2,173430:0:1:0:0:
192,192,173242,1,8,0:0:0:0:
64,192,173242,1,0,0:0:0:0:
192,192,173430,128,2,173617:0:1:0:0:
320,192,173617,1,4,0:0:0:0:
448,192,173617,128,2,174086:0:1:0:0:
64,192,173617,128,2,175117:0:1:0:0:
192,192,174086,1,0,0:0:0:0:
192,192,174273,1,0,0:0:0:0:
320,192,174367,1,0,0:0:0:0:
448,192,174461,1,0,0:0:0:0:
192,192,175117,1,4,0:0:0:0:
448,192,175117,1,0,0:0:0:0:
320,192,175117,128,2,176805:0:1:0:0:
192,192,175305,1,0,0:0:0:0:
64,192,175492,1,0,0:0:0:0:
448,192,175492,1,0,0:0:0:0:
192,192,175680,1,0,0:0:0:0:
64,192,175867,1,0,0:0:0:0:
192,192,176242,1,0,0:0:0:0:
64,192,176430,1,0,0:0:0:0:
448,192,176430,128,2,176805:0:1:0:0:
192,192,176617,1,0,0:0:0:0:
192,192,176805,128,0,178117:0:0:0:0:
64,192,176992,1,0,0:0:0:0:
320,192,177180,1,0,0:0:0:0:
64,192,177367,1,0,0:0:0:0:
448,192,177555,1,0,0:0:0:0:
64,192,177742,1,0,0:0:0:0:
320,192,177836,1,0,0:0:0:0:
64,192,178117,128,0,178586:0:0:0:0:
448,192,178117,1,0,0:0:0:0:
320,192,178117,128,2,178586:0:1:0:0:
192,192,178586,128,0,179055:0:0:0:0:
448,192,178586,1,0,0:0:0:0:
320,192,178773,1,0,0:0:0:0:
320,192,179055,128,0,179430:0:0:0:0:
64,192,179242,1,0,0:0:0:0:
64,192,179430,128,0,179805:0:0:0:0:
448,192,179430,128,2,179805:0:1:0:0:
192,192,179430,1,0,0:0:0:0:
192,192,179617,1,0,0:0:0:0:
192,192,179805,128,0,179992:0:0:0:0:
64,192,179992,1,0,0:0:0:0:
320,192,179992,128,0,180367:0:0:0:0:
192,192,180180,1,0,0:0:0:0:
64,192,180367,128,0,180742:0:0:0:0:
320,192,180555,1,0,0:0:0:0:
192,192,180742,1,0,0:0:0:0:
448,192,180742,128,0,181117:0:0:0:0:
192,192,180930,1,0,0:0:0:0:
64,192,181117,128,2,181492:0:1:0:0:
192,192,181117,1,0,0:0:0:0:
320,192,181117,128,0,181492:0:0:0:0:
448,192,181492,128,0,182055:0:0:0:0:
192,192,181492,1,0,0:0:0:0:
64,192,181680,1,0,0:0:0:0:
192,192,181867,1,0,0:0:0:0:
320,192,182055,128,0,182898:0:0:0:0:
192,192,182242,1,0,0:0:0:0:
448,192,182430,1,0,0:0:0:0:
192,192,182523,1,0,0:0:0:0:
64,192,182617,128,2,183461:0:1:0:0:
448,192,182617,1,0,0:0:0:0:
448,192,182898,128,0,184211:0:0:0:0:
192,192,183461,128,2,183836:0:1:0:0:
64,192,183836,1,0,0:0:0:0:
320,192,183836,1,0,0:0:0:0:
192,192,184023,128,2,184211:0:0:0:0:
320,192,184211,1,4,0:0:0:0:
64,192,184211,128,0,184867:0:0:0:0:
320,192,184398,1,0,0:0:0:0:
192,192,184492,1,0,0:0:0:0:
448,192,184586,1,0,0:0:0:0:
320,192,184680,1,0,0:0:0:0:
192,192,184867,1,4,0:0:0:0:
448,192,184867,1,2,0:0:0:0:
320,192,184867,128,0,185617:0:0:0:0:
192,192,185617,1,4,0:0:0:0:
448,192,185617,1,0,0:0:0:0:
64,192,185617,128,0,185992:0:0:0:0:
320,192,185898,1,8,0:3:0:0:
448,192,185898,1,0,0:0:0:0:
192,192,185992,1,2,0:0:0:0:
320,192,186086,1,8,0:0:0:0:
448,192,186086,1,0,0:0:0:0:
192,192,186180,1,8,0:0:0:0:
64,192,186180,1,0,0:0:0:0:
320,192,186273,1,4,0:0:0:0:
64,192,186273,1,0,0:0:0:0:
448,192,186273,1,0,0:0:0:0:
64,192,186555,1,0,0:0:0:0:
192,192,186555,1,2,0:0:0:0:
448,192,186555,1,0,0:0:0:0:
448,192,186742,1,2,0:1:0:0:
320,192,186742,1,0,0:0:0:0:
64,192,186742,1,2,0:0:0:0:
192,192,186836,1,2,0:1:0:0:
320,192,186930,1,2,0:1:0:0:
448,192,187023,1,2,0:1:0:0:
64,192,187117,1,2,0:1:0:0:
192,192,187211,1,2,0:1:0:0:
320,192,187211,1,2,0:0:0:0:
448,192,187211,1,0,0:0:0:0:
64,192,187492,1,0,0:0:0:0:
320,192,187492,1,4,0:0:0:0:
448,192,187492,1,0,0:0:0:0:
320,192,187867,1,2,0:0:0:0:
64,192,188055,1,0,0:0:0:0:
192,192,188055,1,4,0:0:0:0:
448,192,188055,1,0,0:0:0:0:
192,192,188242,1,2,0:0:0:0:
64,192,188430,1,0,0:0:0:0:
448,192,188430,1,0,0:0:0:0:
320,192,188430,1,4,0:0:0:0:
192,192,188617,1,0,0:0:0:0:
448,192,188617,1,2,0:0:0:0:
64,192,188805,1,0,0:0:0:0:
448,192,188805,1,2,0:0:0:0:
64,192,188992,1,0,0:0:0:0:
448,192,188992,1,0,0:0:0:0:
192,192,188992,1,8,0:0:0:0:
64,192,189180,1,2,0:0:0:0:
320,192,189180,1,0,0:0:0:0:
64,192,189367,1,2,0:0:0:0:
448,192,189367,1,0,0:0:0:0:
192,192,189555,1,0,0:0:0:0:
320,192,189555,1,8,0:0:0:0:
448,192,189555,1,0,0:0:0:0:
320,192,189742,1,2,0:0:0:0:
448,192,189742,1,0,0:0:0:0:
64,192,189742,1,8,0:0:0:0:
192,192,189930,1,2,0:0:0:0:
320,192,189930,1,0,0:0:0:0:
64,192,190117,1,4,0:0:0:0:
320,192,190117,1,8,0:0:0:0:
448,192,190117,1,0,0:0:0:0:
192,192,190492,1,2,0:0:0:0:
64,192,190680,1,0,0:0:0:0:
320,192,190680,1,8,0:0:0:0:
448,192,190680,1,4,0:0:0:0:
320,192,191055,1,2,0:0:0:0:
192,192,191242,1,4,0:0:0:0:
64,192,191242,1,0,0:0:0:0:
448,192,191242,1,0,0:0:0:0:
320,192,191430,1,4,0:0:0:0:
448,192,191430,1,0,0:0:0:0:
64,192,191430,1,0,0:0:0:0:
320,192,191805,1,0,0:0:0:0:
192,192,191805,1,2,0:0:0:0:
64,192,191898,1,0,0:0:0:0:
64,192,191992,1,0,0:0:0:0:
320,192,191992,1,8,0:0:0:0:
448,192,191992,1,0,0:0:0:0:
64,192,192180,1,2,0:0:0:0:
320,192,192180,1,0,0:0:0:0:
192,192,192367,1,0,0:0:0:0:
64,192,192367,1,2,0:0:0:0:
448,192,192367,1,0,0:0:0:0:
64,192,192555,1,0,0:0:0:0:
448,192,192555,1,8,0:0:0:0:
192,192,192555,1,4,0:0:0:0:
64,192,192742,1,0,0:0:0:0:
320,192,192742,1,4,0:0:0:0:
448,192,192742,1,0,0:0:0:0:
320,192,192930,1,2,0:0:0:0:
192,192,193023,1,2,0:0:0:0:
64,192,193117,1,0,0:0:0:0:
448,192,193117,1,4,0:0:0:0:
320,192,193117,128,0,193586:0:0:0:0:
192,192,193586,1,2,0:0:0:0:
448,192,193586,1,0,0:0:0:0:
64,192,193586,128,0,193961:0:0:0:0:
320,192,193773,1,0,0:0:0:0:
192,192,193961,1,0,0:0:0:0:
448,192,193961,1,2,0:0:0:0:
64,192,194148,1,0,0:0:0:0:
448,192,194148,1,2,0:0:0:0:
64,192,194336,1,0,0:0:0:0:
448,192,194336,1,0,0:0:0:0:
320,192,194336,1,8,0:0:0:0:
64,192,194523,1,0,0:0:0:0:
320,192,194523,1,0,0:0:0:0:
64,192,194711,1,0,0:0:0:0:
192,192,194711,128,0,195367:0:0:0:0:
448,192,194711,1,2,0:0:0:0:
320,192,194992,1,0,0:0:0:0:
448,192,194992,1,0,0:0:0:0:
64,192,194992,1,8,0:0:0:0:
320,192,195180,1,0,0:0:0:0:
64,192,195367,1,2,0:0:0:0:
320,192,195367,128,0,196117:0:0:0:0:
192,192,195555,1,0,0:0:0:0:
64,192,195742,1,2,0:0:0:0:
448,192,195742,1,0,0:0:0:0:
192,192,195742,1,8,0:0:0:0:
192,192,195930,1,0,0:0:0:0:
192,192,196117,128,0,196867:0:0:0:0:
64,192,196117,1,0,0:0:0:0:
448,192,196117,1,2,0:0:0:0:
320,192,196305,1,0,0:0:0:0:
64,192,196492,1,0,0:0:0:0:
448,192,196492,1,0,0:0:0:0:
320,192,196492,1,8,0:0:0:0:
320,192,196680,1,0,0:0:0:0:
64,192,196867,1,0,0:0:0:0:
448,192,196867,1,2,0:0:0:0:
192,192,196961,1,8,0:0:0:0:
64,192,196961,1,0,0:0:0:0:
448,192,197055,1,0,0:0:0:0:
320,192,197055,1,8,0:0:0:0:
192,192,197148,1,8,0:0:0:0:
64,192,197148,1,0,0:0:0:0:
320,192,197242,1,8,0:0:0:0:
448,192,197242,1,0,0:0:0:0:
192,192,197336,1,8,0:0:0:0:
64,192,197336,1,0,0:0:0:0:
320,192,197430,1,8,0:0:0:0:
448,192,197430,1,0,0:0:0:0:
192,192,197523,1,0,0:0:0:0:
64,192,197617,1,0,0:0:0:0:
320,192,197617,1,4,0:0:0:0:
448,192,197617,1,0,0:0:0:0:
64,192,197805,1,0,0:0:0:0:
448,192,197805,1,0,0:0:0:0:
192,192,197805,1,4,0:0:0:0:
64,192,198367,1,0,0:0:0:0:
192,192,198367,1,4,0:0:0:0:
448,192,198367,1,0,0:0:0:0:
64,192,198555,1,0,0:0:0:0:
320,192,198555,1,4,0:0:0:0:
448,192,198555,1,0,0:0:0:0:
320,192,199211,128,0,199961:0:0:0:0:
64,192,199961,1,2,0:0:0:0:
192,192,199961,1,0,0:0:0:0:
320,192,200055,1,8,0:0:0:0:
448,192,200055,1,0,0:0:0:0:
192,192,200148,1,8,0:0:0:0:
64,192,200148,1,0,0:0:0:0:
448,192,200242,1,0,0:0:0:0:
320,192,200242,1,8,0:0:0:0:
192,192,200336,1,8,0:0:0:0:
64,192,200336,1,0,0:0:0:0:
320,192,200430,1,8,0:0:0:0:
448,192,200430,1,0,0:0:0:0:
192,192,200523,1,8,0:0:0:0:
64,192,200523,1,0,0:0:0:0:
320,192,200617,1,4,0:0:0:0:
448,192,200617,1,0,0:0:0:0:
64,192,200617,1,0,0:0:0:0:
64,192,200805,1,2,0:0:0:0:
192,192,200805,1,0,0:0:0:0:
320,192,200805,1,0,0:0:0:0:
64,192,200992,1,0,0:0:0:0:
448,192,200992,1,0,0:0:0:0:
192,192,200992,1,8,0:0:0:0:
64,192,201367,1,0,0:0:0:0:
192,192,201367,1,0,0:0:0:0:
448,192,201367,1,4,0:0:0:0:
192,192,201555,1,0,0:0:0:0:
320,192,201555,1,0,0:0:0:0:
448,192,201555,1,2,0:0:0:0:
64,192,201742,1,0,0:0:0:0:
192,192,201742,1,8,0:0:0:0:
448,192,201742,1,0,0:0:0:0:
448,192,202117,1,0,0:0:0:0:
320,192,202117,1,2,0:0:0:0:
64,192,202117,1,0,0:0:0:0:
64,192,202305,1,0,0:0:0:0:
192,192,202305,1,2,0:0:0:0:
320,192,202305,1,0,0:0:0:0:
192,192,202492,1,8,0:0:0:0:
64,192,202492,1,0,0:0:0:0:
448,192,202492,1,0,0:0:0:0:
64,192,202867,1,4,0:0:0:0:
192,192,202867,1,0,0:0:0:0:
448,192,202867,1,0,0:0:0:0:
192,192,203055,1,2,0:0:0:0:
320,192,203055,1,0,0:0:0:0:
64,192,203055,1,0,0:0:0:0:
448,192,203242,1,0,0:0:0:0:
320,192,203242,1,8,0:0:0:0:
64,192,203242,1,0,0:0:0:0:
64,192,203617,1,0,0:0:0:0:
192,192,203617,1,2,0:0:0:0:
448,192,203617,1,0,0:0:0:0:
320,192,203805,1,0,0:0:0:0:
192,192,203805,1,2,0:0:0:0:
448,192,203805,1,0,0:0:0:0:
448,192,203992,1,0,0:0:0:0:
64,192,203992,1,0,0:0:0:0:
320,192,203992,1,8,0:0:0:0:
448,192,204367,1,0,0:0:0:0:
192,192,204367,1,0,0:0:0:0:
64,192,204367,1,4,0:0:0:0:
64,192,204555,1,0,0:0:0:0:
320,192,204555,1,0,0:0:0:0:
192,192,204555,1,2,0:0:0:0:
64,192,204742,1,0,0:0:0:0:
192,192,204742,1,8,0:0:0:0:
448,192,204742,1,0,0:0:0:0:
64,192,204930,1,0,0:0:0:0:
320,192,204930,1,0,0:0:0:0:
448,192,204930,1,4,0:0:0:0:
448,192,205117,1,0,0:0:0:0:
192,192,205117,1,0,0:0:0:0:
448,192,205305,1,0,0:0:0:0:
320,192,205305,1,0,0:0:0:0:
64,192,205305,1,2,0:0:0:0:
192,192,205492,1,0,0:0:0:0:
320,192,205586,1,2,0:0:0:0:
448,192,205680,1,0,0:0:0:0:
192,192,205680,1,0,0:0:0:0:
64,192,205680,1,4,0:0:0:0:
320,192,205867,1,0,0:0:0:0:
192,192,205961,1,0,0:0:0:0:
448,192,206055,1,0,0:0:0:0:
64,192,206055,1,2,0:0:0:0:
192,192,206148,1,0,0:0:0:0:
448,192,206242,1,0,0:0:0:0:
192,192,206336,1,0,0:0:0:0:
64,192,206336,1,8,0:0:0:0:
448,192,206430,1,8,0:0:0:0:
320,192,206430,1,0,0:0:0:0:
192,192,206523,1,0,0:0:0:0:
64,192,206523,1,8,0:0:0:0:
320,192,206617,1,2,0:0:0:0:
448,192,206711,1,0,0:0:0:0:
192,192,206711,1,4,0:0:0:0:
64,192,206711,1,0,0:0:0:0:
448,192,206867,1,0,0:0:0:0:
320,192,206867,1,0,0:0:0:0:
192,192,206867,1,2,0:0:0:0:
448,192,206992,1,0,0:0:0:0:
320,192,206992,1,0,0:0:0:0:
64,192,206992,1,8,0:0:0:0:
192,192,207180,1,2,0:0:0:0:
64,192,207367,1,0,0:0:0:0:
320,192,207367,1,8,0:0:0:0:
448,192,207367,1,0,0:0:0:0:
320,192,207555,1,2,0:0:0:0:
448,192,207742,1,0,0:0:0:0:
192,192,207742,1,8,0:0:0:0:
64,192,207742,1,0,0:0:0:0:
192,192,207930,1,2,0:0:0:0:
64,192,208117,1,0,0:0:0:0:
448,192,208117,1,0,0:0:0:0:
320,192,208117,1,8,0:0:0:0:
320,192,208305,1,0,0:0:0:0:
448,192,208492,1,8,0:0:0:0:
192,192,208492,1,0,0:0:0:0:
64,192,208492,1,0,0:0:0:0:
192,192,208680,1,0,0:0:0:0:
448,192,208867,1,0,0:0:0:0:
320,192,208867,1,0,0:0:0:0:
64,192,208867,1,8,0:0:0:0:
320,192,209055,1,0,0:0:0:0:
448,192,209242,1,0,0:0:0:0:
64,192,209242,1,0,0:0:0:0:
192,192,209242,1,8,0:0:0:0:
192,192,209430,1,0,0:0:0:0:
320,192,209617,1,0,0:0:0:0:
64,192,209617,1,8,0:0:0:0:
448,192,209617,1,0,0:0:0:0:
320,192,209805,1,0,0:0:0:0:
192,192,209992,1,8,0:0:0:0:
448,192,209992,1,0,0:0:0:0:
64,192,209992,1,0,0:0:0:0:
192,192,210180,1,0,0:0:0:0:
448,192,210367,1,0,0:0:0:0:
64,192,210367,1,8,0:0:0:0:
320,192,210367,1,0,0:0:0:0:
320,192,210555,1,0,0:0:0:0:
64,192,210742,1,0,0:0:0:0:
448,192,210742,1,0,0:0:0:0:
192,192,210742,1,8,0:0:0:0:
320,192,210930,1,4,0:0:0:0:
448,192,210930,1,0,0:0:0:0:
64,192,210930,1,0,0:0:0:0:
448,192,211305,1,0,0:0:0:0:
64,192,211305,1,0,0:0:0:0:
192,192,211305,1,4,0:0:0:0:
192,192,211492,1,0,0:0:0:0:
64,192,211680,1,0,0:0:0:0:
320,192,211680,1,4,0:0:0:0:
448,192,211680,1,0,0:0:0:0:
448,192,212148,1,2,0:1:0:0:
320,192,212242,1,2,0:1:0:0:
192,192,212336,1,2,0:1:0:0:
192,192,212617,1,0,0:0:0:0:
320,192,212805,1,0,0:0:0:0:
64,192,212805,1,2,0:1:0:0:
320,192,212992,1,0,0:0:0:0:
192,192,213180,1,2,0:1:0:0:
448,192,213180,1,0,0:0:0:0:
64,192,213367,1,0,0:0:0:0:
320,192,213367,1,2,0:1:0:0:
192,192,213555,128,2,213742:0:0:0:0:
320,192,213742,128,2,213930:0:0:0:0:
64,192,213930,1,0,0:0:0:0:
448,192,213930,1,0,0:0:0:0:
192,192,213930,128,4,215898:0:0:0:0:
