osu file format v14

[General]
AudioFilename: audio.mp3
AudioLeadIn: 0
PreviewTime: 63108
Countdown: 0
SampleSet: Soft
StackLeniency: 0.7
Mode: 0
LetterboxInBreaks: 0
WidescreenStoryboard: 0

[Editor]
DistanceSpacing: 0.9
BeatDivisor: 2
GridSize: 16
TimelineZoom: 1.6

[Metadata]
Title:M flat
TitleUnicode:M♭
Artist:Kato Megumi (CV: Yasuno Kiyono)
ArtistUnicode:加藤 恵 (CV: 安野希世乃)
Creator:realy0_
Version:Normal
Source:冴えない彼女の育てかた
Tags:冴えカノ saenai kanojo heroine no sodate kata saekano character song cut japanese j-pop anime Nyantiaz -[Shady]-
BeatmapID:1910572
BeatmapSetID:914766

[Difficulty]
HPDrainRate:3.5
CircleSize:3.4
OverallDifficulty:4.5
ApproachRate:5
SliderMultiplier:1.24
SliderTickRate:1

[Events]
//Background and Video events
0,0,"845629.jpg",0,50
//Break Periods
//Storyboard Layer 0 (Background)
//Storyboard Layer 1 (Fail)
//Storyboard Layer 2 (Pass)
//Storyboard Layer 3 (Foreground)
//Storyboard Sound Samples

[TimingPoints]
1140,375,4,2,1,40,1,0
9952,-100,4,2,1,45,0,0
11640,-100,4,2,1,50,0,0
13140,-100,4,2,1,55,0,0
19140,-100,4,2,1,60,0,0
23452,-100,4,2,1,55,0,0
25140,-105.263157894737,4,2,1,45,0,0
35640,-105.263157894737,4,2,1,50,0,0
49140,-105.263157894737,4,2,1,45,0,0
55140,-100,4,2,1,50,0,0
56640,-100,4,2,1,55,0,0
58140,-100,4,2,1,60,0,0
59640,-100,4,2,1,65,0,0
61140,-100,4,2,1,65,0,0
64140,-95.2380952380952,4,2,1,75,0,1
76140,-95.2380952380952,4,2,1,70,0,0
77452,-95.2380952380952,4,2,1,75,0,1
86640,-95.2380952380952,4,2,1,75,0,0
89640,-95.2380952380952,4,2,1,40,0,0

[Colours]
Combo1 : 209,213,237
Combo2 : 255,0,89
Combo3 : 223,223,223
Combo4 : 159,96,118
Combo5 : 255,191,210

[HitObjects]
15,93,1140,6,0,P|84:108|152:117,1,124,2|0,3:2|1:0,0:0:0:0:
186,90,1702,2,0,P|173:51|250:20,1,124,0|0,0:0|0:0,0:0:0:0:
284,33,2265,1,0,1:0:0:0:
335,132,2640,2,0,B|390:95|426:128|463:164|528:116,2,186,2|0|0,3:2|0:0|1:0,0:0:0:0:
256,212,4140,6,0,P|266:278|267:341,1,124,2|0,3:2|1:0,0:0:0:0:
212,325,4702,2,0,P|150:326|88:336,1,124
34,238,5452,1,0,0:0:0:0:
34,238,5640,2,0,P|3:192|-16:171,2,62,2|0|0,3:2|0:0|1:0,0:0:0:0:
94,244,6202,2,0,P|155:234|217:232,1,124,0|0,0:0|0:0,0:0:0:0:
272,240,6765,1,0,1:0:0:0:
366,287,7140,6,0,B|387:228|387:228|385:180|349:149,1,124,2|0,3:2|1:0,0:0:0:0:
345,120,7702,2,0,P|353:79|435:91,2,124,0|0|0,0:0|0:0|0:0,0:0:0:0:
291,135,8640,2,0,P|229:133|167:123,1,124,2|0,3:2|1:0,0:0:0:0:
112,117,9202,2,0,P|93:141|76:167,1,62,0|0,0:0|0:0,0:0:0:0:
1,250,9765,2,0,P|20:274|37:300,1,62,0|0,1:0|0:0,0:0:0:0:
91,312,10140,6,0,P|152:310|214:300,1,124,6|0,0:0|1:0,0:0:0:0:
269,304,10702,1,0,1:3:0:0:
321,326,10890,2,0,P|332:354|341:384,2,62,0|0|0,1:0|1:3|1:0,0:0:0:0:
343,275,11452,1,0,1:3:0:0:
362,222,11640,6,0,P|354:191|350:161,1,62,2|2,1:2|1:2,0:0:0:0:
453,29,12390,2,0,P|482:37|511:49,1,62,2|2,1:2|1:2,0:0:0:0:
404,178,13140,6,0,P|342:187|280:189,1,124,6|0,3:2|1:0,0:0:0:0:
171,210,13890,2,0,P|157:183|145:154,2,62,0|0|0,3:0|3:0|1:0,0:0:0:0:
162,265,14452,1,2,2:0:0:0:
117,299,14640,2,0,B|71:311|23:317|23:317|3:304|-9:295,1,124,0|0,3:0|1:0,0:0:0:0:
0,189,15390,2,0,P|17:129|43:73,1,124,0|0,3:0|1:0,0:0:0:0:
96,58,15952,1,2,2:0:0:0:
147,81,16140,6,0,B|163:97|204:99|204:99|263:78,1,124,0|0,3:0|1:0,0:0:0:0:
389,86,16890,2,0,P|387:55|382:24,2,62,0|0|0,3:0|3:0|1:0,0:0:0:0:
369,138,17452,2,0,B|378:129|392:122|392:122|440:128|486:140,2,124,6|4|6,1:2|1:2|1:2,0:0:0:0:
265,180,18577,2,0,P|255:150|242:122,2,62,0|2|2,1:0|1:2|1:2,0:0:0:0:
208,179,19140,6,0,P|138:224|152:278,1,124,4|0,1:2|1:2,0:0:0:0:
176,297,19702,1,2,3:2:0:0:
227,319,19890,2,0,B|273:307|321:301|321:301|341:316|354:335,1,124,0|0,1:2|1:2,0:0:0:0:
449,289,20640,2,0,B|409:240|409:240|397:206|406:181,1,124,0|0,1:2|1:2,0:0:0:0:
448,77,21390,2,0,P|479:79|510:84,2,62,0|2|0,1:2|3:2|1:2,0:0:0:0:
393,67,21952,1,2,3:2:0:0:
339,54,22140,6,0,B|313:73|282:80|282:80|244:73|215:42,1,124,0|0,1:2|1:2,0:0:0:0:
125,9,22890,2,0,P|70:31|68:90,1,124,0|0,1:2|1:2,0:0:0:0:
91,140,23452,2,0,B|106:161|103:197|103:197|77:255,2,124,6|6|6,1:2|1:2|1:2,0:0:0:0:
307,195,24952,1,0,0:2:0:0:
307,195,25140,6,0,P|368:185|430:183,1,117.799996854401,4|0,3:2|3:2,0:0:0:0:
496,261,25890,2,0,B|469:317|469:317|439:347|410:344,1,117.799996854401,0|0,3:2|3:2,0:0:0:0:
317,322,26640,2,0,P|321:352|323:383,2,58.8999984272004,0|0|0,3:2|0:0|3:2,0:0:0:0:
280,291,27202,1,0,0:0:0:0:
246,249,27390,2,0,B|238:197|236:153|236:153|225:138|211:127,1,117.799996854401,0|0,3:2|3:2,0:0:0:0:
126,89,28140,6,0,B|111:112|82:123|82:123|51:126|22:112,2,117.799996854401,2|2|2,3:2|3:2|3:2,0:0:0:0:
217,35,29265,1,2,3:2:0:0:
261,64,29452,2,0,P|320:78|382:85,1,117.799996854401,2|0,0:0|0:0,0:0:0:0:
429,75,30015,2,0,P|484:97|486:156,2,117.799996854401,2|2|2,3:2|3:2|3:2,0:0:0:0:
367,161,31140,6,0,P|309:176|251:183,1,117.799996854401,4|2,3:2|1:2,0:0:0:0:
145,182,31890,2,0,P|132:153|122:124,2,58.8999984272004,0|0|2,3:2|0:0|1:2,0:0:0:0:
149,234,32452,1,0,0:0:0:0:
114,273,32640,2,0,B|73:262|25:256|25:256|11:263|2:272,2,117.799996854401,0|2|0,3:2|1:2|3:2,0:0:0:0:
206,324,33765,1,2,1:2:0:0:
305,287,34140,6,0,P|363:294|381:350,1,117.799996854401,2|2,3:2|1:2,0:0:0:0:
463,276,34890,2,0,P|464:217|474:158,1,117.799996854401,2|2,3:2|1:2,0:0:0:0:
476,106,35452,2,0,P|422:83|378:122,1,117.799996854401,2|2,2:2|1:2,0:0:0:0:
341,154,36015,2,0,B|286:170|286:170|245:166|230:149,1,117.799996854401,0|0,1:2|3:2,0:0:0:0:
194,110,36577,1,2,1:2:0:0:
194,110,36765,1,2,1:2:0:0:
284,65,37140,6,0,P|342:55|400:53,1,117.799996854401,6|2,3:2|1:2,0:0:0:0:
468,134,37890,2,0,P|451:158|433:181,1,58.8999984272004,2|0,3:2|3:2,0:0:0:0:
382,197,38265,2,0,P|401:221|418:247,1,58.8999984272004,2|0,1:2|0:0,0:0:0:0:
368,266,38640,2,0,B|327:255|279:249|279:249|265:256|256:265,2,117.799996854401,2|2|2,3:2|1:2|3:2,0:0:0:0:
450,333,39765,1,2,1:2:0:0:
349,365,40140,6,0,P|290:355|232:353,1,117.799996854401,2|2,3:2|1:2,0:0:0:0:
128,329,40890,2,0,P|139:356|149:383,2,58.8999984272004,2|0|2,3:2|3:2|1:2,0:0:0:0:
124,276,41452,2,0,P|123:219|76:178,1,117.799996854401,0|0,0:0|3:2,0:0:0:0:
27,180,42015,1,2,1:2:0:0:
76,86,42390,2,0,P|106:82|136:76,1,58.8999984272004,2|0,3:2|1:2,0:0:0:0:
172,112,42765,2,0,P|202:115|232:121,1,58.8999984272004,2|0,1:2|0:0,0:0:0:0:
282,108,43140,6,0,B|300:95|309:54|309:54|300:-1,1,117.799996854401,6|2,3:2|1:2,0:0:0:0:
403,19,43890,2,0,P|409:48|412:78,1,58.8999984272004,2|0,3:2|3:2,0:0:0:0:
442,121,44265,2,0,P|436:149|433:179,1,58.8999984272004,2|0,1:2|0:0,0:0:0:0:
398,219,44640,2,0,P|456:222|512:204,2,117.799996854401,2|2|2,3:2|1:2|3:2,0:0:0:0:
291,226,45765,2,0,P|296:254|299:284,1,58.8999984272004,2|0,1:2|0:0,0:0:0:0:
330,328,46140,6,0,B|339:319|353:312|353:312|401:318|447:330,1,117.799996854401,2|2,3:2|1:2,0:0:0:0:
491,311,46702,1,6,1:2:0:0:
433,222,47077,1,6,1:2:0:0:
487,131,47452,6,0,P|478:72|422:55,1,117.799996854401,6|0,3:2|3:2,0:0:0:0:
378,70,48015,1,0,1:2:0:0:
330,93,48202,2,0,P|271:90|213:80,1,117.799996854401,6|0,3:2|3:2,0:0:0:0:
166,54,48765,1,0,1:2:0:0:
168,159,49140,6,0,B|115:191|83:163|49:134|0:165,2,176.699995281601,6|0|0,3:2|3:2|1:2,0:0:0:0:
273,168,50640,2,0,P|282:226|285:284,1,117.799996854401,2|0,3:2|0:0,0:0:0:0:
231,284,51202,2,0,B|176:275|176:275|135:284|122:302,1,117.799996854401,0|0,3:2|0:0,0:0:0:0:
103,352,51765,1,0,1:2:0:0:
204,382,52140,6,0,P|262:372|320:369,1,117.799996854401,2|0,3:2|0:0,0:0:0:0:
423,342,52890,2,0,P|444:290|423:235,1,117.799996854401,0|0,3:2|1:2,0:0:0:0:
386,197,53452,2,0,P|380:168|377:138,1,58.8999984272004,0|2,0:0|3:2,0:0:0:0:
395,34,54015,5,2,0:0:0:0:
306,92,54390,1,2,3:2:0:0:
202,104,54765,1,2,1:2:0:0:
102,103,55140,2,0,P|99:164|89:226,2,124,4|0|0,3:2|1:2|3:2,0:0:0:0:
146,80,56077,2,0,P|175:90|202:104,1,62,0|0,3:2|1:2,0:0:0:0:
313,122,56640,6,0,P|349:75|406:88,1,124,2|0,3:2|1:2,0:0:0:0:
426,139,57202,1,0,0:0:0:0:
446,191,57390,2,0,P|454:220|464:249,2,62,0|0|0,3:2|3:2|1:2,0:0:0:0:
352,254,58140,6,0,B|347:245|333:232|333:232|285:226|238:225,2,124,6|0|0,3:2|1:2|3:2,0:0:0:0:
387,296,59077,2,0,P|417:302|448:305,2,62,2|2|2,3:2|1:2|3:2,0:0:0:0:
331,302,59640,2,0,B|282:342|282:342|248:354|223:345,1,124,4|0,3:2|1:2,0:0:0:0:
122,294,60390,2,0,B|99:269|70:258|70:258|31:258|-2:283,1,124,0|0,3:2|1:2,0:0:0:0:
37,165,61140,6,0,P|98:161|159:150,1,124,6|0,1:2|3:2,0:0:0:0:
199,189,61702,2,0,P|255:164|309:133,1,124,6|0,1:2|3:2,0:0:0:0:
365,140,62265,2,0,P|387:82|398:29,1,62,6|0,1:2|3:2,0:0:0:0:
431,47,62640,1,4,1:2:0:0:
431,47,62827,1,0,1:2:0:0:
486,144,63202,6,0,B|505:170|512:201|512:201|505:239|474:268,1,124,6|0,1:2|3:2,0:0:0:0:
432,273,63765,2,0,P|402:262|372:255,1,62,2|2,1:2|1:2,0:0:0:0:
320,282,64140,5,4,3:2:0:0:
208,246,64515,1,0,1:2:0:0:
193,362,64890,1,0,3:2:0:0:
80,329,65265,1,2,1:2:0:0:
26,353,65452,6,0,P|32:268|24:215,1,130.199996026611,2|0,2:2|0:0,0:0:0:0:
0,170,66015,2,0,P|4:90|40:88,2,130.199996026611,0|0|2,1:2|3:2|1:2,0:0:0:0:
117,165,67140,1,0,3:2:0:0:
210,95,67515,1,2,1:2:0:0:
260,125,67702,2,0,B|248:171|242:219|242:219|255:239|264:251,1,130.199996026611,2|0,2:2|0:0,0:0:0:0:
320,240,68265,2,0,P|350:233|385:229,1,65.0999980133057,0|2,1:2|0:2,0:0:0:0:
435,257,68640,6,0,P|404:322|347:353,1,130.199996026611,0|0,3:2|1:2,0:0:0:0:
320,240,69390,2,0,P|336:148|336:124,1,65.0999980133057,0|2,3:2|1:2,0:0:0:0:
380,140,69765,2,0,P|364:48|364:24,1,65.0999980133057,2|0,1:2|1:2,0:0:0:0:
407,34,70140,6,0,P|465:30|479:87,2,130.199996026611,4|0|0,3:2|1:2|3:2,0:0:0:0:
300,83,71265,2,0,P|270:76|236:73,1,65.0999980133057,2|2,1:2|2:2,0:0:0:0:
180,92,71640,1,0,3:2:0:0:
85,161,72015,2,0,B|63:152|52:110|52:110|59:37,2,130.199996026611,0|0|0,1:2|3:2|1:2,0:0:0:0:
138,185,72952,1,0,0:0:0:0:
195,174,73140,6,0,B|245:161|324:155|324:155|346:183|384:207,1,195.299994039917,6|0,3:2|3:2,0:0:0:0:
394,252,73890,2,0,P|329:247|264:258,1,130.199996026611,6|0,3:2|1:2,0:0:0:0:
165,319,74640,2,0,P|172:349|176:385,2,65.0999980133057,6|2|0,3:2|1:2|1:2,0:0:0:0:
133,269,75202,2,0,P|118:205|116:140,1,130.199996026611,6|0,1:2|1:2,0:0:0:0:
156,98,75765,1,2,1:2:0:0:
156,98,75952,1,2,1:2:0:0:
304,194,76515,6,0,B|367:185|407:241|407:241|446:261|480:249,1,195.299994039917,4|4,1:2|1:2,0:0:0:0:
468,133,77452,6,0,B|461:79|449:42|449:42|423:28|396:7,1,130.199996026611,6|0,1:2|3:2,0:0:0:0:
359,31,78015,2,0,P|361:64|369:95,1,65.0999980133057,0|0,1:2|0:0,0:0:0:0:
311,108,78390,2,0,P|246:100|184:79,1,130.199996026611,0|2,3:2|1:2,0:0:0:0:
72,113,79140,1,0,3:2:0:0:
22,219,79515,1,2,1:2:0:0:
72,249,79702,2,0,B|118:237|166:231|166:231|186:244|198:253,1,130.199996026611,2|0,2:2|0:0,0:0:0:0:
227,299,80265,1,0,1:2:0:0:
261,345,80452,6,0,P|306:368|375:318,1,130.199996026611,2|0,0:0|0:0,0:0:0:0:
379,273,81015,2,0,P|363:209|358:145,1,130.199996026611,0|0,1:2|3:2,0:0:0:0:
399,102,81577,2,0,P|407:70|408:38,1,65.0999980133057,2|2,1:2|1:2,0:0:0:0:
292,49,82140,6,0,B|283:55|263:68|263:68|215:62|169:50,1,130.199996026611,6|0,3:2|1:2,0:0:0:0:
111,56,82702,1,0,0:0:0:0:
55,75,82890,2,0,P|33:142|120:159,1,130.199996026611,0|2,3:2|1:2,0:0:0:0:
125,200,83452,1,2,0:0:0:0:
161,246,83640,2,0,P|224:230|288:225,2,130.199996026611,0|0|0,3:2|1:2|3:2,0:0:0:0:
87,337,84765,2,0,P|55:328|23:327,1,65.0999980133057,2|2,1:2|0:0,0:0:0:0:
9,269,85140,6,0,B|2:201|2:201|13:159|35:150,1,130.199996026611,0|0,3:2|1:2,0:0:0:0:
144,111,85890,1,0,3:2:0:0:
256,142,86265,1,0,1:2:0:0:
364,98,86640,6,0,P|356:67|351:35,1,65.0999980133057,2|2,1:2|1:2,0:0:0:0:
451,178,87390,2,0,P|446:208|438:241,1,65.0999980133057,2|2,1:2|1:2,0:0:0:0:
256,192,87952,12,6,89640,1:2:0:0:
