osu file format v14

[General]
AudioFilename: audio.mp3
AudioLeadIn: 0
PreviewTime: 63108
Countdown: 0
SampleSet: Soft
StackLeniency: 0.7
Mode: 0
LetterboxInBreaks: 0
WidescreenStoryboard: 0

[Editor]
DistanceSpacing: 1.3
BeatDivisor: 2
GridSize: 32
TimelineZoom: 3.499999

[Metadata]
Title:M flat
TitleUnicode:M♭
Artist:Kato Megumi (CV: Yasuno Kiyono)
ArtistUnicode:加藤 恵 (CV: 安野希世乃)
Creator:realy0_
Version:Flat
Source:冴えない彼女の育てかた
Tags:冴えカノ saenai kanojo heroine no sodate kata saekano character song cut japanese j-pop anime Nyantiaz -[Shady]-
BeatmapID:1932936
BeatmapSetID:914766

[Difficulty]
HPDrainRate:5.5
CircleSize:3.8
OverallDifficulty:8.6
ApproachRate:9
SliderMultiplier:1.74
SliderTickRate:0.5

[Events]
//Background and Video events
0,0,"859652 (1).jpg",0,0
//Break Periods
//Storyboard Layer 0 (Background)
//Storyboard Layer 1 (Fail)
//Storyboard Layer 2 (Pass)
//Storyboard Layer 3 (Foreground)
//Storyboard Sound Samples

[TimingPoints]
1140,375,4,2,1,40,1,0
9952,-100,4,2,1,45,0,0
11640,-133.333333333333,4,2,1,50,0,0
13140,-90.9090909090909,4,2,1,55,0,0
19140,-90.9090909090909,4,2,1,60,0,0
23452,-90.9090909090909,4,2,1,55,0,0
25140,-125,4,2,1,45,0,0
35640,-111.111111111111,4,2,1,50,0,0
37140,-100,4,2,1,50,0,0
37421,-100,4,2,1,50,0,0
37515,-100,4,2,1,50,0,0
40046,-100,4,2,1,50,0,0
40140,-100,4,2,1,50,0,0
43421,-100,4,2,1,50,0,0
43515,-100,4,2,1,50,0,0
44733,-100,4,2,1,5,0,0
44827,-100,4,2,1,50,0,0
49140,-125,4,2,1,45,0,0
52421,-125,4,2,1,45,0,0
52515,-125,4,2,1,45,0,0
55140,-111.111111111111,4,2,1,50,0,0
56265,-80,4,2,1,50,0,0
56640,-100,4,2,1,55,0,0
57765,-71.4285714285714,4,2,1,55,0,0
58140,-90.9090909090909,4,2,1,60,0,0
59640,-83.3333333333333,4,2,1,65,0,0
61140,-71.4285714285714,4,2,1,65,0,0
64140,-71.4285714285714,4,2,1,75,0,1
75390,-62.5,4,2,1,75,0,1
76140,-100,4,2,1,70,0,0
77452,-62.5,4,2,1,75,0,1
78015,-71.4285714285714,4,2,1,75,0,1
80452,-62.5,4,2,1,75,0,1
81015,-71.4285714285714,4,2,1,75,0,1
86452,-62.5,4,2,1,75,0,1
86640,-133.333333333333,4,2,1,75,0,0
88140,-250,4,2,1,75,0,0
88890,-62.5,4,2,1,75,0,0
89640,-100,4,2,1,40,0,0

[Colours]
Combo1 : 209,213,237
Combo2 : 255,0,89
Combo3 : 223,223,223
Combo4 : 159,96,118
Combo5 : 255,191,210

[HitObjects]
134,103,1140,6,0,P|218:81|304:69,1,174,2|0,3:2|1:0,0:0:0:0:
461,7,1702,1,0,0:0:0:0:
461,7,1890,2,0,B|415:31|397:63|397:63|400:117|347:156,1,174,0|0,0:0|1:0,0:0:0:0:
445,188,2452,1,0,0:0:0:0:
212,151,2640,6,0,B|312:174|272:215|362:234,1,174,2|0,3:2|1:0,0:0:0:0:
136,280,3202,2,0,P|187:279|204:232,1,87,0|0,0:0|0:0,0:0:0:0:
40,277,3577,2,0,P|30:326|5:358,2,87,0|0|0,0:0|1:0|0:0,0:0:0:0:
178,151,4140,6,0,B|133:157|108:194|108:194|61:190|33:150,1,174,2|0,3:2|1:0,0:0:0:0:
154,45,4702,2,0,B|256:40|228:89|320:85,1,174,0|0,0:0|0:0,0:0:0:0:
512,73,5265,1,0,1:0:0:0:
428,208,5452,1,0,0:0:0:0:
428,208,5546,1,0,0:0:0:0:
356,172,5640,6,0,P|303:177|243:167,1,87,2|0,3:2|0:0,0:0:0:0:
55,113,6015,1,0,1:0:0:0:
151,226,6202,1,0,0:0:0:0:
209,39,6390,2,0,B|234:13|287:5|287:5|317:41|319:86,1,174,0|0,0:0|1:0,0:0:0:0:
296,209,6952,1,0,0:0:0:0:
497,151,7140,6,0,B|428:147|371:166|371:166|336:197,1,174,2|0,3:2|1:0,0:0:0:0:
430,353,7702,2,0,P|433:309|428:266,2,87,0|0|0,0:0|0:0|0:0,0:0:0:0:
250,288,8265,2,0,P|276:320|318:315,1,87,0|0,1:0|0:0,0:0:0:0:
165,206,8640,6,0,B|63:201|91:250|-1:246,1,174,2|0,3:2|1:0,0:0:0:0:
222,108,9201,2,0,P|307:130|393:142,1,174,0|0,0:0|0:0,0:0:0:0:
481,102,9765,2,0,P|472:41|460:11,1,87,0|0,1:0|0:0,0:0:0:0:
371,259,10140,5,6,0:0:0:0:
297,304,10515,5,0,1:0:0:0:
134,205,10702,1,0,1:3:0:0:
246,122,10890,1,0,1:0:0:0:
116,301,11077,1,0,1:3:0:0:
21,177,11265,1,0,1:0:0:0:
269,211,11452,1,0,1:3:0:0:
188,63,11640,5,2,1:2:0:0:
241,347,11827,1,2,1:2:0:0:
241,347,12202,5,0,0:0:0:0:
156,261,12390,5,2,1:2:0:0:
466,225,12577,1,2,1:2:0:0:
409,78,12765,2,0,P|409:110|420:141,1,65.2500024890901,0|0,0:0|2:0,0:0:0:0:
505,97,13140,5,6,3:2:0:0:
505,97,13327,1,0,3:0:0:0:
315,125,13515,2,0,L|213:106,1,95.7000029205323,0|2,1:0|2:0,0:0:0:0:
74,169,13890,5,0,3:0:0:0:
74,169,14077,1,0,3:0:0:0:
221,108,14265,1,0,1:0:0:0:
0,51,14452,1,2,2:0:0:0:
141,274,14640,6,0,P|145:321|137:368,1,95.7000029205323,0|0,3:0|3:0,0:0:0:0:
74,169,15015,1,0,1:0:0:0:
221,108,15202,1,2,2:0:0:0:
93,18,15390,6,0,P|47:5|-1:0,1,95.7000029205323,0|0,3:0|3:0,0:0:0:0:
240,140,15765,2,0,P|287:135|333:122,1,95.7000029205323,0|2,1:0|2:0,0:0:0:0:
468,53,16140,5,0,3:0:0:0:
468,53,16327,1,0,3:0:0:0:
399,283,16515,1,0,1:0:0:0:
512,189,16702,1,2,2:0:0:0:
270,269,16890,6,0,B|152:268|196:313|85:311,1,191.400005841065,0|0,3:0|1:0,0:0:0:0:
403,68,17452,6,0,P|441:96|483:118,1,95.7000029205323,6|0,1:2|0:0,0:0:0:0:
265,146,17827,2,0,B|261:111|245:83|245:83|241:52,1,95.7000029205323,4|2,1:2|3:2,0:0:0:0:
18,144,18202,2,0,P|121:166|73:252,1,191.400005841065,6|0,1:2|1:0,0:0:0:0:
68,340,18765,1,2,1:2:0:0:
68,340,18858,1,0,3:2:0:0:
68,340,18952,1,2,1:2:0:0:
68,340,19046,1,2,1:2:0:0:
68,340,19140,5,4,1:2:0:0:
18,144,19327,1,2,3:2:0:0:
245,174,19515,1,0,1:2:0:0:
112,227,19702,1,2,3:2:0:0:
270,83,19890,1,0,1:2:0:0:
363,198,20077,1,2,3:2:0:0:
145,134,20265,1,0,1:2:0:0:
211,1,20452,1,2,3:2:0:0:
276,266,20640,5,0,1:2:0:0:
362,108,20827,1,2,3:2:0:0:
145,134,21015,1,0,1:2:0:0:
268,175,21202,1,2,3:2:0:0:
313,21,21390,1,0,1:2:0:0:
128,227,21577,1,2,3:2:0:0:
250,344,21765,1,0,1:2:0:0:
209,79,21952,1,2,3:2:0:0:
494,130,22140,5,0,1:2:0:0:
300,282,22327,1,2,3:2:0:0:
282,154,22515,1,0,1:2:0:0:
450,325,22702,1,2,3:2:0:0:
162,251,22890,1,0,1:2:0:0:
409,195,23077,1,2,3:2:0:0:
364,350,23265,1,0,1:2:0:0:
110,384,23452,5,6,1:2:0:0:
110,384,23827,5,6,1:2:0:0:
149,216,24015,1,2,0:2:0:0:
422,65,24202,5,6,1:2:0:0:
429,73,24577,5,2,0:2:0:0:
429,73,24671,1,2,0:2:0:0:
429,73,24765,1,2,0:2:0:0:
314,55,24952,1,0,0:2:0:0:
232,129,25140,6,0,B|236:157|236:157|250:190|279:205,1,69.6,4|0,3:2|0:0,0:0:0:0:
353,222,25515,1,0,3:2:0:0:
353,222,25702,1,0,0:0:0:0:
450,199,25890,2,0,L|460:268,1,69.6,0|0,3:2|0:0,0:0:0:0:
353,222,26265,2,0,L|363:154,1,69.6,0|0,3:2|0:0,0:0:0:0:
243,275,26640,6,0,P|276:283|303:305,2,69.6,0|0|0,3:2|0:0|3:2,0:0:0:0:
155,299,27202,1,0,0:0:0:0:
155,299,27390,2,0,B|124:325|124:325|20:337,1,139.2,0|0,3:2|3:2,0:0:0:0:
136,193,28140,6,0,B|170:189|204:204|204:204|292:195,1,139.2,2|2,3:2|3:2,0:0:0:0:
378,185,28702,1,0,0:0:0:0:
378,185,28890,2,0,B|367:240|367:240|346:254|346:254|336:311,1,139.2,2|2,3:2|3:2,0:0:0:0:
265,367,29452,1,2,0:0:0:0:
433,311,29640,6,0,P|467:316|500:326,1,69.6,0|0,3:2|0:0,0:0:0:0:
378,185,30015,2,0,P|344:195|310:200,1,69.6,2|0,3:2|0:0,0:0:0:0:
466,90,30390,2,0,B|479:51|480:10|480:10|492:36,1,104.4,2|0,3:2|2:2,0:0:0:0:
489,31,30765,1,2,3:2:0:0:
387,65,30952,1,0,0:0:0:0:
480,172,31140,6,0,B|470:220|469:264|470:264,1,69.6,4|0,3:2|0:0,0:0:0:0:
412,310,31515,1,2,1:2:0:0:
412,310,31702,1,0,0:0:0:0:
293,205,31890,2,0,P|327:199|360:190,1,69.6,0|0,3:2|0:0,0:0:0:0:
313,303,32265,2,0,B|303:351|302:395|303:395,1,69.6,2|0,1:2|0:0,0:0:0:0:
162,242,32640,6,0,P|194:246|223:265,2,69.6,0|0|2,3:2|0:0|1:2,0:0:0:0:
101,175,33202,1,0,0:0:0:0:
101,175,33390,2,0,B|106:117|106:117|125:101|125:101|131:45,1,139.2,0|2,3:2|1:2,0:0:0:0:
432,102,34140,6,0,B|398:106|364:91|364:91|328:89|286:120,1,139.2,2|2,3:2|1:2,0:0:0:0:
213,167,34702,1,0,0:0:0:0:
118,129,34890,2,0,P|100:87|122:124,1,139.2,2|2,3:2|1:2,0:0:0:0:
359,180,35452,1,2,0:0:0:0:
309,304,35640,5,0,1:2:0:0:
309,304,35733,1,0,1:2:0:0:
309,304,35827,1,0,1:2:0:0:
309,304,35921,1,0,1:2:0:0:
309,304,36015,1,0,1:2:0:0:
309,304,36108,1,0,1:2:0:0:
309,304,36202,1,0,1:2:0:0:
309,304,36296,1,0,1:2:0:0:
309,304,36390,1,0,3:2:0:0:
232,135,36577,5,2,1:2:0:0:
157,360,36765,1,2,1:2:0:0:
92,235,36952,1,0,0:0:0:0:
309,304,37140,6,0,B|388:302|356:343|462:340,1,130.5,6|0,3:2|0:0,0:0:0:0:
475,336,37515,1,2,1:2:0:0:
475,336,37702,1,0,0:0:0:0:
361,153,37890,1,2,3:2:0:0:
443,239,38077,1,0,3:2:0:0:
467,93,38265,2,0,P|472:49|484:8,1,87,2|0,1:2|0:0,0:0:0:0:
278,82,38640,5,2,3:2:0:0:
392,50,38827,1,0,3:2:0:0:
261,171,39015,1,2,1:2:0:0:
186,20,39202,1,0,0:0:0:0:
116,240,39390,2,0,P|74:227|31:222,1,87,2|0,3:2|3:2,0:0:0:0:
222,162,39765,2,0,B|233:233|262:213|273:303,1,130.5,2|0,1:2|0:0,0:0:0:0:
308,310,40140,6,0,B|355:281|417:285|417:285|424:313|412:346,1,174,2|2,3:2|1:2,0:0:0:0:
459,138,40702,1,0,0:0:0:0:
459,138,40890,2,0,B|423:172|383:180|383:180|339:143|338:90,1,174,2|2,3:2|1:2,0:0:0:0:
229,188,41452,1,0,0:0:0:0:
329,15,41640,6,0,P|372:20|409:43,1,87,2|0,3:2|3:2,0:0:0:0:
196,103,42015,2,0,L|91:118,1,87,2|0,1:2|0:0,0:0:0:0:
301,220,42390,5,2,3:2:0:0:
334,33,42577,1,0,1:2:0:0:
196,103,42765,1,2,1:2:0:0:
404,180,42952,1,0,0:0:0:0:
115,224,43140,6,0,P|99:282|155:302,1,130.5,6|0,3:2|0:0,0:0:0:0:
197,291,43515,2,0,P|240:281|283:277,1,87,2|0,1:2|0:0,0:0:0:0:
445,311,43890,1,2,3:2:0:0:
445,311,44077,1,0,3:2:0:0:
237,384,44265,1,2,1:2:0:0:
320,178,44452,6,0,B|342:129|422:102|422:102|476:145,1,174,0|0,0:0|3:2,0:0:0:0:
214,74,45015,2,0,P|177:51|150:17,1,87,2|0,1:2|0:0,0:0:0:0:
27,259,45390,2,0,B|116:239|77:198|176:177,1,174,2|2,3:2|1:2,0:0:0:0:
332,330,45952,1,0,0:0:0:0:
242,345,46140,6,0,P|197:312|183:265,2,87,2|0|2,3:2|3:2|1:2,0:0:0:0:
406,240,46702,2,0,L|370:107,1,130.5,6|0,1:2|0:0,0:0:0:0:
432,50,47077,2,0,L|403:144,1,87,6|0,1:2|1:2,0:0:0:0:
179,165,47452,6,0,B|127:144|67:159|67:159|65:188|81:216,1,174,6|0,3:2|3:2,0:0:0:0:
81,216,48015,1,0,1:2:0:0:
249,24,48202,2,0,B|244:114|294:87|289:189,1,174,6|0,3:2|3:2,0:0:0:0:
447,193,48765,2,0,P|407:208|383:262,1,87,0|0,1:2|3:2,0:0:0:0:
324,294,49046,1,0,0:0:0:0:
324,294,49140,6,0,B|260:287|215:294|215:294|259:324,1,139.2,6|0,3:2|0:0,0:0:0:0:
407,336,49702,1,0,3:2:0:0:
407,336,49890,1,0,3:2:0:0:
236,157,50265,2,0,P|226:115|224:84,1,69.6,0|0,1:2|0:0,0:0:0:0:
291,26,50640,6,0,B|383:31|342:67|458:70,1,139.2,2|0,3:2|0:0,0:0:0:0:
509,76,51202,1,0,3:2:0:0:
509,76,51390,1,0,3:2:0:0:
298,123,51765,1,0,1:2:0:0:
270,117,51858,1,0,0:0:0:0:
248,107,51952,1,0,0:0:0:0:
231,90,52046,1,0,0:0:0:0:
298,123,52140,6,0,P|326:166|340:216,1,104.4,2|0,3:2|0:0,0:0:0:0:
318,242,52515,2,0,L|240:232,1,69.6,0|0,0:0|3:2,0:0:0:0:
117,201,52890,2,0,B|126:251|126:251|151:275|151:275|149:327,1,139.2,0|0,3:2|1:2,0:0:0:0:
221,383,53452,1,0,0:0:0:0:
209,165,53640,6,0,P|175:122|141:107,1,69.6,2|0,3:2|0:0,0:0:0:0:
72,115,54015,2,0,P|46:138|14:151,1,69.6,2|0,0:0|3:2,0:0:0:0:
121,31,54390,2,0,P|154:21|187:25,1,69.6,2|0,3:2|0:0,0:0:0:0:
326,103,54765,1,2,1:2:0:0:
485,26,54952,1,0,1:2:0:0:
485,26,55046,1,0,1:2:0:0:
434,85,55140,6,0,P|428:132|424:247,1,156.599995220947,4|0,3:2|1:2,0:0:0:0:
322,226,55702,1,0,0:0:0:0:
266,311,55890,2,0,P|224:298|182:293,1,78.2999976104737,0|0,3:2|3:2,0:0:0:0:
15,252,56265,2,0,P|13:323|96:314,1,163.125,0|0,1:2|0:0,0:0:0:0:
110,287,56640,6,0,B|113:237|113:237|94:206|94:206|100:126,1,130.5,2|0,3:2|0:0,0:0:0:0:
97,162,57015,1,0,1:2:0:0:
257,223,57202,1,0,0:0:0:0:
368,49,57390,2,0,P|409:35|451:28,1,87,0|0,3:2|3:2,0:0:0:0:
254,127,57765,2,0,B|160:124|187:68|78:66,1,182.699994424439,0|0,1:2|0:0,0:0:0:0:
20,123,58140,6,0,B|15:189|56:239|56:239|52:272|27:300,2,191.400005841065,6|0|0,3:2|1:2|3:2,0:0:0:0:
246,35,59077,1,2,3:2:0:0:
152,278,59265,1,2,1:2:0:0:
128,154,59452,1,2,3:2:0:0:
363,326,59640,6,0,L|492:336,1,104.399996813965,4|0,3:2|0:0,0:0:0:0:
290,201,60015,2,0,L|160:211,1,104.399996813965,0|0,1:2|0:0,0:0:0:0:
436,20,60390,2,0,B|431:73|393:111|393:111|391:160|422:201,1,156.599995220947,0|0,3:2|0:0,0:0:0:0:
448,233,60765,2,0,P|479:188|476:126,1,104.399996813965,0|0,1:2|1:2,0:0:0:0:
393,91,61046,1,0,1:2:0:0:
393,91,61140,5,6,1:2:0:0:
153,156,61327,1,0,3:2:0:0:
47,56,61515,1,0,3:2:0:0:
132,329,61702,5,6,1:2:0:0:
164,167,61890,1,0,3:2:0:0:
8,352,62077,1,0,3:2:0:0:
305,269,62265,6,0,L|452:283,1,121.799996282959,6|0,1:2|3:2,0:0:0:0:
512,147,62640,5,4,1:2:0:0:
358,374,62827,1,0,1:2:0:0:
358,374,62921,1,0,1:2:0:0:
358,374,63015,1,0,1:2:0:0:
393,29,63202,6,0,B|256:17|285:92|160:81,1,243.599992565918,6|0,1:2|3:2,0:0:0:0:
30,92,63765,5,2,1:2:0:0:
12,108,63858,1,2,1:2:0:0:
2,143,63952,1,2,1:2:0:0:
20,188,64046,1,0,0:0:0:0:
93,221,64140,6,0,P|156:221|278:253,1,182.699994424439,4|0,3:2|0:0,0:0:0:0:
348,320,64515,2,0,P|293:288|196:260,1,121.799996282959,0|0,1:2|0:0,0:0:0:0:
27,137,64890,1,0,3:2:0:0:
27,137,65077,1,0,0:0:0:0:
132,303,65265,2,0,P|140:331|147:360,1,60.8999981414796,2|0,1:2|0:0,0:0:0:0:
239,269,65452,6,0,B|265:146|328:196|358:61,1,243.599992565918,2|0,2:2|0:0,0:0:0:0:
503,193,66015,2,0,B|451:209|408:198|408:198|427:181,1,121.799996282959,0|0,1:2|0:0,0:0:0:0:
207,54,66390,2,0,P|266:92|281:163,1,121.799996282959,0|0,3:2|0:0,0:0:0:0:
122,216,66765,2,0,L|-14:225,1,121.799996282959,2|2,1:2|0:0,0:0:0:0:
70,300,67046,1,0,0:0:0:0:
70,300,67140,6,0,L|252:289,1,182.699994424439,0|0,3:2|0:0,0:0:0:0:
340,331,67515,1,2,1:2:0:0:
435,120,67702,2,0,B|422:43|419:-1,1,121.799996282959,2|0,2:2|3:2,0:0:0:0:
506,188,68077,2,0,B|503:232|490:309,1,121.799996282959,0|0,0:0|1:2,0:0:0:0:
278,195,68452,2,0,P|296:170|307:142,1,60.8999981414796,2|2,0:2|0:2,0:0:0:0:
222,130,68640,6,0,B|83:122|123:52|-2:45,2,243.599992565918,0|0|0,3:2|1:2|3:2,0:0:0:0:
489,108,69577,5,2,1:2:0:0:
203,2,69765,1,2,1:2:0:0:
267,279,69952,1,0,1:2:0:0:
267,279,70046,1,0,1:2:0:0:
225,346,70140,6,0,P|150:368|77:345,1,121.799996282959,4|0,3:2|0:0,0:0:0:0:
284,188,70515,2,0,B|319:198|343:223|343:223|393:230,1,121.799996282959,0|0,1:2|0:0,0:0:0:0:
491,32,70890,2,0,P|519:64|483:41,1,121.799996282959,0|0,3:2|0:0,0:0:0:0:
484,212,71265,1,2,1:2:0:0:
327,124,71452,1,2,2:2:0:0:
289,327,71640,6,0,B|249:303|203:300|203:300|170:333|178:385,1,182.699994424439,0|0,3:2|0:0,0:0:0:0:
152,309,72015,2,0,B|168:278|190:261|190:261|209:232|205:203,1,121.799996282959,0|0,1:2|0:0,0:0:0:0:
30,90,72390,2,0,P|53:154|107:189,1,121.799996282959,0|0,3:2|0:0,0:0:0:0:
30,384,72765,2,0,L|-3:256,1,121.799996282959,0|0,1:2|0:0,0:0:0:0:
135,91,73140,5,6,3:2:0:0:
240,269,73327,1,0,1:2:0:0:
94,184,73515,1,0,1:2:0:0:
306,101,73702,1,0,3:2:0:0:
224,384,73890,5,6,3:2:0:0:
465,248,74077,1,0,1:2:0:0:
465,248,74171,1,0,1:2:0:0:
465,248,74265,1,0,1:2:0:0:
407,384,74452,1,0,3:2:0:0:
347,77,74640,5,6,3:2:0:0:
256,289,74827,1,2,1:2:0:0:
83,160,75015,1,0,1:2:0:0:
83,160,75108,1,0,1:2:0:0:
83,160,75202,1,6,1:2:0:0:
422,146,75390,6,0,L|501:131,1,69.6,0|0,3:2|3:2,0:0:0:0:
365,38,75577,2,0,L|312:83,1,69.6,0|0,1:2|1:2,0:0:0:0:
194,161,75765,2,0,L|181:92,1,69.6,2|2,1:2|1:2,0:0:0:0:
69,4,75952,2,0,L|56:72,1,69.6,2|2,1:2|1:2,0:0:0:0:
35,226,76140,5,0,3:2:0:0:
60,252,76515,6,0,B|159:247|136:298|234:294,1,174,4|0,1:2|3:2,0:0:0:0:
419,292,77077,2,0,P|369:329|354:364,1,87,4|0,1:2|3:2,0:0:0:0:
262,2,77452,6,0,P|361:7|476:150,1,278.4,6|0,1:2|3:2,0:0:0:0:
161,126,78015,2,0,P|98:105|30:98,1,121.799996282959,0|0,1:2|0:0,0:0:0:0:
80,215,78390,5,0,3:2:0:0:
323,126,78577,1,0,0:0:0:0:
315,295,78765,1,2,1:2:0:0:
174,32,78952,1,2,0:0:0:0:
489,7,79140,6,0,L|451:188,1,182.699994424439,0|0,3:2|0:0,0:0:0:0:
483,271,79515,1,0,1:2:0:0:
244,76,79702,2,0,P|304:47|375:53,1,121.799996282959,2|0,0:0|3:2,0:0:0:0:
358,283,80077,2,0,L|332:163,1,121.799996282959,2|0,0:0|1:2,0:0:0:0:
131,26,80452,6,0,B|108:134|108:134|56:164|56:164|24:287,1,278.4,2|0,0:0|0:0,0:0:0:0:
219,160,81015,1,0,1:2:0:0:
272,362,81202,1,0,0:0:0:0:
150,257,81390,1,0,3:2:0:0:
433,241,81577,5,2,1:2:0:0:
90,351,81765,1,2,1:2:0:0:
347,21,82140,5,6,3:2:0:0:
295,279,82327,1,0,0:0:0:0:
196,91,82515,1,0,1:2:0:0:
501,153,82702,1,0,0:0:0:0:
377,360,82890,1,0,3:2:0:0:
319,163,83077,1,0,0:0:0:0:
512,267,83265,1,2,1:2:0:0:
197,353,83452,1,2,0:0:0:0:
47,48,83640,6,0,P|107:64|217:126,1,182.699994424439,0|0,3:2|0:0,0:0:0:0:
248,203,84015,2,0,P|202:157|115:106,1,121.799996282959,0|0,1:2|0:0,0:0:0:0:
411,0,84390,1,0,3:2:0:0:
319,114,84577,1,0,0:0:0:0:
463,265,84765,2,0,L|437:385,1,121.799996282959,2|2,1:2|0:0,0:0:0:0:
259,228,85140,6,0,B|235:188|232:142|232:142|273:117|325:113,1,182.699994424439,0|0,3:2|0:0,0:0:0:0:
397,129,85515,2,0,P|457:117|471:65,1,121.799996282959,0|0,1:2|0:0,0:0:0:0:
441,235,85890,1,0,3:2:0:0:
441,235,85983,1,0,3:2:0:0:
441,235,86077,1,0,1:2:0:0:
448,244,86171,1,0,1:2:0:0:
463,263,86265,1,0,1:2:0:0:
476,296,86358,1,0,1:2:0:0:
464,343,86452,1,0,1:2:0:0:
399,370,86546,1,0,1:2:0:0:
326,347,86640,5,2,1:2:0:0:
23,283,86827,1,2,1:2:0:0:
23,283,87202,5,0,0:0:0:0:
165,384,87390,5,2,1:2:0:0:
137,63,87577,1,2,1:2:0:0:
309,189,87765,2,0,P|341:183|372:173,1,65.2500024890901,0|0,0:0|0:0,0:0:0:0:
256,192,88140,12,6,89640,1:2:0:0:
