osu file format v14

[General]
AudioFilename: audio.mp3
AudioLeadIn: 0
PreviewTime: 63108
Countdown: 0
SampleSet: Soft
StackLeniency: 0.7
Mode: 0
LetterboxInBreaks: 0
WidescreenStoryboard: 0

[Editor]
DistanceSpacing: 0.9
BeatDivisor: 2
GridSize: 16
TimelineZoom: 1.8

[Metadata]
Title:M flat
TitleUnicode:M♭
Artist:Kato Megumi (CV: Yasuno Kiyono)
ArtistUnicode:加藤 恵 (CV: 安野希世乃)
Creator:realy0_
Version:Easy
Source:冴えない彼女の育てかた
Tags:冴えカノ saenai kanojo heroine no sodate kata saekano character song cut japanese j-pop anime Nyantiaz -[Shady]-
BeatmapID:1910570
BeatmapSetID:914766

[Difficulty]
HPDrainRate:2
CircleSize:3.2
OverallDifficulty:3
ApproachRate:3.5
SliderMultiplier:1.08
SliderTickRate:1

[Events]
//Background and Video events
0,0,"679020.jpg",0,0
//Break Periods
//Storyboard Layer 0 (Background)
//Storyboard Layer 1 (Fail)
//Storyboard Layer 2 (Pass)
//Storyboard Layer 3 (Foreground)
//Storyboard Sound Samples

[TimingPoints]
1140,375,4,2,1,40,1,0
9952,-100,4,2,1,45,0,0
11640,-100,4,2,1,50,0,0
13140,-100,4,2,1,55,0,0
19140,-100,4,2,1,60,0,0
23452,-100,4,2,1,55,0,0
25140,-100,4,2,1,45,0,0
35640,-100,4,2,1,50,0,0
49140,-100,4,2,1,45,0,0
55140,-100,4,2,1,50,0,0
56640,-100,4,2,1,55,0,0
58140,-100,4,2,1,60,0,0
59640,-100,4,2,1,65,0,0
61140,-100,4,2,1,65,0,0
64140,-100,4,2,1,75,0,1
76140,-100,4,2,1,70,0,0
77452,-100,4,2,1,75,0,1
86640,-100,4,2,1,75,0,0
89640,-100,4,2,1,40,0,0

[Colours]
Combo1 : 209,213,237
Combo2 : 255,0,89
Combo3 : 223,223,223
Combo4 : 159,96,118
Combo5 : 255,191,210

[HitObjects]
92,278,1140,6,0,P|53:243|-14:241,2,108,2|0|0,3:2|1:0|0:0,0:0:0:0:
143,360,2265,1,0,1:0:0:0:
143,360,2640,2,0,B|177:369|177:369|248:354,1,108,2|0,3:2|1:0,0:0:0:0:
339,319,3390,2,0,B|373:309|373:309|444:324,1,108,0|0,0:0|1:0,0:0:0:0:
494,240,4140,6,0,B|471:150|527:173|510:59,1,162,2|0,3:2|0:0,0:0:0:0:
419,108,5077,1,0,0:0:0:0:
355,181,5452,2,0,P|284:129|203:149,1,162,0|0,0:0|1:0,0:0:0:0:
157,219,6390,1,0,0:0:0:0:
0,183,7140,6,0,B|-12:103|-12:103|0:27|70:-3,1,216,2|0,3:2|0:0,0:0:0:0:
161,13,8265,1,0,1:0:0:0:
247,57,8640,2,0,B|298:77|298:77|351:71,1,108,2|0,3:2|1:0,0:0:0:0:
445,92,9390,2,0,L|431:220,1,108,0|0,0:0|1:0,0:0:0:0:
365,268,10140,5,6,0:0:0:0:
365,268,10515,2,0,B|328:266|288:272|288:272|245:304|245:304|204:311|147:308,1,216,0|0,1:0|1:0,0:0:0:0:
68,341,11640,5,2,1:2:0:0:
193,165,12390,1,2,1:2:0:0:
1,68,13140,6,0,L|15:196,1,108,6|0,3:2|1:0,0:0:0:0:
69,254,13890,2,0,P|129:267|181:250,1,108,0|0,3:0|1:0,0:0:0:0:
239,184,14640,2,0,B|309:169|309:169|344:178,1,108,0|0,3:0|1:0,0:0:0:0:
422,235,15390,1,0,3:0:0:0:
400,329,15765,1,0,1:0:0:0:
306,353,16140,6,0,L|198:341,1,108,0|0,3:0|1:0,0:0:0:0:
124,278,16890,2,0,B|118:225|118:225|138:173,1,108,0|0,3:0|1:0,0:0:0:0:
103,140,17452,2,0,P|51:152|0:139,2,108,6|4|6,1:2|1:2|1:2,0:0:0:0:
323,35,19140,6,0,L|309:163,1,108,4|0,1:2|1:2,0:0:0:0:
370,219,19890,2,0,L|384:347,1,108,0|0,1:2|1:2,0:0:0:0:
299,378,20640,1,0,1:2:0:0:
202,368,21015,1,0,1:2:0:0:
126,306,21390,2,0,B|92:292|92:292|20:300,1,108,0|0,1:2|1:2,0:0:0:0:
44,205,22140,6,0,L|151:193,1,108,0|0,1:2|1:2,0:0:0:0:
231,138,22890,2,0,P|282:150|334:137,1,108,0|0,1:2|1:2,0:0:0:0:
371,104,23452,2,0,B|365:51|365:51|385:-1,2,108,6|6|6,1:2|1:2|1:2,0:0:0:0:
508,257,25140,6,0,P|446:252|397:276,1,108,4|0,3:2|3:2,0:0:0:0:
324,324,25890,2,0,P|270:329|221:310,1,108,0|0,3:2|3:2,0:0:0:0:
173,225,26640,2,0,B|175:181|168:140|168:140|136:97|136:97|130:57|132:20,1,216,0|0,3:2|3:2,0:0:0:0:
44,193,28140,6,0,B|38:246|38:246|8:291,2,108,2|2|2,3:2|3:2|3:2,0:0:0:0:
112,124,29265,2,0,P|161:104|214:110,1,108,2|0,3:2|3:2,0:0:0:0:
293,167,30015,1,2,3:2:0:0:
293,167,30390,2,0,B|326:180|326:180|401:173,1,108,2|2,3:2|3:2,0:0:0:0:
484,219,31140,6,0,B|490:273|490:273|470:324,1,108,4|2,3:2|1:2,0:0:0:0:
377,298,31890,2,0,P|323:292|274:312,1,108,0|2,3:2|1:2,0:0:0:0:
183,277,32640,2,0,L|194:384,2,108,0|2|0,3:2|1:2|3:2,0:0:0:0:
329,146,34140,6,0,B|399:161|399:161|434:152,1,108,2|2,3:2|1:2,0:0:0:0:
398,61,34890,2,0,L|292:39,1,108,2|2,3:2|1:2,0:0:0:0:
195,30,35640,1,0,1:2:0:0:
107,70,36015,2,0,P|87:119|93:172,1,108,0|0,1:2|3:2,0:0:0:0:
275,239,37140,5,6,3:2:0:0:
357,188,37515,1,2,1:2:0:0:
357,188,37890,2,0,B|392:182|392:182|422:186|461:203,1,108,2|2,3:2|1:2,0:0:0:0:
442,298,38640,2,0,B|315:278|344:348|231:320,1,216,2|2,3:2|3:2,0:0:0:0:
144,278,39765,1,2,1:2:0:0:
46,274,40140,6,0,P|51:319|48:382,2,108,2|2|2,3:2|1:2|3:2,0:0:0:0:
24,179,41265,1,2,1:2:0:0:
24,179,41640,2,0,B|4:141|-3:112|-3:112|-1:76,1,108,2|2,3:2|1:2,0:0:0:0:
85,32,42390,2,0,B|101:42|135:51|135:51|161:46|188:45,1,108,2|2,3:2|1:2,0:0:0:0:
284,68,43140,5,6,3:2:0:0:
374,32,43515,1,2,1:2:0:0:
374,32,43890,2,0,P|436:50|438:121,1,108,2|2,3:2|1:2,0:0:0:0:
410,175,44640,2,0,B|407:218|414:259|414:259|446:302|446:302|452:342|450:379,1,216,2|2,3:2|3:2,0:0:0:0:
359,344,45765,1,2,1:2:0:0:
359,344,46140,6,0,B|324:338|324:338|269:378|178:359,1,162,2|2,3:2|1:2,0:0:0:0:
115,321,47077,1,2,1:2:0:0:
141,219,47452,2,0,B|146:156|120:113|120:113|52:108|7:148,1,216,6|6,3:2|3:2,0:0:0:0:
222,5,49140,6,0,B|297:108|326:38|386:138,1,216,6|0,3:2|3:2,0:0:0:0:
364,232,50265,1,0,1:2:0:0:
364,232,50640,2,0,B|424:205|487:228|487:228|511:253,2,162,2|0|0,3:2|3:2|1:2,0:0:0:0:
285,174,52140,6,0,P|265:230|228:283,1,108,2|0,3:2|0:0,0:0:0:0:
151,225,52890,2,0,P|99:241|54:270,1,108,0|0,3:2|1:2,0:0:0:0:
87,361,53640,1,2,3:2:0:0:
87,361,54015,2,0,L|193:383,2,108,2|2|2,0:0|3:2|1:2,0:0:0:0:
143,281,55140,6,0,B|175:237|175:237|186:140|104:96,1,216,4|0,3:2|3:2,0:0:0:0:
178,30,56265,1,0,1:2:0:0:
178,30,56640,2,0,B|222:28|263:35|263:35|306:67|306:67|346:73|383:71,1,216,2|0,3:2|3:2,0:0:0:0:
466,121,57765,1,0,1:2:0:0:
466,121,58140,6,0,B|456:137|447:171|447:171|452:197|453:224,2,108,6|0|0,3:2|1:2|3:2,0:0:0:0:
386,75,59265,1,2,1:2:0:0:
386,75,59640,2,0,B|316:90|316:90|281:81,1,108,4|0,3:2|1:2,0:0:0:0:
189,48,60390,2,0,B|154:39|154:39|84:54,1,108,0|0,3:2|1:2,0:0:0:0:
18,126,61140,6,0,P|36:188|135:189,1,162,6|6,1:2|1:2,0:0:0:0:
257,254,62265,1,6,1:2:0:0:
257,254,62640,2,0,B|310:241|363:246|363:246|401:285,1,162,4|6,1:2|1:2,0:0:0:0:
488,102,64140,5,4,3:2:0:0:
393,81,64515,1,0,1:2:0:0:
303,119,64890,2,0,P|282:69|285:16,1,108,0|2,3:2|1:2,0:0:0:0:
191,44,65640,2,0,B|139:61|139:61|43:42,1,108,0|0,3:2|1:2,0:0:0:0:
29,129,66390,1,0,3:2:0:0:
98,205,66765,1,2,1:2:0:0:
98,205,67140,6,0,P|149:213|236:167,1,108,0|2,3:2|1:2,0:0:0:0:
271,129,67890,2,0,P|322:113|375:121,1,108,0|2,3:2|1:2,0:0:0:0:
449,183,68640,2,0,B|446:226|434:266|434:266|397:305|397:305|386:344|383:381,1,216,0|0,3:0|3:0,3:0:0:0:
291,348,69765,1,2,1:2:0:0:
213,291,70140,5,4,3:2:0:0:
123,327,70515,1,0,1:2:0:0:
38,279,70890,2,0,B|29:244|29:244|44:174,1,108,0|2,3:2|1:2,0:0:0:0:
123,117,71640,1,0,3:2:0:0:
103,21,72015,2,0,P|52:9|0:22,2,108,0|0|0,1:2|3:2|1:2,0:0:0:0:
187,68,73140,6,0,B|239:103|289:102|289:102|346:72|372:15,1,216,6|6,3:2|3:2,0:0:0:0:
374,223,74640,2,0,B|426:217|426:217|486:233|520:295,2,162,6|6|2,3:2|1:2|1:2,0:0:0:0:
225,349,76515,6,0,B|216:248|191:187,1,162,4|4,1:2|1:2,0:0:0:0:
228,100,77452,2,0,B|138:77|161:133|47:116,1,162,6|0,1:2|1:2,0:0:0:0:
0,186,78390,2,0,P|1:239|26:286,1,108,0|2,3:2|1:2,0:0:0:0:
123,276,79140,6,0,B|228:259|228:259|347:299,1,216,0|0,3:2|3:0,0:0:0:0:
428,304,80265,1,2,1:2:0:0:
487,227,80640,2,0,P|492:173|480:121,1,108,0|0,3:0|1:2,0:0:0:0:
397,71,81390,1,0,3:2:0:0:
319,129,81765,1,2,1:2:0:0:
319,129,82140,6,0,L|347:385,1,216,6|0,3:2|3:2,0:0:0:0:
252,381,83265,1,2,1:2:0:0:
163,341,83640,2,0,P|142:291|144:237,1,108,0|0,3:2|1:2,0:0:0:0:
103,149,84390,2,0,B|51:129|51:129|0:134,1,108,0|2,3:2|1:2,0:0:0:0:
13,37,85140,6,0,L|120:25,1,108,0|0,3:2|1:2,0:0:0:0:
188,94,85890,2,0,L|295:106,1,108,0|0,3:2|1:2,0:0:0:0:
386,72,86640,5,2,1:2:0:0:
259,219,87390,1,2,1:2:0:0:
256,192,87952,12,6,89640,1:2:0:0:
