osu file format v14

[General]
AudioFilename: audio.mp3
AudioLeadIn: 0
PreviewTime: 63492
Countdown: 0
SampleSet: Soft
StackLeniency: 0.4
Mode: 0
LetterboxInBreaks: 0
WidescreenStoryboard: 1

[Editor]
DistanceSpacing: 0.4
BeatDivisor: 4
GridSize: 32
TimelineZoom: 1

[Metadata]
Title:M flat
TitleUnicode:M♭
Artist:Kato Megumi (CV: Yasuno Kiyono)
ArtistUnicode:加藤恵 (CV: 安野希世乃)
Creator:- Matha -
Version:Sotarks' Emotions
Source:冴えない彼女の育てかた
Tags:冴えカノ saenai kanojo heroine no sodate kata saekano character song japanese anime -light- Agent_James sotarks
BeatmapID:1941890
BeatmapSetID:925999

[Difficulty]
HPDrainRate:5.2
CircleSize:3.8
OverallDifficulty:9
ApproachRate:9.2
SliderMultiplier:1.82
SliderTickRate:1

[Events]
//Background and Video events
0,0,"bgsotarks.jpg",0,0
//Break Periods
//Storyboard Layer 0 (Background)
//Storyboard Layer 1 (Fail)
//Storyboard Layer 2 (Pass)
//Storyboard Layer 3 (Foreground)
//Storyboard Sound Samples

[TimingPoints]
1617,375,4,2,22,42,1,0
1617,-161.290322580645,4,2,22,42,0,0
13617,-98.0392156862745,4,2,22,52,0,0
19617,-98.0392156862745,4,2,22,72,0,0
24679,-138.888888888889,4,2,22,72,0,0
25054,-138.888888888889,4,2,22,42,0,0
25429,-121.951219512195,4,2,22,52,0,0
31429,-108.695652173913,4,2,22,52,0,0
37429,-98.0392156862745,4,2,22,62,0,0
49617,-138.888888888889,4,2,22,52,0,0
55617,-98.0392156862746,4,2,22,62,0,0
61617,-98.0392156862746,4,2,22,72,0,0
64617,-89.2857142857143,4,2,22,82,0,1
88617,-98.0392156862745,4,2,22,72,0,0
100054,-98.0392156862745,4,2,22,42,0,0
100617,-121.951219512195,4,2,22,42,0,0
101929,-192.307692307692,4,2,22,52,0,0
103617,-192.307692307692,4,2,22,32,0,0

[Colours]
Combo1 : 255,128,191
Combo2 : 255,47,47
Combo3 : 170,225,255

[HitObjects]
174,129,1617,6,0,P|221:151|292:156,1,112.839995523316,2|2,0:2|0:2,0:0:0:0:
359,98,2179,1,0,0:2:0:0:
348,222,2367,2,0,P|317:193|228:204,1,112.839995523316,2|2,0:2|0:2,0:0:0:0:
180,273,2929,2,0,P|148:296|114:300,1,56.4199977616578,2|0,0:2|0:2,0:0:0:0:
167,165,3304,1,2,0:2:0:0:
277,274,3492,2,0,P|309:297|343:301,1,56.4199977616578,2|0,0:2|0:2,0:0:0:0:
257,136,3867,2,0,P|230:144|208:162,1,56.4199977616578,2|0,0:2|0:2,0:0:0:0:
348,184,4242,1,2,0:2:0:0:
348,184,4429,1,2,0:2:0:0:
255,44,4617,6,0,P|220:99|151:107,1,112.839995523316,2|2,0:2|0:2,0:0:0:0:
64,120,5179,2,0,P|75:160|80:182,1,56.4199977616578,2|0,0:2|0:2,0:0:0:0:
191,211,5554,2,0,P|197:183|205:156,1,56.4199977616578,2|0,0:2|0:2,0:0:0:0:
104,280,5929,2,0,P|63:294|37:296,1,56.4199977616578,2|0,0:2|0:2,0:0:0:0:
212,237,6304,2,0,P|239:242|265:252,1,56.4199977616578,2|0,0:2|0:2,0:0:0:0:
192,344,6679,1,2,0:2:0:0:
294,215,6867,2,0,P|303:284|314:349,1,112.839995523316,2|0,0:2|0:2,0:0:0:0:
502,178,7617,6,0,P|457:198|386:158,1,112.839995523316,2|0,0:2|0:2,0:0:0:0:
328,117,8179,1,2,0:2:0:0:
250,193,8367,2,0,P|235:238|235:263,1,56.4199977616578,2|0,0:2|0:2,0:0:0:0:
168,128,8742,1,2,0:2:0:0:
129,247,8929,1,2,0:2:0:0:
72,115,9117,2,0,P|152:95|199:79,1,112.839995523316,0|0,0:2|0:2,0:0:0:0:
248,31,9679,1,0,0:2:0:0:
311,111,9867,2,0,P|296:153|292:178,1,56.4199977616578,2|0,0:2|0:2,0:0:0:0:
420,109,10242,2,0,P|413:81|402:55,1,56.4199977616578,2|0,0:2|0:2,0:0:0:0:
338,262,10617,5,6,1:2:0:0:
338,262,10992,1,0,1:2:0:0:
144,124,11179,1,0,1:2:0:0:
128,356,11367,1,0,1:2:0:0:
271,70,11554,1,0,1:2:0:0:
461,294,11742,1,0,1:2:0:0:
377,16,11929,1,0,1:2:0:0:
233,311,12117,5,10,0:2:0:0:
87,14,12304,1,10,0:2:0:0:
452,123,12867,5,10,0:2:0:0:
38,212,13055,1,10,0:2:0:0:
289,47,13617,5,2,1:2:0:0:
338,217,13804,1,2,1:2:0:0:
149,62,13992,1,10,0:2:0:0:
148,238,14179,2,0,P|145:299|141:336,1,92.8200005665283,2|0,0:2|1:2,0:0:0:0:
241,120,14554,5,2,1:2:0:0:
317,316,14742,1,10,0:2:0:0:
379,100,14929,2,0,P|382:39|386:2,1,92.8200005665283,2|0,0:2|1:2,0:0:0:0:
242,227,15304,5,2,1:2:0:0:
429,204,15492,1,10,0:2:0:0:
242,227,15679,1,2,0:2:0:0:
477,85,15867,5,2,1:2:0:0:
325,281,16054,1,2,1:2:0:0:
248,47,16242,1,10,0:2:0:0:
325,281,16429,2,0,P|337:339|341:381,1,92.8200005665283,2|0,0:2|1:2,0:0:0:0:
167,162,16804,5,2,1:2:0:0:
102,365,16992,1,10,0:2:0:0:
78,102,17179,1,2,0:2:0:0:
208,319,17367,2,0,P|269:317|315:292,1,92.8200005665283,2|0,1:2|1:2,0:0:0:0:
369,62,17742,5,10,0:2:0:0:
182,204,17929,1,6,1:2:0:0:
182,204,18304,5,2,1:2:0:0:
431,262,18492,1,6,0:3:0:0:
253,53,18679,1,6,1:2:0:0:
317,212,18867,1,2,0:2:0:0:
253,53,19054,1,2,1:2:0:0:
132,277,19242,1,8,0:2:0:0:
69,115,19429,1,8,0:2:0:0:
69,115,19523,1,8,0:2:0:0:
69,115,19617,5,6,1:2:0:0:
317,212,19804,1,2,1:2:0:0:
56,144,19992,1,10,0:2:0:0:
292,37,20179,1,2,1:2:0:0:
149,243,20367,1,8,0:2:0:0:
436,247,20554,1,2,1:2:0:0:
218,101,20742,1,10,0:2:0:0:
342,323,20929,1,2,1:2:0:0:
420,81,21117,5,8,0:2:0:0:
184,234,21304,1,2,1:2:0:0:
447,113,21492,1,10,0:2:0:0:
197,68,21679,1,2,1:2:0:0:
330,289,21867,1,10,0:2:0:0:
309,27,22054,1,2,1:2:0:0:
301,306,22242,1,10,0:2:0:0:
165,82,22429,1,2,1:2:0:0:
398,193,22617,5,8,0:2:0:0:
106,272,22804,1,2,1:2:0:0:
294,147,22992,1,10,0:2:0:0:
80,39,23179,1,2,1:2:0:0:
211,245,23367,1,10,0:2:0:0:
289,44,23554,1,0,1:2:0:0:
180,217,23742,1,10,0:2:0:0:
424,46,23929,1,6,1:2:0:0:
117,153,24304,5,2,1:2:0:0:
425,246,24492,1,2,0:2:0:0:
62,225,24679,2,0,P|143:195|201:192,1,131.040003199219,6|0,1:2|3:2,0:0:0:0:
216,209,25148,1,0,3:2:0:0:
216,209,25242,1,0,3:2:0:0:
312,72,25429,6,0,P|300:120|297:154,1,74.6200011386109,2|4,0:2|1:2,0:0:0:0:
341,270,25804,1,2,0:2:0:0:
201,136,25992,2,0,P|210:171|215:208,1,74.6200011386109,2|0,1:2|0:2,0:0:0:0:
388,127,26367,1,2,1:2:0:0:
352,238,26554,1,2,0:2:0:0:
262,58,26742,2,0,P|214:37|182:38,1,74.6200011386109,2|2,1:2|0:2,0:0:0:0:
132,206,27117,5,2,1:2:0:0:
87,68,27304,1,2,0:2:0:0:
106,191,27492,1,2,1:2:0:0:
109,40,27679,1,2,0:2:0:0:
250,154,27867,2,0,P|286:150|319:132,1,74.6200011386109,0|0,1:2|0:2,0:0:0:0:
331,36,28242,2,0,P|294:39|261:57,1,74.6200011386109,0|0,1:2|0:2,0:0:0:0:
171,249,28617,6,0,P|156:189|142:158,1,74.6200011386109,2|0,1:2|0:2,0:0:0:0:
363,285,28992,2,0,P|370:248|382:213,1,74.6200011386109,2|0,1:2|0:2,0:0:0:0:
195,335,29367,2,0,P|150:284|46:284,1,149.240002277222,2|2,1:2|1:2,0:0:0:0:
336,364,29929,2,0,P|381:313|485:313,1,149.240002277222,2|2,0:2|0:2,0:0:0:0:
271,233,30492,1,2,1:2:0:0:
399,174,30679,1,2,0:2:0:0:
239,204,30867,1,2,1:2:0:0:
309,117,31054,2,0,L|312:77,2,37.3100005693054,0|0|0,3:2|3:2|3:2,0:0:0:0:
171,283,31429,6,0,P|115:259|70:254,1,83.7199971895753,2|4,0:2|1:2,0:0:0:0:
186,124,31804,1,2,0:2:0:0:
245,351,31992,2,0,P|207:369|166:378,1,83.7199971895753,2|0,3:2|0:2,0:0:0:0:
280,197,32367,1,2,1:2:0:0:
334,317,32554,1,2,0:2:0:0:
360,123,32742,2,0,P|376:59|398:30,1,83.7199971895753,2|0,3:2|0:2,0:0:0:0:
251,223,33117,5,2,1:2:0:0:
428,180,33304,1,2,0:2:0:0:
192,157,33492,1,2,3:2:0:0:
411,211,33679,1,2,0:2:0:0:
411,211,33867,2,0,P|398:155|397:111,1,83.7199971895753,0|0,1:2|0:2,0:0:0:0:
251,223,34242,2,0,P|247:264|236:305,1,83.7199971895753,0|0,3:2|0:2,0:0:0:0:
77,51,34617,6,0,P|71:106|50:154,1,83.7199971895753,2|0,1:2|0:2,0:0:0:0:
265,16,34992,2,0,P|267:57|280:97,1,83.7199971895753,2|0,3:2|0:2,0:0:0:0:
106,235,35367,2,0,P|173:173|246:184,1,167.439994379151,2|2,1:2|3:2,0:0:0:0:
382,318,35929,1,2,0:2:0:0:
360,133,36117,6,0,L|352:184,1,41.8599985947876,8|8,0:3|0:2,0:0:0:0:
205,308,36304,2,0,L|198:266,1,41.8599985947876,10|8,0:2|0:2,0:0:0:0:
388,151,36492,2,0,L|380:202,1,41.8599985947876,10|8,0:2|0:2,0:0:0:0:
233,326,36679,2,0,L|226:284,1,41.8599985947876,10|8,0:2|0:2,0:0:0:0:
262,153,36867,1,2,1:2:0:0:
136,363,37054,5,14,0:2:0:0:
276,55,37242,1,14,0:2:0:0:
123,242,37429,6,0,L|26:223,1,92.8200005665283,2|4,0:2|1:2,0:0:0:0:
176,87,37804,1,2,1:2:0:0:
237,261,37992,1,10,0:2:0:0:
170,122,38179,1,2,0:2:0:0:
322,226,38367,1,2,1:2:0:0:
376,56,38554,1,2,1:2:0:0:
291,198,38742,1,10,0:2:0:0:
398,84,38929,1,2,0:2:0:0:
162,163,39117,5,2,1:2:0:0:
406,223,39304,1,2,1:2:0:0:
133,189,39492,1,10,0:2:0:0:
336,24,39679,2,0,L|354:134,1,92.8200005665283,2|0,0:2|1:2,0:0:0:0:
241,283,40054,1,0,1:2:0:0:
128,66,40242,2,0,L|113:157,1,92.8200005665283,8|0,0:2|0:2,0:0:0:0:
356,209,40617,6,0,P|393:193|448:191,1,92.8200005665283,2|0,1:2|1:2,0:0:0:0:
209,299,40992,2,0,P|162:297|120:280,1,92.8200005665283,10|0,0:2|0:2,0:0:0:0:
340,194,41367,2,0,P|377:178|432:176,1,92.8200005665283,2|0,1:2|1:2,0:0:0:0:
186,206,41742,1,10,0:2:0:0:
309,334,41929,2,0,P|346:350|401:352,1,92.8200005665283,2|0,0:2|1:2,0:0:0:0:
197,169,42304,1,2,1:2:0:0:
129,340,42492,1,10,0:2:0:0:
112,154,42679,1,2,0:2:0:0:
229,317,42867,1,2,1:2:0:0:
279,98,43054,1,8,0:2:0:0:
167,246,43242,1,8,0:2:0:0:
372,108,43429,6,0,L|390:222,1,92.8200005665283,2|4,1:2|1:2,0:0:0:0:
236,89,43804,1,2,1:2:0:0:
285,245,43992,1,10,0:2:0:0:
222,126,44179,1,2,0:2:0:0:
131,328,44367,1,2,1:2:0:0:
204,163,44554,1,2,1:2:0:0:
169,320,44742,1,10,0:2:0:0:
90,137,44929,6,0,P|77:83|82:39,1,92.8200005665283,2|0,0:2|1:2,0:0:0:0:
186,204,45304,1,2,1:2:0:0:
257,45,45492,1,10,0:2:0:0:
338,168,45679,1,2,0:2:0:0:
110,120,45867,2,0,P|97:66|102:22,1,92.8200005665283,2|0,1:2|1:2,0:0:0:0:
210,233,46242,1,10,0:2:0:0:
276,76,46429,1,2,0:2:0:0:
381,284,46617,6,0,P|437:306|484:304,1,92.8200005665283,2|0,1:2|1:2,0:0:0:0:
371,140,46992,1,10,0:2:0:0:
271,341,47179,1,6,1:2:0:0:
417,54,47554,5,2,1:2:0:0:
287,306,47742,1,8,0:2:0:0:
106,46,47929,1,6,1:2:0:0:
416,193,48304,5,0,1:2:0:0:
65,271,48492,1,8,0:2:0:0:
417,54,48679,1,4,1:2:0:0:
287,306,49054,5,0,1:2:0:0:
222,94,49242,1,10,0:2:0:0:
141,332,49429,1,6,0:3:0:0:
292,177,49617,6,0,B|379:177|327:219|434:218,1,131.040003199219,6|2,1:2|0:2,0:0:0:0:
322,101,50179,2,0,P|277:131|195:137,1,131.040003199219,2|0,1:2|0:2,0:0:0:0:
85,66,50742,1,10,0:2:0:0:
129,207,50929,1,2,0:2:0:0:
48,52,51117,2,0,P|45:121|31:193,1,131.040003199219,2|2,1:2|0:2,0:0:0:0:
187,114,51679,2,0,P|232:84|314:78,1,131.040003199219,2|0,1:2|0:2,0:0:0:0:
425,157,52242,2,0,P|407:203|404:236,1,65.5200015996094,10|0,0:2|0:2,0:0:0:0:
266,318,52617,6,0,P|219:297|193:297,1,65.5200015996094,2|0,1:2|0:2,0:0:0:0:
215,132,52992,2,0,P|168:153|142:153,1,65.5200015996094,2|0,0:2|1:2,0:0:0:0:
260,297,53367,2,0,P|213:276|187:276,1,65.5200015996094,2|0,1:2|0:2,0:0:0:0:
338,123,53742,1,10,0:2:0:0:
392,298,53929,2,0,P|427:268|439:229,1,65.5200015996094,2|0,0:2|1:2,0:0:0:0:
352,90,54304,1,2,0:2:0:0:
276,260,54492,1,2,0:2:0:0:
247,67,54679,1,2,1:2:0:0:
384,275,54867,2,0,P|419:245|431:206,1,65.5200015996094,2|0,1:2|0:2,0:0:0:0:
344,52,55242,1,8,0:2:0:0:
197,186,55429,5,8,0:2:0:0:
197,186,55523,1,8,0:2:0:0:
197,186,55617,2,0,B|79:192|148:129|16:141,1,185.640001133057,6|8,1:2|0:2,0:0:0:0:
185,90,56179,1,2,0:2:0:0:
52,235,56367,1,2,1:2:0:0:
185,90,56554,1,10,0:3:0:0:
239,280,56742,2,0,P|287:307|328:311,1,92.8200005665283,10|0,0:2|0:2,0:0:0:0:
406,62,57117,6,0,P|325:72|269:167,1,185.640001133057,0|8,1:2|0:2,0:0:0:0:
435,294,57679,1,2,0:2:0:0:
489,118,57867,1,2,1:2:0:0:
435,294,58054,1,10,0:3:0:0:
329,111,58242,2,0,P|278:82|229:84,1,92.8200005665283,10|0,0:2|0:2,0:0:0:0:
92,257,58617,6,0,B|205:241|136:195|271:173,1,185.640001133057,6|8,1:2|0:2,0:0:0:0:
97,166,59179,2,0,P|81:104|66:71,1,92.8200005665283,0|0,0:2|1:2,0:0:0:0:
245,268,59554,1,2,0:2:0:0:
185,91,59742,1,10,0:2:0:0:
100,287,59929,2,0,P|110:241|127:198,1,92.8200005665283,2|0,0:2|1:2,0:0:0:0:
260,302,60304,1,2,0:2:0:0:
312,115,60492,1,10,0:2:0:0:
171,218,60679,1,2,0:2:0:0:
394,217,60867,2,0,P|458:188|476:157,1,92.8200005665283,2|0,1:2|0:2,0:0:0:0:
304,35,61242,2,0,P|240:64|222:95,1,92.8200005665283,8|8,0:2|0:2,0:0:0:0:
223,115,61523,1,8,0:2:0:0:
223,115,61617,5,14,0:2:0:0:
293,341,61804,1,2,1:2:0:0:
335,135,61992,1,2,1:2:0:0:
144,355,62179,5,10,0:2:0:0:
228,80,62367,1,2,1:2:0:0:
284,305,62554,1,2,1:2:0:0:
142,14,62742,5,10,0:2:0:0:
200,263,62929,1,2,1:2:0:0:
323,0,63117,5,10,0:2:0:0:
396,315,63304,1,8,0:2:0:0:
396,315,63398,1,8,0:2:0:0:
396,315,63492,1,8,0:2:0:0:
252,74,63679,6,0,P|191:76|115:181,1,185.640001133057,6|0,1:2|1:2,0:0:0:0:
267,315,64242,1,8,0:2:0:0:
313,316,64335,1,8,0:2:0:0:
355,299,64429,1,8,0:2:0:0:
387,266,64523,1,8,0:2:0:0:
403,222,64617,6,0,P|339:196|300:200,1,101.920001244141,6|0,1:2|0:2,0:0:0:0:
152,283,64992,2,0,P|107:306|56:307,1,101.920001244141,10|0,0:2|0:2,0:0:0:0:
203,94,65367,2,0,L|224:214,1,101.920001244141,2|0,1:2|0:2,0:0:0:0:
180,366,65742,1,10,0:2:0:0:
69,172,65929,2,0,L|48:292,1,101.920001244141,2|0,0:2|1:2,0:0:0:0:
259,312,66304,5,2,0:2:0:0:
112,165,66492,1,10,0:2:0:0:
328,67,66679,1,2,0:2:0:0:
201,218,66867,1,2,1:2:0:0:
383,319,67054,1,2,0:2:0:0:
246,103,67242,1,10,0:2:0:0:
161,340,67429,1,2,0:2:0:0:
385,185,67617,6,0,P|408:126|410:75,1,101.920001244141,2|0,1:2|0:2,0:0:0:0:
200,22,67992,1,10,0:2:0:0:
113,217,68179,2,0,P|118:267|138:314,1,101.920001244141,2|0,0:2|1:2,0:0:0:0:
403,210,68554,2,0,P|426:151|428:100,1,101.920001244141,2|8,0:2|0:2,0:0:0:0:
188,49,68929,1,2,0:2:0:0:
330,295,69117,6,0,P|411:323|503:252,2,203.840002488281,0|8|0,1:2|0:2|1:2,0:0:0:0:
261,34,70054,1,12,0:2:0:0:
215,331,70242,1,14,0:2:0:0:
99,105,70429,1,10,0:2:0:0:
99,105,70523,1,8,0:2:0:0:
99,105,70617,6,0,L|211:84,1,101.920001244141,6|0,1:2|0:2,0:0:0:0:
278,228,70992,2,0,L|390:249,1,101.920001244141,10|0,0:2|0:2,0:0:0:0:
325,40,71367,2,0,P|341:103|345:157,1,101.920001244141,2|0,1:2|0:2,0:0:0:0:
225,311,71742,1,10,0:2:0:0:
464,101,71929,6,0,P|431:197|417:315,1,203.840002488281,2|0,0:2|0:2,0:0:0:0:
248,130,72492,2,0,P|158:100|138:106,1,101.920001244141,10|0,0:2|0:2,0:0:0:0:
110,307,72867,2,0,P|160:304|202:277,1,101.920001244141,2|0,1:2|0:2,0:0:0:0:
245,104,73242,2,0,P|155:74|135:80,1,101.920001244141,10|0,0:2|0:2,0:0:0:0:
313,289,73617,5,6,1:2:0:0:
363,71,73804,1,8,0:3:0:0:
167,180,73992,1,4,0:3:0:0:
380,103,74179,1,4,0:3:0:0:
236,356,74367,5,4,1:2:0:0:
151,147,74554,1,10,0:3:0:0:
151,147,74648,1,8,0:3:0:0:
151,147,74742,1,10,0:3:0:0:
242,318,74929,1,6,0:3:0:0:
266,37,75117,5,10,0:2:0:0:
46,242,75304,1,10,0:2:0:0:
295,135,75492,2,0,L|305:193,1,50.9600006220703,8|8,0:2|0:2,0:0:0:0:
108,64,75679,1,6,1:2:0:0:
222,280,75867,1,10,0:2:0:0:
402,75,76054,2,0,L|412:133,1,50.9600006220703,2|8,0:2|0:2,0:0:0:0:
437,280,76242,1,2,1:2:0:0:
413,306,76335,1,8,0:2:0:0:
381,320,76429,1,10,0:2:0:0:
345,320,76523,1,8,0:2:0:0:
314,304,76617,1,8,0:3:0:0:
305,328,76992,6,0,L|280:120,1,203.840002488281,14|0,1:2|0:2,0:0:0:0:
110,40,77554,2,0,L|103:153,1,101.920001244141,14|0,1:2|0:2,0:0:0:0:
397,24,77929,2,0,L|403:125,1,101.920001244141,14|0,1:2|0:2,0:0:0:0:
247,258,78304,5,2,0:2:0:0:
460,196,78492,1,10,0:2:0:0:
246,102,78679,1,2,0:2:0:0:
429,224,78867,1,2,1:2:0:0:
172,306,79054,1,2,0:2:0:0:
348,148,79242,1,10,0:2:0:0:
161,56,79429,1,2,0:2:0:0:
324,331,79617,6,0,P|344:267|333:217,1,101.920001244141,2|0,1:2|0:2,0:0:0:0:
246,102,79992,1,10,0:2:0:0:
134,296,80179,2,0,P|115:248|118:198,1,101.920001244141,2|0,0:2|1:2,0:0:0:0:
341,351,80554,2,0,P|361:287|350:237,1,101.920001244141,2|8,0:2|0:2,0:0:0:0:
282,28,80929,6,0,P|219:78|94:71,1,203.840002488281,2|2,0:2|0:2,0:0:0:0:
333,131,81492,1,10,0:2:0:0:
90,41,81679,1,2,0:2:0:0:
364,107,81867,1,2,1:2:0:0:
190,322,82054,1,12,0:2:0:0:
276,55,82242,2,0,L|291:175,1,101.920001244141,12|0,0:2|0:2,0:0:0:0:
12,270,82617,6,0,P|39:197|177:193,1,203.840002488281,2|8,1:2|0:2,0:0:0:0:
320,324,83179,1,2,0:2:0:0:
442,169,83367,2,0,P|457:104|448:61,1,101.920001244141,2|0,1:2|0:2,0:0:0:0:
279,224,83742,1,10,0:2:0:0:
209,28,83929,1,2,0:2:0:0:
158,312,84117,6,0,P|60:305|17:218,1,203.840002488281,0|8,1:2|0:2,0:0:0:0:
175,56,84679,1,0,0:2:0:0:
251,249,84867,2,0,L|236:356,1,101.920001244141,2|0,1:2|0:2,0:0:0:0:
127,152,85242,1,10,0:2:0:0:
339,294,85429,1,2,0:2:0:0:
416,58,85617,6,0,B|296:52|351:131|221:127,1,203.840002488281,0|8,1:2|0:2,0:0:0:0:
80,28,86179,1,0,0:2:0:0:
166,251,86367,2,0,L|222:235,1,50.9600006220703,0|0,1:2|1:2,0:0:0:0:
394,145,86554,1,8,0:2:0:0:
394,145,86648,1,8,0:2:0:0:
394,145,86742,2,0,L|338:129,1,50.9600006220703,0|8,1:2|0:2,0:0:0:0:
239,29,86929,1,8,0:3:0:0:
239,29,87023,1,4,0:3:0:0:
239,29,87117,5,14,0:2:0:0:
318,321,87304,1,10,0:2:0:0:
165,32,87867,5,10,0:2:0:0:
247,341,88054,1,10,0:2:0:0:
247,341,88617,5,2,1:2:0:0:
198,171,88804,1,2,1:2:0:0:
387,326,88992,1,10,0:2:0:0:
388,150,89179,2,0,L|395:52,1,92.8200005665283,2|0,0:2|1:2,0:0:0:0:
295,268,89554,5,2,1:2:0:0:
219,72,89742,1,10,0:2:0:0:
157,288,89929,2,0,L|150:386,1,92.8200005665283,2|0,0:2|1:2,0:0:0:0:
294,161,90304,5,2,1:2:0:0:
107,184,90492,1,10,0:2:0:0:
294,161,90679,1,2,0:2:0:0:
59,303,90867,5,2,1:2:0:0:
211,107,91054,1,2,1:2:0:0:
288,341,91242,1,10,0:2:0:0:
211,107,91429,2,0,L|195:7,1,92.8200005665283,2|0,0:2|1:2,0:0:0:0:
369,226,91804,5,2,1:2:0:0:
417,40,91992,1,10,0:2:0:0:
456,260,92179,1,2,0:2:0:0:
315,68,92367,2,0,P|256:65|208:95,1,92.8200005665283,2|0,1:2|1:2,0:0:0:0:
167,326,92742,5,10,0:2:0:0:
106,101,92929,1,6,1:2:0:0:
106,101,93304,5,2,1:2:0:0:
225,245,93492,1,6,0:3:0:0:
340,29,93679,1,6,1:2:0:0:
224,124,93867,1,2,0:2:0:0:
400,191,94054,1,2,1:2:0:0:
264,40,94242,1,8,0:2:0:0:
261,72,94335,1,8,0:0:0:0:
258,104,94429,1,8,0:2:0:0:
256,137,94523,1,8,0:2:0:0:
253,169,94617,5,6,1:2:0:0:
180,1,94804,1,2,1:2:0:0:
244,257,94992,1,10,0:2:0:0:
349,21,95179,1,2,1:2:0:0:
241,284,95367,1,8,0:2:0:0:
160,34,95554,1,2,1:2:0:0:
332,269,95742,1,10,0:2:0:0:
390,14,95929,1,2,1:2:0:0:
354,302,96117,5,8,0:2:0:0:
94,142,96304,1,2,1:2:0:0:
425,180,96492,1,10,0:2:0:0:
75,172,96679,1,2,1:2:0:0:
293,370,96867,1,10,0:2:0:0:
376,51,97054,1,2,1:2:0:0:
272,340,97242,1,10,0:2:0:0:
176,34,97429,1,2,1:2:0:0:
142,350,97617,5,8,0:2:0:0:
297,86,97804,1,2,1:2:0:0:
381,331,97992,1,10,0:2:0:0:
254,69,98179,1,2,1:2:0:0:
184,346,98367,1,10,0:2:0:0:
428,191,98554,1,0,1:2:0:0:
134,104,98742,1,10,0:2:0:0:
409,355,98929,1,6,1:2:0:0:
327,5,99304,5,2,1:2:0:0:
86,228,99492,1,2,0:2:0:0:
484,89,99679,2,0,P|412:77|322:156,1,185.640001133057,6|0,1:2|3:0,0:0:0:0:
294,313,100242,1,0,3:0:0:0:
294,313,100617,6,0,L|283:232,1,74.6200011386109,2|0,0:2|0:2,0:0:0:0:
265,79,100992,1,2,0:2:0:0:
141,279,101179,2,0,L|152:198,1,74.6200011386109,2|0,0:2|0:2,0:0:0:0:
170,45,101554,1,10,0:3:0:0:
313,271,101742,1,2,0:2:0:0:
455,23,101929,6,0,B|189:34|379:198|100:219,1,425.879997400635,6|0,1:2|0:2,0:0:0:0:
