osu file format v14

[General]
AudioFilename: audio.mp3
AudioLeadIn: 0
PreviewTime: 63492
Countdown: 0
SampleSet: Soft
StackLeniency: 0.4
Mode: 0
LetterboxInBreaks: 0
WidescreenStoryboard: 1

[Editor]
Bookmarks: 2367,64617
DistanceSpacing: 1.5
BeatDivisor: 4
GridSize: 32
TimelineZoom: 1.8

[Metadata]
Title:M flat
TitleUnicode:M♭
Artist:Kato Megumi (CV: Yasuno Kiyono)
ArtistUnicode:加藤恵 (CV: 安野希世乃)
Creator:- Matha -
Version:Light's Hard
Source:冴えない彼女の育てかた
Tags:冴えカノ saenai kanojo heroine no sodate kata saekano character song japanese anime -light- Agent_James sotarks
BeatmapID:1941431
BeatmapSetID:925999

[Difficulty]
HPDrainRate:5
CircleSize:3.8
OverallDifficulty:6
ApproachRate:7.5
SliderMultiplier:1.4
SliderTickRate:1

[Events]
//Background and Video events
0,0,"BG.jpg",0,0
//Break Periods
//Storyboard Layer 0 (Background)
//Storyboard Layer 1 (Fail)
//Storyboard Layer 2 (Pass)
//Storyboard Layer 3 (Foreground)
//Storyboard Sound Samples

[TimingPoints]
1617,375,4,2,22,42,1,0
1617,-133.333333333333,4,2,22,42,0,0
10992,-100,4,2,22,42,0,0
13617,-100,4,2,22,52,0,0
19617,-100,4,2,22,72,0,0
25054,-100,4,2,22,42,0,0
25429,-100,4,2,22,52,0,0
25617,-133.333333333333,4,2,22,52,0,0
31617,-111.111111111111,4,2,22,52,0,0
37429,-111.111111111111,4,2,22,62,0,0
37617,-111.111111111111,4,2,22,62,0,0
49617,-133.333333333333,4,2,22,52,0,0
55617,-100,4,2,22,62,0,0
61617,-100,4,2,22,72,0,0
64617,-100,4,2,22,82,0,1
77835,-100,4,2,22,82,0,1
77929,-100,4,2,22,82,0,1
87304,-100,4,2,22,82,0,1
88617,-100,4,2,22,72,0,0
100054,-100,4,2,22,42,0,0
100617,-133.333333333333,4,2,22,42,0,0
101929,-133.333333333333,4,2,22,52,0,0
102210,-133.333333333333,4,2,22,52,0,0
103617,-133.333333333333,4,2,22,32,0,0

[Colours]
Combo1 : 255,128,191
Combo2 : 255,47,47
Combo3 : 170,225,255

[HitObjects]
364,381,1617,6,0,P|349:341|373:277,1,105.000004005432,2|2,0:2|0:2,0:0:0:0:
493,202,2367,2,0,L|388:186,1,105.000004005432,2|2,0:2|0:2,0:0:0:0:
316,157,2929,1,2,0:2:0:0:
316,157,3117,6,0,P|331:134|356:120,2,52.5000020027161,0|2|2,0:2|0:2|0:2,0:0:0:0:
283,228,3679,1,0,0:2:0:0:
283,228,3867,2,0,L|293:283,1,52.5000020027161,2|0,0:2|0:2,0:0:0:0:
219,311,4242,2,0,L|209:366,1,52.5000020027161,2|2,0:2|0:2,0:0:0:0:
133,342,4617,6,0,B|112:282|148:296|135:227,1,105.000004005432,2|2,0:2|0:2,0:0:0:0:
126,159,5179,2,0,P|101:167|81:183,2,52.5000020027161,2|0|2,0:2|0:2|0:2,0:0:0:0:
199,191,5741,1,0,0:2:0:0:
262,144,5929,1,2,0:2:0:0:
262,144,6023,1,0,0:0:0:0:
262,144,6117,6,0,B|316:130|303:171|369:157,1,105.000004005432,0|0,0:2|0:2,0:0:0:0:
423,108,6679,1,2,0:2:0:0:
423,108,6867,2,0,P|429:79|426:48,1,52.5000020027161,2|0,0:2|0:0,0:0:0:0:
350,73,7242,2,0,P|340:44|322:19,1,52.5000020027161,0|0,0:2|0:0,0:0:0:0:
249,19,7617,6,0,L|127:35,1,105.000004005432,2|0,0:2|0:2,0:0:0:0:
75,70,8179,1,2,0:2:0:0:
75,70,8367,2,0,P|55:103|76:177,1,105.000004005432,2|2,0:2|0:2,0:0:0:0:
126,216,8929,1,2,0:2:0:0:
126,216,9117,6,0,P|171:207|231:238,1,105.000004005432,0|0,0:2|0:2,0:0:0:0:
272,291,9679,1,0,0:2:0:0:
272,291,9867,2,0,L|281:350,1,52.5000020027161,2|0,0:2|0:2,0:0:0:0:
357,359,10242,2,0,L|364:307,1,52.5000020027161,2|0,0:2|0:2,0:0:0:0:
416,215,10617,5,6,1:2:0:0:
416,215,10992,6,0,P|382:200|339:206,1,70,0|0,1:2|1:2,0:0:0:0:
273,152,11367,2,0,P|243:173|226:214,1,70,0|0,1:2|1:2,0:0:0:0:
251,290,11742,1,0,1:2:0:0:
251,290,11929,1,0,1:2:0:0:
165,365,12117,5,10,0:2:0:0:
134,241,12304,1,10,0:2:0:0:
134,241,12867,5,10,0:2:0:0:
65,351,13054,1,10,0:2:0:0:
65,351,13617,5,2,1:2:0:0:
65,351,13804,1,2,1:2:0:0:
122,280,13992,2,0,L|202:290,1,70,10|2,0:2|0:2,0:0:0:0:
246,361,14367,5,0,1:2:0:0:
246,361,14554,1,2,1:2:0:0:
310,293,14742,2,0,L|390:283,1,70,10|2,0:2|0:2,0:0:0:0:
456,235,15117,5,0,1:2:0:0:
396,166,15304,1,2,1:2:0:0:
447,90,15492,2,0,P|457:61|448:12,1,70,10|2,0:2|0:2,0:0:0:0:
368,57,15867,5,2,1:2:0:0:
368,57,16054,1,2,1:2:0:0:
300,117,16242,1,10,0:2:0:0:
227,62,16429,1,2,0:2:0:0:
144,101,16617,6,0,L|66:113,2,70,0|2|10,1:2|1:2|0:2,0:0:0:0:
218,152,17179,1,2,0:2:0:0:
152,215,17367,2,0,P|143:238|151:285,1,70,2|0,1:2|1:2,0:0:0:0:
220,339,17742,1,10,0:2:0:0:
291,222,17929,5,6,1:2:0:0:
291,222,18304,5,2,1:2:0:0:
366,170,18492,1,6,0:3:0:0:
418,243,18679,1,6,1:2:0:0:
349,303,18867,6,0,L|268:316,1,70,2|2,0:2|1:2,0:0:0:0:
199,271,19242,1,8,0:2:0:0:
124,322,19429,1,8,0:2:0:0:
124,322,19523,1,8,0:2:0:0:
124,322,19617,6,0,P|108:292|112:249,1,70,6|2,1:2|1:2,0:0:0:0:
151,175,19992,1,10,0:2:0:0:
151,175,20179,1,2,1:2:0:0:
95,102,20367,6,0,P|85:69|103:24,1,70,8|2,0:2|1:2,0:0:0:0:
178,70,20742,1,10,0:2:0:0:
178,70,20929,1,2,1:2:0:0:
255,22,21117,6,0,L|336:30,1,70,8|2,0:2|1:2,0:0:0:0:
359,113,21492,2,0,L|278:121,1,70,10|2,0:2|1:2,0:0:0:0:
223,182,21867,5,10,0:2:0:0:
223,182,22054,1,2,1:2:0:0:
180,262,22242,1,10,0:2:0:0:
225,340,22429,1,2,1:2:0:0:
307,301,22617,6,0,P|313:269|299:220,2,70,8|2|10,0:2|1:2|0:2,0:0:0:0:
373,362,23179,1,2,1:2:0:0:
428,289,23367,2,0,P|422:257|436:208,1,70,10|0,0:2|1:2,0:0:0:0:
472,142,23742,1,10,0:2:0:0:
336,167,23929,5,6,1:2:0:0:
336,167,24304,5,2,1:2:0:0:
386,90,24492,1,2,0:2:0:0:
327,20,24679,1,6,1:2:0:0:
327,20,25617,6,0,L|210:35,1,105.000004005432,4|2,1:2|1:2,0:0:0:0:
150,3,26179,1,0,0:2:0:0:
150,3,26367,2,0,P|140:32|150:69,1,52.5000020027161,2|2,1:2|0:2,0:0:0:0:
65,70,26742,2,0,P|70:100|98:127,1,52.5000020027161,2|2,1:2|0:2,0:0:0:0:
148,162,27117,6,0,L|205:151,2,52.5000020027161,2|2|2,1:2|0:2|1:2,0:0:0:0:
92,217,27679,1,2,0:2:0:0:
92,217,27867,2,0,B|112:275|69:270|91:336,1,105.000004005432,0|0,1:2|1:2,0:0:0:0:
236,367,28617,6,0,P|224:321|253:264,2,105.000004005432,2|2|2,1:2|1:2|1:2,0:0:0:0:
361,333,29742,1,2,1:2:0:0:
361,333,29929,2,0,L|367:265,1,52.5000020027161,2|0,0:2|1:0,0:0:0:0:
405,212,30304,1,2,0:2:0:0:
405,212,30492,6,0,P|374:201|338:206,1,52.5000020027161,2|2,1:2|0:2,0:0:0:0:
344,123,30867,2,0,P|311:128|282:151,1,52.5000020027161,2|0,1:2|3:2,0:0:0:0:
249,203,31242,1,0,3:2:0:0:
249,203,31617,6,0,P|208:223|132:193,1,125.999996154785,4|2,1:2|3:2,0:0:0:0:
95,126,32179,1,0,0:2:0:0:
95,126,32367,2,0,P|123:116|168:124,1,62.9999980773926,2|2,1:2|0:2,0:0:0:0:
197,48,32742,2,0,P|219:67|235:110,1,62.9999980773926,2|0,3:2|0:2,0:0:0:0:
277,166,33117,5,2,1:2:0:0:
277,166,33304,1,2,0:2:0:0:
348,126,33492,1,2,3:2:0:0:
404,185,33679,2,0,L|413:262,2,62.9999980773926,2|0|0,0:2|1:2|0:2,0:0:0:0:
456,122,34242,1,0,3:2:0:0:
456,122,34617,6,0,B|475:86|475:86|460:0,1,125.999996154785,2|2,1:2|3:2,0:0:0:0:
383,30,35179,1,0,0:2:0:0:
383,30,35367,2,0,P|350:38|311:32,1,62.9999980773926,2|0,1:2|0:0,0:0:0:0:
242,11,35742,1,2,3:2:0:0:
242,11,35929,1,2,0:2:0:0:
182,67,36117,6,0,L|178:112,2,31.4999990386963,8|8|10,0:3|0:2|0:2,0:0:0:0:
103,41,36492,2,0,L|100:9,2,31.4999990386963,10|8|10,0:2|0:2|0:2,0:0:0:0:
39,92,36867,1,2,1:2:0:0:
110,169,37054,5,14,0:2:0:0:
14,215,37242,1,14,0:2:0:0:
14,215,37617,6,0,P|26:254|18:287,1,62.9999980773926,4|2,1:2|1:2,0:0:0:0:
10,356,37992,2,0,L|80:342,1,62.9999980773926,10|2,0:2|0:2,0:0:0:0:
133,289,38367,1,2,1:2:0:0:
133,289,38554,1,2,1:2:0:0:
201,333,38742,2,0,L|262:345,1,62.9999980773926,10|2,0:2|0:2,0:0:0:0:
337,310,39117,5,2,1:2:0:0:
337,310,39304,1,2,1:2:0:0:
410,273,39492,2,0,P|420:243|410:204,1,62.9999980773926,10|2,0:2|0:2,0:0:0:0:
354,156,39867,5,0,1:2:0:0:
354,156,40054,1,0,1:2:0:0:
281,119,40242,2,0,P|271:89|281:50,1,62.9999980773926,8|0,0:2|0:2,0:0:0:0:
353,31,40617,6,0,L|491:50,1,125.999996154785,2|10,1:2|0:2,0:0:0:0:
424,151,41367,2,0,P|415:174|417:222,1,62.9999980773926,2|0,1:2|1:2,0:0:0:0:
491,247,41742,1,10,0:2:0:0:
491,247,41929,1,2,0:2:0:0:
430,302,42117,6,0,B|363:285|384:335|297:315,1,125.999996154785,0|10,1:2|0:2,0:0:0:0:
243,267,42679,1,2,0:2:0:0:
243,267,42867,2,0,P|248:238|240:195,1,62.9999980773926,2|8,1:2|0:2,0:0:0:0:
191,141,43242,1,8,0:2:0:0:
119,180,43429,1,2,1:2:0:0:
53,131,43617,6,0,L|44:69,1,62.9999980773926,4|2,1:2|1:2,0:0:0:0:
125,76,43992,2,0,L|134:14,1,62.9999980773926,10|2,0:2|0:2,0:0:0:0:
213,34,44367,1,2,1:2:0:0:
213,34,44554,1,2,1:2:0:0:
268,94,44742,2,0,L|337:79,1,62.9999980773926,10|2,0:2|0:2,0:0:0:0:
410,92,45117,6,0,B|391:122|391:122|397:158,1,62.9999980773926,0|2,1:2|1:2,0:0:0:0:
449,211,45492,2,0,B|468:241|468:241|462:277,1,62.9999980773926,10|2,0:2|0:2,0:0:0:0:
400,320,45867,2,0,L|276:301,1,125.999996154785,2|10,1:2|0:2,0:0:0:0:
139,304,46617,6,0,L|129:381,1,62.9999980773926,2|0,1:2|1:2,0:0:0:0:
56,331,46992,1,10,0:2:0:0:
56,331,47179,2,0,P|51:297|68:255,1,62.9999980773926,6|0,1:2|0:0,0:0:0:0:
0,212,47554,2,0,P|26:190|71:184,1,62.9999980773926,2|8,1:2|0:2,0:0:0:0:
137,178,47929,6,0,L|139:311,1,125.999996154785,6|0,1:2|1:2,0:0:0:0:
202,356,48492,1,8,0:2:0:0:
270,311,48679,2,0,B|343:298|330:352|409:334,1,125.999996154785,4|0,1:2|1:2,0:0:0:0:
453,284,49242,1,10,0:2:0:0:
419,209,49429,1,6,0:3:0:0:
454,132,49617,6,0,L|461:23,1,105.000004005432,6|2,1:2|0:2,0:0:0:0:
381,23,50179,2,0,P|348:16|324:23,1,52.5000020027161,2|0,1:2|1:0,0:0:0:0:
264,63,50554,1,0,0:2:0:0:
291,137,50742,2,0,L|348:125,1,52.5000020027161,10|2,0:2|0:2,0:0:0:0:
411,164,51117,6,0,P|393:204|409:274,1,105.000004005432,2|2,1:2|0:2,0:0:0:0:
460,315,51679,1,2,1:2:0:0:
404,370,51867,2,0,L|332:357,1,52.5000020027161,0|0,1:0|0:2,0:0:0:0:
299,302,52242,2,0,L|247:311,1,52.5000020027161,10|0,0:2|0:2,0:0:0:0:
179,351,52617,6,0,B|167:319|167:319|181:234,1,105.000004005432,2|2,1:2|0:2,0:0:0:0:
241,126,53367,2,0,P|266:119|299:125,1,52.5000020027161,2|0,1:2|0:2,0:0:0:0:
360,166,53742,2,0,P|385:170|411:163,1,52.5000020027161,10|2,0:2|0:2,0:0:0:0:
484,192,54117,6,0,L|493:130,1,52.5000020027161,0|2,1:2|0:2,0:0:0:0:
447,75,54492,2,0,L|439:23,1,52.5000020027161,2|2,0:2|1:2,0:0:0:0:
361,37,54867,2,0,P|327:49|260:22,1,105.000004005432,2|8,1:2|0:2,0:0:0:0:
199,70,55429,1,8,0:2:0:0:
199,70,55523,1,8,0:2:0:0:
199,70,55617,6,0,L|208:151,1,70,6|0,1:2|0:0,0:0:0:0:
261,212,55992,2,0,L|252:293,1,70,8|2,0:2|0:2,0:0:0:0:
190,348,56367,1,2,1:2:0:0:
102,373,56554,1,10,0:3:0:0:
36,309,56742,2,0,P|24:278|40:220,1,70,10|0,0:2|0:2,0:0:0:0:
92,178,57117,6,0,B|173:159|149:214|237:192,1,140,0|8,1:2|0:2,0:0:0:0:
293,131,57679,1,2,0:2:0:0:
241,55,57867,2,0,P|218:81|212:121,1,70,2|10,1:2|0:3,0:0:0:0:
173,197,58242,2,0,P|175:231|199:264,1,70,10|0,0:2|0:2,0:0:0:0:
248,333,58617,6,0,L|99:355,1,140,6|8,1:2|0:2,0:0:0:0:
31,307,59179,1,0,0:2:0:0:
31,307,59367,1,0,1:2:0:0:
85,234,59554,1,2,0:2:0:0:
27,163,59742,1,10,0:2:0:0:
79,88,59929,1,2,0:2:0:0:
146,149,60117,6,0,L|226:159,1,70,0|2,1:2|0:2,0:0:0:0:
280,93,60492,1,10,0:2:0:0:
280,93,60679,1,2,0:2:0:0:
320,174,60867,2,0,B|333:212|333:212|323:243,1,70,2|0,1:2|0:2,0:0:0:0:
265,310,61242,2,0,B|252:348|252:348|262:379,1,70,8|8,0:2|0:2,0:0:0:0:
346,344,61617,5,14,0:2:0:0:
346,344,61804,1,2,1:2:0:0:
423,295,61992,1,2,1:2:0:0:
323,240,62179,1,10,0:2:0:0:
384,172,62367,6,0,L|462:167,1,70,2|2,1:2|1:2,0:0:0:0:
496,60,62742,2,0,L|418:55,1,70,10|2,0:2|1:2,0:0:0:0:
316,23,63117,5,10,0:2:0:0:
280,146,63304,1,8,0:2:0:0:
280,146,63398,1,8,0:2:0:0:
280,146,63492,1,8,0:2:0:0:
216,76,63679,6,0,P|208:39|217:0,2,70,6|0|0,1:2|0:0|1:2,0:0:0:0:
174,157,64242,2,0,L|97:147,1,70,8|8,0:2|0:2,0:0:0:0:
24,192,64617,6,0,P|39:220|35:266,1,70,6|0,1:2|0:2,0:0:0:0:
120,296,64992,2,0,P|105:324|109:370,1,70,10|0,0:2|0:2,0:0:0:0:
193,337,65367,2,0,L|339:317,1,140,2|10,1:2|0:2,0:0:0:0:
388,247,65929,1,2,0:2:0:0:
335,172,66117,6,0,P|315:191|301:246,1,70,0|2,1:2|0:2,0:0:0:0:
331,317,66492,1,10,0:2:0:0:
331,317,66679,1,2,0:2:0:0:
412,358,66867,2,0,L|488:345,1,70,2|2,1:2|0:2,0:0:0:0:
505,258,67242,1,10,0:2:0:0:
457,180,67429,1,2,0:2:0:0:
503,101,67617,6,0,L|419:85,1,70,2|0,1:2|0:2,0:0:0:0:
357,39,67992,1,10,0:2:0:0:
288,98,68179,2,0,P|276:136|283:183,1,70,2|0,0:2|1:2,0:0:0:0:
329,240,68554,2,0,P|341:278|334:325,1,70,2|8,0:2|0:2,0:0:0:0:
263,359,68929,6,0,B|178:359|213:307|121:310,1,140,2|0,0:2|0:0,0:0:0:0:
62,364,69492,1,8,0:2:0:0:
62,364,69679,1,0,0:0:0:0:
19,283,69867,2,0,P|10:247|19:213,1,70,0|12,1:2|0:2,0:0:0:0:
70,117,70242,1,14,0:2:0:0:
31,34,70429,1,10,0:2:0:0:
31,34,70523,1,8,0:2:0:0:
31,34,70617,6,0,P|68:25|105:35,1,70,6|0,1:2|0:2,0:0:0:0:
161,97,70992,2,0,P|198:106|235:96,1,70,10|0,0:2|0:2,0:0:0:0:
315,70,71367,2,0,B|336:114|336:114|326:207,1,140,2|10,1:2|0:2,0:0:0:0:
271,276,71929,1,2,0:2:0:0:
330,346,72117,6,0,P|363:363|458:330,1,140,0|10,1:0|0:2,0:0:0:0:
489,248,72679,1,0,0:2:0:0:
412,197,72867,2,0,L|342:209,1,70,2|0,1:2|0:2,0:0:0:0:
270,152,73242,2,0,L|201:140,1,70,10|0,0:2|0:2,0:0:0:0:
124,189,73617,6,0,P|106:142|155:67,1,140,6|4,1:2|0:3,0:0:0:0:
228,25,74179,1,4,0:3:0:0:
302,76,74367,2,0,L|380:58,1,70,4|10,1:2|0:3,0:0:0:0:
447,11,74742,1,10,0:3:0:0:
498,85,74929,1,6,0:3:0:0:
407,155,75117,5,10,0:2:0:0:
496,218,75304,1,10,0:2:0:0:
429,280,75492,1,8,0:2:0:0:
429,280,75585,1,8,0:2:0:0:
429,280,75679,2,0,P|399:288|368:331,1,70,6|10,1:2|0:2,0:0:0:0:
289,351,76054,2,0,L|282:309,2,35,2|8|2,0:2|0:2|1:2,0:0:0:0:
199,331,76429,1,10,0:2:0:0:
199,331,76523,1,8,0:2:0:0:
199,331,76617,1,8,0:3:0:0:
157,233,76992,6,0,P|119:256|81:348,1,140,14|0,1:2|0:2,0:0:0:0:
11,283,77554,2,0,L|21:195,1,70,14|0,1:2|0:2,0:0:0:0:
76,142,77929,6,0,P|119:154|213:113,1,140,14|2,1:2|0:2,0:0:0:0:
259,47,78492,1,10,0:2:0:0:
259,47,78679,1,2,0:2:0:0:
294,131,78867,2,0,P|304:166|301:200,1,70,2|2,1:2|0:2,0:0:0:0:
263,282,79242,2,0,P|253:317|256:351,1,70,10|2,0:2|0:2,0:0:0:0:
344,370,79617,6,0,B|384:335|384:335|371:240,1,140,2|10,1:2|0:2,0:0:0:0:
402,163,80179,2,0,P|361:156|329:165,1,70,2|0,0:2|1:2,0:0:0:0:
284,86,80554,2,0,P|250:110|233:139,1,70,2|8,0:2|0:2,0:0:0:0:
245,224,80929,1,2,0:2:0:0:
167,272,81117,6,0,L|158:194,1,70,0|2,1:0|0:2,0:0:0:0:
129,116,81492,1,10,0:2:0:0:
68,183,81679,1,2,0:2:0:0:
68,183,81867,1,2,1:2:0:0:
81,41,82054,5,12,0:2:0:0:
213,98,82241,1,12,0:2:0:0:
276,32,82429,1,0,0:2:0:0:
276,32,82523,1,0,0:0:0:0:
276,32,82617,6,0,B|353:10|331:72|419:46,1,140,2|8,1:2|0:2,0:0:0:0:
492,10,83179,1,2,0:2:0:0:
492,10,83367,2,0,P|501:43|494:77,1,70,2|0,1:2|0:2,0:0:0:0:
436,148,83742,1,10,0:2:0:0:
503,208,83929,1,2,0:2:0:0:
421,248,84117,6,0,L|337:232,1,70,0|0,1:2|0:0,0:0:0:0:
273,189,84492,2,0,L|204:202,1,70,8|0,0:2|0:2,0:0:0:0:
118,169,84867,2,0,P|110:207|116:242,1,70,2|0,1:2|0:2,0:0:0:0:
185,294,85242,1,10,0:2:0:0:
147,376,85429,1,2,0:2:0:0:
147,376,85523,1,0,0:0:0:0:
147,376,85617,6,0,P|208:382|267:313,1,140,0|8,1:2|0:2,0:0:0:0:
299,247,86179,1,0,0:2:0:0:
362,312,86367,1,0,1:2:0:0:
422,244,86554,1,8,0:2:0:0:
422,244,86648,1,8,0:2:0:0:
422,244,86742,2,0,L|414:201,2,35,0|8|8,1:2|0:2|0:3,0:0:0:0:
505,297,87117,5,14,0:2:0:0:
462,139,87304,1,10,0:2:0:0:
462,139,87867,5,10,0:2:0:0:
311,183,88054,1,10,0:2:0:0:
311,183,88617,6,0,P|304:149|316:101,1,70,2|2,1:2|1:2,0:0:0:0:
357,36,88992,1,10,0:2:0:0:
357,36,89179,1,2,0:2:0:0:
267,17,89367,6,0,L|191:29,1,70,0|2,1:2|1:2,0:0:0:0:
121,77,89742,1,10,0:2:0:0:
121,77,89929,1,2,0:2:0:0:
197,126,90117,6,0,P|202:160|195:194,1,70,0|2,1:2|1:2,0:0:0:0:
142,268,90492,2,0,P|136:302|143:336,1,70,10|2,0:2|0:2,0:0:0:0:
229,365,90867,5,2,1:2:0:0:
229,365,91054,1,2,1:2:0:0:
302,310,91242,1,10,0:2:0:0:
370,369,91429,1,2,0:2:0:0:
436,306,91617,6,0,L|520:317,2,70,0|2|10,1:2|1:2|0:2,0:0:0:0:
377,236,92179,1,2,0:2:0:0:
428,160,92367,2,0,P|438:128|430:74,1,70,2|0,1:2|1:2,0:0:0:0:
376,30,92742,1,10,0:2:0:0:
328,152,92929,5,6,1:2:0:0:
328,152,93304,5,2,1:2:0:0:
249,106,93492,1,6,0:3:0:0:
173,156,93679,1,6,1:2:0:0:
94,109,93867,2,0,P|82:142|89:185,1,70,2|2,0:2|1:2,0:0:0:0:
148,267,94242,1,8,0:2:0:0:
148,267,94335,1,8,0:0:0:0:
148,267,94429,1,8,0:2:0:0:
148,267,94523,1,8,0:2:0:0:
148,267,94617,6,0,L|141:354,1,70,6|2,1:2|1:2,0:0:0:0:
232,287,94992,2,0,L|239:374,1,70,10|2,0:2|1:2,0:0:0:0:
330,314,95367,1,8,0:2:0:0:
330,314,95554,1,2,1:2:0:0:
420,360,95742,1,10,0:2:0:0:
498,295,95929,1,2,1:2:0:0:
467,197,96117,6,0,P|477:166|474:126,1,70,8|2,0:2|1:2,0:0:0:0:
384,81,96492,2,0,P|373:114|376:148,1,70,10|2,0:2|1:2,0:0:0:0:
300,216,96867,5,10,0:2:0:0:
300,216,97054,1,2,1:2:0:0:
207,258,97242,1,10,0:2:0:0:
131,191,97429,1,2,1:2:0:0:
166,95,97617,6,0,L|240:107,2,70,8|2|10,0:2|1:2|0:2,0:0:0:0:
87,30,98179,1,2,1:2:0:0:
26,111,98367,2,0,B|16:137|16:137|20:192,1,70,10|0,0:2|1:2,0:0:0:0:
98,243,98742,1,10,0:2:0:0:
21,363,98929,5,6,1:2:0:0:
21,363,99304,5,2,1:2:0:0:
152,306,99492,1,2,0:2:0:0:
17,246,99679,1,6,1:2:0:0:
17,246,100617,6,0,P|11:210|15:186,1,52.5000020027161,2|0,0:2|0:2,0:0:0:0:
47,126,100992,1,2,0:2:0:0:
47,126,101179,2,0,L|111:117,1,52.5000020027161,2|0,0:2|0:2,0:0:0:0:
174,156,101554,1,10,0:3:0:0:
242,106,101742,1,2,0:2:0:0:
304,205,101929,5,6,1:2:0:0:
256,192,102117,12,0,103617,0:0:0:0:
