osu file format v14

[General]
AudioFilename: audio.mp3
AudioLeadIn: 0
PreviewTime: 63492
Countdown: 0
SampleSet: Soft
StackLeniency: 0.4
Mode: 0
LetterboxInBreaks: 0
WidescreenStoryboard: 1

[Editor]
Bookmarks: 2367,38742,40617,41742,64617
DistanceSpacing: 0.4
BeatDivisor: 4
GridSize: 32
TimelineZoom: 1

[Metadata]
Title:M flat
TitleUnicode:M♭
Artist:Kato Megumi (CV: Yasuno Kiyono)
ArtistUnicode:加藤恵 (CV: 安野希世乃)
Creator:- Matha -
Version:Extra
Source:冴えない彼女の育てかた
Tags:冴えカノ saenai kanojo heroine no sodate kata saekano character song japanese anime -light- Agent_James sotarks
BeatmapID:1934139
BeatmapSetID:925999

[Difficulty]
HPDrainRate:5.2
CircleSize:4
OverallDifficulty:8.5
ApproachRate:9
SliderMultiplier:1.9
SliderTickRate:1

[Events]
//Background and Video events
0,0,"BG.jpg",0,0
//Break Periods
//Storyboard Layer 0 (Background)
//Storyboard Layer 1 (Fail)
//Storyboard Layer 2 (Pass)
//Storyboard Layer 3 (Foreground)
//Storyboard Sound Samples

[TimingPoints]
1617,375,4,2,22,42,1,0
1617,-133.333333333333,4,2,22,42,0,0
10617,-133.333333333333,4,2,22,42,0,0
13617,-111.111111111111,4,2,22,52,0,0
19617,-111.111111111111,4,2,22,72,0,0
25054,-111.111111111111,4,2,22,42,0,0
25429,-111.111111111111,4,2,22,52,0,0
25617,-125,4,2,22,52,0,0
31617,-117.647058823529,4,2,22,52,0,0
37429,-117.647058823529,4,2,22,62,0,0
37617,-111.111111111111,4,2,22,62,0,0
49617,-125,4,2,22,52,0,0
55617,-111.111111111111,4,2,22,62,0,0
61617,-111.111111111111,4,2,22,72,0,0
64617,-100,4,2,22,82,0,1
76992,-125,4,2,22,82,0,1
77554,-100,4,2,22,82,0,1
77835,-100,4,2,22,5,0,1
77929,-100,4,2,22,82,0,1
87304,-100,4,2,22,82,0,1
88617,-111.111111111111,4,2,22,72,0,0
100054,-111.111111111111,4,2,22,42,0,0
100617,-133.333333333333,4,2,22,42,0,0
101929,-133.333333333333,4,2,22,52,0,0
102210,-133.333333333333,4,2,22,52,0,0
103617,-133.333333333333,4,2,22,32,0,0

[Colours]
Combo1 : 255,128,191
Combo2 : 255,47,47
Combo3 : 170,225,255

[HitObjects]
48,104,1617,6,0,B|100:113|100:113|127:136|127:136|186:144,1,142.500005435944,2|2,0:2|0:2,0:0:0:0:
244,218,2179,1,0,0:2:0:0:
307,57,2367,2,0,L|225:66,1,71.2500027179719,2|0,0:2|0:0,0:0:0:0:
180,143,2742,1,2,0:2:0:0:
371,121,2929,2,0,L|407:117,1,35.625001358986,2|0,0:2|0:0,0:0:0:0:
406,117,3117,6,0,B|393:167|393:167|405:197|405:197|385:269,1,142.500005435944,0|2,0:2|0:2,0:0:0:0:
354,350,3679,1,0,0:2:0:0:
306,224,3867,1,2,0:2:0:0:
447,333,4054,1,0,0:2:0:0:
267,309,4242,2,0,L|178:323,1,71.2500027179719,2|2,0:2|0:2,0:0:0:0:
133,371,4617,6,0,P|156:320|113:220,1,142.500005435944,2|2,0:2|0:2,0:0:0:0:
20,168,5179,2,0,B|110:195|73:137|176:167,1,142.500005435944,2|2,0:2|0:2,0:0:0:0:
217,223,5742,1,0,0:2:0:0:
304,15,5929,2,0,L|260:21,1,35.625001358986,2|0,0:2|0:0,0:0:0:0:
268,19,6117,6,0,L|283:168,1,142.500005435944,0|0,0:2|0:2,0:0:0:0:
298,281,6679,1,2,0:2:0:0:
374,164,6867,1,2,0:2:0:0:
395,300,7054,2,0,L|407:374,1,71.2500027179719,0|0,0:0|0:2,0:0:0:0:
457,223,7429,1,0,0:2:0:0:
298,281,7617,6,0,B|244:271|244:271|212:288|212:288|137:273,1,142.500005435944,2|0,0:2|0:2,0:0:0:0:
67,249,8179,1,2,0:2:0:0:
123,128,8367,2,0,P|135:163|129:220,1,71.2500027179719,2|0,0:2|0:2,0:0:0:0:
94,334,8742,1,2,0:2:0:0:
222,194,8929,2,0,L|277:188,1,35.625001358986,2|0,0:2|0:0,0:0:0:0:
257,190,9117,6,0,L|247:107,1,71.2500027179719,0|0,0:2|0:0,0:0:0:0:
306,54,9492,1,0,0:2:0:0:
368,119,9679,2,0,L|359:189,1,71.2500027179719,0|2,0:2|0:2,0:0:0:0:
299,328,10054,2,0,L|309:256,2,71.2500027179719,0|2|0,0:2|0:2|0:2,0:0:0:0:
419,377,10617,5,6,1:2:0:0:
419,377,10992,5,0,1:2:0:0:
453,216,11179,1,0,1:2:0:0:
308,257,11367,1,0,1:2:0:0:
485,312,11554,1,0,1:2:0:0:
427,122,11742,1,0,1:2:0:0:
321,351,11929,1,0,1:2:0:0:
360,49,12117,5,10,0:2:0:0:
419,377,12304,1,10,0:2:0:0:
419,377,12867,5,10,0:2:0:0:
360,49,13054,1,10,0:2:0:0:
360,49,13617,5,2,1:2:0:0:
304,123,13804,1,2,1:2:0:0:
180,52,13992,2,0,L|287:36,1,85.4999973907472,10|2,0:2|0:2,0:0:0:0:
443,20,14367,5,0,1:2:0:0:
304,123,14554,1,2,1:2:0:0:
432,204,14742,2,0,L|438:108,1,85.4999973907472,10|2,0:2|0:2,0:0:0:0:
357,256,15117,5,0,1:2:0:0:
304,123,15304,1,2,1:2:0:0:
187,257,15492,1,10,0:2:0:0:
432,302,15679,1,2,0:2:0:0:
274,208,15867,5,2,1:2:0:0:
285,365,16054,1,2,1:2:0:0:
157,165,16242,2,0,L|152:58,1,85.4999973907472,10|2,0:2|0:2,0:0:0:0:
410,210,16617,5,0,1:2:0:0:
281,286,16804,1,2,1:2:0:0:
386,128,16992,2,0,P|430:126|478:156,1,85.4999973907472,10|2,0:2|0:2,0:0:0:0:
385,331,17367,5,2,1:2:0:0:
308,163,17554,1,0,1:2:0:0:
178,296,17742,1,10,0:2:0:0:
317,78,17929,1,6,1:2:0:0:
317,78,18304,5,2,1:2:0:0:
308,163,18492,1,6,0:3:0:0:
349,0,18679,2,0,B|300:-11|264:12|264:12|225:34|178:9,1,170.999994781494,6|2,1:2|1:2,0:0:0:0:
125,68,19242,2,0,L|131:128,1,42.7499986953736,8|8,0:2|0:0,0:0:0:0:
186,172,19429,2,0,L|181:214,1,42.7499986953736,8|8,0:2|0:2,0:0:0:0:
124,281,19617,5,6,1:2:0:0:
264,237,19804,1,2,1:2:0:0:
81,178,19992,1,10,0:2:0:0:
198,382,20179,1,2,1:2:0:0:
271,151,20367,5,8,0:2:0:0:
124,281,20554,1,2,1:2:0:0:
312,310,20742,1,10,0:2:0:0:
190,128,20929,1,2,1:2:0:0:
124,281,21117,6,0,L|22:293,1,85.4999973907472,8|2,0:2|1:2,0:0:0:0:
105,118,21492,2,0,L|207:130,1,85.4999973907472,10|2,0:2|1:2,0:0:0:0:
360,152,21867,5,10,0:2:0:0:
181,214,22054,1,2,1:2:0:0:
273,61,22242,1,10,0:2:0:0:
340,318,22429,1,2,1:2:0:0:
440,87,22617,6,0,B|452:47|452:47|436:-8,1,85.4999973907472,8|2,0:2|1:2,0:0:0:0:
273,61,22992,2,0,B|260:102|260:102|272:142,1,85.4999973907472,10|2,0:2|1:2,0:0:0:0:
450,279,23367,5,10,0:2:0:0:
355,102,23554,1,0,1:2:0:0:
261,351,23742,1,10,0:2:0:0:
273,61,23929,1,6,1:2:0:0:
273,61,24304,5,2,1:2:0:0:
355,102,24492,1,2,0:2:0:0:
190,12,24679,6,0,B|185:68|185:68|201:105|201:105|195:199,1,170.999994781494,6|0,1:2|3:2,0:0:0:0:
196,179,25148,1,0,3:2:0:0:
196,179,25242,1,0,3:2:0:0:
457,298,25617,6,0,B|419:311|419:311|374:295,1,76,4|2,1:2|0:2,0:0:0:0:
289,375,25992,2,0,B|327:362|327:362|372:378,1,76,2|0,1:2|0:2,0:0:0:0:
392,223,26367,2,0,L|383:311,1,76,2|2,1:2|0:2,0:0:0:0:
301,132,26742,2,0,L|310:220,1,76,2|2,1:2|0:2,0:0:0:0:
254,275,27117,5,2,1:2:0:0:
166,222,27304,1,2,0:2:0:0:
82,287,27492,1,2,1:2:0:0:
173,339,27679,1,2,0:2:0:0:
166,222,27867,2,0,L|160:137,1,76,0|0,1:2|0:2,0:0:0:0:
6,145,28242,2,0,L|0:220,1,76,0|0,1:2|0:2,0:0:0:0:
227,101,28617,6,0,P|185:69|90:101,2,152,2|2|2,1:2|1:2|1:2,0:0:0:0:
160,146,29554,1,0,0:0:0:0:
298,141,29742,1,0,1:0:0:0:
227,101,29929,1,2,0:0:0:0:
230,201,30117,6,0,B|231:258|231:258|248:287|248:287|251:363,1,152,0|2,1:0|1:2,0:0:0:0:
171,384,30679,1,2,0:2:0:0:
98,282,30867,2,0,L|96:192,1,76,2|0,1:2|3:2,0:0:0:0:
99,189,31148,1,0,3:2:0:0:
99,189,31242,1,0,3:2:0:0:
414,227,31617,6,0,P|360:232|317:210,1,80.750001540184,4|2,1:2|0:2,0:0:0:0:
286,148,31992,1,2,3:2:0:0:
244,258,32179,1,0,0:2:0:0:
378,147,32367,2,0,L|374:54,1,80.750001540184,2|2,1:2|0:2,0:0:0:0:
196,64,32742,2,0,L|192:144,1,80.750001540184,2|0,3:2|0:2,0:0:0:0:
244,258,33117,5,2,1:2:0:0:
91,212,33304,1,2,0:2:0:0:
174,320,33492,1,2,3:2:0:0:
192,144,33679,1,2,0:2:0:0:
330,254,33867,2,0,B|372:265|372:265|435:241,1,80.750001540184,0|0,1:2|0:2,0:0:0:0:
322,109,34242,2,0,B|291:139|291:139|280:206,1,80.750001540184,0|0,3:2|0:2,0:0:0:0:
480,290,34617,6,0,B|496:247|477:209|477:209|461:176|480:133,1,161.500003080368,2|2,1:2|3:2,0:0:0:0:
370,178,35179,1,0,0:2:0:0:
418,6,35367,2,0,P|405:45|414:103,1,80.750001540184,2|0,1:2|0:0,0:0:0:0:
480,133,35742,1,2,3:2:0:0:
322,109,35929,1,2,0:2:0:0:
406,251,36117,6,0,L|396:312,3,40.375000770092,8|8|10|8,0:3|0:2|0:2|0:2,0:0:0:0:
383,305,36492,2,0,L|389:344,3,40.375000770092,10|8|10|8,0:2|0:2|0:2|0:2,0:0:0:0:
394,362,36867,1,2,1:2:0:0:
476,331,37054,5,14,0:2:0:0:
194,373,37242,1,14,0:2:0:0:
194,373,37617,5,4,1:2:0:0:
221,280,37804,1,2,1:2:0:0:
114,211,37992,2,0,L|135:314,1,85.4999973907472,10|2,0:2|0:2,0:0:0:0:
287,344,38367,5,2,1:2:0:0:
245,192,38554,1,2,1:2:0:0:
131,294,38742,2,0,B|88:305|88:305|49:288,1,85.4999973907472,10|2,0:2|0:2,0:0:0:0:
170,130,39117,5,2,1:2:0:0:
221,280,39304,1,2,1:2:0:0:
211,62,39492,2,0,P|170:48|112:80,1,85.4999973907472,10|2,0:2|0:2,0:0:0:0:
114,211,39867,5,0,1:2:0:0:
38,47,40054,1,0,1:2:0:0:
211,62,40242,2,0,L|314:50,1,85.4999973907472,8|0,0:2|0:2,0:0:0:0:
114,211,40617,6,0,L|11:199,1,85.4999973907472,2|0,1:2|1:2,0:0:0:0:
200,257,40992,2,0,B|216:218|216:218|199:178,1,85.4999973907472,10|0,0:2|0:2,0:0:0:0:
295,52,41367,2,0,L|284:145,1,85.4999973907472,2|0,1:2|1:2,0:0:0:0:
294,268,41742,2,0,B|333:283|333:283|373:266,1,85.4999973907472,10|2,0:2|0:2,0:0:0:0:
454,142,42117,5,0,1:2:0:0:
481,307,42304,1,2,1:2:0:0:
366,180,42492,2,0,L|379:85,1,85.4999973907472,10|2,0:2|0:2,0:0:0:0:
466,225,42867,5,2,1:2:0:0:
294,268,43054,1,8,0:2:0:0:
409,348,43242,1,8,0:2:0:0:
366,180,43429,1,2,1:2:0:0:
302,353,43617,6,0,P|253:346|219:311,1,85.4999973907472,4|2,1:2|1:2,0:0:0:0:
208,208,43992,1,10,0:2:0:0:
137,358,44179,1,2,0:2:0:0:
31,248,44367,6,0,L|122:259,1,85.4999973907472,2|2,1:2|1:2,0:0:0:0:
292,197,44742,2,0,L|201:208,1,85.4999973907472,10|2,0:2|0:2,0:0:0:0:
137,358,45117,5,0,1:2:0:0:
115,258,45304,1,2,1:2:0:0:
251,357,45492,2,0,B|290:370|290:370|344:347,1,85.4999973907472,10|2,0:2|0:2,0:0:0:0:
292,197,45867,5,2,1:2:0:0:
195,291,46054,1,0,1:2:0:0:
380,280,46242,2,0,L|483:297,1,85.4999973907472,10|2,0:2|0:2,0:0:0:0:
481,104,46617,6,0,L|378:121,1,85.4999973907472,2|0,1:2|1:2,0:0:0:0:
292,197,46992,1,10,0:2:0:0:
176,13,47179,1,6,1:2:0:0:
176,13,47554,5,2,1:2:0:0:
265,17,47742,1,8,0:2:0:0:
86,6,47929,6,0,L|99:184,1,170.999994781494,6|0,1:2|1:2,0:0:0:0:
164,225,48492,2,0,P|186:219|223:218,1,42.7499986953736,8|0,0:2|0:0,0:0:0:0:
92,359,48679,2,0,P|56:349|47:227,1,170.999994781494,4|0,1:2|1:2,0:0:0:0:
164,310,49242,1,10,0:2:0:0:
178,133,49429,1,6,0:3:0:0:
259,191,49617,6,0,B|316:180|316:180|356:193|356:193|414:177,1,152,6|2,1:2|0:2,0:0:0:0:
388,101,50179,2,0,P|345:127|349:233,1,152,2|0,1:2|0:2,0:0:0:0:
459,241,50742,1,10,0:2:0:0:
406,179,50929,1,2,0:2:0:0:
377,313,51117,6,0,B|335:334|303:313|303:313|270:294|220:314,1,152,2|2,1:2|0:2,0:0:0:0:
159,350,51679,2,0,P|150:307|167:262,1,76,2|0,1:2|0:0,0:0:0:0:
232,310,52054,1,0,0:2:0:0:
120,205,52242,2,0,L|44:219,1,76,10|0,0:2|0:2,0:0:0:0:
235,97,52617,6,0,B|295:107|295:107|322:130|322:130|394:141,1,152,2|2,1:2|0:2,0:0:0:0:
461,157,53179,1,0,1:2:0:0:
390,211,53367,2,0,P|376:175|379:126,1,76,2|0,1:2|0:2,0:0:0:0:
512,227,53742,2,0,P|511:264|498:299,1,76,10|2,0:2|0:2,0:0:0:0:
357,348,54117,6,0,L|191:333,1,152,0|2,1:2|0:2,0:0:0:0:
87,320,54679,1,2,1:2:0:0:
196,241,54867,1,2,1:2:0:0:
139,384,55054,1,0,0:2:0:0:
112,196,55242,1,8,0:2:0:0:
301,242,55429,1,8,0:2:0:0:
301,242,55523,1,8,0:2:0:0:
301,242,55617,6,0,P|313:198|225:121,1,170.999994781494,6|8,1:2|0:2,0:0:0:0:
112,196,56179,1,2,0:2:0:0:
239,39,56367,2,0,B|248:82|248:82|229:125,1,85.4999973907472,2|10,1:2|0:3,0:0:0:0:
112,196,56742,2,0,B|103:153|103:153|119:114,1,85.4999973907472,10|0,0:2|0:2,0:0:0:0:
209,246,57117,6,0,P|172:294|48:281,1,170.999994781494,0|8,1:2|0:2,0:0:0:0:
112,196,57679,1,2,0:2:0:0:
302,264,57867,2,0,B|344:250|344:250|403:270,1,85.4999973907472,2|10,1:2|0:3,0:0:0:0:
200,114,58242,2,0,B|158:128|158:128|99:108,1,85.4999973907472,10|0,0:2|0:2,0:0:0:0:
408,10,58617,6,0,B|400:67|400:67|415:102|415:102|401:185,1,170.999994781494,6|8,1:2|0:2,0:0:0:0:
383,263,59179,1,0,0:2:0:0:
504,190,59367,2,0,B|500:87,1,85.4999973907472,0|2,1:2|0:2,0:0:0:0:
252,209,59742,1,10,0:2:0:0:
383,263,59929,1,2,0:2:0:0:
274,127,60117,6,0,B|219:119|189:145|189:145|153:174|94:151,1,170.999994781494,0|10,1:2|0:2,0:0:0:0:
252,209,60679,1,2,0:2:0:0:
139,83,60867,2,0,P|128:35|140:-8,1,85.4999973907472,2|0,1:2|0:2,0:0:0:0:
80,241,61242,2,0,P|40:211|22:170,1,85.4999973907472,8|8,0:2|0:2,0:0:0:0:
30,155,61523,1,8,0:2:0:0:
30,155,61617,5,14,0:2:0:0:
0,288,61804,1,2,1:2:0:0:
116,162,61992,1,2,1:2:0:0:
138,361,62179,5,10,0:2:0:0:
80,241,62367,1,2,1:2:0:0:
232,327,62554,1,2,1:2:0:0:
0,288,62742,5,10,0:2:0:0:
152,84,62929,1,2,1:2:0:0:
138,361,63117,5,10,0:2:0:0:
69,70,63304,2,0,L|59:26,2,42.7499986953736,8|8|8,0:2|0:2|0:2,0:0:0:0:
172,250,63679,1,6,1:2:0:0:
172,250,64054,5,0,1:2:0:0:
243,288,64242,1,8,0:2:0:0:
251,246,64335,1,8,0:2:0:0:
238,206,64429,1,8,0:2:0:0:
206,179,64523,1,8,0:2:0:0:
164,172,64617,6,0,P|168:119|221:61,1,95,6|0,1:2|0:2,0:0:0:0:
354,134,64992,2,0,P|351:181|328:222,1,95,10|0,0:2|0:2,0:0:0:0:
293,56,65367,2,0,P|344:85|451:17,1,190,2|10,1:2|0:2,0:0:0:0:
189,84,65929,6,0,P|138:55|31:123,1,190,2|2,0:2|0:2,0:0:0:0:
69,221,66492,1,10,0:2:0:0:
164,172,66679,1,2,0:2:0:0:
33,113,66867,1,2,1:2:0:0:
154,270,67054,1,2,0:2:0:0:
5,305,67242,1,10,0:2:0:0:
241,232,67429,1,2,0:2:0:0:
241,232,67617,6,0,B|311:236|311:236|353:268|353:268|442:275,1,190,2|10,1:2|0:2,0:0:0:0:
495,221,68179,1,2,0:2:0:0:
371,157,68367,1,0,1:2:0:0:
503,310,68554,2,0,B|516:262|516:262|495:221,1,95,2|8,0:2|0:2,0:0:0:0:
370,364,68929,1,2,0:2:0:0:
241,232,69117,6,0,B|202:259|151:236|151:236|104:217|46:253,2,190,0|8|0,1:2|0:2|1:2,0:0:0:0:
195,71,70054,1,12,0:2:0:0:
323,185,70242,2,0,P|333:242|312:297,1,95,14|10,0:2|0:2,0:0:0:0:
314,293,70523,1,8,0:2:0:0:
314,293,70617,6,0,L|421:278,1,95,6|0,1:2|0:2,0:0:0:0:
371,105,70992,2,0,L|264:90,1,95,10|0,0:2|0:2,0:0:0:0:
432,183,71367,2,0,P|464:144|413:20,1,190,2|10,1:2|0:2,0:0:0:0:
276,91,71929,1,2,0:2:0:0:
372,245,72117,6,0,B|410:277|466:267|466:267|425:307|431:376,1,190,0|10,1:2|0:2,0:0:0:0:
334,371,72679,1,0,0:2:0:0:
275,209,72867,2,0,P|302:170|348:155,1,95,2|0,1:2|0:2,0:0:0:0:
183,251,73242,2,0,P|179:203|194:159,1,95,10|0,0:2|0:2,0:0:0:0:
270,311,73617,5,6,1:2:0:0:
94,285,73804,1,8,0:3:0:0:
275,209,73992,1,4,0:3:0:0:
175,383,74179,1,4,0:3:0:0:
30,191,74367,6,0,P|20:141|56:71,1,95,4|10,1:2|0:3,0:0:0:0:
50,93,74648,1,8,0:3:0:0:
50,93,74742,1,10,0:3:0:0:
183,251,74929,1,6,0:3:0:0:
216,48,75116,5,10,0:2:0:0:
361,230,75304,1,10,0:2:0:0:
459,34,75492,2,0,L|505:27,2,47.5,8|8|6,0:2|0:2|1:2,0:0:0:0:
443,173,75867,2,0,P|449:202|443:238,3,47.5,10|0|2|8,0:2|0:0|0:2|0:2,0:0:0:0:
409,234,76242,2,0,L|353:230,3,47.5,2|8|10|8,1:2|0:2|0:2|0:2,0:0:0:0:
337,228,76617,5,8,0:3:0:0:
337,228,76992,6,0,B|331:329|331:329|307:271,1,152,14|0,1:2|0:0,0:0:0:0:
256,178,77554,2,0,P|302:140|381:147,1,142.5,14|0,1:2|0:0,0:0:0:0:
380,146,77929,6,0,L|377:43,1,95,14|0,1:2|0:2,0:0:0:0:
278,0,78304,1,2,0:2:0:0:
256,178,78492,1,10,0:2:0:0:
184,40,78679,1,2,0:2:0:0:
168,221,78867,5,2,1:2:0:0:
285,97,79054,1,2,0:2:0:0:
90,68,79242,1,10,0:2:0:0:
256,178,79429,1,2,0:2:0:0:
92,174,79617,6,0,P|74:227|174:310,1,190,2|10,1:2|0:2,0:0:0:0:
346,184,80179,2,0,B|301:166|301:166|248:179,1,95,2|0,0:2|1:2,0:0:0:0:
258,318,80554,1,2,0:2:0:0:
430,235,80742,2,0,L|444:136,1,95,8|2,0:2|0:2,0:0:0:0:
332,1,81117,6,0,B|328:66|328:66|355:120|355:120|343:199,1,190,0|10,1:2|0:2,0:0:0:0:
258,318,81679,1,2,0:2:0:0:
255,171,81867,1,2,1:2:0:0:
367,350,82054,1,12,0:2:0:0:
144,283,82242,1,12,0:2:0:0:
345,183,82429,1,0,0:2:0:0:
162,153,82617,6,0,P|142:110|250:36,1,190,2|8,1:2|0:2,0:0:0:0:
255,171,83179,1,2,0:2:0:0:
94,214,83367,2,0,L|-4:207,1,95,2|0,1:2|0:2,0:0:0:0:
217,341,83742,2,0,L|315:334,1,95,10|2,0:2|0:2,0:0:0:0:
393,185,84117,5,0,1:2:0:0:
448,359,84304,1,0,0:0:0:0:
328,251,84492,1,8,0:2:0:0:
488,200,84679,1,0,0:2:0:0:
361,85,84867,2,0,B|316:69|316:69|256:99,1,95,2|0,1:2|0:2,0:0:0:0:
240,256,85242,2,0,B|285:272|285:272|327:250,1,95,10|2,0:2|0:2,0:0:0:0:
237,9,85617,6,0,P|200:41|237:170,1,190,0|8,1:2|0:2,0:0:0:0:
273,90,86179,1,0,0:2:0:0:
115,33,86367,2,0,P|104:81|117:152,1,95,0|8,1:2|0:2,0:0:0:0:
119,141,86648,1,8,0:2:0:0:
119,141,86742,2,0,L|110:200,1,47.5,0|8,1:2|0:2,0:0:0:0:
58,255,86929,2,0,L|65:301,1,47.5,8|4,0:3|0:3,0:0:0:0:
129,355,87117,5,14,0:2:0:0:
273,90,87304,1,10,0:2:0:0:
273,90,87867,5,10,0:2:0:0:
404,360,88054,1,10,0:2:0:0:
404,360,88617,5,2,1:2:0:0:
483,313,88804,1,2,1:2:0:0:
393,177,88992,2,0,L|408:272,1,85.4999973907472,10|2,0:2|0:2,0:0:0:0:
404,360,89367,5,0,1:2:0:0:
491,221,89554,1,2,1:2:0:0:
298,243,89742,2,0,B|256:231|256:231|227:172,1,85.4999973907472,10|2,0:2|0:2,0:0:0:0:
427,76,90117,5,0,1:2:0:0:
406,261,90304,1,2,1:2:0:0:
265,107,90492,2,0,L|164:118,1,85.4999973907472,10|2,0:2|0:2,0:0:0:0:
74,180,90867,5,2,1:2:0:0:
169,33,91054,1,2,1:2:0:0:
178,233,91242,1,10,0:2:0:0:
62,73,91429,1,2,0:2:0:0:
88,289,91617,5,0,1:2:0:0:
180,116,91804,1,2,1:2:0:0:
320,286,91992,2,0,L|429:269,1,85.4999973907472,10|2,0:2|0:2,0:0:0:0:
461,146,92367,5,2,1:2:0:0:
512,335,92554,1,0,1:2:0:0:
354,108,92742,1,10,0:2:0:0:
295,372,92929,1,6,1:2:0:0:
295,372,93304,5,2,1:2:0:0:
390,364,93492,1,6,0:3:0:0:
200,381,93679,2,0,B|189:332|212:296|212:296|234:257|209:210,1,170.999994781494,6|2,1:2|1:2,0:0:0:0:
136,253,94242,2,0,L|86:264,1,42.7499986953736,8|8,0:2|0:0,0:0:0:0:
289,169,94429,2,0,L|331:175,1,42.7499986953736,8|8,0:2|0:2,0:0:0:0:
149,50,94617,5,6,1:2:0:0:
212,216,94804,1,2,1:2:0:0:
289,75,94992,1,10,0:2:0:0:
205,300,95179,1,2,1:2:0:0:
219,0,95367,5,8,0:2:0:0:
292,259,95554,1,2,1:2:0:0:
356,6,95742,1,10,0:2:0:0:
279,350,95929,1,2,1:2:0:0:
390,118,96117,6,0,P|420:114|482:143,1,85.4999973907472,8|2,0:2|1:2,0:0:0:0:
440,334,96492,2,0,P|397:336|359:319,1,85.4999973907472,10|2,0:2|1:2,0:0:0:0:
301,78,96867,5,10,0:2:0:0:
408,248,97054,1,2,1:2:0:0:
356,6,97242,1,10,0:2:0:0:
292,259,97429,1,2,1:2:0:0:
235,19,97617,5,8,0:2:0:0:
359,319,97804,1,2,1:2:0:0:
438,35,97992,1,10,0:2:0:0:
263,375,98179,1,2,1:2:0:0:
167,82,98367,5,10,0:2:0:0:
501,211,98554,1,0,1:2:0:0:
83,261,98742,1,10,0:2:0:0:
438,35,98929,1,6,1:2:0:0:
438,35,99304,5,2,1:2:0:0:
342,21,99492,1,2,0:2:0:0:
480,128,99679,6,0,L|493:313,1,170.999994781494,6|0,1:2|3:0,0:0:0:0:
495,315,100148,1,0,0:0:0:0:
495,316,100242,1,0,3:0:0:0:
383,111,100617,6,0,L|302:100,2,71.2500027179719,2|0|2,0:2|0:2|0:2,0:0:0:0:
315,208,101179,2,0,L|396:197,2,71.2500027179719,2|0|10,0:2|0:2|0:3,0:0:0:0:
239,153,101742,1,2,0:2:0:0:
160,357,101929,5,6,1:2:0:0:
256,192,102117,12,0,103617,0:0:0:0:
