osu file format v14

[General]
AudioFilename: audio.mp3
AudioLeadIn: 0
PreviewTime: 63492
Countdown: 0
SampleSet: Soft
StackLeniency: 0.4
Mode: 0
LetterboxInBreaks: 0
WidescreenStoryboard: 1

[Editor]
Bookmarks: 2367,64617
DistanceSpacing: 1.3
BeatDivisor: 8
GridSize: 8
TimelineZoom: 1.8

[Metadata]
Title:M flat
TitleUnicode:M♭
Artist:Kato Megumi (CV: Yasuno Kiyono)
ArtistUnicode:加藤恵 (CV: 安野希世乃)
Creator:- Matha -
Version:Agent_James' Insane
Source:冴えない彼女の育てかた
Tags:冴えカノ saenai kanojo heroine no sodate kata saekano character song japanese anime -light- Agent_James sotarks
BeatmapID:1942342
BeatmapSetID:925999

[Difficulty]
HPDrainRate:5
CircleSize:4
OverallDifficulty:8
ApproachRate:9
SliderMultiplier:1.7
SliderTickRate:1

[Events]
//Background and Video events
0,0,"BG.jpg",0,0
//Break Periods
//Storyboard Layer 0 (Background)
//Storyboard Layer 1 (Fail)
//Storyboard Layer 2 (Pass)
//Storyboard Layer 3 (Foreground)
//Storyboard Sound Samples

[TimingPoints]
1617,375,4,2,22,42,1,0
1617,-133.333333333333,4,2,22,42,0,0
10242,-133.333333333333,4,2,22,42,0,0
10617,-100,4,2,22,42,0,0
10992,-100,4,2,22,42,0,0
13242,-200,4,2,22,42,0,0
13617,-100,4,2,22,52,0,0
19617,-100,4,2,22,72,0,0
25054,-100,4,2,22,42,0,0
25429,-100,4,2,22,52,0,0
25617,-133.333333333333,4,2,22,52,0,0
31617,-111.111111111111,4,2,22,52,0,0
37429,-111.111111111111,4,2,22,62,0,0
37617,-111.111111111111,4,2,22,62,0,0
49617,-133.333333333333,4,2,22,52,0,0
55617,-100,4,2,22,62,0,0
61617,-100,4,2,22,72,0,0
64617,-100,4,2,22,82,0,1
77835,-100,4,2,22,5,0,1
77929,-100,4,2,22,82,0,1
87304,-100,4,2,22,82,0,1
88242,-200,4,2,22,82,0,0
88617,-100,4,2,22,72,0,0
100054,-100,4,2,22,42,0,0
100617,-133.333333333333,4,2,22,42,0,0
101929,-133.333333333333,4,2,22,52,0,0
102210,-133.333333333333,4,2,22,52,0,0
103617,-133.333333333333,4,2,22,32,0,0

[Colours]
Combo1 : 255,128,191
Combo2 : 255,47,47
Combo3 : 170,225,255

[HitObjects]
136,89,1617,6,0,P|114:151|139:204,1,127.500004863739,2|2,0:2|0:2,0:0:0:0:
455,164,2367,2,0,B|391:176|391:176|316:165,1,127.500004863739,2|2,0:2|0:2,0:0:0:0:
207,148,2929,6,0,P|232:204|209:262,1,127.500004863739,2|2,0:2|0:2,0:0:0:0:
153,344,3492,2,0,P|189:338|226:347,1,63.7500024318696,2|0,0:2|0:2,0:0:0:0:
385,347,3867,2,0,P|353:353|322:348,1,63.7500024318696,2|0,0:2|0:2,0:0:0:0:
445,262,4242,1,2,0:2:0:0:
512,338,4429,1,2,0:2:0:0:
345,262,4617,6,0,B|369:226|369:226|366:118,1,127.500004863739,2|2,0:2|0:2,0:0:0:0:
335,61,5179,2,0,P|366:54|397:59,1,63.7500024318696,2|0,0:2|0:2,0:0:0:0:
281,125,5554,2,0,P|249:131|218:126,1,63.7500024318696,2|0,0:2|0:2,0:0:0:0:
130,46,5929,6,0,L|130:181,1,127.500004863739,2|2,0:2|0:2,0:0:0:0:
22,193,6492,1,0,0:2:0:0:
107,274,6679,1,2,0:2:0:0:
212,161,6867,2,0,L|290:173,1,63.7500024318696,2|0,0:2|0:0,0:0:0:0:
359,259,7242,2,0,L|295:268,1,63.7500024318696,0|0,0:2|0:2,0:0:0:0:
374,164,7617,6,0,P|399:107|375:49,1,127.500004863739,2|0,0:2|0:2,0:0:0:0:
285,21,8179,1,2,0:2:0:0:
212,72,8367,2,0,P|180:78|149:73,1,63.7500024318696,2|0,0:2|0:2,0:0:0:0:
0,44,8742,2,0,P|32:38|63:43,1,63.7500024318696,2|2,0:2|0:2,0:0:0:0:
81,128,9117,6,0,B|75:219|75:219|105:261,1,127.500004863739,0|0,0:2|0:2,0:0:0:0:
275,190,9679,2,0,P|218:164|160:188,1,127.500004863739,0|0,0:2|0:2,0:0:0:0:
329,319,10242,2,0,P|380:305|438:321,1,95.6250036478044,2|0,0:2|0:0,0:0:0:0:
449,317,10617,6,0,L|449:162,1,127.5,6|0,1:2|0:0,0:0:0:0:
448,153,10992,1,0,1:2:0:0:
364,182,11179,1,0,1:2:0:0:
357,36,11367,1,0,1:2:0:0:
263,178,11554,1,0,1:2:0:0:
114,36,11742,1,0,1:2:0:0:
180,228,11929,1,0,1:2:0:0:
248,36,12117,5,10,0:2:0:0:
248,36,12304,1,10,0:2:0:0:
45,217,12867,5,10,0:2:0:0:
45,217,13054,1,10,0:2:0:0:
93,311,13242,2,0,P|108:280|151:265,1,63.75,0|0,0:0|0:0,0:0:0:0:
150,263,13617,5,2,1:2:0:0:
247,340,13804,1,2,1:2:0:0:
289,176,13992,2,0,P|255:205|243:244,1,85,10|2,0:2|0:2,0:0:0:0:
437,286,14367,1,0,1:2:0:0:
331,255,14554,1,2,1:2:0:0:
451,202,14742,2,0,L|447:106,1,85,10|2,0:2|0:2,0:0:0:0:
303,15,15117,5,0,1:2:0:0:
357,112,15304,1,2,1:2:0:0:
235,180,15492,2,0,L|259:95,1,85,10|2,0:2|0:2,0:0:0:0:
103,99,15867,1,2,1:2:0:0:
135,191,16054,1,2,1:2:0:0:
22,127,16242,2,0,P|17:85|36:47,1,85,10|2,0:2|0:2,0:0:0:0:
135,7,16617,5,0,1:2:0:0:
103,99,16804,1,2,1:2:0:0:
290,165,16992,1,10,0:2:0:0:
192,79,17179,1,2,0:2:0:0:
94,270,17367,1,2,1:2:0:0:
192,177,17554,1,0,1:2:0:0:
177,362,17742,1,10,0:2:0:0:
270,305,17929,6,0,L|415:298,1,127.5,6|0,1:2|0:0,0:0:0:0:
423,297,18304,1,2,1:2:0:0:
390,89,18492,1,6,0:3:0:0:
324,161,18679,2,0,P|383:181|485:126,1,170,6|2,1:2|1:2,0:0:0:0:
233,77,19242,1,8,0:2:0:0:
231,108,19335,1,8,0:2:0:0:
230,140,19429,1,8,0:2:0:0:
230,172,19523,1,8,0:2:0:0:
229,203,19617,6,0,L|121:189,1,85,6|2,1:2|1:2,0:0:0:0:
16,113,19992,2,0,L|100:102,1,85,10|2,0:2|1:2,0:0:0:0:
233,77,20367,1,8,0:2:0:0:
179,240,20554,1,2,1:2:0:0:
410,201,20742,1,10,0:2:0:0:
275,152,20929,1,2,1:2:0:0:
394,281,21117,6,0,P|413:225|405:191,1,85,8|2,0:2|1:2,0:0:0:0:
273,280,21492,2,0,P|270:321|287:360,1,85,10|2,0:2|1:2,0:0:0:0:
208,157,21867,1,10,0:2:0:0:
152,320,22054,1,2,1:2:0:0:
40,159,22242,1,10,0:2:0:0:
179,240,22429,1,2,1:2:0:0:
225,70,22617,6,0,L|132:78,1,85,8|2,0:2|1:2,0:0:0:0:
383,123,22992,1,10,0:2:0:0:
208,157,23179,1,2,1:2:0:0:
383,23,23367,1,10,0:2:0:0:
383,23,23742,5,10,0:2:0:0:
386,226,23929,1,6,1:2:0:0:
386,226,24304,5,2,1:2:0:0:
290,26,24492,1,2,0:2:0:0:
325,303,24679,2,0,B|243:303|243:303|235:308|235:308|148:308,1,170,6|0,1:2|3:2,0:0:0:0:
131,309,25148,1,0,3:2:0:0:
131,309,25242,1,0,3:2:0:0:
80,82,25617,6,0,P|90:120|81:168,1,63.7500024318696,4|2,1:2|0:2,0:0:0:0:
181,227,25992,2,0,P|171:189|180:141,1,63.7500024318696,2|0,1:2|0:2,0:0:0:0:
237,74,26367,2,0,L|152:82,1,63.7500024318696,2|2,1:2|0:2,0:0:0:0:
252,159,26742,2,0,L|337:151,1,63.7500024318696,2|2,1:2|0:2,0:0:0:0:
383,211,27117,5,2,1:2:0:0:
386,99,27304,1,2,0:2:0:0:
315,153,27492,1,2,1:2:0:0:
457,151,27679,2,0,B|482:116|482:116|455:12,1,127.500004863739,2|0,0:2|0:2,0:0:0:0:
457,151,28242,1,0,1:2:0:0:
377,284,28617,6,0,P|300:277|261:300,1,95.6250036478044,2|0,1:2|0:0,0:0:0:0:
286,301,28992,2,0,L|292:371,1,63.7500024318696,2|0,1:2|0:2,0:0:0:0:
192,335,29367,2,0,P|180:289|191:242,1,95.6250036478044,2|0,1:2|0:0,0:0:0:0:
205,227,29742,1,2,1:2:0:0:
83,277,29929,6,0,L|86:150,1,127.500004863739,2|2,0:2|0:2,0:0:0:0:
104,55,30492,1,2,1:2:0:0:
195,83,30679,1,2,0:2:0:0:
288,51,30867,1,2,1:2:0:0:
382,103,31054,1,0,3:2:0:0:
382,103,31148,1,0,3:2:0:0:
382,103,31242,2,0,L|381:211,1,95.6250036478044,0|0,3:2|0:0,0:0:0:0:
385,231,31617,6,0,P|312:208|231:240,1,152.999995330811,4|2,1:2|3:2,0:0:0:0:
76,94,32367,2,0,P|71:139|88:174,1,76.4999976654053,2|2,1:2|0:2,0:0:0:0:
160,116,32742,2,0,P|165:78|152:42,1,76.4999976654053,2|0,3:2|0:2,0:0:0:0:
126,239,33117,5,2,1:2:0:0:
203,188,33304,1,2,0:2:0:0:
179,314,33492,1,2,3:2:0:0:
262,258,33679,2,0,B|356:256|304:298|412:295,1,152.999995330811,2|0,0:2|0:2,0:0:0:0:
481,249,34242,1,0,3:2:0:0:
447,57,34617,6,0,P|400:89|384:142,1,114.749996498108,2|0,1:2|0:0,0:0:0:0:
383,167,34992,2,0,P|334:146|284:161,1,76.4999976654053,2|0,3:2|0:2,0:0:0:0:
161,101,35367,2,0,P|208:133|224:186,1,114.749996498108,2|0,1:2|0:0,0:0:0:0:
223,215,35742,1,2,3:2:0:0:
82,126,35929,1,2,0:2:0:0:
56,285,36117,6,0,L|30:331,3,38.2499988327027,8|8|10|8,0:3|0:2|0:2|0:2,0:0:0:0:
163,362,36492,2,0,L|137:316,3,38.2499988327027,10|8|10|8,0:2|0:2|0:2|0:2,0:0:0:0:
252,315,36867,1,2,1:2:0:0:
223,215,37054,1,14,0:2:0:0:
56,285,37242,1,14,0:2:0:0:
323,235,37617,5,4,1:2:0:0:
223,215,37804,1,2,1:2:0:0:
405,297,37992,2,0,P|422:237|407:194,1,76.4999976654053,10|2,0:2|0:2,0:0:0:0:
223,215,38367,1,2,1:2:0:0:
323,235,38554,1,2,1:2:0:0:
141,153,38742,2,0,P|123:212|138:255,1,76.4999976654053,10|2,0:2|0:2,0:0:0:0:
282,175,39117,5,2,1:2:0:0:
262,275,39304,1,2,1:2:0:0:
344,93,39492,2,0,P|284:75|241:90,1,76.4999976654053,10|2,0:2|0:2,0:0:0:0:
262,275,39867,1,0,1:2:0:0:
282,175,40054,1,0,1:2:0:0:
200,357,40242,2,0,P|259:374|302:359,1,76.4999976654053,8|0,0:2|0:2,0:0:0:0:
73,373,40617,6,0,L|79:258,1,114.749996498108,2|0,1:2|0:0,0:0:0:0:
82,236,40992,2,0,P|125:246|167:236,1,76.4999976654053,10|0,0:2|0:2,0:0:0:0:
285,135,41367,2,0,L|170:141,1,114.749996498108,2|0,1:2|0:0,0:0:0:0:
145,143,41742,1,10,0:2:0:0:
255,221,41929,6,0,L|366:215,1,76.4999976654053,2|0,0:2|1:2,0:0:0:0:
414,118,42304,1,2,1:2:0:0:
445,283,42492,1,10,0:2:0:0:
419,138,42679,1,2,0:2:0:0:
334,238,42867,1,2,1:2:0:0:
303,67,43054,1,8,0:2:0:0:
183,171,43242,2,0,L|286:162,1,76.4999976654053,8|2,0:2|1:2,0:0:0:0:
113,223,43617,5,4,1:2:0:0:
115,121,43804,1,2,1:2:0:0:
66,314,43992,2,0,P|128:320|167:298,1,76.4999976654053,10|2,0:2|0:2,0:0:0:0:
257,172,44367,2,0,P|195:166|156:188,1,76.4999976654053,2|2,1:2|1:2,0:0:0:0:
316,256,44742,2,0,P|352:205|352:160,1,76.4999976654053,10|2,0:2|0:2,0:0:0:0:
366,23,45117,5,0,1:2:0:0:
310,98,45304,1,2,1:2:0:0:
446,186,45492,2,0,P|420:129|381:106,1,76.4999976654053,10|2,0:2|0:2,0:0:0:0:
254,23,45867,1,2,1:2:0:0:
310,98,46054,1,0,1:2:0:0:
174,186,46242,2,0,P|199:129|238:106,1,76.4999976654053,10|2,0:2|0:2,0:0:0:0:
235,281,46617,6,0,B|192:258|192:258|92:272,1,114.749996498108,2|0,1:2|0:0,0:0:0:0:
104,275,46992,1,10,0:2:0:0:
282,355,47179,1,6,1:2:0:0:
300,364,47554,1,2,1:2:0:0:
478,284,47742,1,8,1:2:0:0:
387,105,47929,6,0,P|328:175|341:245,1,152.999995330811,6|0,1:2|1:2,0:0:0:0:
418,195,48492,1,8,0:2:0:0:
270,106,48679,2,0,B|197:129|197:129|89:95,1,152.999995330811,4|0,1:2|1:2,0:0:0:0:
198,38,49242,1,10,0:2:0:0:
132,200,49429,1,6,0:3:0:0:
37,142,49617,6,0,P|20:207|42:275,1,127.500004863739,6|2,1:2|0:2,0:0:0:0:
103,318,50179,1,2,1:2:0:0:
103,318,50367,2,0,B|168:300|168:300|237:324,1,127.500004863739,0|10,1:0|0:2,0:0:0:0:
512,295,51117,6,0,L|384:300,1,127.500004863739,2|2,1:2|0:2,0:0:0:0:
309,355,51679,1,2,1:2:0:0:
309,355,51867,2,0,P|293:294|318:236,1,127.500004863739,0|10,1:0|0:2,0:0:0:0:
392,166,52429,2,0,L|388:112,1,31.8750012159348,0|0,0:2|0:0,0:0:0:0:
386,91,52617,6,0,L|244:100,1,127.500004863739,2|2,1:2|0:2,0:0:0:0:
181,61,53179,1,0,1:2:0:0:
181,61,53367,2,0,B|200:97|200:97|183:197,1,127.500004863739,2|10,1:2|0:2,0:0:0:0:
10,349,54117,6,0,P|51:289|101:294,1,127.500004863739,0|2,1:2|0:2,0:0:0:0:
172,345,54679,1,2,1:2:0:0:
243,295,54867,2,0,P|319:305|348:265,1,127.500004863739,2|8,1:2|0:2,0:0:0:0:
352,188,55429,1,8,0:2:0:0:
352,188,55523,1,8,0:2:0:0:
352,188,55617,6,0,L|150:185,1,170,6|8,1:2|0:2,0:0:0:0:
77,196,56179,1,2,0:0:0:0:
67,29,56367,1,2,1:2:0:0:
20,116,56554,1,10,0:3:0:0:
152,66,56742,2,0,L|255:75,1,85,10|0,0:2|0:2,0:0:0:0:
331,19,57117,6,0,P|322:55|336:107,1,85,0|0,1:2|0:0,0:0:0:0:
426,145,57492,2,0,P|434:103|424:63,1,85,8|2,0:2|0:2,0:0:0:0:
278,192,57867,1,2,1:2:0:0:
332,100,58054,1,10,0:3:0:0:
361,295,58242,2,0,L|243:287,1,85,10|0,0:2|0:2,0:0:0:0:
44,197,58617,6,0,B|151:184|93:247|210:235,1,170,6|8,1:2|0:2,0:0:0:0:
406,38,59367,1,0,1:2:0:0:
332,100,59554,1,2,0:2:0:0:
455,191,59742,2,0,P|442:150|412:120,1,85,10|2,0:2|0:2,0:0:0:0:
282,199,60117,6,0,P|323:207|363:197,1,85,0|2,1:2|0:2,0:0:0:0:
241,120,60492,1,10,0:2:0:0:
217,253,60679,1,2,0:2:0:0:
119,76,60867,1,2,1:2:0:0:
147,195,61054,1,0,0:2:0:0:
265,37,61242,1,8,0:2:0:0:
399,109,61429,1,8,0:2:0:0:
399,109,61523,1,8,0:2:0:0:
399,109,61617,6,0,B|283:144|283:144|212:102,1,170,14|2,0:2|1:2,0:0:0:0:
378,364,62179,2,0,P|404:268|358:205,1,170,10|2,0:2|1:2,0:0:0:0:
207,298,62742,1,10,0:2:0:0:
309,289,62929,1,2,1:2:0:0:
192,138,63117,5,10,0:2:0:0:
95,310,63304,1,8,0:2:0:0:
95,310,63398,1,8,0:2:0:0:
95,310,63492,1,8,0:2:0:0:
10,210,63679,2,0,L|214:220,1,170,6|0,1:2|1:2,0:0:0:0:
271,294,64242,1,8,0:2:0:0:
271,294,64335,1,8,0:2:0:0:
271,294,64429,2,0,L|273:237,1,42.5,8|8,0:2|0:2,0:0:0:0:
374,156,64617,6,0,P|278:169|242:143,1,127.5,6|0,1:2|0:0,0:0:0:0:
257,130,64992,2,0,P|270:83|254:35,1,85,10|0,0:2|0:2,0:0:0:0:
36,82,65367,2,0,L|170:86,1,127.5,2|0,1:2|0:0,0:0:0:0:
188,85,65742,1,10,0:2:0:0:
59,309,65929,6,0,P|46:213|102:161,1,170,2|2,0:2|0:2,0:0:0:0:
224,252,66492,2,0,L|121:250,1,85,10|2,0:2|0:2,0:0:0:0:
288,172,66867,1,2,1:2:0:0:
315,294,67054,1,2,0:2:0:0:
405,90,67242,1,10,0:2:0:0:
378,212,67429,1,2,0:2:0:0:
290,65,67617,6,0,B|185:58|234:117|125:105,1,170,2|10,1:2|0:2,0:0:0:0:
7,67,68179,2,0,P|36:96|44:138,1,85,2|0,0:2|1:2,0:0:0:0:
27,294,68554,2,0,P|43:240|88:214,1,85,2|8,0:2|0:2,0:0:0:0:
244,212,68929,1,2,0:2:0:0:
149,160,69117,5,0,1:2:0:0:
148,270,69304,1,0,0:0:0:0:
192,91,69492,2,0,P|152:77|111:86,1,85,8|0,0:2|0:0,0:0:0:0:
148,270,69867,1,0,1:2:0:0:
149,160,70054,1,12,0:2:0:0:
361,226,70242,1,14,0:2:0:0:
244,212,70429,1,10,0:2:0:0:
244,212,70523,1,8,0:2:0:0:
244,212,70617,6,0,L|254:353,1,127.5,6|0,1:2|0:0,0:0:0:0:
256,365,70992,2,0,P|296:355|336:369,1,85,10|0,0:2|0:2,0:0:0:0:
413,291,71367,2,0,P|400:195|426:159,1,127.5,2|0,1:2|0:0,0:0:0:0:
428,156,71742,1,10,0:2:0:0:
372,80,71929,1,2,0:2:0:0:
311,195,72117,6,0,L|210:183,1,85,0|0,1:0|0:2,0:0:0:0:
183,86,72492,2,0,L|267:96,1,85,10|0,0:2|0:2,0:0:0:0:
57,207,72867,1,2,1:2:0:0:
80,88,73054,1,0,0:2:0:0:
141,164,73242,2,0,P|154:203|145:244,1,85,10|0,0:2|0:2,0:0:0:0:
85,325,73617,5,6,1:2:0:0:
278,257,73804,1,8,0:3:0:0:
172,251,73992,1,4,0:3:0:0:
343,352,74179,1,4,0:3:0:0:
354,151,74367,2,0,L|261:150,1,85,4|10,1:2|0:3,0:0:0:0:
242,135,74648,1,8,0:3:0:0:
242,135,74742,1,10,0:3:0:0:
79,77,74929,1,6,0:3:0:0:
87,250,75117,6,0,L|171:250,1,85,10|10,0:2|0:2,0:0:0:0:
269,293,75492,2,0,L|268:354,2,42.5,8|8|6,0:2|0:2|1:2,0:0:0:0:
274,107,75867,2,0,L|236:140,3,42.5,10|10|10|8,1:2|0:2|0:2|0:2,0:0:0:0:
362,106,76242,2,0,L|352:56,3,42.5,10|8|10|8,0:2|0:2|0:2|0:2,0:0:0:0:
315,184,76617,5,8,0:3:0:0:
315,184,76992,2,0,B|293:278|357:253|345:358,1,170,14|0,1:2|0:2,0:0:0:0:
132,334,77554,2,0,P|194:314|270:330,1,127.5,14|0,1:2|0:0,0:0:0:0:
254,322,77929,6,0,P|215:272|212:164,1,170,14|2,1:2|0:2,0:0:0:0:
248,64,78492,1,10,0:2:0:0:
324,157,78679,1,2,0:2:0:0:
374,54,78867,1,2,1:2:0:0:
216,165,79054,1,2,0:2:0:0:
392,247,79242,1,10,0:2:0:0:
324,157,79429,1,2,0:2:0:0:
280,315,79617,6,0,B|242:348|242:348|103:337,1,170,2|10,1:2|0:2,0:0:0:0:
23,331,80179,2,0,P|52:302|60:260,1,85,2|0,0:2|1:2,0:0:0:0:
0,104,80554,2,0,P|7:145|36:175,1,85,2|8,0:2|0:2,0:0:0:0:
256,175,80929,6,0,P|184:145|116:208,1,170,2|2,0:2|0:2,0:0:0:0:
311,253,81492,2,0,P|340:223|347:181,1,85,10|2,0:2|0:2,0:0:0:0:
304,92,81867,1,2,1:2:0:0:
214,266,82054,1,12,0:2:0:0:
410,84,82242,1,12,0:2:0:0:
410,84,82617,6,0,L|408:260,1,170,2|8,1:2|0:2,0:0:0:0:
512,221,83179,1,0,0:0:0:0:
504,346,83367,2,0,L|420:351,1,85,2|2,1:2|0:2,0:0:0:0:
324,248,83742,2,0,L|408:254,1,85,10|2,0:2|0:2,0:0:0:0:
271,170,84117,6,0,P|242:199|234:241,1,85,0|0,1:2|0:0,0:0:0:0:
360,160,84492,2,0,P|349:120|317:92,1,85,8|0,0:2|0:2,0:0:0:0:
147,4,84867,1,2,1:2:0:0:
233,96,85054,1,0,0:2:0:0:
60,121,85242,2,0,P|45:81|56:40,1,85,10|2,0:2|0:2,0:0:0:0:
166,187,85617,6,0,B|51:212|51:212|-9:192,1,170,0|8,1:2|0:2,0:0:0:0:
228,273,86367,2,0,L|306:270,3,42.5,0|8|8|8,1:2|0:2|0:2|0:2,0:0:0:0:
160,360,86742,2,0,L|82:363,3,42.5,0|8|8|4,1:2|0:2|0:3|0:3,0:0:0:0:
166,189,87117,5,14,0:2:0:0:
166,189,87304,1,10,0:2:0:0:
340,361,87867,5,10,0:2:0:0:
340,361,88054,1,10,0:2:0:0:
363,275,88242,2,0,P|378:244|417:226,1,63.75,0|0,0:0|0:0,0:0:0:0:
428,221,88617,5,2,1:2:0:0:
398,125,88804,1,2,1:2:0:0:
292,195,88992,2,0,L|194:182,1,85,10|2,0:2|0:2,0:0:0:0:
161,11,89367,1,0,1:2:0:0:
224,91,89554,1,2,1:2:0:0:
114,194,89742,2,0,P|116:152|141:117,1,85,10|2,0:2|0:2,0:0:0:0:
260,279,90117,5,0,1:2:0:0:
212,194,90304,1,2,1:2:0:0:
212,364,90492,2,0,P|170:372|131:357,1,85,10|2,0:2|0:2,0:0:0:0:
114,194,90867,1,2,1:2:0:0:
65,279,91054,1,2,1:2:0:0:
212,194,91242,2,0,L|194:98,1,85,10|2,0:2|0:2,0:0:0:0:
237,0,91617,5,0,1:2:0:0:
205,92,91804,1,2,1:2:0:0:
392,158,91992,1,10,0:2:0:0:
294,72,92179,1,2,0:2:0:0:
195,275,92367,1,2,1:2:0:0:
294,170,92554,1,0,1:2:0:0:
286,349,92742,1,10,0:2:0:0:
464,249,92929,6,0,P|396:225|310:273,2,170,6|2|6,1:2|1:2|1:2,0:0:0:0:
134,111,94054,1,2,1:2:0:0:
188,200,94242,2,0,L|177:258,3,42.5,8|8|8|8,0:2|0:0|0:2|0:2,0:0:0:0:
239,113,94617,5,6,1:2:0:0:
269,302,94804,1,2,1:2:0:0:
410,164,94992,1,10,0:2:0:0:
364,384,95179,1,2,1:2:0:0:
319,174,95367,5,8,0:2:0:0:
512,272,95554,1,2,1:2:0:0:
422,59,95742,1,10,0:2:0:0:
378,319,95929,1,2,1:2:0:0:
302,176,96117,6,0,L|180:178,1,85,8|2,0:2|1:2,0:0:0:0:
76,184,96492,1,10,0:2:0:0:
147,89,96679,1,2,1:2:0:0:
155,338,96867,5,10,0:2:0:0:
220,159,97054,1,2,1:2:0:0:
317,314,97242,1,10,0:2:0:0:
349,83,97429,1,2,1:2:0:0:
461,200,97617,6,0,L|352:193,1,85,8|2,0:2|1:2,0:0:0:0:
151,32,97992,1,10,0:2:0:0:
374,87,98179,1,2,1:2:0:0:
68,82,98367,6,0,L|105:188,1,85,10|0,0:2|1:2,0:0:0:0:
200,384,98742,1,10,0:2:0:0:
85,244,98929,2,0,P|41:237|0:250,1,85,6|0,1:2|0:0,0:0:0:0:
50,332,99304,1,2,1:2:0:0:
170,126,99492,1,2,0:2:0:0:
197,305,99679,2,0,L|392:306,1,170,6|0,1:2|3:0,0:0:0:0:
393,306,100148,1,0,0:0:0:0:
393,306,100242,1,0,3:0:0:0:
369,89,100617,5,2,0:2:0:0:
334,168,100804,1,0,0:2:0:0:
283,98,100992,1,2,0:2:0:0:
248,178,101179,1,2,0:2:0:0:
197,107,101367,1,0,0:2:0:0:
162,187,101554,5,10,0:3:0:0:
232,28,101742,1,0,0:2:0:0:
260,282,101929,1,6,1:2:0:0:
256,192,102023,12,0,103617,0:2:0:0:
