osu file format v14

[General]
AudioFilename: audio.mp3
AudioLeadIn: 0
PreviewTime: 70056
Countdown: 0
SampleSet: Normal
StackLeniency: 0.7
Mode: 1
LetterboxInBreaks: 0
WidescreenStoryboard: 0

[Editor]
Bookmarks: 220,39564,71039,102515,118252,133990,165465
DistanceSpacing: 0.9
BeatDivisor: 4
GridSize: 32
TimelineZoom: 1

[Metadata]
Title:Onlyfans
TitleUnicode:Onlyfans
Artist:Katja Krasavice
ArtistUnicode:Katja Krasavice
Creator:Chromoxx
Version:Onifans feat. Greenshell
Source:
Tags:ak1o akio greenshell nwolf liku pussy power rap hip hop hiphop hip-hop german deutsch
BeatmapID:3554308
BeatmapSetID:1739084

[Difficulty]
HPDrainRate:6
CircleSize:6.9
OverallDifficulty:6
ApproachRate:6.9
SliderMultiplier:1.4
SliderTickRate:1

[Events]
//Background and Video events
0,0,"bg.jpeg",0,5
//Break Periods
//Storyboard Layer 0 (Background)
//Storyboard Layer 1 (Fail)
//Storyboard Layer 2 (Pass)
//Storyboard Layer 3 (Foreground)
//Storyboard Layer 4 (Overlay)
//Storyboard Sound Samples

[TimingPoints]
220,491.803278688525,4,1,0,60,1,0
220,-100,4,1,0,60,0,0
8027,-100,4,1,0,70,0,0
23765,-100,4,1,0,80,0,0
39502,-100,4,1,0,70,0,0
47371,-100,4,1,0,75,0,0
55240,-100,4,1,0,80,0,0
63109,-100,4,1,0,70,0,0
70978,-100,4,1,0,90,0,0
71039,-100,4,1,0,90,0,1
102453,-100,4,1,0,70,0,1
102515,-100,4,1,0,70,0,0
110322,-100,4,1,0,75,0,0
118191,-100,4,1,0,80,0,0
126060,-100,4,1,0,70,0,0
133929,-100,4,1,0,90,0,0
133990,-100,4,1,0,90,0,1
165404,-100,4,1,0,80,0,1
165465,-100,4,1,0,80,0,0

[HitObjects]
404,245,220,5,8,0:0:0:0:
211,232,957,1,8,0:0:0:0:
184,212,2187,1,0,0:0:0:0:
184,212,2924,1,0,0:0:0:0:
236,187,4154,1,8,0:0:0:0:
222,248,4892,1,0,0:0:0:0:
222,248,6121,1,0,0:0:0:0:
222,248,6859,1,8,0:0:0:0:
150,220,8088,1,0,0:0:0:0:
281,212,8580,1,8,0:0:0:0:
281,212,8826,1,0,0:0:0:0:
281,212,9564,1,8,0:0:0:0:
231,161,9810,1,8,0:0:0:0:
231,161,10056,1,0,0:0:0:0:
202,204,10547,1,8,0:0:0:0:
277,274,10793,1,0,0:0:0:0:
277,274,11531,1,8,0:0:0:0:
219,236,11777,1,0,0:0:0:0:
219,236,12023,1,8,0:0:0:0:
178,166,12269,1,8,0:0:0:0:
225,201,12515,1,0,0:0:0:0:
133,224,12760,1,0,0:0:0:0:
137,200,13006,1,8,0:0:0:0:
229,187,13498,1,0,0:0:0:0:
229,187,13744,1,0,0:0:0:0:
229,187,13990,1,8,0:0:0:0:
241,170,14482,1,0,0:0:0:0:
237,290,14728,1,8,0:0:0:0:
190,262,15220,1,0,0:0:0:0:
241,170,15465,1,8,0:0:0:0:
240,168,15711,1,8,0:0:0:0:
241,170,15957,1,0,0:0:0:0:
241,170,16449,1,8,0:0:0:0:
240,168,16695,1,0,0:0:0:0:
241,170,17433,1,8,0:0:0:0:
240,168,17679,1,8,0:0:0:0:
241,170,17924,1,0,0:0:0:0:
241,170,18416,1,8,0:0:0:0:
255,257,18662,1,0,0:0:0:0:
255,257,19400,1,8,0:0:0:0:
149,151,19646,1,0,0:0:0:0:
149,151,19892,1,8,0:0:0:0:
278,237,20138,1,8,0:0:0:0:
136,254,20383,1,0,0:0:0:0:
212,157,20629,1,0,0:0:0:0:
237,204,20875,1,8,0:0:0:0:
182,172,21121,1,0,0:0:0:0:
136,254,21367,1,0,0:0:0:0:
136,254,21613,1,8,0:0:0:0:
133,137,21859,1,0,0:0:0:0:
293,248,22351,1,0,0:0:0:0:
293,248,22597,1,8,0:0:0:0:
274,238,23088,1,0,0:0:0:0:
274,238,23334,1,8,0:0:0:0:
274,238,23580,1,8,0:0:0:0:
264,246,23826,1,4,0:0:0:0:
250,246,24072,1,8,0:0:0:0:
204,234,24195,1,0,0:0:0:0:
204,234,24441,1,0,0:0:0:0:
225,214,24564,1,8,0:0:0:0:
261,215,24810,1,0,0:0:0:0:
215,184,25056,1,8,0:0:0:0:
215,184,25301,1,8,0:0:0:0:
253,178,25547,1,0,0:0:0:0:
329,210,25793,1,8,0:0:0:0:
329,210,25916,1,0,0:0:0:0:
329,210,26039,1,0,0:0:0:0:
329,210,26162,1,8,0:0:0:0:
329,210,26408,1,8,0:0:0:0:
329,210,26531,1,0,0:0:0:0:
329,210,26777,1,8,0:0:0:0:
248,269,27023,1,0,0:0:0:0:
248,269,27269,1,0,0:0:0:0:
248,269,27515,1,8,0:0:0:0:
224,258,27760,1,0,0:0:0:0:
224,258,27883,1,8,0:0:0:0:
109,132,28006,1,8,0:0:0:0:
109,132,28129,1,0,0:0:0:0:
109,132,28375,1,0,0:0:0:0:
109,132,28498,1,8,0:0:0:0:
240,304,28744,1,0,0:0:0:0:
240,304,28990,1,0,0:0:0:0:
240,304,29236,1,8,0:0:0:0:
26,176,29482,1,8,0:0:0:0:
239,117,29564,1,8,0:0:0:0:
239,117,29646,1,8,0:0:0:0:
144,184,29728,1,0,0:0:0:0:
373,248,30220,1,8,0:0:0:0:
323,240,30465,1,0,0:0:0:0:
323,240,30588,1,8,0:0:0:0:
323,240,30834,1,8,0:0:0:0:
323,240,30957,1,0,0:0:0:0:
273,237,31203,1,8,0:0:0:0:
273,237,31326,1,8,0:0:0:0:
273,237,31449,1,8,0:0:0:0:
272,294,31695,1,4,0:0:0:0:
190,271,32187,1,8,0:0:0:0:
349,137,32433,1,0,0:0:0:0:
349,137,32556,1,0,0:0:0:0:
269,125,32679,1,8,0:0:0:0:
269,125,32924,1,0,0:0:0:0:
269,125,33170,1,8,0:0:0:0:
269,125,33293,1,8,0:0:0:0:
196,159,33416,1,8,0:0:0:0:
196,159,33662,1,0,0:0:0:0:
196,159,34031,1,0,0:0:0:0:
216,141,34154,1,8,0:0:0:0:
216,141,34400,1,0,0:0:0:0:
216,141,34646,1,8,0:0:0:0:
216,141,34769,1,0,0:0:0:0:
201,146,34892,1,0,0:0:0:0:
201,146,35138,1,8,0:0:0:0:
201,146,35383,1,8,0:0:0:0:
240,205,35629,1,0,0:0:0:0:
240,205,35752,1,0,0:0:0:0:
227,185,35875,1,8,0:0:0:0:
226,184,35998,1,0,0:0:0:0:
226,184,36121,1,8,0:0:0:0:
211,195,36367,1,0,0:0:0:0:
211,195,36613,1,8,0:0:0:0:
235,232,36859,1,8,0:0:0:0:
235,232,36982,1,8,0:0:0:0:
217,200,37105,1,0,0:0:0:0:
217,200,37351,1,0,0:0:0:0:
204,154,37433,1,0,0:0:0:0:
125,96,37515,1,0,0:0:0:0:
331,199,37597,1,8,0:0:0:0:
274,272,37842,1,0,0:0:0:0:
274,272,38088,1,8,0:0:0:0:
231,269,38334,1,0,0:0:0:0:
231,269,38457,1,8,0:0:0:0:
208,269,38703,1,8,0:0:0:0:
183,258,38826,1,0,0:0:0:0:
230,255,38949,1,0,0:0:0:0:
192,250,39072,1,8,0:0:0:0:
183,258,39318,1,8,0:0:0:0:
192,250,39564,1,0,0:0:0:0:
97,89,40056,1,8,0:0:0:0:
81,96,40301,1,0,0:0:0:0:
69,106,40547,1,0,0:0:0:0:
60,118,41039,1,8,0:0:0:0:
50,132,41285,1,0,0:0:0:0:
45,145,41531,1,8,0:0:0:0:
41,151,41777,1,8,0:0:0:0:
41,157,42023,1,0,0:0:0:0:
39,169,42269,1,8,0:0:0:0:
39,181,42515,1,0,0:0:0:0:
40,193,43006,1,0,0:0:0:0:
43,204,43252,1,0,0:0:0:0:
46,218,43498,1,8,0:0:0:0:
48,222,43744,1,0,0:0:0:0:
54,228,43990,1,8,0:0:0:0:
64,234,44236,1,8,0:0:0:0:
77,241,44482,1,0,0:0:0:0:
90,246,44974,1,0,0:0:0:0:
103,245,45220,1,8,0:0:0:0:
117,244,45465,1,0,0:0:0:0:
126,244,45711,1,8,0:0:0:0:
131,241,45957,1,0,0:0:0:0:
140,237,46203,1,8,0:0:0:0:
152,234,46449,1,8,0:0:0:0:
160,226,46941,1,0,0:0:0:0:
168,221,47187,1,8,0:0:0:0:
177,212,47433,1,8,0:0:0:0:
190,179,47679,1,0,0:0:0:0:
192,173,47801,1,0,0:0:0:0:
181,204,47924,1,8,0:0:0:0:
187,195,48170,1,8,0:0:0:0:
191,185,48416,1,0,0:0:0:0:
194,172,48662,1,8,0:0:0:0:
198,180,48908,1,0,0:0:0:0:
204,193,49154,1,0,0:0:0:0:
209,200,49400,1,8,0:0:0:0:
206,195,49646,1,8,0:0:0:0:
205,195,49769,1,8,0:0:0:0:
206,203,49892,1,0,0:0:0:0:
217,211,50138,1,8,0:0:0:0:
221,220,50383,1,0,0:0:0:0:
235,236,50875,1,8,0:0:0:0:
242,242,51121,1,0,0:0:0:0:
249,245,51367,1,8,0:0:0:0:
259,249,51613,1,8,0:0:0:0:
266,249,51736,1,8,0:0:0:0:
273,251,51859,1,0,0:0:0:0:
288,251,52105,1,8,0:0:0:0:
304,249,52351,1,0,0:0:0:0:
315,246,52597,1,0,0:0:0:0:
325,239,52842,1,8,0:0:0:0:
330,229,53088,1,0,0:0:0:0:
333,223,53170,1,0,0:0:0:0:
337,214,53252,1,0,0:0:0:0:
340,200,53334,1,8,0:0:0:0:
342,186,53580,1,0,0:0:0:0:
342,170,53826,1,8,0:0:0:0:
341,156,54072,1,0,0:0:0:0:
338,147,54195,1,8,0:0:0:0:
336,136,54441,1,8,0:0:0:0:
331,120,54810,1,8,0:0:0:0:
327,110,55056,1,0,0:0:0:0:
321,100,55301,1,4,0:0:0:0:
264,79,55548,1,8,0:0:0:0:
238,61,55670,1,0,0:0:0:0:
207,54,55916,1,0,0:0:0:0:
176,58,56039,1,8,0:0:0:0:
151,76,56285,1,8,0:0:0:0:
149,107,56531,1,0,0:0:0:0:
157,120,56654,1,0,0:0:0:0:
166,133,56777,1,8,0:0:0:0:
189,154,57023,1,8,0:0:0:0:
214,174,57269,1,0,0:0:0:0:
237,195,57392,1,0,0:0:0:0:
258,218,57515,1,8,0:0:0:0:
270,247,57638,1,8,0:0:0:0:
259,275,57883,1,8,0:0:0:0:
230,287,58006,1,0,0:0:0:0:
199,287,58252,1,8,0:0:0:0:
181,286,58375,1,8,0:0:0:0:
168,279,58498,1,0,0:0:0:0:
141,263,58744,1,8,0:0:0:0:
119,248,58990,1,0,0:0:0:0:
217,16,59237,1,8,0:0:0:0:
214,33,59359,1,0,0:0:0:0:
212,50,59482,1,0,0:0:0:0:
210,68,59605,1,8,0:0:0:0:
207,85,59851,1,0,0:0:0:0:
205,102,59974,1,8,0:0:0:0:
203,120,60219,1,0,0:0:0:0:
201,131,60342,1,0,0:0:0:0:
201,137,60465,1,8,0:0:0:0:
198,154,60711,1,0,0:0:0:0:
196,172,60957,1,8,0:0:0:0:
194,189,61039,1,8,0:0:0:0:
192,206,61121,1,8,0:0:0:0:
189,224,61203,1,0,0:0:0:0:
187,241,61695,1,8,0:0:0:0:
185,258,61941,1,0,0:0:0:0:
182,276,62064,1,8,0:0:0:0:
180,293,62310,1,8,0:0:0:0:
178,310,62433,1,0,0:0:0:0:
176,328,62679,1,8,0:0:0:0:
320,269,63170,1,0,0:0:0:0:
289,251,63539,1,0,0:0:0:0:
275,240,63785,1,8,0:0:0:0:
262,229,63908,1,0,0:0:0:0:
240,202,64154,1,8,0:0:0:0:
228,169,64646,1,8,0:0:0:0:
231,135,64892,1,8,0:0:0:0:
252,108,65138,1,0,0:0:0:0:
286,101,65506,1,8,0:0:0:0:
306,108,65752,1,0,0:0:0:0:
316,116,65875,1,8,0:0:0:0:
322,131,66121,1,0,0:0:0:0:
333,132,66613,1,0,0:0:0:0:
342,117,66859,1,0,0:0:0:0:
375,108,67105,1,8,0:0:0:0:
390,113,67351,1,0,0:0:0:0:
405,125,67597,1,8,0:0:0:0:
419,157,67843,1,8,0:0:0:0:
416,191,68089,1,0,0:0:0:0:
396,220,68335,1,8,0:0:0:0:
369,241,68580,1,0,0:0:0:0:
339,259,68826,1,8,0:0:0:0:
256,192,69072,12,0,70547,0:0:0:0:
85,206,71039,5,4,0:0:0:0:
291,266,71531,1,8,0:0:0:0:
291,266,71777,1,0,0:0:0:0:
242,122,71900,1,8,0:0:0:0:
225,262,72146,1,8,0:0:0:0:
157,205,72269,1,0,0:0:0:0:
157,205,72515,1,8,0:0:0:0:
199,274,72638,1,0,0:0:0:0:
199,274,72760,1,8,0:0:0:0:
253,259,73006,1,0,0:0:0:0:
233,273,73252,1,0,0:0:0:0:
233,273,73375,1,0,0:0:0:0:
203,199,73498,1,8,0:0:0:0:
225,174,73744,1,8,0:0:0:0:
196,143,73867,1,0,0:0:0:0:
176,209,74113,1,0,0:0:0:0:
170,189,74236,1,8,0:0:0:0:
170,186,74359,1,8,0:0:0:0:
170,186,74482,1,0,0:0:0:0:
170,186,74728,1,0,0:0:0:0:
321,103,74974,1,8,0:0:0:0:
309,106,75097,1,0,0:0:0:0:
275,106,75220,1,8,0:0:0:0:
275,106,75342,1,8,0:0:0:0:
275,106,75465,1,0,0:0:0:0:
269,140,75711,1,0,0:0:0:0:
256,239,75957,1,8,0:0:0:0:
166,197,76203,1,0,0:0:0:0:
166,197,76326,1,8,0:0:0:0:
92,102,76572,1,8,0:0:0:0:
320,86,76695,1,0,0:0:0:0:
320,86,76777,1,0,0:0:0:0:
312,82,76859,1,0,0:0:0:0:
312,81,76941,1,8,0:0:0:0:
254,157,77187,1,0,0:0:0:0:
254,157,77433,1,8,0:0:0:0:
228,187,77679,1,0,0:0:0:0:
206,156,77801,1,8,0:0:0:0:
206,156,78047,1,8,0:0:0:0:
198,147,78170,1,0,0:0:0:0:
207,169,78293,1,0,0:0:0:0:
233,146,78416,1,8,0:0:0:0:
238,140,78539,1,8,0:0:0:0:
238,140,78662,1,0,0:0:0:0:
238,140,78908,1,12,0:0:0:0:
291,266,79400,1,0,0:0:0:0:
242,122,79646,1,8,0:0:0:0:
291,266,79769,1,0,0:0:0:0:
157,205,80015,1,0,0:0:0:0:
225,262,80138,1,8,0:0:0:0:
157,205,80384,1,0,0:0:0:0:
199,274,80507,1,8,0:0:0:0:
199,274,80629,1,0,0:0:0:0:
253,259,80875,1,8,0:0:0:0:
233,273,81121,1,8,0:0:0:0:
233,273,81244,1,8,0:0:0:0:
203,199,81367,1,0,0:0:0:0:
196,143,81613,1,0,0:0:0:0:
225,174,81736,1,8,0:0:0:0:
176,209,81982,1,8,0:0:0:0:
170,189,82105,1,0,0:0:0:0:
170,186,82228,1,0,0:0:0:0:
170,186,82351,1,8,0:0:0:0:
170,186,82597,1,8,0:0:0:0:
321,103,82843,1,0,0:0:0:0:
309,106,82966,1,8,0:0:0:0:
275,106,83089,1,0,0:0:0:0:
275,106,83211,1,0,0:0:0:0:
275,106,83334,1,8,0:0:0:0:
269,140,83580,1,8,0:0:0:0:
256,239,83826,1,0,0:0:0:0:
166,197,84072,1,8,0:0:0:0:
166,197,84195,1,0,0:0:0:0:
92,102,84441,1,0,0:0:0:0:
320,86,84564,1,8,0:0:0:0:
320,86,84646,1,8,0:0:0:0:
312,82,84728,1,8,0:0:0:0:
312,81,84810,1,0,0:0:0:0:
254,157,85056,1,8,0:0:0:0:
254,157,85302,1,0,0:0:0:0:
228,187,85548,1,8,0:0:0:0:
206,156,85670,1,0,0:0:0:0:
206,156,85916,1,0,0:0:0:0:
198,147,86039,1,8,0:0:0:0:
207,169,86162,1,8,0:0:0:0:
233,146,86285,1,0,0:0:0:0:
238,140,86408,1,0,0:0:0:0:
238,140,86531,1,8,0:0:0:0:
238,140,86777,1,4,0:0:0:0:
322,216,87023,1,8,0:0:0:0:
322,216,87146,1,0,0:0:0:0:
322,216,87392,1,0,0:0:0:0:
153,286,87515,1,0,0:0:0:0:
191,274,87638,1,8,0:0:0:0:
194,267,87883,1,8,0:0:0:0:
191,284,88006,1,0,0:0:0:0:
191,284,88252,1,8,0:0:0:0:
191,284,88498,1,8,0:0:0:0:
250,277,88744,1,0,0:0:0:0:
245,276,88867,1,8,0:0:0:0:
226,274,88990,1,8,0:0:0:0:
193,264,89113,1,0,0:0:0:0:
193,271,89359,1,0,0:0:0:0:
236,282,89482,1,8,0:0:0:0:
199,184,89605,1,0,0:0:0:0:
199,184,89851,1,0,0:0:0:0:
199,184,89974,1,8,0:0:0:0:
250,206,90220,1,0,0:0:0:0:
250,206,90465,1,0,0:0:0:0:
352,258,90711,1,8,0:0:0:0:
303,249,90834,1,0,0:0:0:0:
303,249,90957,1,0,0:0:0:0:
303,249,91080,1,8,0:0:0:0:
204,249,91326,1,8,0:0:0:0:
238,256,91449,1,0,0:0:0:0:
238,256,91572,1,8,0:0:0:0:
238,256,91818,1,8,0:0:0:0:
238,256,91941,1,0,0:0:0:0:
294,249,92064,1,0,0:0:0:0:
322,248,92187,1,8,0:0:0:0:
364,257,92310,1,8,0:0:0:0:
146,211,92433,1,0,0:0:0:0:
146,211,92515,1,0,0:0:0:0:
146,211,92597,1,0,0:0:0:0:
146,211,92679,1,8,0:0:0:0:
204,273,92924,1,0,0:0:0:0:
210,232,93170,1,8,0:0:0:0:
310,262,93416,1,0,0:0:0:0:
310,262,93539,1,8,0:0:0:0:
310,262,93785,1,8,0:0:0:0:
310,262,93908,1,0,0:0:0:0:
249,301,94031,1,0,0:0:0:0:
207,263,94154,1,8,0:0:0:0:
183,249,94277,1,0,0:0:0:0:
178,247,94400,1,8,0:0:0:0:
269,217,94646,1,4,0:0:0:0:
291,266,95138,1,8,0:0:0:0:
291,266,95384,1,0,0:0:0:0:
242,122,95507,1,8,0:0:0:0:
225,262,95753,1,8,0:0:0:0:
157,205,95876,1,0,0:0:0:0:
157,205,96122,1,8,0:0:0:0:
199,274,96245,1,0,0:0:0:0:
199,274,96367,1,8,0:0:0:0:
253,259,96613,1,0,0:0:0:0:
233,273,96859,1,0,0:0:0:0:
233,273,96982,1,0,0:0:0:0:
203,199,97105,1,8,0:0:0:0:
225,174,97351,1,8,0:0:0:0:
196,143,97474,1,0,0:0:0:0:
176,209,97720,1,0,0:0:0:0:
170,189,97843,1,8,0:0:0:0:
170,186,97966,1,8,0:0:0:0:
170,186,98089,1,0,0:0:0:0:
170,186,98335,1,0,0:0:0:0:
321,103,98581,1,8,0:0:0:0:
309,106,98704,1,0,0:0:0:0:
275,106,98827,1,8,0:0:0:0:
275,106,98949,1,8,0:0:0:0:
275,106,99072,1,0,0:0:0:0:
269,140,99318,1,0,0:0:0:0:
256,239,99564,1,8,0:0:0:0:
166,197,99810,1,0,0:0:0:0:
166,197,99933,1,8,0:0:0:0:
92,102,100179,1,8,0:0:0:0:
320,86,100302,1,0,0:0:0:0:
320,86,100384,1,0,0:0:0:0:
312,82,100466,1,0,0:0:0:0:
312,81,100548,1,8,0:0:0:0:
254,157,100794,1,0,0:0:0:0:
254,157,101040,1,8,0:0:0:0:
228,187,101286,1,0,0:0:0:0:
206,156,101408,1,8,0:0:0:0:
206,156,101654,1,8,0:0:0:0:
146,160,101777,1,0,0:0:0:0:
138,148,102023,1,8,0:0:0:0:
60,97,102515,1,0,0:0:0:0:
86,119,102760,1,8,0:0:0:0:
108,147,103006,1,0,0:0:0:0:
122,179,103252,1,0,0:0:0:0:
124,213,103498,1,8,0:0:0:0:
114,246,104482,1,8,0:0:0:0:
90,271,104728,1,0,0:0:0:0:
57,271,104974,1,8,0:0:0:0:
50,238,105220,1,8,0:0:0:0:
55,204,105466,1,0,0:0:0:0:
62,170,106203,1,0,0:0:0:0:
65,135,106449,1,8,0:0:0:0:
59,100,106695,1,8,0:0:0:0:
152,35,106941,1,0,0:0:0:0:
186,27,107187,1,8,0:0:0:0:
220,26,107433,1,0,0:0:0:0:
255,33,107679,1,0,0:0:0:0:
284,51,107924,1,8,0:0:0:0:
305,79,108170,1,0,0:0:0:0:
311,113,108416,1,8,0:0:0:0:
292,140,108662,1,8,0:0:0:0:
261,127,108908,1,0,0:0:0:0:
236,102,109154,1,8,0:0:0:0:
213,76,109400,1,0,0:0:0:0:
186,53,109892,1,0,0:0:0:0:
155,38,110138,1,0,0:0:0:0:
126,116,110383,1,8,0:0:0:0:
160,121,110629,1,0,0:0:0:0:
193,133,110752,1,0,0:0:0:0:
222,152,110875,1,8,0:0:0:0:
243,180,111121,1,8,0:0:0:0:
251,214,111367,1,0,0:0:0:0:
244,248,111613,1,8,0:0:0:0:
216,265,111859,1,0,0:0:0:0:
192,241,112351,1,0,0:0:0:0:
179,209,112597,1,8,0:0:0:0:
167,176,112720,1,0,0:0:0:0:
150,145,112842,1,8,0:0:0:0:
127,119,113088,1,8,0:0:0:0:
30,143,113334,1,0,0:0:0:0:
58,162,113579,1,8,0:0:0:0:
83,187,113825,1,0,0:0:0:0:
100,218,114071,1,0,0:0:0:0:
106,252,114317,1,8,0:0:0:0:
99,286,114564,1,0,0:0:0:0:
78,313,114687,1,0,0:0:0:0:
46,317,114810,1,8,0:0:0:0:
35,285,115056,1,8,0:0:0:0:
37,250,115301,1,0,0:0:0:0:
40,215,115547,1,8,0:0:0:0:
39,180,115793,1,0,0:0:0:0:
30,146,116039,1,8,0:0:0:0:
115,72,116121,1,0,0:0:0:0:
148,60,116203,1,0,0:0:0:0:
182,55,116285,1,8,0:0:0:0:
217,59,116531,1,0,0:0:0:0:
248,74,116654,1,0,0:0:0:0:
272,100,116777,1,8,0:0:0:0:
281,133,117023,1,0,0:0:0:0:
265,161,117146,1,8,0:0:0:0:
233,151,117392,1,8,0:0:0:0:
206,129,117515,1,0,0:0:0:0:
180,106,117760,1,8,0:0:0:0:
150,86,118006,1,0,0:0:0:0:
118,74,118252,1,4,0:0:0:0:
291,215,118498,1,0,0:0:0:0:
291,215,118621,1,8,0:0:0:0:
279,218,118867,1,0,0:0:0:0:
272,218,118990,1,8,0:0:0:0:
272,218,119236,1,0,0:0:0:0:
166,235,119482,1,0,0:0:0:0:
231,290,119728,1,8,0:0:0:0:
217,287,119851,1,8,0:0:0:0:
188,267,119974,1,0,0:0:0:0:
188,267,120220,1,8,0:0:0:0:
240,299,120465,1,8,0:0:0:0:
214,243,120588,1,0,0:0:0:0:
222,237,120834,1,8,0:0:0:0:
222,238,120957,1,0,0:0:0:0:
189,145,121080,1,0,0:0:0:0:
189,145,121203,1,8,0:0:0:0:
189,145,121449,1,0,0:0:0:0:
258,257,121695,1,8,0:0:0:0:
206,229,121818,1,0,0:0:0:0:
186,223,121941,1,8,0:0:0:0:
283,166,122187,1,0,0:0:0:0:
283,166,122310,1,8,0:0:0:0:
283,166,122433,1,8,0:0:0:0:
283,166,122556,1,0,0:0:0:0:
283,166,122801,1,0,0:0:0:0:
283,166,122924,1,8,0:0:0:0:
369,313,123170,1,0,0:0:0:0:
187,270,123293,1,8,0:0:0:0:
256,300,123416,1,0,0:0:0:0:
168,234,123539,1,0,0:0:0:0:
277,224,123662,1,8,0:0:0:0:
261,140,123908,1,8,0:0:0:0:
195,139,123990,1,8,0:0:0:0:
145,121,124072,1,8,0:0:0:0:
91,105,124154,1,0,0:0:0:0:
200,281,124400,1,0,0:0:0:0:
200,281,124646,1,8,0:0:0:0:
266,232,124892,1,0,0:0:0:0:
231,216,125015,1,8,0:0:0:0:
206,206,125260,1,8,0:0:0:0:
240,177,125383,1,0,0:0:0:0:
240,177,125629,1,8,0:0:0:0:
272,209,126121,1,0,0:0:0:0:
334,264,126490,1,0,0:0:0:0:
225,111,126736,1,0,0:0:0:0:
88,161,126859,1,0,0:0:0:0:
334,264,127105,1,8,0:0:0:0:
233,264,127351,1,8,0:0:0:0:
233,264,127597,1,0,0:0:0:0:
169,137,127842,1,0,0:0:0:0:
170,268,128088,1,8,0:0:0:0:
253,214,128457,1,8,0:0:0:0:
253,214,128703,1,8,0:0:0:0:
234,237,128826,1,8,0:0:0:0:
247,218,129072,1,0,0:0:0:0:
202,222,129318,1,0,0:0:0:0:
224,281,129564,1,8,0:0:0:0:
224,281,129810,1,0,0:0:0:0:
280,188,130056,1,8,0:0:0:0:
181,89,130547,1,0,0:0:0:0:
280,188,130793,1,8,0:0:0:0:
203,210,131039,1,0,0:0:0:0:
203,210,131285,1,0,0:0:0:0:
203,210,131531,1,8,0:0:0:0:
189,160,131777,1,8,0:0:0:0:
213,232,132023,1,0,0:0:0:0:
235,233,133006,1,0,0:0:0:0:
235,233,133252,1,0,0:0:0:0:
235,233,133498,1,8,0:0:0:0:
235,233,133744,1,8,0:0:0:0:
152,80,133990,1,4,0:0:0:0:
20,62,134359,1,0,0:0:0:0:
24,54,134482,1,8,0:0:0:0:
30,48,134728,1,0,0:0:0:0:
37,44,134851,1,0,0:0:0:0:
47,41,134974,1,8,0:0:0:0:
55,42,135097,1,8,0:0:0:0:
63,45,135220,1,0,0:0:0:0:
69,51,135465,1,8,0:0:0:0:
73,58,135711,1,8,0:0:0:0:
73,67,135834,1,8,0:0:0:0:
70,75,135957,1,0,0:0:0:0:
66,83,136080,1,8,0:0:0:0:
56,97,136326,1,8,0:0:0:0:
62,90,136449,1,0,0:0:0:0:
44,110,136695,1,8,0:0:0:0:
50,104,136818,1,0,0:0:0:0:
38,116,136941,1,8,0:0:0:0:
31,122,137064,1,8,0:0:0:0:
25,127,137187,1,0,0:0:0:0:
20,132,137433,1,8,0:0:0:0:
29,132,137556,1,0,0:0:0:0:
37,133,137678,1,0,0:0:0:0:
47,133,137801,1,8,0:0:0:0:
55,133,137924,1,0,0:0:0:0:
63,133,138170,1,0,0:0:0:0:
73,133,138293,1,0,0:0:0:0:
149,142,138416,1,8,0:0:0:0:
149,134,138662,1,8,0:0:0:0:
149,126,138908,1,0,0:0:0:0:
149,118,139031,1,8,0:0:0:0:
149,110,139277,1,0,0:0:0:0:
149,102,139400,1,8,0:0:0:0:
149,94,139523,1,0,0:0:0:0:
149,86,139646,1,8,0:0:0:0:
149,78,139728,1,8,0:0:0:0:
149,71,139810,1,8,0:0:0:0:
149,63,139892,1,0,0:0:0:0:
149,55,140138,1,0,0:0:0:0:
149,47,140383,1,8,0:0:0:0:
149,39,140629,1,0,0:0:0:0:
146,40,140752,1,8,0:0:0:0:
141,45,140998,1,8,0:0:0:0:
137,52,141121,1,0,0:0:0:0:
132,59,141244,1,0,0:0:0:0:
128,65,141367,1,8,0:0:0:0:
122,71,141491,1,0,0:0:0:0:
117,78,141614,1,8,0:0:0:0:
112,83,141859,1,12,0:0:0:0:
106,89,142228,1,8,0:0:0:0:
104,94,142351,1,0,0:0:0:0:
112,94,142596,1,8,0:0:0:0:
120,94,142719,1,8,0:0:0:0:
128,94,142842,1,0,0:0:0:0:
135,94,142965,1,0,0:0:0:0:
143,94,143088,1,8,0:0:0:0:
151,94,143334,1,0,0:0:0:0:
160,94,143581,1,0,0:0:0:0:
167,94,143704,1,0,0:0:0:0:
178,139,143826,1,8,0:0:0:0:
176,147,143948,1,0,0:0:0:0:
171,163,144195,1,0,0:0:0:0:
175,155,144318,1,8,0:0:0:0:
226,139,144564,1,0,0:0:0:0:
233,135,144686,1,8,0:0:0:0:
239,132,144809,1,0,0:0:0:0:
246,126,144932,1,0,0:0:0:0:
250,120,145055,1,8,0:0:0:0:
254,113,145301,1,0,0:0:0:0:
258,106,145424,1,8,0:0:0:0:
262,99,145547,1,8,0:0:0:0:
263,92,145670,1,0,0:0:0:0:
265,83,145793,1,8,0:0:0:0:
266,77,146039,1,8,0:0:0:0:
266,68,146162,1,8,0:0:0:0:
264,61,146285,1,0,0:0:0:0:
261,53,146531,1,0,0:0:0:0:
257,47,146777,1,8,0:0:0:0:
250,43,146900,1,0,0:0:0:0:
242,40,147146,1,8,0:0:0:0:
236,40,147269,1,0,0:0:0:0:
228,44,147392,1,8,0:0:0:0:
221,48,147515,1,0,0:0:0:0:
217,54,147597,1,0,0:0:0:0:
214,62,147679,1,0,0:0:0:0:
214,69,147760,1,8,0:0:0:0:
215,78,148006,1,8,0:0:0:0:
220,83,148252,1,0,0:0:0:0:
226,89,148498,1,8,0:0:0:0:
233,90,148621,1,0,0:0:0:0:
241,91,148867,1,0,0:0:0:0:
249,90,148990,1,8,0:0:0:0:
257,88,149113,1,8,0:0:0:0:
263,84,149236,1,0,0:0:0:0:
324,140,149360,1,8,0:0:0:0:
332,137,149482,1,0,0:0:0:0:
337,132,149728,1,4,0:0:0:0:
344,127,149974,1,8,0:0:0:0:
349,121,150097,1,0,0:0:0:0:
353,115,150342,1,0,0:0:0:0:
360,100,150465,1,8,0:0:0:0:
357,108,150588,1,0,0:0:0:0:
364,86,150834,1,0,0:0:0:0:
361,94,150957,1,8,0:0:0:0:
365,70,151080,1,8,0:0:0:0:
365,78,151203,1,0,0:0:0:0:
362,62,151326,1,8,0:0:0:0:
360,56,151449,1,0,0:0:0:0:
355,49,151695,1,8,0:0:0:0:
349,45,151818,1,0,0:0:0:0:
341,41,151941,1,0,0:0:0:0:
333,42,152064,1,8,0:0:0:0:
326,45,152310,1,8,0:0:0:0:
320,50,152433,1,0,0:0:0:0:
315,56,152556,1,8,0:0:0:0:
312,63,152801,1,8,0:0:0:0:
312,71,152924,1,0,0:0:0:0:
318,85,153047,1,0,0:0:0:0:
314,78,153170,1,8,0:0:0:0:
324,89,153293,1,0,0:0:0:0:
332,92,153416,1,8,0:0:0:0:
339,93,153662,1,0,0:0:0:0:
348,92,153785,1,8,0:0:0:0:
355,89,153908,1,8,0:0:0:0:
361,86,154031,1,0,0:0:0:0:
509,51,154277,1,0,0:3:0:0:
491,45,154399,1,8,0:0:0:0:
473,45,154522,1,8,0:0:0:0:
457,53,154769,1,8,0:0:0:0:
444,66,154892,1,0,0:0:0:0:
438,83,155015,1,0,0:0:0:0:
438,101,155138,1,8,0:0:0:0:
445,118,155260,1,0,0:0:0:0:
457,131,155383,1,8,0:0:0:0:
474,139,155465,1,8,0:0:0:0:
491,139,155547,1,8,0:0:0:0:
509,133,155629,1,0,0:0:0:0:
411,106,155875,1,0,0:0:0:0:
420,106,156121,1,8,0:0:0:0:
427,106,156367,1,0,0:0:0:0:
435,106,156490,1,8,0:0:0:0:
443,106,156736,1,8,0:0:0:0:
451,106,156859,1,0,0:0:0:0:
458,106,156982,1,0,0:0:0:0:
466,106,157105,1,8,0:0:0:0:
474,106,157228,1,0,0:0:0:0:
411,76,157351,1,8,0:0:0:0:
420,76,157597,1,4,0:0:0:0:
427,76,157965,5,0,0:0:0:0:
435,76,158088,1,8,0:0:0:0:
443,76,158334,1,0,0:0:0:0:
451,76,158457,1,0,0:0:0:0:
458,76,158580,1,8,0:0:0:0:
466,76,158703,1,8,0:0:0:0:
474,76,158826,1,0,0:0:0:0:
333,231,159072,1,8,0:0:0:0:
333,259,159318,1,8,0:0:0:0:
333,287,159441,1,8,0:0:0:0:
324,311,159564,1,0,0:0:0:0:
301,328,159687,5,8,0:0:0:0:
278,344,159932,1,8,0:0:0:0:
353,314,160056,1,0,0:0:0:0:
373,328,160302,1,8,0:0:0:0:
394,343,160425,1,0,0:0:0:0:
317,222,160548,1,8,0:0:0:0:
300,228,160670,1,8,0:0:0:0:
284,239,160793,1,0,0:0:0:0:
271,252,161039,1,8,0:0:0:0:
261,269,161162,1,0,0:0:0:0:
256,286,161285,1,0,0:0:0:0:
255,305,161408,1,8,0:0:0:0:
258,324,161531,1,0,0:0:0:0:
265,341,161777,1,0,0:0:0:0:
275,357,161900,1,0,0:0:0:0:
289,369,162023,1,8,0:0:0:0:
306,378,162269,1,8,0:0:0:0:
324,383,162515,1,0,0:0:0:0:
343,384,162638,1,8,0:0:0:0:
361,381,162883,1,0,0:0:0:0:
379,373,163006,1,8,0:0:0:0:
394,362,163129,1,0,0:0:0:0:
406,347,163252,1,8,0:0:0:0:
415,331,163334,1,8,0:0:0:0:
419,312,163416,1,8,0:0:0:0:
419,294,163498,1,0,0:0:0:0:
415,275,163744,1,0,0:0:0:0:
407,258,163990,1,8,0:0:0:0:
396,243,164236,1,0,0:0:0:0:
381,232,164359,1,8,0:0:0:0:
364,224,164605,1,8,0:0:0:0:
345,220,164728,1,0,0:0:0:0:
338,304,164974,1,8,0:0:0:0:
338,304,165465,1,4,0:0:0:0:
261,210,165957,1,8,0:0:0:0:
261,210,166203,1,0,0:0:0:0:
261,210,166326,1,8,0:0:0:0:
284,279,166695,1,0,0:0:0:0:
284,279,166941,1,8,0:0:0:0:
185,253,167064,1,8,0:0:0:0:
218,220,167187,1,0,0:0:0:0:
218,220,167433,1,0,0:0:0:0:
212,191,167924,1,8,0:0:0:0:
212,191,168170,1,8,0:0:0:0:
184,186,168293,1,0,0:0:0:0:
192,231,168662,1,8,0:0:0:0:
192,231,168908,1,0,0:0:0:0:
213,216,169031,1,0,0:0:0:0:
213,222,169154,1,8,0:0:0:0:
213,222,169400,1,0,0:0:0:0:
284,272,169769,1,0,0:0:0:0:
250,196,169892,1,8,0:0:0:0:
250,196,170138,1,0,0:0:0:0:
239,212,170383,1,8,0:0:0:0:
309,186,170629,1,8,0:0:0:0:
271,279,170875,1,0,0:0:0:0:
345,216,171121,1,8,0:0:0:0:
345,216,171203,1,8,0:0:0:0:
345,216,171285,1,8,0:0:0:0:
345,216,171367,1,0,0:0:0:0:
268,212,171859,1,8,0:0:0:0:
268,212,172105,1,0,0:0:0:0:
