osu file format v14

[General]
AudioFilename: Kathou Mikijah - Otra Vez (TV Size).mp3
AudioLeadIn: 0
PreviewTime: 62046
Countdown: 0
SampleSet: None
StackLeniency: 0.2
Mode: 0
LetterboxInBreaks: 0
WidescreenStoryboard: 0

[Editor]
DistanceSpacing: 1.3
BeatDivisor: 4
GridSize: 4
TimelineZoom: 1

[Metadata]
Title:again (TV Size)
TitleUnicode:again (TV Size)
Artist:Kathou Mikijah
ArtistUnicode:Kathou Mikijah
Creator:Gero
Version:Experto
Source:鋼の錬金術師 FULLMETAL ALCHEMIST
Tags:Otra Vez YUI Brotherhood Opening Dariano
BeatmapID:1768293
BeatmapSetID:845391

[Difficulty]
HPDrainRate:7
CircleSize:4
OverallDifficulty:7
ApproachRate:9
SliderMultiplier:1.8
SliderTickRate:1

[Events]
//Background and Video events
0,0,"BG.jpg",0,0
Video,-1200,"Video.avi"
//Break Periods
//Storyboard Layer 0 (Background)
//Storyboard Layer 1 (Fail)
//Storyboard Layer 2 (Pass)
//Storyboard Layer 3 (Foreground)
//Storyboard Sound Samples

[TimingPoints]
618,428.571428571429,4,2,1,40,1,0
5975,-100,4,2,3,40,0,0
7046,-100,4,2,1,40,0,0
12153,428.571428571429,4,2,1,60,1,0
12596,428.571428571429,4,2,2,60,1,0
14953,-100,4,2,2,40,0,0
15596,-100,4,2,2,60,0,0
61453,-100,4,2,2,40,0,0
62310,-100,4,2,2,60,0,1
64667,-100,4,2,2,40,0,1
65310,-100,4,2,2,60,0,1
66381,-100,4,2,2,40,0,1
67024,-100,4,2,2,60,0,1
68738,-100,4,2,2,40,0,1
69167,-100,4,2,2,60,0,1
74096,-100,4,2,2,40,0,1
75917,-100,4,2,2,60,0,0
76024,-100,4,2,2,60,0,1
78381,-100,4,2,2,40,0,1
79024,-100,4,2,2,60,0,1
84596,-100,4,2,2,60,0,0
94881,-100,4,2,2,5,0,0

[Colours]
Combo1 : 255,150,100
Combo2 : 255,70,70
Combo3 : 255,255,128
Combo4 : 111,111,111
Combo5 : 36,146,255
Combo6 : 103,224,154
Combo7 : 157,157,206
Combo8 : 231,82,235
SliderBorder : 0,0,0

[HitObjects]
256,192,403,5,0,0:0:0:0:
340,276,618,2,0,P|256:304|172:276,1,180,2|0,0:0|0:0,0:0:0:0:
172,111,1260,2,0,P|256:84|340:112,1,180,2|0,0:0|0:0,0:0:0:0:
256,192,1903,1,8,0:0:0:0:
256,192,2118,1,0,0:0:0:0:
96,368,2332,6,0,P|76:328|32:304,1,90,2|0,0:0|0:0,0:0:0:0:
8,192,2760,1,0,0:0:0:0:
72,92,2975,2,0,L|260:52,1,180,2|0,0:0|0:0,0:0:0:0:
364,72,3618,1,8,0:0:0:0:
460,248,3832,5,0,0:0:0:0:
460,248,3939,1,0,0:0:0:0:
460,248,4046,2,0,P|460:296|440:332,1,90,2|0,0:0|0:0,0:0:0:0:
348,260,4475,2,0,P|348:212|368:176,1,90,0|2,0:0|0:0,0:0:0:0:
476,132,4903,1,0,0:0:0:0:
460,248,5118,1,0,0:0:0:0:
368,176,5332,1,8,0:0:0:0:
36,132,5760,5,2,0:0:0:0:
52,248,5975,1,2,0:0:0:0:
144,176,6190,1,2,0:0:0:0:
36,132,6403,2,0,P|128:132|180:64,1,180,2|2,0:0|0:0,0:0:0:0:
72,20,7046,1,8,0:0:0:0:
52,248,7260,5,0,0:0:0:0:
52,248,7368,1,0,0:0:0:0:
52,248,7475,2,0,L|132:304,1,90,2|0,0:0|0:0,0:0:0:0:
232,352,7903,1,0,0:0:0:0:
348,364,8118,1,2,0:0:0:0:
348,364,8225,2,0,P|412:364|464:312,1,135
368,248,8760,1,8,0:0:0:0:
168,96,8975,5,0,0:0:0:0:
72,20,9189,2,0,L|-16:56,1,90,2|0,0:0|0:0,0:0:0:0:
168,96,9618,2,0,L|256:60,1,90,0|2,0:0|0:0,0:0:0:0:
308,136,9939,2,0,L|220:172,1,90
256,248,10260,1,0,0:0:0:0:
332,336,10475,6,0,P|252:372|172:336,1,180,8|2,0:0|0:0,0:0:0:0:
256,248,11118,1,0,0:0:0:0:
308,136,11332,2,0,L|396:100,1,90,0|2,0:0|0:0,0:0:0:0:
456,200,11760,2,0,L|368:236,1,90
332,336,12153,1,0,1:0:0:0:
64,280,12596,6,0,L|4:96,1,180,4|8,0:0|0:0,0:0:0:0:
104,40,13238,1,0,0:0:0:0:
104,40,13346,1,0,0:0:0:0:
104,40,13453,1,0,0:0:0:0:
200,104,13667,1,2,0:0:0:0:
300,160,13881,2,0,P|342:172|387:160,1,90,8|0,0:0|0:0,0:0:0:0:
211,223,14310,6,0,P|169:211|126:223,2,90,0|0|8,0:0|0:0|0:0,0:0:0:0:
300,300,14953,1,8,0:0:0:0:
359,302,15060,1,8,0:0:0:0:
413,277,15167,1,8,0:0:0:0:
438,223,15274,1,8,0:0:0:0:
435,164,15381,1,8,0:0:0:0:
372,64,15596,1,8,0:0:0:0:
256,40,15810,1,0,0:0:0:0:
56,192,16024,6,0,P|20:272|56:352,1,180,0|8,0:0|0:0,0:0:0:0:
208,272,16667,1,8,0:0:0:0:
208,272,16774,1,8,0:0:0:0:
208,272,16881,2,0,L|116:272,2,90,8|0|8,0:0|0:0|0:0,0:0:0:0:
436,164,17524,6,0,P|344:140|312:68,1,180,4|8,0:0|0:0,0:0:0:0:
428,48,18167,1,8,0:0:0:0:
436,164,18381,1,8,0:0:0:0:
312,68,18596,1,8,0:0:0:0:
320,184,18810,1,8,0:0:0:0:
428,48,19024,1,8,0:0:0:0:
436,164,19238,1,8,0:0:0:0:
288,60,19453,5,8,0:0:0:0:
288,60,19560,1,8,0:0:0:0:
288,60,19667,1,8,0:0:0:0:
308,212,19881,1,8,0:0:0:0:
440,24,20096,1,8,0:0:0:0:
440,24,20203,1,8,0:0:0:0:
440,24,20310,1,8,0:0:0:0:
432,192,20524,1,0,0:0:0:0:
256,40,20738,1,8,0:0:0:0:
256,40,20846,1,8,0:0:0:0:
256,40,20953,1,8,0:0:0:0:
256,40,21060,1,8,0:0:0:0:
256,40,21167,6,0,L|76:72,1,180,14|0,0:0|0:0,0:0:0:0:
130,243,21810,2,0,L|308:212,1,180,2|0,0:0|0:0,0:0:0:0:
396,292,22453,1,2,0:0:0:0:
292,344,22667,1,0,0:0:0:0:
292,344,22881,2,0,L|203:360,2,90,2|0|0,0:0|0:0|0:0,0:0:0:0:
396,292,23524,2,0,P|464:224|448:148,1,180,2|0,0:0|0:0,0:0:0:0:
380,56,24167,1,2,0:0:0:0:
144,116,24381,5,0,0:0:0:0:
144,116,24488,1,0,0:0:0:0:
144,116,24596,2,0,L|128:208,1,90,2|0,0:0|0:0,0:0:0:0:
45,287,25024,1,0,0:0:0:0:
127,369,25238,2,0,B|176:392|212:364|248:332|304:360,1,180,2|0,0:0|0:0,0:0:0:0:
416,380,25881,1,2,0:0:0:0:
488,192,26096,5,0,0:0:0:0:
416,100,26310,2,0,L|320:80,1,90,2|0,0:0|0:0,0:0:0:0:
238,179,26738,2,0,L|327:198,1,90,0|2,0:0|0:0,0:0:0:0:
238,297,27167,2,0,L|149:278,1,90
72,192,27596,1,2,0:0:0:0:
8,92,27810,1,0,0:0:0:0:
184,28,28024,6,0,B|232:36|256:76|256:76|280:36|328:28,1,180,2|0,0:0|0:0,0:0:0:0:
340,144,28667,2,0,P|256:172|172:144,1,180,2|0,0:0|0:0,0:0:0:0:
160,260,29310,2,0,B|192:292|192:292|200:336,1,90,2|0,0:0|0:0,0:0:0:0:
352,260,29738,2,0,B|320:292|320:292|312:336,2,90,2|0|0,0:0|0:0|0:0,0:0:0:0:
424,352,30381,2,0,L|424:168,1,180,2|0,0:0|0:0,0:0:0:0:
328,104,31024,1,2,0:0:0:0:
64,196,31238,5,0,0:0:0:0:
64,196,31346,1,0,0:0:0:0:
64,196,31453,2,0,P|56:240|63:284,2,90,2|0|0,0:0|0:0|0:0,0:0:0:0:
148,116,32096,2,0,L|328:104,1,180,2|0,0:0|0:0,0:0:0:0:
400,196,32738,1,2,0:0:0:0:
448,88,32953,1,0,0:0:0:0:
292,212,33167,6,0,L|196:220,1,90,2|0,0:0|0:0,0:0:0:0:
352,308,33596,2,0,L|312:392,1,90,0|2,0:0|0:0,0:0:0:0:
464,296,34024,2,0,L|496:384,2,90,0|0|2,0:0|0:0|0:0,0:0:0:0:
400,196,34667,1,0,0:0:0:0:
400,196,34774,1,0,0:0:0:0:
400,196,34881,5,6,0:0:0:0:
448,88,35096,1,0,0:0:0:0:
365,5,35310,2,0,P|317:5|281:26,1,90,0|2,0:0|0:0,0:0:0:0:
228,88,35631,2,0,L|268:176,1,90
228,244,35953,2,0,P|189:265|144:264,2,90,0|2|0,0:0|0:0|0:0,0:0:0:0:
281,25,36596,6,0,P|320:4|365:5,1,90,2|0,0:0|0:0,0:0:0:0:
448,88,37024,1,0,0:0:0:0:
400,196,37238,1,2,0:0:0:0:
486,280,37453,1,0,0:0:0:0:
460,332,37560,1,0,0:0:0:0:
408,360,37667,1,0,0:0:0:0:
348,360,37774,1,0,0:0:0:0:
300,328,37881,1,2,0:0:0:0:
208,256,38096,1,2,0:0:0:0:
20,124,38310,6,0,L|48:28,1,90,2|0,0:0|0:0,0:0:0:0:
137,109,38738,2,0,L|112:196,1,90,0|2,0:0|0:0,0:0:0:0:
25,280,39167,1,0,0:0:0:0:
52,332,39274,1,0,0:0:0:0:
104,360,39381,1,0,0:0:0:0:
164,360,39488,1,0,0:0:0:0:
212,328,39595,1,2,0:0:0:0:
304,256,39810,1,2,0:0:0:0:
496,80,40024,6,0,P|432:24|344:40,1,180,2|0,0:0|0:0,0:0:0:0:
244,103,40667,2,0,P|310:160|396:144,1,180,2|0,0:0|0:0,0:0:0:0:
344,40,41310,1,2,0:0:0:0:
32,212,41738,5,6,0:0:0:0:
88,316,41953,1,0,0:0:0:0:
196,364,42167,2,0,L|284:320,1,90,0|2,0:0|0:0,0:0:0:0:
348,368,42488,2,0,L|364:280,1,90
444,280,42810,2,0,L|432:216,1,45
496,180,43024,2,0,L|472:84,1,90,2|2,0:0|0:0,0:0:0:0:
220,32,43453,5,2,0:0:0:0:
104,52,43667,1,0,0:0:0:0:
36,148,43881,1,0,0:0:0:0:
28,264,44096,2,0,P|64:316|136:328,1,135,2|0,0:0|0:0,0:0:0:0:
200,284,44524,2,0,L|252:292,1,45
264,212,44738,2,0,L|360:196,1,90,2|2,0:0|0:0,0:0:0:0:
480,48,45167,6,0,B|444:12|384:28|384:28|308:44,1,180,2|0,0:0|0:0,0:0:0:0:
200,284,45810,2,0,B|236:320|296:304|296:304|372:288,1,180,2|0,0:0|0:0,0:0:0:0:
464,216,46453,1,2,0:0:0:0:
380,132,46667,1,0,0:0:0:0:
256,24,46881,5,2,0:0:0:0:
172,107,47096,1,2,0:0:0:0:
172,223,47310,1,2,0:0:0:0:
256,304,47524,1,2,0:0:0:0:
340,223,47738,1,2,0:0:0:0:
340,107,47952,1,2,0:0:0:0:
256,24,48167,1,10,0:0:0:0:
56,172,48596,5,14,0:0:0:0:
33,227,48703,1,0,0:0:0:0:
44,284,48810,1,14,0:0:0:0:
83,327,48917,1,0,0:0:0:0:
140,344,49024,1,0,0:0:0:0:
256,304,49238,5,0,0:0:0:0:
372,344,49453,1,0,0:0:0:0:
429,327,49560,1,0,0:0:0:0:
468,284,49667,1,0,0:0:0:0:
479,227,49774,1,0,0:0:0:0:
456,172,49881,1,0,0:0:0:0:
340,107,50096,1,0,0:0:0:0:
172,223,50310,6,0,L|172:272,1,45,14|0,0:0|0:0,0:0:0:0:
256,349,50524,2,0,L|256:304,1,45,14|0,0:0|0:0,0:0:0:0:
340,223,50738,2,0,L|340:272,1,45
172,152,51060,6,0,L|172:103,1,45
256,26,51274,2,0,L|256:71,1,45
340,152,51488,2,0,L|340:103,1,45
432,36,51810,1,0,0:0:0:0:
479,227,52024,5,14,0:0:0:0:
429,327,52238,1,14,0:0:0:0:
380,360,52346,1,0,0:0:0:0:
320,360,52453,1,0,0:0:0:0:
208,332,52667,1,0,0:0:0:0:
56,232,52881,6,0,L|8:200,1,45
100,160,53096,2,0,L|79:120,1,45,0|0,0:0|0:0,0:0:0:0:
176,116,53310,2,0,L|168:24,1,90
340,152,53738,6,0,L|348:244,2,90,6|0|8,0:0|0:0|0:0,0:0:0:0:
429,327,54381,2,0,P|349:362|269:326,1,180,6|0,0:0|0:0,0:0:0:0:
176,236,55024,1,14,0:0:0:0:
176,236,55131,1,8,0:0:0:0:
176,236,55238,1,14,0:0:0:0:
160,84,55453,5,14,0:0:0:0:
200,40,55560,1,0,0:0:0:0:
256,24,55667,1,14,0:0:0:0:
312,40,55774,1,0,0:0:0:0:
352,84,55881,1,0,0:0:0:0:
260,156,56096,1,0,0:0:0:0:
176,236,56310,2,0,P|204:272|204:316,1,90
256,344,56631,1,0,0:0:0:0:
307,314,56738,2,0,P|308:270|336:236,1,90
160,84,57167,6,0,L|128:52,1,45,14|0,0:0|0:0,0:0:0:0:
72,108,57381,2,0,L|104:140,1,45,14|0,0:0|0:0,0:0:0:0:
48,200,57596,2,0,L|16:168,1,45
352,84,57917,6,0,L|384:52,1,45
440,108,58131,2,0,L|408:140,1,45
464,200,58346,2,0,L|496:168,1,45
508,44,58667,1,0,0:0:0:0:
352,84,58881,5,6,0:0:0:0:
256,192,59096,1,6,0:0:0:0:
214,233,59203,1,0,0:0:0:0:
214,291,59310,1,0,0:0:0:0:
256,332,59417,1,0,0:0:0:0:
298,291,59524,1,0,0:0:0:0:
298,233,59631,1,0,0:0:0:0:
256,192,59738,5,0,0:0:0:0:
214,151,59846,1,0,0:0:0:0:
214,93,59953,1,0,0:0:0:0:
256,52,60060,1,0,0:0:0:0:
298,93,60167,1,0,0:0:0:0:
298,151,60274,1,0,0:0:0:0:
256,192,60381,1,0,0:0:0:0:
72,368,60596,6,0,L|4:200,1,180,14|10,0:0|0:0,0:0:0:0:
16,84,61238,1,6,0:0:0:0:
120,28,61453,1,10,0:0:0:0:
160,76,61560,1,10,0:0:0:0:
214,93,61667,1,10,0:0:0:0:
256,52,61774,1,10,0:0:0:0:
298,93,61881,1,10,0:0:0:0:
352,76,61988,1,10,0:0:0:0:
388,32,62095,1,10,0:0:0:0:
484,200,62310,5,14,0:0:0:0:
324,256,62524,1,0,0:0:0:0:
432,304,62738,1,8,0:0:0:0:
248,348,62953,1,0,0:0:0:0:
248,348,63060,1,0,0:0:0:0:
248,348,63167,2,0,L|152:332,1,90
88,240,63596,1,8,0:0:0:0:
212,32,63810,5,0,0:0:0:0:
212,32,63917,1,0,0:0:0:0:
212,32,64024,2,0,B|256:40|256:40|300:32,2,90,0|0|8,0:0|0:0|0:0,0:0:0:0:
144,128,64667,1,8,0:0:0:0:
200,140,64774,1,8,0:0:0:0:
256,152,64881,1,8,0:0:0:0:
312,140,64988,1,8,0:0:0:0:
368,128,65095,1,8,0:0:0:0:
440,220,65310,1,8,0:0:0:0:
396,328,65524,5,0,0:0:0:0:
396,328,65631,1,0,0:0:0:0:
396,328,65738,2,0,L|308:348,2,90,0|0|8,0:0|0:0|0:0,0:0:0:0:
440,220,66381,2,0,L|492:208,4,45,8|8|8|8|8,0:0|0:0|0:0|0:0|0:0,0:0:0:0:
368,128,67024,1,8,0:0:0:0:
300,36,67238,5,8,0:0:0:0:
300,36,67346,1,8,0:0:0:0:
300,36,67453,2,0,B|224:36|224:36|168:36|136:84,1,180,12|8,0:0|0:0,0:0:0:0:
208,360,68096,2,0,B|284:360|284:360|340:360|372:312,1,180,4|0,0:0|0:0,0:0:0:0:
440,220,68738,2,0,L|372:220,1,45,8|8,0:0|0:0,0:0:0:0:
324,128,68953,2,0,L|392:128,1,45,8|8,0:0|0:0,0:0:0:0:
300,36,69167,6,0,L|208:36,1,90,12|0,0:0|0:0,0:0:0:0:
92,52,69596,1,8,0:0:0:0:
0,124,69810,1,0,0:0:0:0:
0,124,69917,1,8,0:0:0:0:
0,124,70024,2,0,P|-8:168|0:212,1,90
107,256,70453,2,0,P|115:211|106:167,1,90,8|0,0:0|0:0,0:0:0:0:
59,363,70881,6,0,P|103:371|147:362,1,90,0|0,0:0|0:0,0:0:0:0:
256,336,71310,1,8,0:0:0:0:
364,362,71524,1,0,0:0:0:0:
364,362,71631,1,8,0:0:0:0:
364,362,71738,2,0,P|408:371|453:363,1,90,0|0,0:0|0:0,0:0:0:0:
405,167,72167,2,0,P|396:211|405:256,1,90,8|0,0:0|0:0,0:0:0:0:
484,84,72596,2,0,P|404:48|324:84,1,180,0|8,0:0|0:0,0:0:0:0:
224,140,73238,5,0,0:0:0:0:
224,140,73346,1,8,0:0:0:0:
224,140,73453,2,0,L|128:120,1,90
28,168,73881,1,8,0:0:0:0:
12,284,74096,5,8,0:0:0:0:
27,339,74203,1,8,0:0:0:0:
75,372,74310,1,12,0:0:0:0:
134,374,74417,1,8,0:0:0:0:
179,338,74524,1,8,0:0:0:0:
256,248,74738,1,0,0:0:0:0:
333,338,74953,5,12,0:0:0:0:
378,374,75060,1,8,0:0:0:0:
437,372,75167,1,8,0:0:0:0:
416,256,75381,5,8,0:0:0:0:
344,164,75596,1,8,0:0:0:0:
310,116,75703,1,8,0:0:0:0:
256,96,75810,1,8,0:0:0:0:
202,116,75917,1,8,0:0:0:0:
164,160,76024,5,12,0:0:0:0:
96,256,76238,1,0,0:0:0:0:
179,338,76453,1,8,0:0:0:0:
256,248,76667,1,0,0:0:0:0:
256,248,76774,1,8,0:0:0:0:
256,248,76881,1,0,0:0:0:0:
333,338,77096,1,0,0:0:0:0:
416,256,77310,1,8,0:0:0:0:
498,173,77524,5,0,0:0:0:0:
498,173,77631,1,0,0:0:0:0:
498,173,77738,2,0,P|509:129|501:86,1,90
392,48,78167,1,8,0:0:0:0:
280,12,78381,2,0,L|232:24,1,45,8|8,0:0|0:0,0:0:0:0:
204,118,78596,2,0,L|248:108,1,45,8|8,0:0|0:0,0:0:0:0:
216,208,78810,2,0,L|168:220,1,45,8|8,0:0|0:0,0:0:0:0:
160,308,79024,2,0,L|275:277,1,90,8|0,0:0|0:0,0:0:0:0:
264,272,79346,1,0,0:0:0:0:
284,260,79453,5,4,0:0:0:0:
380,192,79667,1,0,0:0:0:0:
488,148,79881,2,0,P|496:192|488:236,1,90,8|0,0:0|0:0,0:0:0:0:
487,236,80203,2,0,L|528:276,1,45,8|0,0:0|0:0,0:0:0:0:
437,350,80524,1,0,0:0:0:0:
256,280,80738,5,8,0:0:0:0:
160,216,80952,1,8,0:0:0:0:
160,216,81060,1,8,0:0:0:0:
160,216,81167,2,0,P|125:136|160:56,1,180,4|0,0:0|0:0,0:0:0:0:
351,55,81810,2,0,P|386:135|352:216,1,180,4|0,0:0|0:0,0:0:0:0:
256,148,82453,6,0,L|256:88,1,45,8|8,0:0|0:0,0:0:0:0:
256,236,82667,2,0,L|256:296,1,45,8|8,0:0|0:0,0:0:0:0:
328,324,82881,6,0,P|256:370|184:324,1,180,4|8,0:0|0:0,0:0:0:0:
104,236,83524,1,0,0:0:0:0:
104,236,83631,1,8,0:0:0:0:
104,236,83738,2,0,B|112:192|112:192|104:148,1,90
256,60,84167,2,0,B|248:104|248:104|256:148,1,90,8|0,0:0|0:0,0:0:0:0:
328,324,84596,5,4,0:0:0:0:
436,368,84810,2,0,L|468:336,1,45
408,264,85024,2,0,L|440:232,2,45
364,156,85453,2,0,L|428:92,1,90
328,32,85881,2,0,P|256:78|184:32,1,180,0|4,0:0|0:0,0:0:0:0:
256,192,86417,12,0,94881,0:0:0:0:
