osu file format v14

[General]
AudioFilename: audio.mp3
AudioLeadIn: 0
PreviewTime: 47603
Countdown: 0
SampleSet: Soft
StackLeniency: 0.2
Mode: 0
LetterboxInBreaks: 0
WidescreenStoryboard: 1

[Editor]
Bookmarks: 49491,168994,232272
DistanceSpacing: 0.33
BeatDivisor: 4
GridSize: 4
TimelineZoom: 2.5

[Metadata]
Title:Blogoslawieni Milosierni (Krysiek Remix)
TitleUnicode:Błogosławieni Miłosierni (Krysiek Remix)
Artist:Katarzyna Bogusz, Ola Maciejewska, Przemyslaw Kleczkowski
ArtistUnicode:Katarzyna Bogusz, Ola Maciejewska, Przemysław Kleczkowski
Creator:CptSqBany
Version:Blessed are the Merciful
Source:World Youth Day
Tags:swiatowe dni mlodziezy papiez franciszek jan pawel polska krakow poland NebuSC2 nebu janko _underjoy streeteelf
BeatmapID:1045304
BeatmapSetID:490411

[Difficulty]
HPDrainRate:4.5
CircleSize:4.2
OverallDifficulty:8.2
ApproachRate:9.4
SliderMultiplier:2.3
SliderTickRate:1

[Events]
//Background and Video events
0,0,"white-wallpaper-18.jpg",0,0
//Break Periods
2,74922,83719
2,100353,112725
2,184591,193388
2,238631,244248
//Storyboard Layer 0 (Background)
//Storyboard Layer 1 (Fail)
//Storyboard Layer 2 (Pass)
//Storyboard Layer 3 (Foreground)
//Storyboard Sound Samples

[TimingPoints]
12735.9899773293,397.350993377483,4,2,69,50,1,0
13530,-133.333333333333,4,2,69,50,0,0
28630,-100,4,2,69,50,0,0
47702,-200,4,2,69,50,0,0
48497,-200,4,2,69,50,0,0
48795,-80,4,2,69,50,0,0
49093,-50,4,2,69,50,0,0
49292,-76.9230769230769,4,2,69,65,0,1
61212,-76.9230769230769,4,2,69,30,0,1
61312,-76.9230769230769,4,2,69,65,0,1
61610,-76.9230769230769,4,2,69,50,0,0
62007,-76.9230769230769,4,2,69,65,0,1
74325,-76.9230769230769,4,2,69,30,0,1
74424,-76.9230769230769,4,2,69,65,0,1
74722,-76.9230769230769,4,2,69,50,0,0
84259,-76.9230769230769,4,2,69,5,0,0
87437,-66.6666666666667,4,2,69,50,0,0
88530,-100,4,2,69,50,0,0
89027,-66.6666666666667,4,2,69,50,0,0
90120,-100,4,2,69,50,0,0
90616,-66.6666666666667,4,2,69,50,0,0
91709,-100,4,2,69,50,0,0
92206,-66.6666666666667,4,2,69,50,0,0
113265,-66.6666666666667,4,2,69,5,0,0
116047,-133.333333333333,4,2,69,50,0,0
132735,-200,4,2,69,50,0,0
133033,-80,4,2,69,50,0,0
133331,-50,4,2,69,50,0,0
133530,-62.5,4,2,69,65,0,1
145848,-62.5,4,2,69,30,0,0
145947,-62.5,4,2,69,50,0,0
146245,-62.5,4,2,69,65,0,1
158961,-100,4,2,69,50,0,0
184391,-100,4,2,69,30,0,0
184490,-100,4,2,69,50,0,0
208232,-200,4,2,69,50,0,0
211411,-133.333333333333,4,2,69,65,0,1
213000,-50,4,2,69,65,0,1
225318,-50,4,2,69,50,0,0
225716,-50,4,2,69,65,0,1
238431,-50,4,2,69,50,0,0
244788,-50,4,2,69,5,0,0
247967,-50,4,2,69,50,0,0
251146,-50,4,2,69,65,0,1
263861,-200,4,2,69,5,0,0

[Colours]
Combo1 : 192,192,192
Combo2 : 0,128,192
Combo3 : 0,128,255
Combo4 : 128,128,255

[HitObjects]
96,80,13530,6,0,P|136:64|200:80,1,86.2500032901765
200,208,13828,2,0,P|166:181|148:117,1,86.2500032901765
232,132,14126,1,0,0:0:0:0:
144,284,14325,2,0,P|72:216|52:136,1,172.500006580353
232,132,14921,1,0,0:0:0:0:
152,368,15120,2,0,P|216:324|200:224,1,172.500006580353
368,264,15716,1,0,0:0:0:0:
238,139,15914,5,0,0:0:0:0:
238,139,16014,1,0,0:0:0:0:
238,139,16113,2,0,P|240:208|208:248,1,86.2500032901765
168,88,16510,1,0,0:0:0:0:
168,88,16610,1,0,0:0:0:0:
168,88,16709,2,0,P|226:51|277:59,1,86.2500032901765
280,56,17007,1,0,0:0:0:0:
312,72,17106,2,0,L|299:113,1,43.1250016450883
384,48,17305,2,0,L|396:6,1,43.1250016450883
440,104,17504,6,0,P|432:168|448:280,1,172.500006580353
232,368,18100,1,0,0:0:0:0:
328,168,18298,1,0,0:0:0:0:
480,352,18497,1,0,0:0:0:0:
248,280,18696,5,0,0:0:0:0:
216,280,18795,1,0,0:0:0:0:
184,288,18894,1,0,0:0:0:0:
160,312,18994,1,0,0:0:0:0:
144,344,19093,2,0,P|103:358|48:336,1,86.2500032901765
112,192,19490,6,0,L|128:256,1,43.1250016450883
152,136,19689,2,0,L|162:177,1,43.1250016450883
192,80,19888,6,0,P|216:144|256:160,1,86.2500032901765
384,192,20186,2,0,P|317:181|283:208,1,86.2500032901765
208,272,20484,2,0,P|240:234|235:203,1,43.1250016450883
136,264,20683,2,0,P|152:320|264:320,2,172.500006580353
312,285,21676,2,0,L|325:335,1,43.1250016450883
329,355,21875,5,0,0:0:0:0:
369,331,21974,1,0,0:0:0:0:
393,291,22073,1,0,0:0:0:0:
409,243,22173,1,0,0:0:0:0:
409,195,22272,6,0,L|368:136,1,43.1250016450883
328,88,22471,2,0,L|297:153,1,43.1250016450883
272,216,22669,2,0,L|343:209,1,43.1250016450883
232,144,22868,2,0,L|189:147,1,43.1250016450883
176,272,23067,2,0,L|194:232,1,43.1250016450883
95,165,23265,2,0,L|119:200,1,43.1250016450883
88,280,23464,2,0,L|45:283,1,43.1250016450883
18,184,23663,2,0,L|0:224,1,43.1250016450883
106,366,23861,6,0,P|157:336|174:263,1,129.375004935265
256,200,24259,1,0,0:0:0:0:
96,104,24457,1,0,0:0:0:0:
88,280,24656,2,0,B|140:336|228:376|228:376|264:324|256:264,1,258.75000987053
256,200,25451,5,0,0:0:0:0:
256,192,25550,12,0,28431,0:0:0:0:
96,384,28630,6,0,L|80:304,1,57.5
152,256,28828,1,0,0:0:0:0:
152,256,28928,1,0,0:0:0:0:
152,256,29027,2,0,L|168:336,1,57.5
248,360,29226,2,0,L|232:280,1,57.5
216,208,29424,2,0,P|288:224|304:240,1,57.5
332,300,29623,2,0,P|348:228|364:212,1,57.5
420,180,29822,2,0,P|348:164|332:148,1,57.5
300,88,30020,2,0,P|284:160|268:176,1,57.5
234,285,30219,5,0,0:0:0:0:
226,301,30318,1,0,0:0:0:0:
214,316,30418,2,0,P|180:335|148:335,1,57.5
120,224,30616,2,0,P|153:243|169:271,1,57.5
88,352,30815,2,0,P|88:313|104:285,1,57.5
248,248,31014,2,0,P|247:286|231:314,1,57.5
163,258,31212,2,0,P|163:219|179:191,1,57.5
323,154,31411,2,0,P|322:192|306:220,1,57.5
240,168,31610,2,0,P|240:129|256:101,1,57.5
400,64,31808,5,0,0:0:0:0:
401,92,31908,1,0,0:0:0:0:
391,119,32007,2,0,L|400:184,1,57.5
512,192,32206,2,0,L|503:127,1,57.5
398,175,32404,5,0,0:0:0:0:
397,203,32504,1,0,0:0:0:0:
407,230,32603,2,0,L|399:287,1,57.5
288,264,32802,2,0,L|297:199,1,57.5
288,336,33000,5,0,0:0:0:0:
239,316,33100,1,0,0:0:0:0:
218,276,33199,1,0,0:0:0:0:
223,232,33298,1,0,0:0:0:0:
240,152,33398,6,0,L|176:168,1,57.5
96,224,33596,2,0,L|114:160,1,57.5
104,64,33795,2,0,L|149:111,1,57.5
240,152,33994,1,0,0:0:0:0:
240,152,34093,1,0,0:0:0:0:
240,152,34192,6,0,P|248:192|229:220,1,57.5
160,272,34391,2,0,P|200:264|228:283,1,57.5
280,352,34590,2,0,P|272:312|291:284,1,57.5
360,232,34788,2,0,P|320:240|292:221,1,57.5
240,152,34987,6,0,L|216:96,1,57.5
144,24,35186,1,0,0:0:0:0:
128,56,35285,1,0,0:0:0:0:
120,88,35384,2,0,L|144:144,1,57.5
262,204,35583,2,0,L|238:148,1,57.5
182,231,35782,6,0,P|158:255|158:303,1,57.5
166,383,35981,2,0,L|214:335,1,57.5
317,342,36179,2,0,L|357:382,1,57.5
371,276,36378,2,0,P|362:248|341:229,1,57.5
264,160,36577,5,0,0:0:0:0:
296,136,36676,1,0,0:0:0:0:
336,136,36775,2,0,L|392:120,1,57.5
496,184,36974,2,0,L|432:200,1,57.5
341,229,37173,5,0,0:0:0:0:
304,232,37272,1,0,0:0:0:0:
272,208,37371,2,0,L|240:144,1,57.5
160,288,37570,2,0,L|224:256,1,57.5
56,208,37769,2,0,L|88:272,1,57.5
168,128,37967,2,0,L|104:160,1,57.5
272,208,38166,5,0,0:0:0:0:
288,248,38265,1,0,0:0:0:0:
288,288,38365,2,0,P|283:332|298:363,1,57.5
384,320,38563,2,0,P|428:325|459:310,1,57.5
408,224,38762,5,0,0:0:0:0:
392,184,38861,1,0,0:0:0:0:
392,144,38961,2,0,P|397:100|382:69,1,57.5
296,112,39159,2,0,P|252:107|221:122,1,57.5
172,188,39358,5,0,0:0:0:0:
142,140,39457,1,0,0:0:0:0:
141,83,39557,1,0,0:0:0:0:
170,34,39656,1,0,0:0:0:0:
240,16,39755,6,0,L|232:80,1,57.5
320,56,39954,2,0,L|328:120,1,57.5
216,96,40153,2,0,L|208:160,1,57.5
344,136,40351,2,0,L|352:200,1,57.5
184,176,40550,2,0,L|176:240,1,57.5
368,216,40749,2,0,L|376:280,1,57.5
160,248,40947,2,0,L|152:305,1,57.5
407,345,41146,2,0,L|400:288,1,57.5
344,136,41345,6,0,P|288:184|304:264,1,115
304,264,41643,1,0,0:0:0:0:
272,296,41742,2,0,P|239:284|224:264,3,57.5
192,168,42139,2,0,L|96:256,1,115
60,252,42437,1,0,0:0:0:0:
40,208,42537,2,0,L|88:160,3,57.5
160,96,42934,6,0,P|224:96|270:154,1,115
288,168,43232,1,0,0:0:0:0:
312,208,43332,2,0,P|360:216|384:200,3,57.5
400,120,43729,2,0,P|464:192|464:248,1,115
464,256,44027,1,0,0:0:0:0:
448,296,44126,2,0,P|443:340|464:376,3,57.5
352,384,44524,6,0,L|328:240,1,115
240,312,44822,1,0,0:0:0:0:
240,312,44921,2,0,L|258:198,1,115
408,256,45219,1,0,0:0:0:0:
408,256,45318,2,0,L|389:142,1,115
192,168,45616,1,0,0:0:0:0:
192,168,45716,2,0,L|210:54,1,115
454,71,46014,1,0,0:0:0:0:
454,71,46113,6,0,L|464:128,1,57.5
144,0,46312,2,0,L|134:56,1,57.5
352,176,46510,2,0,L|361:232,1,57.5
248,104,46709,2,0,L|238:160,1,57.5
272,256,46908,5,0,0:0:0:0:
208,264,47007,1,0,0:0:0:0:
152,224,47106,1,0,0:0:0:0:
128,168,47206,1,0,0:0:0:0:
144,112,47305,6,0,L|136:64,3,28.75
72,48,47504,2,0,L|80:24,6,14.375
72,120,47702,6,0,L|44:132,1,28.75
220,200,48497,6,0,P|216:168|240:176,1,57.5
208,220,48795,2,0,P|184:172|256:160,1,143.75
328,208,49093,1,0,0:0:0:0:
344,16,49292,6,0,P|384:56|384:136,1,74.7499965782167
328,208,49490,2,0,P|342:153|411:113,1,74.7499965782167
504,128,49689,6,0,P|449:142|380:102,1,74.7499965782167
272,27,49888,2,0,P|326:12|395:52,1,74.7499965782167
504,144,50086,6,0,P|449:158|380:118,1,74.7499965782167
264,16,50285,2,0,P|318:1|387:41,1,74.7499965782167
504,160,50484,6,0,P|449:174|380:134,1,74.7499965782167
257,3,50683,2,0,P|291:-13|327:-15,1,74.7499965782167
240,168,50881,6,0,L|272:96,1,74.7499965782167
168,208,51080,1,0,0:0:0:0:
168,208,51179,1,0,0:0:0:0:
168,208,51279,2,0,L|214:271,1,74.7499965782167
168,128,51477,2,0,L|89:136,1,74.7499965782167
288,240,51676,2,0,L|366:231,1,74.7499965782167
160,256,51875,2,0,L|168:334,1,74.7499965782167
272,136,52073,2,0,L|263:57,1,74.7499965782167
93,135,52272,2,0,L|168:128,1,74.7499965782167
280,32,52471,6,0,L|287:106,1,74.7499965782167
336,274,52669,2,0,L|329:190,1,74.7499965782167
392,40,52868,6,0,L|384:114,1,74.7499965782167
336,274,53067,2,0,L|343:199,1,74.7499965782167
392,40,53265,6,0,L|399:114,1,74.7499965782167
448,282,53463,2,0,L|441:198,1,74.7499965782167
504,48,53662,6,0,L|496:122,1,74.7499965782167
448,282,53861,2,0,L|455:207,1,74.7499965782167
328,344,54060,5,0,0:0:0:0:
328,344,54159,1,0,0:0:0:0:
328,344,54259,2,0,L|432:336,1,74.7499965782167
336,208,54457,1,0,0:0:0:0:
336,208,54557,1,0,0:0:0:0:
336,208,54656,2,0,L|394:294,1,74.7499965782167
248,352,54855,6,0,L|293:257,1,74.7499965782167
184,264,55053,2,0,L|176:152,1,74.7499965782167
240,344,55252,2,0,L|285:249,1,74.7499965782167
104,200,55451,2,0,L|96:88,1,74.7499965782167
248,120,55649,5,0,0:0:0:0:
248,120,55749,1,0,0:0:0:0:
248,120,55848,2,0,L|256:232,1,74.7499965782167
400,40,56047,5,0,0:0:0:0:
400,40,56146,1,0,0:0:0:0:
400,40,56245,2,0,L|392:152,1,74.7499965782167
260,200,56444,5,0,0:0:0:0:
260,200,56543,1,0,0:0:0:0:
260,200,56643,2,0,L|268:312,1,74.7499965782167
406,126,56841,5,0,0:0:0:0:
406,126,56941,1,0,0:0:0:0:
406,126,57040,2,0,L|398:238,1,74.7499965782167
348,340,57239,6,0,P|320:256|328:224,1,74.7499965782167
232,296,57437,2,0,P|249:209|272:185,1,74.7499965782167
400,200,57636,2,0,P|418:167|424:131,1,74.7499965782167
511,156,57835,2,0,P|513:118|502:83,1,74.7499965782167
232,296,58034,6,0,P|249:209|272:185,1,74.7499965782167
153,199,58232,2,0,P|211:132|243:123,1,74.7499965782167
400,200,58431,2,0,P|418:167|425:131,1,74.7499965782167
511,156,58630,2,0,P|512:119|501:84,1,74.7499965782167
296,212,58828,5,0,0:0:0:0:
296,228,58928,1,0,0:0:0:0:
300,244,59027,2,0,P|332:280|384:296,1,74.7499965782167
220,188,59226,5,0,0:0:0:0:
212,208,59325,1,0,0:0:0:0:
207,229,59424,2,0,P|216:276|253:316,1,74.7499965782167
172,136,59623,5,0,0:0:0:0:
148,152,59722,1,0,0:0:0:0:
128,173,59822,2,0,P|112:218|124:271,1,74.7499965782167
152,72,60020,5,0,0:0:0:0:
116,72,60120,1,0,0:0:0:0:
84,88,60219,2,0,P|48:119|32:171,1,74.7499965782167
114,244,60418,6,0,P|113:206|127:172,1,74.7499965782167
36,142,60616,2,0,P|54:110|84:88,1,74.7499965782167
355,291,60815,2,0,P|322:272|299:243,1,74.7499965782167
231,297,61014,2,0,P|212:265|206:228,1,74.7499965782167
512,100,61212,2,0,P|480:118|443:124,1,74.7499965782167,2|0,0:0|0:0,0:0:0:0:
455,210,61411,2,0,P|417:210|383:196,1,74.7499965782167
313,108,61609,5,0,0:0:0:0:
301,166,61709,1,0,0:0:0:0:
353,195,61808,1,0,0:0:0:0:
397,154,61907,1,0,0:0:0:0:
372,100,62007,6,0,P|336:68|332:16,1,74.7499965782167
284,184,62206,2,0,P|252:220|204:224,1,74.7499965782167
355,291,62404,2,0,P|391:323|395:371,1,74.7499965782167
455,210,62603,2,0,P|487:174|535:170,1,74.7499965782167
329,43,62802,6,0,P|342:78|372:100,1,74.7499965782167
157,235,63000,2,0,P|193:241|227:226,1,74.7499965782167
216,112,63199,2,0,P|244:135|281:139,1,74.7499965782167
156,364,63398,2,0,P|190:351|212:321,1,74.7499965782167
356,328,63596,6,0,P|322:341|300:371,1,74.7499965782167
148,356,63795,2,0,P|182:343|204:313,1,74.7499965782167
364,336,63994,2,0,P|330:349|308:379,1,74.7499965782167
140,348,64192,6,0,P|174:335|196:305,1,74.7499965782167
112,196,64391,2,0,P|105:231|121:265,1,74.7499965782167
256,248,64590,2,0,P|227:225|190:221,1,74.7499965782167
304,184,64788,2,0,P|332:206|369:210,1,74.7499965782167
496,200,64987,2,0,P|462:213|439:243,1,74.7499965782167
384,360,65186,6,0,P|389:324|374:290,1,74.7499965782167
256,248,65384,2,0,P|249:283|265:317,1,74.7499965782167
392,352,65583,6,0,P|397:316|382:282,1,74.7499965782167
246,177,65782,2,0,P|239:212|255:246,1,74.7499965782167
400,344,65981,6,0,P|405:308|390:274,1,74.7499965782167
236,106,66179,2,0,P|229:141|245:175,1,74.7499965782167
408,336,66378,6,0,P|412:299|398:266,1,74.7499965782167
225,36,66577,2,0,P|220:72|236:106,1,74.7499965782167
380,40,66775,6,0,L|307:20,1,74.7499965782167
272,175,66974,2,0,L|292:248,1,74.7499965782167
368,160,67173,2,0,L|315:106,1,74.7499965782167
191,175,67371,2,0,L|172:248,1,74.7499965782167
392,32,67570,6,0,L|319:12,1,74.7499965782167
264,196,67769,2,0,L|284:269,1,74.7499965782167
384,160,67967,2,0,L|331:106,1,74.7499965782167
176,192,68166,2,0,L|157:265,1,74.7499965782167
264,280,68365,6,0,L|244:207,1,74.7499965782167
384,160,68563,2,0,L|404:233,1,74.7499965782167
334,257,68762,2,0,L|314:184,1,74.7499965782167
454,137,68960,2,0,L|474:210,1,74.7499965782167
488,304,69159,6,0,L|415:324,1,74.7499965782167
244,207,69358,2,0,L|317:187,1,74.7499965782167
392,248,69557,2,0,L|319:268,1,74.7499965782167
148,151,69756,2,0,L|221:131,1,74.7499965782167
468,336,69954,6,0,P|430:337|394:347,1,74.7499965782167
324,352,70153,2,0,P|311:316|307:279,1,74.7499965782167
204,280,70351,2,0,P|200:317|187:352,1,74.7499965782167
116,347,70550,2,0,P|80:336|42:335,1,74.7499965782167
76,240,70749,6,0,L|149:220,1,74.7499965782167
244,120,70947,2,0,L|171:100,1,74.7499965782167
149,220,71146,2,0,L|222:200,1,74.7499965782167
317,100,71345,2,0,L|244:80,1,74.7499965782167
222,200,71543,6,0,L|295:180,1,74.7499965782167
395,287,71742,2,0,P|392:323|373:356,1,74.7499965782167
212,192,71941,6,0,L|285:172,1,74.7499965782167
387,279,72139,2,0,P|384:315|365:348,1,74.7499965782167
204,184,72338,6,0,L|277:164,1,74.7499965782167
380,272,72537,2,0,P|356:344|332:360,1,74.7499965782167
196,176,72735,6,0,L|269:156,1,74.7499965782167
373,264,72934,2,0,P|370:301|351:333,1,74.7499965782167
188,168,73133,5,0,0:0:0:0:
180,160,73232,1,0,0:0:0:0:
172,152,73332,2,0,P|164:104|204:48,1,74.7499965782167
276,112,73530,5,0,0:0:0:0:
296,96,73630,1,0,0:0:0:0:
300,72,73729,2,0,P|309:36|301:0,1,74.7499965782167
388,96,73928,5,0,0:0:0:0:
364,128,74027,1,0,0:0:0:0:
356,168,74126,2,0,P|348:203|356:239,1,74.7499965782167
412,328,74325,5,2,0:0:0:0:
356,288,74424,1,0,0:0:0:0:
289,275,74524,1,0,0:0:0:0:
222,287,74623,1,0,0:0:0:0:
166,326,74722,1,0,0:0:0:0:
256,192,84259,12,0,87239,0:0:0:0:
112,128,87437,6,0,L|72:40,1,86.2500032901765
192,152,87636,2,0,L|204:64,1,86.2500032901765
272,192,87835,6,0,L|284:280,1,86.2500032901765
389,172,88034,2,0,L|360:264,1,86.2500032901765
500,211,88232,2,0,P|475:246|473:288,1,86.2500032901765
440,376,88431,1,0,0:0:0:0:
358,332,88530,2,0,P|370:272|278:272,1,172.5
96,344,89027,6,0,L|72:224,1,86.2500032901765
180,96,89226,2,0,L|204:216,1,86.2500032901765
108,276,89424,2,0,L|84:156,1,86.2500032901765
192,28,89623,2,0,L|216:148,1,86.2500032901765
248,284,89822,2,0,P|344:284|372:188,1,172.500006580353
296,224,90120,2,0,P|343:298|440:276,1,172.5
32,96,90616,6,0,B|62:65|62:65|90:96,1,86.2500032901765
169,240,90815,2,0,B|199:270|199:270|228:240,1,86.2500032901765
230,96,91014,2,0,B|202:65|202:65|172:96,1,86.2500032901765
88,240,91212,2,0,B|59:270|59:270|29:240,1,86.2500032901765
0,168,91411,2,0,L|192:168,1,172.500006580353
253,93,91709,2,0,P|283:172|248:248,1,172.5
56,268,92206,6,0,L|84:368,1,86.2500032901765
271,331,92404,2,0,L|243:231,1,86.2500032901765
153,257,92603,2,0,L|181:357,1,86.2500032901765
368,320,92801,2,0,L|340:220,1,86.2500032901765
320,132,93000,2,0,P|424:172|448:244,1,172.500006580353
288,112,93298,2,0,P|420:135|476:244,1,258.75000987053
152,32,93795,5,0,0:0:0:0:
296,208,93994,1,0,0:0:0:0:
80,160,94192,1,0,0:0:0:0:
280,56,94391,1,0,0:0:0:0:
192,264,94590,1,0,0:0:0:0:
152,32,94788,1,0,0:0:0:0:
152,32,94888,2,0,P|169:112|201:8,1,258.75000987053
360,32,95384,5,0,0:0:0:0:
216,208,95583,1,0,0:0:0:0:
432,160,95782,1,0,0:0:0:0:
232,56,95981,1,0,0:0:0:0:
320,264,96179,1,0,0:0:0:0:
360,32,96378,1,0,0:0:0:0:
360,32,96477,2,0,P|343:112|311:8,1,258.75000987053
192,168,96974,5,0,0:0:0:0:
392,272,97173,1,0,0:0:0:0:
120,272,97371,1,0,0:0:0:0:
320,168,97570,1,0,0:0:0:0:
256,384,97769,1,0,0:0:0:0:
256,112,97967,1,0,0:0:0:0:
183,128,98067,2,0,P|263:40|327:136,1,258.75000987053
168,368,98563,6,0,P|128:288|48:304,1,172.500006580353
344,368,98961,2,0,P|384:288|464:304,1,172.500006580353
256,288,99358,2,0,L|256:201,2,86.2500032901765
163,180,99656,2,0,P|251:105|351:188,1,258.75000987053
256,368,100153,1,0,0:0:0:0:
256,192,113265,12,0,115848,0:0:0:0:
88,88,116047,6,0,P|136:64|200:72,1,86.2500032901765
280,80,116444,1,0,0:0:0:0:
256,192,116643,1,0,0:0:0:0:
152,160,116841,1,0,0:0:0:0:
360,128,117040,1,0,0:0:0:0:
288,328,117239,1,0,0:0:0:0:
240,56,117437,1,0,0:0:0:0:
72,184,117636,6,0,P|120:240|224:208,1,172.500006580353
240,120,118232,1,0,0:0:0:0:
152,160,118431,2,0,L|120:264,1,86.2500032901765
240,120,118828,2,0,L|240:232,1,86.2500032901765
320,72,119226,6,0,L|352:176,1,86.2500032901765
320,264,119623,1,0,0:0:0:0:
424,232,119822,1,0,0:0:0:0:
208,368,120020,6,0,L|176:264,1,86.2500032901765
208,176,120418,1,0,0:0:0:0:
104,208,120616,1,0,0:0:0:0:
296,296,120815,5,0,0:0:0:0:
248,176,121014,1,0,0:0:0:0:
182,285,121212,1,0,0:0:0:0:
328,208,121411,1,0,0:0:0:0:
320,376,121610,1,0,0:0:0:0:
248,176,121808,1,0,0:0:0:0:
144,368,122007,1,0,0:0:0:0:
384,288,122206,1,0,0:0:0:0:
184,128,122404,6,0,P|171:198|192:232,1,86.2500032901765
240,312,122802,2,0,P|253:242|232:208,1,86.2500032901765
184,128,123199,2,0,P|248:136|320:72,2,129.375004935265
96,32,123994,1,0,0:0:0:0:
224,40,124192,1,0,0:0:0:0:
40,120,124391,1,0,0:0:0:0:
208,224,124590,1,0,0:0:0:0:
32,112,124788,1,0,0:0:0:0:
240,24,124987,1,0,0:0:0:0:
24,104,125186,1,0,0:0:0:0:
232,248,125384,1,0,0:0:0:0:
120,16,125583,6,0,L|120:144,1,86.2500032901765
224,240,125981,2,0,L|224:112,1,86.2500032901765
128,32,126378,2,0,L|128:160,1,86.2500032901765
232,256,126775,2,0,L|232:128,1,86.2500032901765
136,48,127173,5,0,0:0:0:0:
224,160,127371,1,0,0:0:0:0:
168,40,127570,5,0,0:0:0:0:
208,208,127769,1,0,0:0:0:0:
208,40,127967,5,0,0:0:0:0:
184,248,128166,1,0,0:0:0:0:
248,48,128365,5,0,0:0:0:0:
136,264,128563,1,0,0:0:0:0:
400,184,128762,5,0,0:0:0:0:
184,72,128960,1,0,0:0:0:0:
212,328,129159,5,0,0:0:0:0:
416,196,129357,1,0,0:0:0:0:
184,96,129557,5,0,0:0:0:0:
196,338,129755,1,0,0:0:0:0:
396,180,129954,5,0,0:0:0:0:
180,69,130152,1,0,0:0:0:0:
176,248,130351,5,0,0:0:0:0:
203,6,130550,1,0,0:0:0:0:
208,272,130749,5,0,0:0:0:0:
136,16,130947,1,0,0:0:0:0:
240,272,131146,5,0,0:0:0:0:
72,32,131345,1,0,0:0:0:0:
272,248,131543,5,0,0:0:0:0:
16,72,131742,1,0,0:0:0:0:
72,360,131941,6,0,L|96:296,1,43.1250016450883
72,360,132735,6,0,P|112:344|148:348,1,57.5
200,360,133034,2,0,P|264:336|268:252,1,143.75
212,292,133332,2,0,P|312:352|344:348,1,115
456,368,133530,6,0,P|480:248|440:144,1,230
364,4,133828,1,0,0:0:0:0:
376,24,133928,6,0,P|368:120|376:144,1,92
465,190,134126,2,0,P|476:145|474:99,1,92
360,32,134325,2,0,P|352:128|360:152,1,92
449,198,134524,6,0,P|460:153|458:107,1,92
344,40,134722,2,0,P|336:136|344:160,1,92
433,206,134921,6,0,P|444:161|442:115,1,92
328,48,135120,6,0,P|272:64|136:24,1,184
88,0,135418,1,0,0:0:0:0:
72,25,135517,2,0,P|91:89|120:113,1,92
192,168,135716,2,0,P|173:232|144:256,1,92
72,288,135914,2,0,P|91:352|120:376,1,92
312,288,136113,2,0,P|293:352|264:376,1,92
192,168,136312,2,0,P|211:232|240:256,1,92
312,25,136510,2,0,P|293:89|264:113,1,92
104,168,136709,6,0,P|216:184|248:264,1,184
40,240,137007,1,0,0:0:0:0:
64,240,137106,2,0,P|24:160|102:86,1,184
236,8,137404,1,0,0:0:0:0:
248,32,137504,6,0,L|224:128,1,92
344,128,137702,2,0,L|368:224,1,92
248,32,137901,2,0,L|224:128,1,92
366,217,138100,2,0,L|390:313,1,92
247,210,138298,6,0,L|224:120,1,92
366,38,138497,2,0,L|343:127,1,92
269,299,138696,6,0,L|246:209,1,92
202,31,138894,2,0,L|224:120,1,92
321,216,139093,6,0,L|343:126,1,92
115,0,139292,6,0,L|203:32,1,92
133,136,139490,2,0,L|225:119,1,92
176,268,139689,2,0,L|247:207,1,92
280,360,139888,5,0,0:0:0:0:
280,360,139987,1,0,0:0:0:0:
280,360,140086,2,0,L|312:272,1,92
480,200,140285,5,0,0:0:0:0:
480,200,140384,1,0,0:0:0:0:
480,200,140484,2,0,L|387:216,1,92
240,104,140683,5,0,0:0:0:0:
240,104,140782,1,0,0:0:0:0:
240,104,140881,2,0,L|300:175,1,92
360,0,141080,2,0,L|267:16,1,92
384,160,141279,2,0,L|415:71,1,92
184,32,141477,6,0,P|152:85|152:128,1,92
56,80,141676,2,0,P|54:141|76:179,1,92
183,193,141875,2,0,P|174:147|148:111,1,92
265,248,142073,2,0,P|281:206|276:160,1,92
183,193,142272,6,0,P|156:230|148:275,1,92
55,241,142471,2,0,P|50:287|66:329,1,92
238,330,142669,2,0,P|209:365|168:384,1,92
49,206,142868,2,0,P|36:250|45:294,1,92
262,331,143067,6,0,P|240:370|202:396,1,92
352,208,143265,2,0,L|464:184,1,92
286,327,143464,6,0,P|271:370|238:402,1,92
353,191,143663,2,0,L|459:148,1,92
309,320,143861,6,0,P|302:365|275:402,1,92
351,174,144060,2,0,L|448:113,1,92
331,309,144259,6,0,P|332:354|312:395,1,92
347,157,144457,2,0,L|432:81,1,92
412,226,144656,6,0,L|344:288,1,92
339,142,144855,2,0,L|410:52,1,92
415,198,145053,6,0,L|359:271,1,92
329,128,145252,6,0,L|383:27,1,92
224,160,145451,2,0,L|284:257,1,92
256,56,145649,2,0,L|141:60,1,92
80,64,145848,5,2,0:0:0:0:
1,89,145947,1,0,0:0:0:0:
1,172,146047,1,0,0:0:0:0:
80,197,146146,1,0,0:0:0:0:
128,129,146245,6,0,P|88:105|81:58,1,92
192,168,146444,2,0,P|232:145|276:162,1,92
128,208,146643,2,0,P|127:254|90:284,1,92
168,328,146841,2,0,L|280:352,1,92
136,212,147040,6,0,P|135:258|98:288,1,92
240,312,147239,2,0,L|352:336,1,92
144,216,147437,6,0,P|143:262|106:292,1,92
312,304,147636,2,0,L|424:328,1,92
288,144,147835,2,0,L|268:233,1,92
436,110,148034,2,0,L|324:86,1,92
465,267,148232,2,0,L|484:177,1,92
312,304,148431,6,0,P|312:216|328:192,1,92
224,208,148630,2,0,P|268:131|293:119,1,92
192,80,148828,2,0,P|268:36|296:37,1,92
144,160,149027,6,0,P|104:112|106:49,1,92
16,128,149226,2,0,P|5:66|38:12,1,92
64,208,149424,6,0,P|160:248|240:312,1,184
348,384,149722,1,0,0:0:0:0:
320,384,149822,2,0,P|327:338|353:301,1,92
223,295,150020,2,0,P|249:257|256:212,1,92
353,301,150219,2,0,P|392:277|437:274,1,92
256,212,150418,2,0,P|244:167|214:133,1,92
437,274,150616,2,0,P|476:296|502:333,1,92
214,133,150815,2,0,P|169:120|125:129,1,92
280,80,151014,6,0,P|297:148|288:176,1,92
296,72,151212,2,0,P|313:140|304:168,1,92
456,104,151411,6,0,P|439:36|448:8,1,92
440,112,151610,2,0,P|423:44|432:16,1,92
428,279,151808,6,0,P|422:234|440:192,1,92
444,287,152007,2,0,P|438:242|456:200,1,92
280,328,152206,6,0,P|297:285|291:240,1,92
295,336,152404,2,0,P|312:293|306:248,1,92
312,344,152603,6,0,P|330:272|232:176,1,184
104,140,152901,1,0,0:0:0:0:
128,144,153000,6,0,L|224:88,1,92
192,304,153199,2,0,L|191:192,1,92
120,136,153398,6,0,L|216:80,1,92
200,312,153596,2,0,L|199:200,1,92
112,128,153795,6,0,L|208:72,1,92
208,320,153994,2,0,L|207:208,1,92
272,32,154192,6,0,L|272:143,1,92
424,56,154391,2,0,L|344:10,1,92
336,184,154590,2,0,L|432:127,1,92
272,32,154788,6,0,L|272:143,1,92
176,256,154987,2,0,L|272:199,1,92
415,229,155186,2,0,L|318:173,1,92
272,32,155384,6,0,L|272:143,1,92
128,122,155583,2,0,L|208:168,1,92
199,1,155782,6,0,L|120:48,1,92
175,1,155981,2,0,L|96:48,1,92
272,32,156179,6,0,L|351:78,1,92
295,31,156378,2,0,L|375:78,1,92
128,122,156577,6,0,L|48:168,1,92
104,121,156775,2,0,L|25:168,1,92
280,144,156974,6,0,L|359:190,1,92
303,143,157173,2,0,L|382:189,1,92
144,216,157371,6,0,P|216:144|168:32,1,184
80,60,157669,1,0,0:0:0:0:
96,80,157769,2,0,L|352:24,1,184
456,8,158067,1,0,0:0:0:0:
436,24,158166,1,0,0:0:0:0:
216,184,158365,1,0,0:0:0:0:
512,216,158563,1,0,0:0:0:0:
275,40,158762,1,0,0:0:0:0:
344,320,158961,5,0,0:0:0:0:
512,216,159159,1,0,0:0:0:0:
320,144,159358,1,0,0:0:0:0:
480,368,159557,1,0,0:0:0:0:
224,368,159755,1,0,0:0:0:0:
424,144,159954,1,0,0:0:0:0:
424,144,160053,2,0,P|400:80|297:45,1,172.5
112,112,160550,5,0,0:0:0:0:
320,144,160749,1,0,0:0:0:0:
152,208,160947,1,0,0:0:0:0:
272,240,161146,1,0,0:0:0:0:
200,296,161345,1,0,0:0:0:0:
264,344,161543,1,0,0:0:0:0:
264,344,161643,2,0,P|192:376|122:302,1,172.5
80,120,162139,5,0,0:0:0:0:
125,322,162338,1,0,0:0:0:0:
115,64,162537,1,0,0:0:0:0:
80,344,162735,1,0,0:0:0:0:
176,24,162934,1,0,0:0:0:0:
16,336,163133,1,0,0:0:0:0:
16,336,163232,2,0,P|48:288|152:352,1,172.5
272,160,163729,6,0,L|216:48,1,115
408,144,164126,2,0,L|303:75,1,115
512,56,164524,2,0,L|387:48,1,115
312,80,164822,2,0,L|520:96,1,172.5
480,304,165318,5,0,0:0:0:0:
344,196,165517,1,0,0:0:0:0:
483,93,165716,1,0,0:0:0:0:
344,196,165914,1,0,0:0:0:0:
480,304,166113,1,0,0:0:0:0:
384,32,166312,1,0,0:0:0:0:
384,32,166411,2,0,P|304:40|176:16,1,172.5
8,8,166908,5,0,0:0:0:0:
96,200,167106,1,0,0:0:0:0:
213,27,167305,1,0,0:0:0:0:
0,128,167504,1,0,0:0:0:0:
208,272,167702,1,0,0:0:0:0:
112,24,167901,1,0,0:0:0:0:
112,24,168000,2,0,P|144:104|232:128,1,172.5
424,96,168497,5,0,0:0:0:0:
220,129,168696,1,0,0:0:0:0:
352,288,168894,1,0,0:0:0:0:
416,88,169093,1,0,0:0:0:0:
216,144,169292,1,0,0:0:0:0:
368,288,169490,1,0,0:0:0:0:
368,288,169590,2,0,P|400:208|360:128,1,172.5
312,336,170086,6,0,P|296:272|332:224,1,115
304,328,170484,2,0,P|288:264|324:216,1,115
296,320,170881,2,0,P|280:256|316:208,1,115
328,200,171179,2,0,P|224:184|184:88,1,172.5
360,24,171676,6,0,L|368:72,1,28.75
360,24,171875,6,0,L|368:72,1,28.75
360,24,172073,6,0,L|368:72,1,28.75
360,24,172272,6,0,L|368:72,1,28.75
488,152,172471,6,0,P|416:208|376:208,1,115
272,184,172769,2,0,P|315:298|360:320,1,172.5
152,360,173265,6,0,L|144:312,1,28.75
152,360,173464,6,0,L|144:312,1,28.75
152,360,173663,6,0,L|144:312,1,28.75
152,360,173861,6,0,L|144:312,1,28.75
224,192,174060,6,0,L|112:272,1,115
40,312,174358,2,0,B|32:216|32:216|112:160,1,172.5
288,120,174855,6,0,L|320:128,1,28.75
288,120,175053,6,0,L|280:152,1,28.75
288,120,175252,6,0,L|256:112,1,28.75
288,120,175451,6,0,L|296:88,1,28.75
360,184,175649,6,0,P|296:224|240:208,1,115
304,16,175947,2,0,P|370:51|384:107,1,115
192,128,176245,2,0,P|190:82|215:57,1,57.5
160,240,176444,6,0,L|192:248,1,28.75
160,240,176643,6,0,L|152:272,1,28.75
160,240,176841,6,0,L|128:232,1,28.75
160,240,177040,6,0,L|168:208,1,28.75
280,248,177239,6,0,L|224:120,1,115
96,336,177537,2,0,L|234:351,1,115
96,152,177835,2,0,L|49:215,1,57.5
200,32,178034,5,0,0:0:0:0:
328,224,178232,1,0,0:0:0:0:
96,152,178431,1,0,0:0:0:0:
312,64,178630,1,0,0:0:0:0:
208,272,178828,1,0,0:0:0:0:
200,32,179027,1,0,0:0:0:0:
204,40,179126,2,0,B|252:164|252:164|268:112,1,172.5
432,96,179623,5,0,0:0:0:0:
272,256,179822,1,0,0:0:0:0:
496,216,180020,1,0,0:0:0:0:
312,80,180219,1,0,0:0:0:0:
360,320,180418,1,0,0:0:0:0:
432,96,180616,1,0,0:0:0:0:
428,108,180716,2,0,B|380:232|380:232|364:180,1,172.5
232,376,181212,5,0,0:0:0:0:
368,194,181411,1,0,0:0:0:0:
152,216,181610,1,0,0:0:0:0:
334,360,181808,1,0,0:0:0:0:
264,136,182007,1,0,0:0:0:0:
96,288,182206,1,0,0:0:0:0:
96,288,182305,2,0,L|32:112,1,172.5
248,32,182802,5,0,0:0:0:0:
37,125,183000,1,0,0:0:0:0:
368,80,183199,1,0,0:0:0:0:
137,95,183398,1,0,0:0:0:0:
464,152,183596,1,0,0:0:0:0:
241,87,183795,1,0,0:0:0:0:
241,87,183894,2,0,P|240:168|360:168,1,172.5
301,128,184391,5,2,0:0:0:0:
256,192,193928,12,0,196908,0:0:0:0:
104,128,197106,6,0,L|224:72,1,115
408,128,197504,2,0,L|288:72,1,115
144,240,197901,1,0,0:0:0:0:
368,240,198100,1,0,0:0:0:0:
184,368,198298,1,0,0:0:0:0:
328,368,198497,1,0,0:0:0:0:
336,136,198696,6,0,P|273:184|262:243,1,115
256,376,199093,1,0,0:0:0:0:
249,215,199292,2,0,P|223:163|175:135,1,115
16,120,199689,1,0,0:0:0:0:
144,240,199888,1,0,0:0:0:0:
200,64,200086,1,0,0:0:0:0:
48,224,200285,6,0,P|66:297|109:330,1,115
144,240,200683,2,0,P|181:282|189:338,1,115
322,338,201080,2,0,P|330:282|368:240,1,115
418,322,201477,2,0,P|456:280|464:224,1,115
432,56,201875,6,0,B|384:80|232:48|184:64,1,230
104,200,202471,2,0,B|152:224|304:192|352:208,1,230
203,60,203067,1,0,0:0:0:0:
104,200,203265,1,0,0:0:0:0:
200,344,203464,6,0,L|240:216,1,115
368,128,203861,2,0,L|328:256,1,115
280,72,204259,1,0,0:0:0:0:
234,234,204457,1,0,0:0:0:0:
426,290,204656,1,0,0:0:0:0:
472,128,204855,1,0,0:0:0:0:
234,234,205053,6,0,P|203:187|112:160,1,115
240,8,205451,2,0,P|209:54|118:82,1,115
144,248,205848,2,0,P|72:200|64:144,1,115
144,0,206245,2,0,P|72:48|64:104,1,115
224,240,206643,5,0,0:0:0:0:
148,87,206841,1,0,0:0:0:0:
350,126,207040,1,0,0:0:0:0:
142,166,207239,1,0,0:0:0:0:
350,222,207437,1,0,0:0:0:0:
286,6,207636,1,0,0:0:0:0:
224,240,207835,1,0,0:0:0:0:
374,22,208034,1,0,0:0:0:0:
366,318,208232,6,0,B|302:310|214:326|142:310,1,172.5
118,366,209027,2,0,P|110:278|186:226,1,172.5
342,222,210020,6,0,B|346:218|346:218|382:206|406:246|382:290|382:290|302:314|254:274|250:206|266:158|314:142|366:142,1,402.5
342,222,212206,6,0,P|338:282|378:254,2,129.375004935265
368,136,213000,6,0,P|320:56|332:8,1,115
444,232,213199,2,0,P|492:152|480:104,1,115
360,144,213398,6,0,P|312:64|324:16,1,115
348,276,213596,2,0,P|420:228|484:260,1,115
352,152,213795,6,0,P|304:72|316:24,1,115
245,260,213994,2,0,P|333:284|373:244,1,115
344,160,214192,6,0,P|296:80|308:32,1,115
140,265,214391,2,0,P|200:242|264:282,1,115
336,168,214590,6,0,P|288:88|300:40,1,115
64,24,214788,2,0,L|16:224,1,115
244,259,214987,6,0,L|180:59,1,115
72,32,215186,2,0,L|24:232,1,115
256,264,215384,6,0,L|192:64,1,115
80,40,215583,2,0,L|32:240,1,115
268,272,215782,6,0,L|204:72,1,115
80,40,215981,2,0,L|32:240,1,115
248,180,216179,6,0,B|284:290|284:290|364:314|404:250,1,230
488,24,216477,1,0,0:0:0:0:
464,48,216577,6,0,P|456:128|496:192,1,115
330,175,216775,2,0,P|363:248|429:283,1,115
380,83,216974,6,0,P|333:148|335:223,1,115
200,120,217173,2,0,P|192:199|232:263,1,115
293,61,217371,6,0,P|219:94|184:160,1,115
110,0,217570,2,0,P|63:65|65:140,1,115
58,211,217769,6,0,P|58:99|50:75,1,115
112,288,217967,2,0,P|150:182|150:157,1,115
152,368,218166,2,0,P|223:282|233:258,1,115
280,152,218365,6,0,P|344:232|352:264,1,115
384,72,218563,2,0,P|416:169|413:201,1,115
504,16,218762,2,0,P|501:118|487:148,1,115
424,312,218961,6,0,P|328:312|280:328,1,115
96,216,219159,2,0,P|192:216|240:232,1,115
427,152,219358,6,0,P|331:168|203:224,1,230
444,340,219656,1,0,0:0:0:0:
424,312,219755,6,0,L|448:160,1,115
227,106,219954,2,0,L|209:219,1,115
368,232,220153,6,0,L|365:78,1,115
138,63,220351,2,0,L|140:177,1,115
296,144,220550,6,0,L|266:-7,1,115
40,17,220749,2,0,L|61:129,1,115
88,280,220947,6,0,P|232:296|272:368,1,230
456,300,221245,1,0,0:0:0:0:
446,269,221345,2,0,P|326:221|302:85,1,230
452,0,221643,1,0,0:0:0:0:
478,6,221742,2,0,L|494:134,1,115
432,384,221941,2,0,L|446:269,1,115
279,19,222139,2,0,L|295:147,1,115
232,360,222338,2,0,L|246:245,1,115
80,32,222537,5,0,0:0:0:0:
88,64,222636,1,0,0:0:0:0:
80,96,222735,2,0,L|56:216,1,115
136,336,222934,5,0,0:0:0:0:
120,288,223034,1,0,0:0:0:0:
136,240,223133,2,0,L|160:120,1,115
256,8,223332,5,0,0:0:0:0:
272,64,223431,1,0,0:0:0:0:
248,112,223530,2,0,L|225:224,1,115
288,368,223729,5,0,0:0:0:0:
274,305,223828,1,0,0:0:0:0:
304,248,223928,2,0,L|326:135,1,115
432,32,224126,5,0,0:0:0:0:
448,112,224226,1,0,0:0:0:0:
432,192,224325,2,0,P|352:264|312:264,1,115
256,104,224524,5,0,0:0:0:0:
187,165,224623,1,0,0:0:0:0:
176,256,224722,2,0,P|224:360|240:368,1,115
350,264,224921,5,0,0:0:0:0:
339,166,225020,1,0,0:0:0:0:
256,104,225120,2,0,P|136:80|104:96,1,115
48,232,225318,5,0,0:0:0:0:
144,296,225418,1,0,0:0:0:0:
256,328,225517,1,0,0:0:0:0:
368,296,225616,1,0,0:0:0:0:
464,232,225716,6,0,P|472:168|432:104,1,115
352,168,225914,2,0,P|337:105|278:58,1,115
232,144,226113,2,0,P|196:89|125:66,1,115
112,160,226312,2,0,P|60:121|-14:123,1,115
451,123,226510,6,0,P|473:175|464:232,1,115
303,70,226709,2,0,P|341:112|352:168,1,115
152,68,226908,2,0,P|203:95|232:144,1,115
11,116,227106,2,0,P|68:124|112:160,1,115
71,262,227305,6,0,P|111:190|111:158,1,115
200,320,227504,2,0,P|212:238|202:208,1,115
336,328,227702,2,0,P|320:247|299:222,1,115
376,136,227901,6,0,P|464:152|504:136,1,115
222,145,228100,2,0,P|279:213|320:227,1,115
64,61,228298,2,0,P|94:145|127:171,1,115
272,24,228497,6,0,P|184:72|136:80,1,115
432,64,228696,2,0,P|429:164|412:209,1,115
312,256,228894,6,0,P|416:320|440:312,1,115
172,208,229093,2,0,P|65:266|60:291,1,115
283,111,229292,2,0,P|286:-10|267:-27,1,115
312,256,229490,6,0,P|416:320|440:312,1,115
320,136,229689,2,0,P|384:32|376:8,1,115
200,128,229888,2,0,P|96:64|72:72,1,115
192,248,230086,2,0,P|128:352|136:376,1,115
312,256,230285,6,0,P|416:320|440:312,1,115
228,272,230484,2,0,P|225:394|244:411,1,115
172,208,230683,2,0,P|65:266|60:291,1,115
200,128,230881,2,0,P|95:64|71:71,1,115
283,111,231080,2,0,P|286:-10|267:-27,1,115
339,175,231279,2,0,P|446:117|451:92,1,115
312,256,231477,6,0,L|208:304,1,115
172,208,231676,2,0,L|183:94,1,115
283,111,231875,2,0,L|376:177,1,115
207,304,232073,6,0,P|144:306|80:224,1,115
172,208,232272,2,0,P|228:204|276:233,1,115
346,305,232471,2,0,P|402:308|450:279,1,115
381,208,232669,2,0,P|324:204|276:233,1,115
176,336,232868,6,0,P|112:337|48:255,1,115
171,207,233067,2,0,P|227:203|275:232,1,115
336,336,233265,2,0,P|399:337|463:255,1,115
381,208,233464,2,0,P|324:204|276:233,1,115
176,336,233663,6,0,L|80:208,1,115
40,160,233861,2,0,L|198:140,1,115
256,136,234060,2,0,L|193:283,1,115
261,309,234259,2,0,L|376:296,1,115
408,216,234457,2,0,L|338:124,1,115
288,56,234656,2,0,L|402:42,1,115
496,32,234855,2,0,L|450:137,1,115
408,216,235053,2,0,P|416:304|440:336,1,115
344,168,235252,6,0,P|328:264|336:304,1,115
168,352,235451,2,0,L|32:272,1,115
344,168,235649,6,0,P|311:259|312:300,1,115
68,293,235848,2,0,L|29:140,1,115
344,168,236047,6,0,P|295:251|289:292,1,115
39,181,236245,2,0,L|81:29,1,115
344,168,236444,6,0,P|281:242|268:281,1,115
70,70,236643,2,0,L|199:-18,1,115
392,16,236841,5,0,0:0:0:0:
435,73,236941,1,0,0:0:0:0:
440,144,237040,2,0,P|424:232|376:264,1,115
144,264,237239,5,0,0:0:0:0:
176,192,237338,1,0,0:0:0:0:
248,152,237437,2,0,P|328:160|376:192,1,115
472,368,237636,5,0,0:0:0:0:
384,384,237735,1,0,0:0:0:0:
296,352,237835,2,0,P|288:248|304:200,1,115
384,56,238034,5,0,0:0:0:0:
493,91,238133,1,0,0:0:0:0:
493,206,238232,1,0,0:0:0:0:
383,242,238332,1,0,0:0:0:0:
316,149,238431,1,0,0:0:0:0:
256,192,244788,12,0,247967,0:0:0:0:
256,192,248762,5,0,0:0:0:0:
256,192,249557,5,0,0:0:0:0:
256,192,249954,1,0,0:0:0:0:
256,192,250351,5,0,0:0:0:0:
256,192,250550,1,0,0:0:0:0:
256,192,250749,1,0,0:0:0:0:
312,240,250848,1,0,0:0:0:0:
384,248,250947,1,0,0:0:0:0:
448,216,251047,1,0,0:0:0:0:
456,144,251146,6,0,P|440:72|456:32,1,115
258,83,251345,2,0,P|273:137|255:191,1,115
448,148,251543,6,0,P|432:76|448:36,1,115
255,191,251742,2,0,P|239:245|257:299,1,115
440,152,251941,6,0,P|424:80|440:40,1,115
257,299,252139,2,0,P|311:281|365:296,1,115
432,156,252338,6,0,P|416:84|432:44,1,115
365,296,252537,2,0,P|419:311|473:293,1,115
254,133,252735,6,0,P|199:117|145:135,1,115
308,202,252934,2,0,P|322:256|364:295,1,115
335,128,253133,2,0,P|375:88|387:32,1,115
254,133,253332,6,0,P|269:78|251:24,1,115
176,152,253530,2,0,P|161:97|119:58,1,115
104,184,253729,2,0,P|64:143|8:131,1,115
88,312,253928,6,0,P|176:256|184:224,1,115
232,344,254126,2,0,P|280:251|271:219,1,115
376,304,254325,6,0,P|371:199|347:176,1,115
248,72,254524,2,0,P|252:176|276:199,1,115
384,312,254722,6,0,P|379:207|355:184,1,115
240,64,254921,2,0,P|244:168|268:191,1,115
392,320,255120,6,0,P|387:215|363:192,1,115
232,56,255318,2,0,P|236:160|260:183,1,115
424,152,255517,2,0,P|331:103|299:112,1,115
248,272,255716,2,0,P|336:216|344:184,1,115
378,46,255914,6,0,L|426:158,1,115
382,317,256113,2,0,L|334:205,1,115
224,48,256312,2,0,L|176:160,1,115
220,319,256510,2,0,L|268:207,1,115
378,46,256709,2,0,L|426:158,1,115
480,288,256908,2,0,P|432:272|344:312,1,115
264,352,257106,2,0,P|216:368|136:344,1,115
48,280,257305,2,0,L|64:120,1,115
72,29,257504,6,0,P|128:8|183:32,1,115
280,112,257702,2,0,P|333:130|385:109,1,115
400,24,257901,2,0,P|346:5|294:26,1,115
184,112,258100,2,0,P|131:133|78:114,1,115
56,16,258298,6,0,P|112:-5|167:19,1,115
296,128,258496,2,0,P|349:146|401:125,1,115
416,8,258695,2,0,P|362:-10|310:10,1,115
168,128,258894,2,0,P|115:149|62:130,1,115
16,0,259093,6,0,L|112:64,1,115
248,64,259292,2,0,L|152:0,1,115
168,128,259490,2,0,L|264:192,1,115
400,192,259689,2,0,L|304:128,1,115
312,264,259888,2,0,L|408:328,1,115
504,248,260086,2,0,L|511:132,1,115
407,77,260285,2,0,L|303:128,1,115
216,280,260484,2,0,L|223:164,1,115
128,16,260683,6,0,L|224:80,1,115
160,16,260881,2,0,L|256:80,1,115
439,77,261080,6,0,L|342:141,1,115
407,77,261278,2,0,L|310:141,1,115
191,165,261477,6,0,L|287:229,1,115
223,165,261675,2,0,L|319:229,1,115
512,208,261875,6,0,L|415:272,1,115
480,208,262073,2,0,L|383:272,1,115
248,376,262272,6,0,P|176:384|56:336,1,115
24,240,262471,2,0,P|96:232|216:280,1,115
270,271,262669,2,0,P|342:279|462:231,1,115
504,144,262868,2,0,P|432:136|312:184,1,115
251,240,263067,2,0,P|194:247|137:238,1,115
16,80,263265,2,0,P|72:71|129:78,1,115
276,144,263464,2,0,P|332:151|389:142,1,115
512,32,263663,2,0,P|455:24|398:33,1,115
276,144,263861,6,0,B|132:208|16:144|16:144|128:96|224:168|224:168|368:256|484:192|484:192|376:152|280:204|280:204|212:264|112:256|46:239|46:239|20:276|32:360|140:372|268:332|304:300|304:300|348:308|408:316|483:290|483:290|472:332|400:348,1,1840
