osu file format v14

[General]
AudioFilename: audio.mp3
AudioLeadIn: 0
PreviewTime: 47603
Countdown: 0
SampleSet: Soft
StackLeniency: 0.4
Mode: 0
LetterboxInBreaks: 0
WidescreenStoryboard: 1

[Editor]
Bookmarks: 16312,17305,22669,23663,34192,34788,38563,39358,46908,47305,47702,55251,55450,55649,71543,73927,74722,113265,116046,128761,129556,130351,131146,131940,132735,139490,139887,143066,158165,158960,171675,208232,235251,237636,238033,255318
DistanceSpacing: 0.8
BeatDivisor: 4
GridSize: 8
TimelineZoom: 1.4

[Metadata]
Title:Blogoslawieni Milosierni (Krysiek Remix)
TitleUnicode:Błogosławieni Miłosierni (Krysiek Remix)
Artist:Katarzyna Bogusz, Ola Maciejewska, Przemyslaw Kleczkowski
ArtistUnicode:Katarzyna Bogusz, Ola Maciejewska, Przemysław Kleczkowski
Creator:CptSqBany
Version:NeBu's Consecration
Source:World Youth Day
Tags:swiatowe dni mlodziezy papiez franciszek jan pawel polska krakow poland NebuSC2 nebu janko _underjoy streeteelf
BeatmapID:1168807
BeatmapSetID:490411

[Difficulty]
HPDrainRate:6
CircleSize:4
OverallDifficulty:8
ApproachRate:9.6
SliderMultiplier:2.4
SliderTickRate:1

[Events]
//Background and Video events
0,0,"white-wallpaper-18.jpg",0,0
//Break Periods
2,74921,80554
2,100947,112073
2,184591,194991
2,238630,244263
//Storyboard Layer 0 (Background)
//Storyboard Layer 1 (Fail)
//Storyboard Layer 2 (Pass)
//Storyboard Layer 3 (Foreground)
//Storyboard Sound Samples

[TimingPoints]
12735.9899773293,397.350993377483,4,2,0,5,1,0
13530,-100,4,2,0,40,0,0
20086,-100,4,2,0,5,0,0
20186,-100,4,2,0,40,0,0
20981,-100,4,2,0,5,0,0
21080,-100,4,2,0,40,0,0
46908,198.675496688742,4,2,0,65,1,0
46908,-66.6666666666667,4,2,0,70,0,0
48497,397.350993377483,4,2,0,50,1,0
49291,-80,4,2,0,65,0,1
55251,-200,4,2,0,65,0,1
55649,-80,4,2,0,65,0,1
67967,-200,4,2,0,65,0,1
68364,-80,4,2,0,65,0,1
74722,-80,4,2,0,50,0,0
81079,-100,4,2,0,50,0,0
91708,-57.1428571428571,4,2,0,50,0,0
92205,-100,4,2,0,50,0,0
94589,-200,4,2,0,50,0,0
94887,-57.1428571428571,4,2,0,50,0,0
95781,-100,4,2,0,50,0,0
127470,-100,4,2,0,5,0,0
127569,-100,4,2,0,50,0,0
127867,-100,4,2,0,5,0,0
127967,-100,4,2,0,50,0,0
128265,-100,4,2,0,5,0,0
128364,-100,4,2,0,50,0,0
128662,-100,4,2,0,5,0,0
128761,-100,4,2,0,50,0,0
133530,-66.6666666666667,4,2,0,65,0,1
139490,-66.6666666666667,4,2,0,10,0,1
139887,-57.1428571428571,4,2,0,65,0,1
140086,-133.333333333333,4,2,0,65,0,1
140285,-57.1428571428571,4,2,0,65,0,1
140483,-133.333333333333,4,2,0,65,0,1
140682,-57.1428571428571,4,2,0,65,0,1
140881,-133.333333333333,4,2,0,65,0,1
141079,-57.1428571428571,4,2,0,65,0,1
141278,-133.333333333333,4,2,0,65,0,1
141477,-50,4,2,0,65,0,1
141675,-200,4,2,0,65,0,1
141874,-50,4,2,0,65,0,1
142073,-200,4,2,0,65,0,1
142271,-50,4,2,0,65,0,1
142470,-200,4,2,0,65,0,1
142669,-50,4,2,0,65,0,1
142867,-200,4,2,0,65,0,1
143066,-66.6666666666667,4,2,0,70,0,0
146245,-66.6666666666667,4,2,0,65,0,1
158960,-66.6666666666667,4,2,0,50,0,0
184391,-66.6666666666667,4,2,0,50,0,0
196907,-66.6666666666667,4,2,0,5,0,0
197106,-100,4,2,0,50,0,0
208232,-133.333333333333,4,2,0,50,0,0
210020,-200,4,2,0,50,0,0
211410,-100,4,2,0,50,0,0
212205,-66.6666666666667,4,2,0,50,0,0
213000,-50,4,2,0,65,0,1
218960,-200,4,2,0,65,0,1
219357,-50,4,2,0,65,0,1
238430,-50,4,2,0,50,0,0
244788,-66.6666666666667,4,2,0,5,0,0
245583,-66.6666666666667,4,2,0,15,0,0
246377,-66.6666666666667,4,2,0,25,0,0
247172,-66.6666666666667,4,2,0,35,0,0
247967,-66.6666666666667,4,2,0,60,0,0
251146,-66.6666666666667,4,2,0,65,0,1
257503,-50,4,2,0,65,0,1
263861,-50,4,2,0,75,0,0

[Colours]
Combo1 : 192,192,192
Combo2 : 0,128,192
Combo3 : 0,128,255
Combo4 : 128,128,255

[HitObjects]
256,192,11543,12,0,12735,0:0:0:0:
232,128,13530,6,0,P|208:208|120:208,1,180
208,104,14126,2,0,P|240:96|264:112,1,60
202,194,14325,2,2,P|124:135|196:15,1,240
264,272,14921,1,0,0:0:0:0:
208,104,15120,2,2,B|298:128|298:128|327:127|327:127|352:142|352:142|439:166,1,240
481,224,15716,2,0,P|508:179|487:112,1,120
437,165,16312,6,2,B|333:125|261:205|261:205|165:165|165:165|205:277|205:277|133:261|133:261|90:147,1,600
467,81,17504,6,2,P|527:170|444:255,1,240
360,41,18100,1,0,0:0:0:0:
450,351,18298,2,2,P|391:331|404:170,1,240
320,48,18894,1,0,0:0:0:0:
288,40,18994,1,0,0:0:0:0:
256,48,19093,2,2,B|216:40|184:64|184:64|144:32|104:32|104:32|118:67|118:67|104:112,1,240
229,230,19888,6,2,B|178:264|178:264|117:252,1,120
257,165,20186,2,2,P|281:181|297:213,1,60
182,115,20384,2,2,P|174:143|180:173,2,60
200,80,20683,6,2,P|288:72|349:134,1,180
166,150,21080,2,2,P|126:102|150:22,1,120
289,188,21477,2,0,B|225:180|197:245|197:245|128:203|81:252,1,240
46,179,22073,2,0,P|43:145|62:115,1,60
151,194,22272,2,0,P|169:259|144:310,1,120
70,164,22669,6,2,B|135:78|224:142|224:142|344:222|432:158|450:38|326:-48|240:62,1,600
267,241,23861,6,2,P|376:236|469:121,1,240
203,41,24656,2,2,B|203:89|243:137|243:137|195:217|203:297|203:297|227:257|283:233,1,360
256,192,25451,12,0,28630,0:0:0:0:
96,96,28729,5,0,0:0:0:0:
88,120,28828,2,8,P|81:155|109:187,1,60
176,112,29027,2,8,P|183:77|155:45,1,60
80,151,29226,2,8,P|73:186|101:218,1,60
128,264,29424,1,0,0:0:0:0:
200,280,29524,1,0,0:0:0:0:
272,264,29623,1,0,0:0:0:0:
320,208,29722,1,0,0:0:0:0:
328,136,29822,6,8,P|330:106|316:81,1,60
320,208,30020,2,8,P|318:238|332:263,1,60
378,14,30219,2,0,P|307:-10|233:120,1,240
184,192,30815,1,0,0:0:0:0:
224,280,31014,6,8,P|235:308|232:344,1,60
184,192,31212,2,8,P|171:161|176:128,1,60
214,95,31411,1,0,0:0:0:0:
271,90,31510,1,0,0:0:0:0:
321,122,31609,1,0,0:0:0:0:
339,178,31709,1,0,0:0:0:0:
331,235,31808,6,8,P|332:270|347:299,1,60
401,221,32007,1,2,0:0:0:0:
409,205,32106,1,2,0:0:0:0:
284,146,32206,6,8,P|286:177|298:204,1,60
300,74,32405,1,2,0:0:0:0:
308,58,32504,1,2,0:0:0:0:
208,25,32603,2,8,P|174:13|136:25,1,60
64,72,32802,2,8,P|52:106|64:144,1,60
84,204,33000,1,2,0:0:0:0:
141,196,33099,1,2,0:0:0:0:
177,149,33198,1,2,0:0:0:0:
169,91,33298,1,2,0:0:0:0:
79,105,33398,6,2,P|111:161|256:114,1,240
169,91,33994,1,8,0:0:0:0:
79,105,34192,2,2,B|40:165|66:226|66:226|47:273|71:321|71:321|151:289|146:219,1,360
240,160,34987,1,0,0:0:0:0:
248,272,35186,2,0,P|306:293|360:272,1,120
305,213,35583,1,0,0:0:0:0:
419,348,35782,6,2,P|454:279|406:191,1,180
344,120,36179,2,8,P|351:82|375:58,1,60
440,112,36378,1,2,0:0:0:0:
440,160,36477,1,2,0:0:0:0:
410,193,36577,6,8,P|378:200|349:185,1,60
216,96,36775,2,8,P|236:117|265:122,1,60
336,200,36974,6,8,P|304:207|275:192,1,60
142,103,37172,2,8,P|162:124|191:129,1,60
306,287,37371,5,0,0:0:0:0:
191,129,37570,1,0,0:0:0:0:
376,189,37769,1,0,0:0:0:0:
191,249,37967,1,0,0:0:0:0:
306,92,38166,1,8,0:0:0:0:
306,92,38563,6,2,B|380:94|426:28|426:28|418:116|450:180|450:180|451:258|410:308|410:308|423:326|426:356,1,480
234,82,39755,6,2,P|162:106|258:122,1,240
118,41,40550,2,2,P|86:113|282:220,1,360
38,36,41345,6,2,P|19:84|19:154,1,120
72,296,41742,1,0,0:0:0:0:
224,336,41941,1,0,0:0:0:0:
118,41,42139,6,2,P|121:92|150:155,1,120
258,262,42536,1,0,0:0:0:0:
413,234,42735,1,0,0:0:0:0:
302,89,42934,6,2,P|250:92|187:121,1,120
81,229,43331,1,0,0:0:0:0:
109,384,43530,1,0,0:0:0:0:
240,296,43729,6,2,P|291:292|354:263,1,120
461,156,44126,1,0,0:0:0:0:
433,1,44325,1,0,0:0:0:0:
360,320,44524,5,8,0:0:0:0:
304,88,44722,1,0,0:0:0:0:
264,328,44921,5,8,0:0:0:0:
376,48,45120,1,0,0:0:0:0:
128,216,45318,5,8,0:0:0:0:
392,352,45517,1,0,0:0:0:0:
304,88,45716,5,8,0:0:0:0:
168,352,45915,1,0,0:0:0:0:
493,240,46113,6,8,P|468:221|424:216,1,60
304,216,46312,2,8,P|329:235|373:240,1,60
369,160,46510,2,8,P|344:141|300:136,1,60
180,136,46709,2,8,P|205:155|249:160,1,60
187,114,46908,6,2,P|163:122|203:130,7,90.0000034332276
232,161,47305,6,2,P|248:185|216:209,10,67.5000025749207
277,177,48497,6,2,P|293:121|205:49,1,180
216,128,49093,1,4,0:0:0:0:
277,177,49291,6,8,P|310:196|356:190,1,75
464,120,49490,2,8,P|431:101|385:107,1,75
312,168,49689,2,8,P|345:187|391:181,1,75
499,111,49888,2,8,P|466:92|420:98,1,75
244,208,50086,5,8,0:0:0:0:
261,254,50185,1,0,0:0:0:0:
255,303,50284,1,8,0:0:0:0:
227,344,50384,1,0,0:0:0:0:
248,264,50483,1,8,0:0:0:0:
304,217,50582,1,0,0:0:0:0:
379,216,50681,1,8,0:0:0:0:
438,260,50781,1,0,0:0:0:0:
440,344,50881,6,8,B|400:360|400:360|416:320,1,75
344,288,51079,2,8,B|328:248|328:248|368:264,1,75
445,147,51278,2,8,B|461:187|461:187|432:176,1,75
344,48,51476,2,8,B|367:11|367:11|374:43,1,75
249,32,51675,1,8,0:0:0:0:
223,73,51774,1,0,0:0:0:0:
176,87,51873,1,8,0:0:0:0:
131,67,51973,1,0,0:0:0:0:
88,88,52073,1,8,0:0:0:0:
80,136,52172,1,0,0:0:0:0:
96,176,52271,1,8,0:0:0:0:
136,200,52371,1,0,0:0:0:0:
176,224,52470,6,8,P|195:255|191:292,1,75
108,139,52669,2,8,P|104:102|123:70,1,75
304,160,52867,2,8,P|335:140|372:144,1,75
188,306,53066,2,8,P|151:309|119:290,1,75
200,48,53265,2,8,P|231:28|268:32,1,75
264,312,53464,2,8,P|267:348|248:380,1,75
64,240,53662,2,8,P|44:208|48:171,1,75
372,144,53861,2,8,P|408:140|440:159,1,75
359,231,54059,5,8,0:0:0:0:
313,249,54158,1,0,0:0:0:0:
268,231,54257,1,8,0:0:0:0:
247,187,54357,1,0,0:0:0:0:
270,149,54457,5,8,0:0:0:0:
314,128,54557,1,0,0:0:0:0:
332,83,54656,1,8,0:0:0:0:
314,37,54755,1,0,0:0:0:0:
270,47,54854,5,8,3:0:0:0:
224,30,54954,1,0,3:0:0:0:
179,49,55053,1,8,3:0:0:0:
159,95,55152,1,0,3:0:0:0:
112,93,55251,2,8,P|92:74|124:82,1,60
296,80,55649,6,8,B|307:114|307:114|304:120|304:120|314:150,1,75
296,296,55847,2,8,B|286:266|286:266|289:260|289:260|278:226,1,75
370,80,56046,2,8,B|381:114|381:114|378:120|378:120|388:150,1,75
222,296,56244,2,8,B|212:266|212:266|215:260|215:260|204:226,1,75
244,163,56444,1,8,0:0:0:0:
314,150,56543,1,0,0:0:0:0:
358,206,56642,1,8,0:0:0:0:
328,271,56742,1,0,0:0:0:0:
258,289,56841,2,8,P|220:283|202:241,1,75
120,136,57040,2,8,P|126:98|168:80,1,75
293,233,57238,6,8,P|287:271|245:289,1,75
140,371,57437,2,8,P|102:365|84:323,1,75
200,40,57636,2,8,P|200:80|184:120,1,75
272,362,57834,2,8,P|257:328|256:282,1,75
192,216,58033,5,8,0:0:0:0:
148,241,58132,1,0,0:0:0:0:
99,239,58231,1,8,0:0:0:0:
57,213,58331,1,0,0:0:0:0:
39,169,58430,2,8,P|31:129|55:89,3,75
160,328,58828,5,8,0:0:0:0:
176,320,58927,1,0,0:0:0:0:
184,304,59026,2,8,P|199:266|236:243,1,75
185,113,59225,5,8,0:0:0:0:
152,128,59324,1,0,0:0:0:0:
144,160,59423,2,8,P|132:195|100:212,1,75
256,312,59622,5,8,0:0:0:0:
296,320,59722,1,0,0:0:0:0:
328,312,59821,2,8,P|364:300|383:270,1,75
216,232,60020,5,8,0:0:0:0:
189,262,60120,1,0,0:0:0:0:
179,294,60219,2,8,P|171:331|187:362,1,75
328,312,60417,6,8,B|346:278|346:278|352:232,1,75
408,168,60616,2,8,B|409:129|409:129|395:85,1,75
488,288,60814,6,8,B|461:259|461:259|420:238,1,75
408,168,61013,2,8,B|393:132|393:132|362:98,1,75
296,128,61212,1,8,0:0:0:0:
255,155,61311,1,0,0:0:0:0:
206,158,61410,1,8,0:0:0:0:
163,133,61510,1,0,0:0:0:0:
157,206,61609,1,8,0:0:0:0:
95,241,61708,1,0,0:0:0:0:
37,200,61807,1,8,0:0:0:0:
49,130,61907,1,0,0:0:0:0:
120,104,62006,6,8,B|176:96|176:96|160:120,1,75
49,130,62205,2,8,B|-7:138|-7:138|9:114,1,75
232,40,62404,6,8,B|288:32|288:32|272:56,1,75
216,232,62603,2,8,B|224:288|224:288|200:272,1,75
3,122,62801,6,8,B|-5:66|-5:66|19:82,1,75
277,47,63000,2,8,B|285:103|285:103|261:87,1,75
192,344,63198,6,8,P|178:308|187:267,1,75
269,92,63397,2,8,P|283:128|274:169,1,75
194,185,63596,5,8,0:0:0:0:
150,206,63695,1,0,0:0:0:0:
107,185,63794,1,8,0:0:0:0:
97,138,63894,1,0,0:0:0:0:
115,130,63993,5,8,0:0:0:0:
125,151,64092,1,0,0:0:0:0:
115,173,64191,1,8,0:0:0:0:
91,178,64291,1,0,0:0:0:0:
102,101,64391,5,8,0:0:0:0:
163,61,64490,1,0,0:0:0:0:
234,79,64589,1,8,0:0:0:0:
269,142,64689,1,0,0:0:0:0:
198,159,64788,1,8,0:0:0:0:
196,229,64887,1,0,0:0:0:0:
262,255,64986,1,8,0:0:0:0:
309,203,65086,1,0,0:0:0:0:
269,142,65185,6,8,P|233:131|189:134,1,75
309,203,65384,2,8,P|344:212|389:195,1,75
176,112,65583,2,8,P|140:119|96:104,1,75
376,224,65782,2,8,P|411:236|450:216,1,75
173,120,65980,6,8,B|166:156|166:156|150:122,1,75
125,48,66179,2,8,B|132:12|132:12|148:46,1,75
221,42,66377,2,8,B|257:49|257:49|223:65,1,75
78,130,66576,2,8,B|42:123|42:123|76:107,1,75
167,156,66775,5,8,0:0:0:0:
175,180,66874,1,0,0:0:0:0:
183,204,66973,2,8,P|184:243|167:284,1,75
243,159,67172,5,8,0:0:0:0:
251,183,67271,1,0,0:0:0:0:
259,207,67370,2,8,P|259:247|247:293,1,75
323,173,67569,5,8,0:0:0:0:
331,197,67668,1,0,0:0:0:0:
339,221,67767,2,8,P|335:262|328:301,1,75
167,156,67967,6,2,P|166:121|182:94,1,60
296,39,68364,5,8,0:0:0:0:
342,53,68463,1,0,0:0:0:0:
363,97,68562,1,8,0:0:0:0:
344,142,68662,1,0,0:0:0:0:
310,121,68761,5,8,0:0:0:0:
264,135,68860,1,0,0:0:0:0:
243,179,68959,1,8,0:0:0:0:
262,224,69059,1,0,0:0:0:0:
293,208,69159,5,8,0:0:0:0:
334,216,69258,1,0,0:0:0:0:
362,248,69357,1,8,0:0:0:0:
365,290,69457,1,0,0:0:0:0:
393,310,69556,1,8,0:0:0:0:
354,325,69655,1,0,0:0:0:0:
314,313,69755,1,8,0:0:0:0:
288,279,69854,1,0,0:0:0:0:
348,238,69953,5,8,0:0:0:0:
365,168,70052,1,0,0:0:0:0:
318,113,70151,1,8,0:0:0:0:
246,121,70251,1,0,0:0:0:0:
214,187,70351,5,8,0:0:0:0:
142,195,70451,1,0,0:0:0:0:
95,140,70550,1,8,0:0:0:0:
112,70,70649,1,0,0:0:0:0:
134,57,70748,5,8,0:0:0:0:
165,52,70847,1,0,0:0:0:0:
196,60,70946,1,8,0:0:0:0:
221,80,71046,1,0,0:0:0:0:
212,103,71145,1,8,0:0:0:0:
210,135,71244,1,0,0:0:0:0:
221,165,71344,1,8,0:0:0:0:
243,188,71443,1,0,0:0:0:0:
264,176,71543,5,8,0:0:0:0:
288,176,71642,1,0,0:0:0:0:
304,184,71742,2,8,P|338:205|384:200,1,75
400,138,71940,5,8,0:0:0:0:
421,148,72039,1,0,0:0:0:0:
432,162,72139,2,8,P|465:188|474:223,1,75
416,272,72338,5,8,0:0:0:0:
430,289,72437,1,0,0:0:0:0:
434,307,72537,2,8,P|446:349|434:388,1,75
331,362,72735,2,8,P|297:370|262:354,1,75
144,272,72934,2,8,P|174:294|212:295,1,75
412,182,73132,2,8,P|386:209|348:216,1,75
206,127,73331,2,8,P|168:125|136:147,1,75
209,295,73530,2,8,P|208:331|228:362,1,75
412,181,73729,2,8,P|404:145|376:121,1,75
338,58,73927,5,8,0:0:0:0:
266,46,74026,1,0,0:0:0:0:
215,96,74125,1,8,0:0:0:0:
225,168,74225,1,0,0:0:0:0:
275,223,74324,1,8,0:0:0:0:
254,291,74423,1,0,0:0:0:0:
185,312,74522,1,8,0:0:0:0:
129,267,74622,1,0,0:0:0:0:
136,195,74721,5,4,0:0:0:0:
128,232,81079,5,2,0:0:0:0:
191,122,81278,1,8,0:0:0:0:
300,185,81477,1,2,0:0:0:0:
237,295,81675,1,8,0:0:0:0:
128,232,81874,5,2,0:0:0:0:
162,73,82073,1,8,0:0:0:0:
162,73,82172,2,2,P|89:69|35:166,1,180
224,328,82669,5,8,0:0:0:0:
376,280,82867,1,2,0:0:0:0:
293,265,83066,5,8,0:0:0:0:
152,192,83264,1,2,0:0:0:0:
288,112,83463,2,8,P|347:106|392:144,1,120
240,176,83761,2,8,P|209:125|287:32,1,180
406,250,84258,5,2,0:0:0:0:
190,266,84457,1,8,0:0:0:0:
302,258,84655,5,2,0:0:0:0:
86,274,84854,1,8,0:0:0:0:
406,250,85053,2,2,P|466:255|510:218,1,120
442,180,85351,2,8,B|434:134|434:134|450:94|450:94|426:28|426:28|410:60,1,180
112,200,85847,6,2,P|157:237|224:224,1,120
364,104,86245,2,8,P|319:67|252:80,1,120
321,256,86642,2,2,L|297:136,1,120
250,274,86940,2,8,P|331:329|386:289,1,180
106,97,87437,5,8,0:0:0:0:
162,289,87636,1,2,0:0:0:0:
442,97,87834,5,8,0:0:0:0:
386,289,88033,1,2,0:0:0:0:
205,48,88232,2,8,P|259:37|312:75,1,120
253,282,88530,2,8,B|221:234|245:194|245:194|221:146|253:98,1,180
402,121,89026,5,8,0:0:0:0:
234,313,89225,1,2,0:0:0:0:
330,81,89424,1,8,0:0:0:0:
394,361,89622,1,2,0:0:0:0:
131,89,89821,2,8,B|171:105|171:105|203:97|203:97|251:113,1,120
68,141,90119,2,8,P|51:74|133:8,1,180
136,216,90616,6,2,P|142:224|152:224,1,20
360,184,90814,2,2,P|354:192|344:192,1,20
120,344,91013,2,2,P|129:345|136:338,1,20
255,162,91212,2,2,P|256:171|249:178,1,20
336,352,91410,2,8,P|384:368|440:328,1,120
433,153,91708,2,8,B|433:113|433:113|417:81|417:81|398:148|353:184|353:184|387:238|377:296,1,315.000003004074
202,353,92205,5,8,0:0:0:0:
237,170,92404,1,2,0:0:0:0:
377,292,92602,1,8,0:0:0:0:
202,353,92801,1,2,0:0:0:0:
237,170,93000,2,8,P|297:161|349:202,1,120
180,231,93298,2,8,B|156:167|156:167|188:87|188:87|204:119,1,180
368,256,93795,5,8,0:0:0:0:
64,312,93993,1,2,0:0:0:0:
199,109,94192,5,8,0:0:0:0:
503,165,94390,1,2,0:0:0:0:
368,256,94589,6,8,P|336:267|312:256,1,60
330,213,94887,2,8,P|394:205|314:237,1,315.000003004074
368,256,95384,6,8,B|356:186|356:186|379:111|379:111|392:176,1,210.000002002716
272,192,95781,2,2,L|240:200,1,20
176,128,95980,2,2,L|208:136,1,20
125,184,96179,2,8,P|103:151|130:67,1,120
176,128,96477,2,8,B|250:128|272:64|272:64|245:60|224:40,1,180
100,135,96973,5,8,0:0:0:0:
197,258,97172,1,2,0:0:0:0:
319,161,97370,1,8,0:0:0:0:
223,39,97569,1,2,0:0:0:0:
127,217,97768,5,8,0:0:0:0:
283,236,97967,1,2,0:0:0:0:
300,81,98165,1,8,0:0:0:0:
146,62,98364,1,2,0:0:0:0:
203,315,98563,6,8,P|257:340|316:297,1,120
306,70,98960,2,8,P|255:43|203:69,1,120
400,216,99357,5,8,0:0:0:0:
288,280,99556,1,8,0:0:0:0:
328,272,99655,5,2,0:0:0:0:
22,208,99954,1,8,0:0:0:0:
232,0,100152,5,4,0:0:0:0:
256,192,113265,12,2,116046,0:0:0:0:
136,256,116245,5,0,0:0:0:0:
248,120,116444,1,0,0:0:0:0:
312,288,116642,1,2,0:0:0:0:
136,256,116841,2,2,P|76:262|40:216,1,120
184,197,117238,2,0,P|209:277|184:314,1,120
112,225,117636,2,8,P|150:128|259:212,1,240,0|0,0:0|0:0,0:0:0:0:
184,197,118232,1,0,0:0:0:0:
254,168,118430,2,8,B|310:152|310:152|358:176|358:176|430:144|481:189,1,240
416,248,119026,1,0,0:0:0:0:
254,168,119225,6,2,B|238:136|238:136|254:112|254:112|239:79|270:48,1,120
368,200,119622,1,0,0:0:0:0:
192,224,119821,1,0,0:0:0:0:
264,56,120020,6,2,B|304:48|304:48|352:64|352:64|392:56,1,120
456,224,120417,1,0,0:0:0:0:
352,368,120616,1,0,0:0:0:0:
184,304,120814,6,2,B|160:240|160:240|184:200|184:176|160:136|160:136|184:72,1,240
296,192,121410,1,0,0:0:0:0:
102,188,121609,2,2,B|38:172|30:132|30:132|62:116,1,120
296,192,122006,2,0,B|360:208|368:248|368:248|336:264,1,120
216,328,122404,5,2,0:0:0:0:
160,160,122602,1,0,0:0:0:0:
280,288,122801,1,2,0:0:0:0:
320,112,123000,1,0,0:0:0:0:
144,72,123198,6,2,B|104:64|72:80|72:80|49:69|49:69|23:77,1,120
120,232,123596,2,2,P|184:240|240:216,1,120
98,150,123993,2,2,B|23:185|42:262|42:262|10:294|10:294|42:358,1,240
216,376,124589,1,0,0:0:0:0:
169,131,124788,2,2,P|129:84|66:85,1,120
224,184,125185,2,0,B|257:190|257:190|280:169|304:184|304:184|344:175,1,120,0|0,0:0|0:0,3:0:0:0:
368,72,125583,5,2,0:0:0:0:
400,320,125781,1,0,0:0:0:0:
296,104,125980,5,2,0:0:0:0:
262,351,126178,1,0,0:0:0:0:
104,80,126377,5,2,0:0:0:0:
424,124,126575,1,0,0:0:0:0:
176,176,126775,5,2,0:0:0:0:
484,80,126973,1,0,0:0:0:0:
106,288,127172,6,0,B|90:240|90:240|106:208|106:208|86:156|130:112,1,180
176,176,127569,2,0,P|240:192|304:112,1,180,2|2,0:0|0:0,0:0:0:0:
224,114,127967,2,0,B|209:172|209:172|224:240|224:240|216:296,1,180
134,328,128364,2,0,P|185:374|292:340,1,180
344,88,128761,5,8,0:0:0:0:
376,336,128960,1,0,0:0:0:0:
396,29,129159,5,8,0:0:0:0:
320,267,129358,1,0,0:0:0:0:
148,77,129556,5,8,0:0:0:0:
396,29,129755,1,0,0:0:0:0:
196,189,129953,1,8,0:0:0:0:
428,277,130152,1,0,0:0:0:0:
264,64,130351,5,8,0:0:0:0:
216,312,130549,1,0,0:0:0:0:
360,104,130748,1,8,0:0:0:0:
336,352,130947,1,0,0:0:0:0:
440,152,131146,5,8,0:0:0:0:
457,95,131245,1,0,0:0:0:0:
439,39,131344,1,8,0:0:0:0:
392,3,131444,1,0,0:0:0:0:
333,1,131543,1,8,0:0:0:0:
283,32,131642,1,0,0:0:0:0:
260,87,131742,1,8,0:0:0:0:
273,145,131841,1,0,0:0:0:0:
316,185,131940,5,4,0:0:0:0:
316,185,132735,6,2,P|405:212|476:145,2,180
337,105,133530,5,8,0:0:0:0:
269,54,133629,1,0,0:0:0:0:
202,104,133728,1,8,0:0:0:0:
230,183,133828,1,0,0:0:0:0:
316,185,133927,2,8,P|352:214|392:208,1,90.0000034332277
202,104,134126,2,8,P|165:78|123:84,1,90.0000034332277
211,289,134324,2,8,P|258:291|287:249,1,90.0000034332277
305,0,134523,2,8,P|262:7|245:48,1,90.0000034332277
405,169,134722,6,8,P|369:144|325:146,1,90.0000034332277
106,145,134921,2,8,P|142:170|187:168,1,90.0000034332277
271,5,135119,2,8,P|246:41|248:86,1,90.0000034332277
248,304,135318,2,8,P|273:268|271:223,1,90.0000034332277
224,48,135516,2,8,P|198:84|200:128,1,90.0000034332277
288,336,135715,2,8,P|313:299|311:255,1,90.0000034332277
113,119,135914,6,8,B|185:135|185:135|201:127,1,90.0000034332277
352,80,136112,2,8,P|366:124|352:176,1,90.0000034332277
242,280,136311,2,8,B|235:250|256:225|256:225|245:206|251:183,1,90.0000034332277
250,0,136510,2,8,L|266:88,1,90.0000034332277
485,198,136708,6,8,P|461:158|445:206,1,90.0000034332277
357,166,136907,2,8,P|311:154|334:199,1,90.0000034332277
229,190,137106,2,8,P|183:178|206:223,1,90.0000034332277
115,257,137305,2,8,P|74:281|122:297,1,90.0000034332277
459,280,137503,6,8,P|483:241|483:192,1,90.0000034332277
410,217,137702,2,8,P|399:172|364:137,1,90.0000034332277
333,211,137900,2,8,P|294:186|245:187,1,90.0000034332277
273,261,138099,2,8,P|228:271|193:306,1,90.0000034332277
26,217,138298,6,8,B|68:233|68:233|114:222,1,90.0000034332277
245,99,138496,2,8,B|261:141|261:141|250:187,1,90.0000034332277
80,152,138695,2,8,P|64:112|104:96,1,90.0000034332277
237,26,138894,2,8,B|277:26|277:26|309:50|309:50|285:66,1,90.0000034332277
144,320,139093,6,8,P|112:336|136:312,1,90.0000034332277
376,88,139291,2,8,P|408:72|384:96,1,90.0000034332277
126,310,139490,6,2,B|142:270|142:270|126:238|126:238|158:185|118:142,1,180.000006866455
393,97,139887,6,8,P|416:104|376:120,1,105.000001001358
120,144,140086,2,8,P|104:120|112:96,1,45.0000017166138
393,97,140285,6,8,P|438:92|481:137,1,105.000001001358
288,288,140483,2,8,L|280:344,1,45.0000017166138
106,105,140682,6,8,P|155:96|194:129,1,105.000001001358
408,272,140881,2,8,P|384:280|360:272,1,45.0000017166138
168,80,141079,6,8,P|217:83|246:125,1,105.000001001358
416,319,141278,2,8,P|390:320|369:306,1,45.0000017166138
170,189,141477,6,8,P|148:131|170:77,1,120
416,160,141675,2,8,B|423:179|423:179|416:200,1,30
248,96,141874,6,8,P|306:74|360:96,1,120
288,352,142073,2,8,B|269:359|269:359|248:352,1,30
96,112,142271,6,8,P|145:84|216:96,1,120
163,161,142470,2,8,L|192:176,1,30
206,90,142669,2,8,P|258:109|295:171,1,120
211,172,142868,2,8,L|218:203,1,30
272,264,143066,5,8,0:0:0:0:
330,275,143165,1,0,0:0:0:0:
385,255,143264,1,8,0:0:0:0:
423,209,143364,1,0,0:0:0:0:
410,191,143463,5,8,0:0:0:0:
384,175,143562,1,0,0:0:0:0:
354,172,143661,1,8,0:0:0:0:
326,181,143761,1,0,0:0:0:0:
376,200,143861,5,8,0:0:0:0:
432,186,143960,1,0,0:0:0:0:
458,135,144059,1,8,0:0:0:0:
434,82,144159,1,0,0:0:0:0:
416,103,144258,5,8,0:0:0:0:
391,120,144357,1,0,0:0:0:0:
362,127,144456,1,8,0:0:0:0:
333,122,144556,1,0,0:0:0:0:
317,103,144655,5,8,0:0:0:0:
293,84,144754,1,0,0:0:0:0:
264,77,144853,1,8,0:0:0:0:
235,84,144953,1,0,0:0:0:0:
241,95,145053,5,8,0:0:0:0:
249,107,145152,1,0,0:0:0:0:
253,121,145251,1,8,0:0:0:0:
251,136,145351,1,0,0:0:0:0:
248,152,145450,5,8,0:0:0:0:
197,207,145549,1,0,0:0:0:0:
129,175,145648,1,8,0:0:0:0:
143,100,145748,1,0,0:0:0:0:
224,88,145847,1,8,0:0:0:0:
204,14,145947,1,0,0:0:0:0:
129,13,146046,1,8,0:0:0:0:
106,85,146145,1,0,0:0:0:0:
162,144,146245,6,8,P|204:149|245:128,1,90.0000034332277
392,56,146444,2,8,P|354:79|310:77,1,90.0000034332277
112,152,146642,6,8,P|148:175|193:173,1,90.0000034332277
432,64,146841,2,8,P|407:101|366:117,1,90.0000034332277
67,95,147040,6,8,P|42:134|47:185,1,90.0000034332277
193,173,147238,2,8,P|218:212|213:263,1,90.0000034332277
147,232,147437,6,8,P|122:271|127:322,1,90.0000034332277
336,296,147635,2,8,P|361:335|356:386,1,90.0000034332277
255,289,147834,5,8,0:0:0:0:
281,236,147933,1,0,0:0:0:0:
335,215,148032,1,8,0:0:0:0:
390,235,148132,1,0,0:0:0:0:
344,264,148232,5,8,0:0:0:0:
291,237,148331,1,0,0:0:0:0:
270,183,148430,1,8,0:0:0:0:
290,128,148530,1,0,0:0:0:0:
339,105,148629,6,8,P|383:97|427:113,1,90.0000034332277
378,173,148828,2,8,P|414:198|434:240,1,90.0000034332277
343,238,149026,2,8,P|299:246|255:230,1,90.0000034332277
304,170,149225,2,8,P|267:144|247:102,1,90.0000034332277
178,58,149424,5,8,0:0:0:0:
119,61,149523,1,0,0:0:0:0:
73,98,149622,1,8,0:0:0:0:
59,155,149722,1,0,0:0:0:0:
101,149,149821,5,8,0:0:0:0:
48,176,149920,1,0,0:0:0:0:
22,229,150019,1,8,0:0:0:0:
34,287,150119,1,0,0:0:0:0:
72,328,150218,6,8,P|118:323|168:336,1,90.0000034332277
312,288,150417,2,8,P|356:283|408:296,1,90.0000034332277
160,332,150616,2,8,P|202:350|256:340,1,90.0000034332277
400,292,150815,2,8,P|444:308|496:300,1,90.0000034332277
240,264,151013,5,8,0:0:0:0:
184,282,151112,1,0,0:0:0:0:
133,255,151211,1,8,0:0:0:0:
117,199,151311,1,0,0:0:0:0:
142,148,151410,5,8,0:0:0:0:
160,204,151509,1,0,0:0:0:0:
133,255,151608,1,8,0:0:0:0:
77,271,151708,1,0,0:0:0:0:
90,248,151808,5,8,0:0:0:0:
115,232,151907,1,0,0:0:0:0:
144,228,152006,1,8,0:0:0:0:
172,237,152106,1,0,0:0:0:0:
194,244,152205,2,2,B|227:255|253:238|253:238|286:258|316:240|316:240|352:268|381:247,1,180.000006866455
217,174,152602,5,8,0:0:0:0:
207,163,152702,2,2,P|164:161|119:195,2,90.0000034332277
272,120,153000,5,8,0:0:0:0:
271,105,153100,2,2,P|299:73|355:65,2,90.0000034332277
274,194,153397,5,8,0:0:0:0:
275,209,153497,2,2,P|246:240|190:248,2,90.0000034332277
272,120,153795,5,8,0:0:0:0:
271,105,153895,2,2,P|299:73|355:65,2,90.0000034332277
152,224,154192,6,8,P|113:243|64:240,1,90.0000034332277
102,208,154391,2,8,P|58:208|15:185,1,90.0000034332277
208,297,154589,6,8,P|164:297|121:274,1,90.0000034332277
169,261,154788,2,8,P|129:243|100:203,1,90.0000034332277
180,179,154987,5,8,0:0:0:0:
235,159,155086,1,0,0:0:0:0:
289,181,155185,1,8,0:0:0:0:
316,233,155285,1,0,0:0:0:0:
272,216,155384,2,8,P|253:171|264:120,1,90.0000034332277
331,162,155583,2,8,P|350:117|339:66,1,90.0000034332277
192,48,155781,5,8,0:0:0:0:
176,56,155881,1,0,0:0:0:0:
160,64,155980,2,8,P|121:87|67:95,1,90.0000034332277
232,112,156179,5,8,0:0:0:0:
248,120,156279,1,0,0:0:0:0:
264,128,156378,2,8,P|302:154|351:161,1,90.0000034332277
154,150,156576,5,8,0:0:0:0:
138,158,156676,1,0,0:0:0:0:
122,166,156775,2,8,P|83:196|34:206,1,90.0000034332277
194,214,156973,5,8,0:0:0:0:
210,222,157074,1,0,0:0:0:0:
226,230,157173,2,8,P|263:260|314:270,1,90.0000034332277
416,112,157371,5,8,0:0:0:0:
376,96,157470,1,0,0:0:0:0:
338,104,157569,2,8,P|292:108|258:152,1,90.0000034332277
202,46,157768,5,8,0:0:0:0:
186,86,157867,1,0,0:0:0:0:
194,124,157966,2,8,P|198:170|242:204,1,90.0000034332277
289,249,158165,5,8,0:0:0:0:
340,268,158264,1,0,0:0:0:0:
394,253,158363,1,8,0:0:0:0:
429,210,158463,1,0,0:0:0:0:
433,155,158562,1,8,0:0:0:0:
405,108,158661,1,0,0:0:0:0:
354,86,158761,1,8,0:0:0:0:
300,97,158860,1,0,0:0:0:0:
262,138,158959,5,2,0:0:0:0:
304,336,159159,1,0,0:0:0:0:
183,262,159357,5,2,0:0:0:0:
381,220,159557,1,0,0:1:0:0:
135,202,159755,2,8,P|108:277|196:337,1,180.000006866455
390,212,160053,2,8,B|310:244|230:212|230:212|174:228|174:228|126:196,1,270.000010299683
390,212,160549,6,8,L|406:116,1,90.0000034332277
312,184,160748,2,8,L|296:280,1,90.0000034332277
476,191,160947,6,8,L|492:95,1,90.0000034332277
224,216,161146,2,8,L|208:312,1,90.0000034332277
404,123,161344,2,8,B|316:109|316:109|228:139,1,180.000006866455
417,209,161642,2,8,P|491:121|372:42,1,270.000010299683
136,72,162139,5,2,0:0:0:0:
96,376,162338,1,0,0:0:0:0:
64,40,162536,5,2,0:0:0:0:
156,332,162735,1,0,0:0:0:0:
241,81,162934,2,8,B|313:57|356:91|356:91|353:57|385:33,1,180.000006866455
261,341,163232,2,8,B|245:261|245:261|269:173|269:173|237:69,1,270.000010299683
112,80,163728,5,2,0:0:0:0:
472,128,163927,1,0,0:0:0:0:
152,272,164126,5,2,0:0:0:0:
512,225,164325,1,0,0:0:0:0:
280,46,164523,6,8,P|246:127|291:214,1,180.000006866455
356,126,164821,2,8,B|268:150|188:110|188:110|152:148|87:135,1,270.000010299683
425,182,165318,6,2,P|441:110|369:38,3,180.000006866455
337,235,166112,2,8,P|417:283|497:251,1,180.000006866455
386,159,166410,2,4,P|263:185|326:325,1,270.000010299683
256,48,166907,5,2,0:0:0:0:
20,101,167106,1,0,0:0:0:0:
492,100,167304,5,2,0:0:0:0:
255,47,167503,1,0,0:0:0:0:
193,184,167702,2,8,B|185:128|185:128|201:96|201:96|169:56|193:8,1,180.000006866455
114,151,168000,2,8,B|143:335|143:335|175:255,1,270.000010299683
336,64,168496,5,2,0:0:0:0:
120,192,168695,1,0,0:0:0:0:
128,320,168894,1,2,0:0:0:0:
270,113,169093,1,0,0:0:0:0:
8,144,169291,5,2,0:0:0:0:
240,248,169490,1,0,0:0:0:0:
128,24,169689,1,2,0:0:0:0:
376,32,169887,1,0,0:0:0:0:
240,248,170086,6,2,B|217:214|217:214|196:253|258:293|208:360,3,180.000006866455
282,165,170881,2,8,P|186:141|138:205,1,180.000006866455
249,246,171179,2,8,P|359:204|269:78,1,270.000010299683
112,128,171675,6,2,L|72:136,1,30.0000011444092
208,160,171874,2,2,L|240:168,1,30.0000011444092
440,272,172073,6,2,L|480:264,1,30.0000011444092
344,240,172272,2,2,L|312:232,1,30.0000011444092
171,107,172470,6,8,P|197:146|189:194,2,90.0000034332277
124,163,172768,2,2,B|100:259|188:331|188:331|228:306|267:327,1,270.000010299683
256,40,173265,6,2,L|200:48,1,30.0000011444092
256,128,173463,2,2,L|304:136,1,30.0000011444092
232,208,173662,6,2,L|176:216,1,30.0000011444092
232,296,173860,2,2,L|280:304,1,30.0000011444092
450,135,174059,5,8,0:0:0:0:
397,106,174158,1,0,0:0:0:0:
338,105,174257,1,8,0:0:0:0:
285,132,174357,1,0,0:0:0:0:
231,124,174457,2,8,P|143:124|111:44,1,180.000006866455
309,307,174854,5,2,0:0:0:0:
231,124,175053,1,0,0:0:0:0:
413,47,175252,1,2,0:0:0:0:
491,229,175450,1,0,0:0:0:0:
232,208,175649,5,2,0:0:0:0:
306,23,175848,1,0,0:0:0:0:
489,97,176047,1,2,0:0:0:0:
415,281,176245,1,0,0:0:0:0:
88,176,176444,6,2,L|32:162,1,30.0000011444092
424,176,176642,2,2,L|479:162,1,30.0000011444092
117,183,176841,6,2,L|61:169,1,30.0000011444092
394,183,177040,2,2,L|426:175,1,30.0000011444092
216,56,177238,5,2,0:0:0:0:
168,320,177437,1,0,0:0:0:0:
360,128,177636,1,2,0:0:0:0:
120,248,177834,1,0,0:0:0:0:
304,280,178033,6,8,P|341:300|408:288,1,90.0000034332277
362,227,178232,2,8,P|382:190|370:123,1,90.0000034332277
308,172,178430,2,8,P|271:152|204:164,1,90.0000034332277
250,225,178629,2,8,P|230:262|242:329,1,90.0000034332277
387,297,178828,5,2,0:0:0:0:
379,143,179026,1,0,0:0:0:0:
224,154,179225,1,2,0:0:0:0:
232,308,179424,1,0,0:0:0:0:
387,297,179622,6,8,P|407:260|395:193,1,90.0000034332277
334,239,179821,2,8,P|297:219|230:231,1,90.0000034332277
279,293,180019,2,8,P|259:330|271:397,1,90.0000034332277
332,351,180218,2,8,P|369:371|436:359,1,90.0000034332277
404,214,180417,5,2,0:0:0:0:
250,222,180615,1,0,0:0:0:0:
261,377,180814,1,2,0:0:0:0:
415,369,181013,1,0,0:0:0:0:
368,160,181212,6,2,P|359:115|320:80,1,90.0000034332277
253,95,181410,2,2,P|262:50|301:15,1,90.0000034332277
163,337,181609,6,2,P|208:328|243:289,1,90.0000034332277
133,187,181808,2,2,P|142:232|181:267,1,90.0000034332277
239,180,182006,5,8,0:0:0:0:
278,186,182105,1,0,0:0:0:0:
310,168,182204,1,8,0:0:0:0:
324,132,182304,1,0,0:0:0:0:
312,96,182403,1,8,0:0:0:0:
281,75,182502,1,0,0:0:0:0:
244,79,182602,1,8,0:0:0:0:
217,106,182701,1,0,0:0:0:0:
217,139,182801,6,8,P|240:175|289:187,1,90.0000034332277
328,112,183000,2,8,P|364:89|376:40,1,90.0000034332277
208,80,183198,2,8,P|185:44|136:32,1,90.0000034332277
112,200,183397,2,8,P|76:223|64:272,1,90.0000034332277
264,336,183596,2,8,P|287:372|336:384,1,90.0000034332277
400,184,183795,2,8,P|436:161|448:112,1,90.0000034332277
248,48,183993,2,8,P|225:12|176:0,1,90.0000034332277
264,336,184192,2,8,P|287:372|336:384,1,90.0000034332277
448,117,184391,5,4,0:0:0:0:
256,192,195516,12,0,196907,0:0:0:0:
232,168,197106,5,2,0:0:0:0:
360,344,197304,1,0,0:0:0:0:
440,80,197503,1,2,0:0:0:0:
216,240,197702,1,0,0:0:0:0:
128,40,197900,5,2,0:0:0:0:
304,256,198099,1,0,0:0:0:0:
200,40,198298,1,2,0:0:0:0:
160,320,198496,1,0,0:0:0:0:
424,144,198695,5,2,0:0:0:0:
136,112,198894,1,0,0:0:0:0:
376,272,199093,1,2,0:0:0:0:
272,8,199291,1,0,0:0:0:0:
184,336,199490,5,2,0:0:0:0:
304,72,199689,1,0,0:0:0:0:
344,352,199887,1,2,0:0:0:0:
304,72,200086,1,0,0:0:0:0:
64,240,200285,5,2,0:0:0:0:
344,320,200483,1,0,0:0:0:0:
120,136,200682,1,2,0:0:0:0:
400,72,200881,1,0,0:0:0:0:
200,272,201079,5,2,0:0:0:0:
328,16,201278,1,0,0:0:0:0:
320,304,201477,1,2,0:0:0:0:
504,80,201675,1,0,0:0:0:0:
120,136,201874,5,2,0:0:0:0:
408,120,202073,1,0,0:0:0:0:
160,272,202271,1,2,0:0:0:0:
352,56,202470,1,0,0:0:0:0:
96,80,202669,5,2,0:0:0:0:
224,336,202867,1,0,0:0:0:0:
256,48,203066,1,2,0:0:0:0:
352,320,203265,1,0,0:0:0:0:
448,48,203463,5,2,0:0:0:0:
168,120,203662,1,0,0:0:0:0:
448,184,203861,1,2,0:0:0:0:
216,352,204059,1,0,0:0:0:0:
160,24,204258,5,2,0:0:0:0:
112,360,204457,1,0,0:0:0:0:
264,64,204655,1,2,0:0:0:0:
376,376,204854,1,0,0:0:0:0:
376,32,205053,5,2,0:0:0:0:
64,152,205251,1,0,0:0:0:0:
400,176,205450,1,2,0:0:0:0:
104,336,205649,1,0,0:0:0:0:
200,40,205847,5,2,0:0:0:0:
264,368,206046,1,0,0:0:0:0:
312,40,206245,1,2,0:0:0:0:
248,368,206444,1,0,0:0:0:0:
128,104,206642,6,2,P|176:80|240:104,1,120
344,64,207040,2,2,P|368:112|344:176,1,120
384,280,207437,2,2,P|336:304|272:280,1,120
168,320,207834,2,2,P|144:272|168:208,1,120
384,280,208232,6,8,P|440:296|400:232,1,180.000006866455
329,202,209026,2,8,P|399:158|491:186,1,180.000006866455
269,277,210020,6,4,B|212:192|285:117|285:117|285:53|237:13|237:13|173:37|172:128,1,420
269,277,212205,6,2,P|357:317|501:221,2,270.000010299683
96,240,213000,6,8,P|64:192|68:130,1,120
421,216,213198,2,8,P|430:273|400:327,1,120
137,169,213397,2,8,P|172:122|228:105,1,120
354,261,213596,2,8,P|305:293|246:289,1,120
176,16,213795,5,8,0:0:0:0:
251,0,213894,1,2,0:0:0:0:
311,49,213993,1,8,0:0:0:0:
309,127,214093,1,2,0:0:0:0:
264,192,214192,6,8,P|203:214|144:184,1,120
311,49,214391,2,8,P|372:27|431:57,1,120
104,280,214589,5,8,0:0:0:0:
62,214,214688,1,2,0:0:0:0:
82,139,214787,1,8,0:0:0:0:
150,102,214887,1,2,0:0:0:0:
174,120,214987,1,8,0:0:0:0:
209,136,215086,1,2,0:0:0:0:
249,132,215185,1,8,0:0:0:0:
281,109,215285,1,2,0:0:0:0:
322,114,215384,5,8,0:0:0:0:
364,168,215483,1,2,0:0:0:0:
341,233,215582,1,8,0:0:0:0:
274,249,215682,1,2,0:0:0:0:
219,204,215781,1,8,0:0:0:0:
223,113,215880,1,2,0:0:0:0:
309,87,215979,1,8,0:0:0:0:
363,160,216079,1,2,0:0:0:0:
344,256,216179,6,8,B|309:259|309:259|288:280|288:280|256:272|232:294,1,120
127,256,216377,2,8,B|162:259|162:259|183:280|183:280|215:272|239:294,1,120
488,80,216576,6,8,B|457:97|457:97|447:125|447:125|415:131|402:161,1,120
292,170,216774,2,8,B|324:157|324:157|352:168|352:168|378:147|409:157,1,120
104,304,216973,6,8,B|80:224|80:224|96:184,1,120
368,344,217172,2,8,B|288:368|288:368|248:352,1,120
408,80,217371,2,8,B|432:160|432:160|416:200,1,120
144,40,217570,2,8,B|224:16|224:16|264:32,1,120
166,144,217768,5,8,0:0:0:0:
88,178,217867,1,2,0:0:0:0:
27,118,217966,1,8,0:0:0:0:
59,40,218066,1,2,0:0:0:0:
144,40,218165,5,8,0:0:0:0:
200,104,218265,1,2,0:0:0:0:
166,182,218364,1,8,0:0:0:0:
226,243,218463,1,2,0:0:0:0:
304,216,218563,1,8,0:0:0:0:
376,264,218662,1,2,0:0:0:0:
376,344,218761,1,8,0:0:0:0:
312,384,218861,1,2,0:0:0:0:
240,352,218960,2,2,B|211:362|211:362|168:352,1,60
176,40,219357,6,8,P|192:106|176:160,1,120
272,124,219556,2,8,P|256:190|272:244,1,120
113,98,219755,6,8,P|97:164|113:218,1,120
336,184,219954,2,8,P|352:250|336:304,1,120
200,40,220152,6,8,B|264:24|264:24|240:80,1,120
104,248,220351,2,8,B|88:184|88:184|144:208,1,120
290,189,220549,2,8,B|226:205|226:205|247:155,1,120
82,93,220748,2,8,B|66:29|66:29|115:50,1,120
344,48,220947,5,8,0:0:0:0:
418,44,221046,1,2,0:0:0:0:
446,114,221145,1,8,0:0:0:0:
388,162,221245,1,2,0:0:0:0:
320,123,221344,5,8,0:0:0:0:
246,119,221443,1,2,0:0:0:0:
218,189,221542,1,8,0:0:0:0:
276,237,221642,1,2,0:0:0:0:
296,152,221742,6,8,P|272:80|232:56,1,120
216,138,221940,2,8,P|144:162|120:202,1,120
204,217,222139,2,8,P|228:289|268:313,1,120
284,231,222337,2,8,P|356:207|380:167,1,120
464,72,222536,5,2,0:0:0:0:
472,112,222635,1,2,0:0:0:0:
455,156,222735,2,8,B|458:190|439:217|439:217|454:243|454:243|439:271,1,120
376,272,222933,5,2,0:0:0:0:
360,224,223032,1,2,0:0:0:0:
378,172,223132,2,8,B|374:137|393:110|393:110|378:84|378:84|393:56,1,120
273,33,223331,5,2,0:0:0:0:
304,96,223430,1,2,0:0:0:0:
286,164,223530,2,8,B|289:198|270:225|270:225|285:251|285:251|270:279,1,120
152,312,223728,5,2,0:0:0:0:
88,256,223828,1,2,0:0:0:0:
56,176,223927,2,8,B|40:104|40:104|64:56,1,120
136,80,224126,5,2,0:0:0:0:
216,48,224225,1,2,0:0:0:0:
288,88,224325,2,8,B|322:84|349:103|349:103|375:88|375:88|403:103,1,120
376,304,224523,5,2,0:0:0:0:
296,336,224622,1,2,0:0:0:0:
224,296,224722,2,8,B|189:299|162:280|162:280|136:295|136:295|108:280,1,120
288,88,224920,6,8,B|304:64|304:64|328:64|328:64|344:25|392:24,1,120
392,96,225119,2,8,P|445:118|476:169,1,120
173,339,225318,6,8,B|149:323|149:323|149:299|149:299|110:283|105:236,1,120
177,233,225517,2,8,P|199:179|250:148,1,120
428,321,225715,6,8,L|308:345,1,120
59,209,225914,2,8,L|179:233,1,120
408,176,226112,1,2,0:0:0:0:
408,176,226212,1,2,0:0:0:0:
408,176,226311,2,8,L|288:192,1,120
201,272,226510,1,8,0:0:0:0:
168,192,226609,1,2,0:0:0:0:
200,112,226708,1,8,0:0:0:0:
280,80,226808,1,2,0:0:0:0:
344,136,226907,1,8,0:0:0:0:
392,208,227006,1,2,0:0:0:0:
472,184,227105,1,8,0:0:0:0:
456,104,227205,1,2,0:0:0:0:
367,125,227304,6,8,P|351:181|383:237,1,120
176,224,227503,2,8,P|192:280|160:336,1,120
320,176,227702,2,8,P|319:234|364:280,1,120
200,248,227901,2,8,P|200:306|155:352,1,120
176,80,228099,5,2,0:0:0:0:
200,160,228198,1,2,0:0:0:0:
200,248,228298,2,8,B|153:297|92:259,1,120
200,160,228496,2,8,P|248:144|304:184,1,120
140,201,228695,2,8,P|124:153|164:97,1,120
456,176,228894,5,2,0:0:0:0:
432,184,228993,1,2,0:0:0:0:
408,192,229093,2,8,P|352:224|288:208,1,120
56,272,229291,5,2,0:0:0:0:
80,280,229390,1,2,0:0:0:0:
104,288,229490,2,8,P|160:320|224:304,1,120
450,136,229689,6,8,B|418:152|418:152|394:128|354:136|354:136|330:160,1,120
114,88,229887,2,8,B|146:104|146:104|170:80|210:88|210:88|234:112,1,120
375,216,230086,2,8,P|370:274|326:313,1,120
154,188,230285,2,8,P|112:143|115:82,1,120
497,106,230483,5,8,0:0:0:0:
507,182,230582,1,2,0:0:0:0:
450,233,230681,1,8,0:0:0:0:
375,216,230781,1,2,0:0:0:0:
335,145,230881,2,8,P|309:90|335:41,1,120
296,224,231079,2,8,P|322:279|296:328,1,120
372,93,231278,2,8,P|427:67|476:93,1,120
259,276,231476,2,8,P|204:302|155:276,1,120
56,304,231675,6,2,B|66:274|48:246|48:246|56:230|56:230|72:190|56:142|56:142|48:126|48:126|65:104|56:70,1,240
288,48,232073,6,8,P|344:40|392:80,1,120
424,240,232271,2,8,P|432:296|392:344,1,120
164,280,232470,2,8,P|108:288|60:248,1,120
185,18,232669,2,8,P|241:10|289:50,1,120
200,384,232867,6,8,P|163:341|168:272,1,120
312,0,233066,2,8,P|349:43|344:112,1,120
448,248,233265,2,8,P|405:285|336:280,1,120
64,136,233464,2,8,P|107:99|176:104,1,120
344,283,233662,5,2,0:0:0:0:
304,299,233761,1,2,0:0:0:0:
264,270,233861,2,8,B|228:277|200:254|200:254|160:262|160:262|132:250,1,120
64,176,234059,5,2,0:0:0:0:
46,104,234159,1,2,0:0:0:0:
88,46,234258,2,8,P|139:11|203:27,1,120
480,224,234457,5,2,0:0:0:0:
480,224,234556,1,2,0:0:0:0:
480,224,234655,2,8,B|416:240|416:240|360:232,1,120
72,184,234854,5,2,0:0:0:0:
72,184,234953,1,2,0:0:0:0:
72,184,235052,2,0,B|136:200|136:200|192:192,1,120,8|0,0:0|0:0,0:0:0:0:
362,232,235251,5,8,0:0:0:0:
413,174,235350,1,2,0:0:0:0:
394,99,235449,1,8,0:0:0:0:
321,74,235549,1,2,0:0:0:0:
261,122,235648,5,8,0:0:0:0:
272,207,235748,1,2,0:0:0:0:
212,255,235847,1,8,0:0:0:0:
139,230,235947,1,2,0:0:0:0:
109,155,236046,5,8,0:0:0:0:
58,213,236145,1,2,0:0:0:0:
77,288,236244,1,8,0:0:0:0:
150,313,236344,1,2,0:0:0:0:
210,265,236443,5,8,0:0:0:0:
199,180,236543,1,2,0:0:0:0:
259,132,236642,1,8,0:0:0:0:
332,157,236742,1,2,0:0:0:0:
352,240,236841,6,8,B|361:269|352:296|352:296|368:328|368:328|376:296,1,120
304,96,237040,2,8,B|333:87|360:96|360:96|392:80|392:80|360:72,1,120
160,144,237238,2,8,B|151:115|160:88|160:88|144:56|144:56|136:88,1,120
208,288,237437,2,8,B|179:297|152:288|152:288|120:304|120:304|152:312,1,120
317,333,237636,5,8,0:0:0:0:
425,298,237735,1,2,0:0:0:0:
445,186,237834,1,8,0:0:0:0:
355,116,237934,1,2,0:0:0:0:
240,128,238033,5,8,0:0:0:0:
144,64,238132,1,2,0:0:0:0:
48,136,238231,1,8,0:0:0:0:
80,248,238331,1,2,0:0:0:0:
200,256,238430,5,4,0:0:0:0:
336,64,244788,6,0,P|288:56|320:96,1,90.0000034332277
208,56,244987,2,0,P|161:69|207:91,1,90.0000034332277
96,128,245185,2,0,P|59:159|110:160,1,90.0000034332277
48,248,245384,2,0,P|27:292|74:271,1,90.0000034332277,0|0,0:3|0:3,0:3:0:0:
152,304,245583,6,0,P|208:312|240:296,1,90.0000034332277
368,296,245781,2,0,P|376:240|360:208,1,90.0000034332277
360,80,245980,2,0,P|304:72|272:88,1,90.0000034332277
144,88,246179,2,0,P|136:144|152:176,1,90.0000034332277
368,296,246377,6,0,L|464:312,1,90.0000034332277
336,224,246576,2,0,L|240:248,1,90.0000034332277
344,144,246775,2,0,L|441:162,1,90.0000034332277
352,64,246973,2,0,L|256:88,1,90.0000034332277
80,72,247172,6,0,B|80:100|63:114|63:114|79:147|64:176,1,90.0000034332277
160,256,247371,2,0,B|160:284|177:298|177:298|161:331|176:360,1,90.0000034332277
248,0,247569,2,0,B|248:28|231:42|231:42|247:75|232:104,1,90.0000034332277
344,296,247768,2,0,B|344:324|361:338|361:338|345:371|360:400,1,90.0000034332277
384,16,247967,5,4,0:0:0:0:
353,379,248761,5,4,0:0:0:0:
384,16,249556,5,4,0:0:0:0:
353,379,249953,5,4,0:0:0:0:
384,16,250351,6,8,L|368:104,1,90.0000034332277
353,379,250549,2,8,L|369:291,1,90.0000034332277
384,16,250748,5,8,0:0:0:0:
363,72,250847,1,0,0:0:0:0:
360,131,250946,1,8,0:0:0:0:
375,190,251046,1,0,0:0:0:0:
360,244,251146,6,8,P|317:258|272:244,1,90.0000034332277
120,192,251344,2,8,P|163:206|208:192,1,90.0000034332277
360,244,251543,6,8,P|374:287|360:332,1,90.0000034332277
120,192,251741,2,8,P|134:149|120:104,1,90.0000034332277
60,121,251940,1,8,0:0:0:0:
18,73,252039,1,0,0:0:0:0:
45,16,252138,1,8,0:0:0:0:
109,18,252238,1,0,0:0:0:0:
131,76,252338,2,8,P|171:92|219:76,1,90.0000034332277
279,39,252536,2,8,P|291:81|275:122,1,90.0000034332277
72,208,252735,6,8,P|114:213|157:185,1,90.0000034332277
384,312,252933,2,8,P|341:317|298:289,1,90.0000034332277,8|8,0:0|0:0,0:0:0:0:
77,239,253132,6,8,P|120:237|157:202,1,90.0000034332277
402,287,253330,2,8,P|361:300|315:280,1,90.0000034332277,8|8,0:0|0:0,0:0:0:0:
328,152,253530,6,8,P|342:111|320:56,1,90.0000034332277
174,115,253728,2,8,P|161:157|176:200,1,90.0000034332277
315,134,253927,2,8,P|318:91|282:44,1,90.0000034332277
157,139,254125,2,8,P|156:183|180:220,1,90.0000034332277
273,214,254324,5,8,0:0:0:0:
337,218,254423,1,0,0:0:0:0:
371,164,254522,1,8,0:0:0:0:
340,108,254622,1,0,0:0:0:0:
278,107,254721,5,8,0:0:0:0:
234,58,254821,1,0,0:0:0:0:
169,57,254920,1,8,0:0:0:0:
138,113,255020,1,0,0:0:0:0:
162,168,255119,6,8,B|162:200|178:224|178:224|162:256,1,90.0000034332277
360,272,255318,2,8,B|360:304|376:328|376:328|360:360,1,90.0000034332277
217,119,255516,2,8,B|249:119|273:103|273:103|305:119,1,90.0000034332277
294,382,255715,2,8,B|262:382|238:398|238:398|206:382,1,90.0000034332277
56,272,255914,5,2,0:0:0:0:
88,288,256013,1,2,0:0:0:0:
120,288,256112,2,8,P|168:296|208:280,1,90.0000034332277
336,392,256311,5,2,0:0:0:0:
352,360,256410,1,2,0:0:0:0:
352,328,256509,2,8,P|360:280|344:240,1,90.0000034332277
456,112,256708,5,2,0:0:0:0:
424,96,256807,1,2,0:0:0:0:
392,96,256906,2,8,P|344:88|304:104,1,90.0000034332277
153,62,257106,5,8,0:0:0:0:
126,97,257205,1,0,0:0:0:0:
117,141,257304,1,8,0:0:0:0:
128,184,257404,1,0,0:0:0:0:
160,214,257503,6,8,P|212:244|272:238,1,120
384,144,257702,2,8,P|414:92|408:32,1,120
168,238,257900,2,8,P|226:253|283:232,1,120
367,112,258099,2,8,P|382:54|361:-1,1,120
48,80,258298,6,8,B|52:114|40:144|40:144|56:184|56:184|48:216,1,120
208,360,258496,2,8,B|242:356|272:368|272:368|312:352|312:352|344:360,1,120
464,304,258695,2,8,B|460:270|472:240|472:240|456:200|456:200|464:168,1,120
304,24,258893,2,8,B|270:28|240:16|240:16|200:32|200:32|168:24,1,120
240,336,259093,5,2,0:0:0:0:
240,336,259192,1,2,0:0:0:0:
240,336,259291,2,8,B|264:328|264:328|336:352|336:352|360:344,1,120
240,256,259490,5,2,0:0:0:0:
240,256,259589,1,2,0:0:0:0:
240,256,259688,2,8,B|216:248|216:248|144:272|144:272|120:264,1,120
256,176,259887,5,2,0:0:0:0:
256,176,259986,1,2,0:0:0:0:
256,176,260085,2,8,B|280:168|280:168|352:192|352:192|376:184,1,120
232,96,260285,5,2,0:0:0:0:
232,96,260384,1,2,0:0:0:0:
232,96,260483,2,8,B|208:88|208:88|136:112|136:112|112:104,1,120
55,156,260682,5,8,0:0:0:0:
38,231,260781,1,0,0:0:0:0:
89,289,260880,1,8,0:0:0:0:
166,284,260980,1,0,0:0:0:0:
198,210,261079,5,8,0:0:0:0:
193,133,261179,1,0,0:0:0:0:
251,82,261278,1,8,0:0:0:0:
326,99,261377,1,0,0:0:0:0:
359,176,261477,6,8,P|357:238|311:277,1,120
168,328,261675,2,8,P|106:326|67:280,1,120
200,48,261874,2,8,P|262:50|301:96,1,120
400,344,262073,2,8,P|338:342|299:296,1,120
188,216,262271,6,8,P|187:157|229:116,1,120
411,176,262470,2,8,P|411:234|370:276,1,120
200,48,262669,2,8,P|262:50|301:96,1,120
372,261,262867,2,8,P|331:303|272:303,1,120
184,301,263066,5,8,0:0:0:0:
119,242,263165,1,2,0:0:0:0:
124,156,263264,1,8,0:0:0:0:
196,106,263364,1,2,0:0:0:0:
280,192,263463,1,8,0:0:0:0:
387,216,263562,1,2,0:0:0:0:
441,119,263661,1,8,0:0:0:0:
360,42,263761,1,8,0:0:0:0:
267,86,263860,5,4,0:0:0:0:
