osu file format v14

[General]
AudioFilename: dreamofyou.ogg
AudioLeadIn: 1500
PreviewTime: 67727
Countdown: 0
SampleSet: Soft
StackLeniency: 0.7
Mode: 3
LetterboxInBreaks: 0
SpecialStyle: 0
WidescreenStoryboard: 0

[Editor]
DistanceSpacing: 0.8
BeatDivisor: 4
GridSize: 16
TimelineZoom: 2.599999

[Metadata]
Title:Dream of You
TitleUnicode:Dream of You
Artist:Kataoka Tsugumi
ArtistUnicode:カタオカツグミ
Creator:MJH
Version:Hard
Source:ノスタルジア FORTE
Tags:NOSTALGIA Chapter 24 Video Game Instrumental Piano Classical Orchestral Choirs Choral Original Soundtrack Nostalgia FORTE ノスタルジア Op.2 Nostalgia Op.2 ノスタルジア Op.3 Nostalgia Op.3 コナステ ノスタルジア 楽曲パック vol.2. コナステ ノスタルジア WAY OF NOSTALGIA 片岡嗣実 ブタパンチ Butapunch NOSTALGIA Music Collection ~Op.1 & Op.2~ ノスタルジア Music Collection 〜Op.1 & Op.2〜 LC-2444 Konami Digital Entertainment Co., Ltd. 株式会社コナミデジタルエンタテインメント BEMANI MJHs Arcade
BeatmapID:3459538
BeatmapSetID:1692937

[Difficulty]
HPDrainRate:8
CircleSize:5
OverallDifficulty:8
ApproachRate:9
SliderMultiplier:1.4
SliderTickRate:1

[Events]
//Background and Video events
0,0,"bg.jpg",0,0
//Break Periods
//Storyboard Layer 0 (Background)
//Storyboard Layer 1 (Fail)
//Storyboard Layer 2 (Pass)
//Storyboard Layer 3 (Foreground)
//Storyboard Layer 4 (Overlay)
//Storyboard Sound Samples

[TimingPoints]
743,348.837209302326,3,2,1,10,1,0
21673,-99.99999994,3,2,1,20,0,0
32138,-99.99999994,3,2,1,25,0,0
58999,344.827586,3,2,1,25,1,8
58999,-101.1627908,3,2,1,25,0,0
59344,348.8372095,3,2,1,25,1,0
61088,348.8372095,3,2,1,25,1,0
63181,348.8372095,2,2,1,25,1,0
65274,375,3,2,1,25,1,0
65274,-93.02325581,3,2,1,25,0,0
66024,405.4054055,3,2,1,25,1,0
66024,-86.04651161,3,2,1,25,0,0
66835,476.190476190476,3,2,1,25,1,0
66835,-73.25581398,3,2,1,25,0,0
67787,379.7468355,3,2,1,25,1,0
67787,-91.8604651,3,2,1,25,0,0
68926,375,3,2,1,25,1,0
68926,-93.02325581,3,2,1,25,0,0
70051,365.853658536585,3,2,1,25,1,0
70051,-95.34883722,3,2,1,25,0,0
71149,361.44578313253,3,2,1,25,1,0
71149,-96.51162794,3,2,1,25,0,0
80908,370.3703705,3,2,1,30,1,0
80908,-94.18604648,3,2,1,30,0,0
83130,375,3,2,1,30,1,0
83130,-93.02325581,3,2,1,30,0,0
83505,379.7468355,3,2,1,30,1,8
83505,-91.8604651,3,2,1,30,0,0
83885,384.6153845,3,2,1,30,1,8
83885,-90.69767445,3,2,1,30,0,0
84269,389.6103895,3,2,1,30,1,0
84269,-89.53488375,3,2,1,30,0,0
84659,400,3,2,1,30,1,8
84659,-87.20930233,3,2,1,30,0,0
85059,447.761194,3,2,1,30,1,8
85059,-77.90697675,3,2,1,30,0,0
85507,375,3,2,1,40,1,1
85507,-93.02325581,3,2,1,40,0,1
86632,370.3703705,3,2,1,40,1,1
86632,-94.18604648,3,2,1,40,0,1
87743,365.8536585,3,2,1,40,1,1
87743,-95.34883722,3,2,1,40,0,1
89938,375,3,2,1,40,1,1
89938,-93.02325581,3,2,1,40,0,1
91813,-92.59259259,4,2,1,40,0,1
91963,-96.32935639,4,2,1,40,0,1
92106,-99.72028731,4,2,1,40,0,1
92188,379.7468355,3,2,1,40,1,1
92188,-98.80542229,4,2,1,40,0,1
92241,-101.7839119,4,2,1,40,0,1
92368,-104.3599837,4,2,1,40,0,1
92488,-106.5315486,4,2,1,40,0,1
92568,394.736842000001,3,2,1,40,1,9
92568,-102.7605204,4,2,1,40,0,1
92601,-104.4811688,4,2,1,40,0,1
92707,-105.8606275,4,2,1,40,0,1
92805,-106.9460298,4,2,1,40,0,1
92897,-107.7958385,4,2,1,40,0,1
92962,359.281437090466,3,2,1,40,1,9
92962,-118.2614539,4,2,1,40,0,1
92982,-119.0087196,4,2,1,40,0,1
93061,-119.6509089,4,2,1,40,0,1
93133,-120.2726186,4,2,1,40,0,1
93200,-120.9622977,4,2,1,40,0,1
93260,-121.8126186,4,2,1,40,0,1
93314,-122.9223176,4,2,1,40,0,1
93321,483.870967545265,3,2,1,15,1,1
93321,-91.08632165,4,2,1,15,0,1
93362,-92.18106353,4,2,1,15,0,1
93405,-93.63968144,4,2,1,15,0,1
93442,-95.57102921,4,2,1,15,0,1
93474,-98.11090906,4,2,1,15,0,1
93501,-101.4365706,4,2,1,15,0,1
93523,-105.7900913,4,2,1,15,0,1
93539,-111.5171927,4,2,1,15,0,1
93552,-119.1357861,4,2,1,15,0,1
93559,-129.4646163,4,2,1,15,0,1
93562,-143.8848921,4,2,1,15,0,1
93804,517.2413793,3,2,1,15,1,9
93804,-135.1351351,3,2,1,15,0,1
94105,-128.7001345,4,2,1,15,0,1
94148,-122.8501202,4,2,1,15,0,1
94191,-117.5088156,4,2,1,15,0,1
94234,-112.6126081,4,2,1,15,0,1
94277,-108.1081081,4,2,1,15,0,1
94321,600,3,2,1,15,1,9
94321,-89.44544157,4,2,1,15,0,1
94363,-86.13264273,4,2,1,15,0,1
94406,-83.05647983,4,2,1,15,0,1
94449,-80.19245924,4,2,1,15,0,1
94492,-77.51937983,4,2,1,15,0,1
94534,-75.01875698,4,2,1,15,0,1
94577,-72.6744175,4,2,1,15,0,1
94620,-70.47216453,4,2,1,15,0,1
94663,-68.39945087,4,2,1,15,0,1
94706,-66.44518273,4,2,1,15,0,1
94749,-64.59948494,4,2,1,15,0,1
94792,-62.85355041,4,2,1,15,0,1
94835,-61.19951116,4,2,1,15,0,1
94878,-59.63029076,4,2,1,15,0,1
94921,375,3,2,1,40,1,1
94921,-93.02325581,3,2,1,40,0,1
96046,370.3703705,3,2,1,40,1,1
96046,-94.18604648,3,2,1,40,0,1
97157,365.8536585,3,2,1,40,1,1
97157,-95.34883722,3,2,1,40,0,1
102645,375,3,2,1,40,1,1
102645,-93.02325581,3,2,1,40,0,1
103770,365.8536585,3,2,1,40,1,1
103770,-95.34883722,3,2,1,40,0,1
105965,384.6153845,3,2,1,25,1,0
105965,-90.69767445,3,2,1,25,0,0
108273,394.736842,3,2,1,25,1,0
108273,-88.37209305,3,2,1,25,0,0
108865,400,3,2,1,25,1,8
108865,-87.20930233,3,2,1,25,0,0
109865,352.9411765,3,2,1,25,1,8
109865,-98.83720929,3,2,1,25,0,0
110571,405.4054055,3,2,1,25,1,0
110571,-86.04651161,3,2,1,25,0,0
110976,-88.4955752212389,3,2,1,25,0,0
111077,-90.0900900900901,3,2,1,25,0,0
111179,-91.743119266055,3,2,1,25,0,0
111280,-93.4579439252336,3,2,1,25,0,0
111381,-95.60723512,3,2,1,25,0,0
113003,384.6153845,3,2,1,10,1,0
113003,-100.7751938,3,2,1,10,0,0
114157,382.165605153231,3,2,1,10,1,0
114157,-101.4211886,3,2,1,10,0,0
114921,389.6103895,3,2,1,10,1,0
114921,-99.48320417,3,2,1,10,0,0
116869,410.958904,3,2,1,10,1,0
116869,-94.3152455,3,2,1,10,0,0
121801,434.7826085,3,2,1,10,1,0
121801,-89.14728687,3,2,1,10,0,0
123105,447.761194,3,2,1,10,1,0
123105,-86.5633075,3,2,1,10,0,0
123553,468.75,3,2,1,10,1,8
123553,-82.6873385,3,2,1,10,0,0
124022,447.761194,3,2,1,10,1,8
124022,-86.5633075,3,2,1,10,0,0
124469,555.555555555556,3,2,1,10,1,0
124469,-69.76744186,3,2,1,10,0,0
125025,576.923077,3,2,1,10,1,8
125025,-67.18346252,3,2,1,10,0,0
125602,625,3,2,1,10,1,8
125602,-62.01550388,3,2,1,10,0,0
126227,697.6744185,3,2,1,10,1,0
126227,-55.55555557,3,2,1,10,0,0
126924,750,3,2,1,10,1,8
126924,-51.67958657,3,2,1,10,0,0

[HitObjects]
51,0,743,128,0,1440:0:0:0:0:
51,0,1789,128,0,2487:0:0:0:0:
51,0,2836,128,0,3533:0:0:0:0:
51,0,3882,128,0,4580:0:0:0:0:
51,0,4929,1,0,0:0:0:0:
153,0,4929,128,0,5626:0:0:0:0:
460,0,5277,1,0,0:0:0:0:
256,0,5626,1,0,0:0:0:0:
460,0,5975,1,0,0:0:0:0:
51,0,5975,128,0,6673:0:0:0:0:
358,0,6149,1,0,0:0:0:0:
153,0,6324,1,0,0:0:0:0:
256,0,6673,1,0,0:0:0:0:
51,0,7022,1,0,0:0:0:0:
153,0,7022,128,0,7719:0:0:0:0:
358,0,7370,1,0,0:0:0:0:
256,0,7719,1,0,0:0:0:0:
358,0,8068,1,0,0:0:0:0:
51,0,8068,128,0,8766:0:0:0:0:
153,0,8417,1,0,0:0:0:0:
256,0,8591,1,0,0:0:0:0:
358,0,8766,1,0,0:0:0:0:
460,0,9115,1,0,0:0:0:0:
358,0,9115,128,0,9812:0:0:0:0:
51,0,9463,1,0,0:0:0:0:
256,0,9812,1,0,0:0:0:0:
51,0,10161,1,0,0:0:0:0:
460,0,10161,128,0,10859:0:0:0:0:
358,0,10336,1,0,0:0:0:0:
256,0,10510,1,0,0:0:0:0:
51,0,10859,1,0,0:0:0:0:
256,0,11033,1,0,0:0:0:0:
460,0,11208,1,0,0:0:0:0:
358,0,11208,128,0,11905:0:0:0:0:
153,0,11556,1,0,0:0:0:0:
256,0,11905,1,0,0:0:0:0:
153,0,12254,1,0,0:0:0:0:
460,0,12254,128,0,12952:0:0:0:0:
51,0,12603,1,0,0:0:0:0:
153,0,12777,1,0,0:0:0:0:
256,0,12952,1,0,0:0:0:0:
358,0,13126,1,0,0:0:0:0:
256,0,13301,1,0,0:0:0:0:
153,0,13301,1,0,0:0:0:0:
51,0,13301,1,0,0:0:0:0:
460,0,13649,1,0,0:0:0:0:
358,0,13649,1,0,0:0:0:0:
153,0,13824,1,0,0:0:0:0:
460,0,13998,1,0,0:0:0:0:
256,0,14173,1,0,0:0:0:0:
153,0,14347,1,0,0:0:0:0:
51,0,14347,1,0,0:0:0:0:
358,0,14696,1,0,0:0:0:0:
256,0,14696,1,0,0:0:0:0:
460,0,15045,1,0,0:0:0:0:
153,0,15394,1,0,0:0:0:0:
51,0,15394,1,0,0:0:0:0:
460,0,15743,1,0,0:0:0:0:
358,0,15743,1,0,0:0:0:0:
256,0,15917,1,0,0:0:0:0:
358,0,16091,1,0,0:0:0:0:
153,0,16266,1,0,0:0:0:0:
256,0,16440,1,0,0:0:0:0:
51,0,16440,1,0,0:0:0:0:
460,0,16789,1,0,0:0:0:0:
358,0,16789,1,0,0:0:0:0:
51,0,17138,1,0,0:0:0:0:
153,0,17312,1,0,0:0:0:0:
460,0,17487,1,0,0:0:0:0:
256,0,17487,1,0,0:0:0:0:
153,0,17836,1,0,0:0:0:0:
51,0,17836,1,0,0:0:0:0:
358,0,18010,1,0,0:0:0:0:
256,0,18184,1,0,0:0:0:0:
153,0,18359,1,0,0:0:0:0:
460,0,18533,1,0,0:0:0:0:
358,0,18533,1,0,0:0:0:0:
51,0,18708,1,0,0:0:0:0:
256,0,18882,1,0,0:0:0:0:
153,0,18882,1,0,0:0:0:0:
256,0,19231,1,0,0:0:0:0:
51,0,19405,1,0,0:0:0:0:
460,0,19580,1,0,0:0:0:0:
358,0,19580,1,0,0:0:0:0:
153,0,19929,1,0,0:0:0:0:
51,0,19929,1,0,0:0:0:0:
358,0,20277,1,0,0:0:0:0:
256,0,20452,1,0,0:0:0:0:
460,0,20626,1,0,0:0:0:0:
256,0,20626,1,0,0:0:0:0:
153,0,20975,1,0,0:0:0:0:
51,0,20975,1,0,0:0:0:0:
460,0,21324,1,0,0:0:0:0:
153,0,21324,1,0,0:0:0:0:
358,0,21673,128,0,22022:0:0:0:0:
256,0,21673,1,0,0:0:0:0:
51,0,21673,1,0,0:0:0:0:
460,0,22022,128,0,22370:0:0:0:0:
153,0,22022,1,0,0:0:0:0:
358,0,22370,128,0,22719:0:0:0:0:
51,0,22370,1,0,0:0:0:0:
153,0,22545,1,0,0:0:0:0:
256,0,22719,128,0,23591:0:0:0:0:
460,0,22719,1,0,0:0:0:0:
153,0,23068,1,0,0:0:0:0:
51,0,23068,1,0,0:0:0:0:
358,0,23417,1,0,0:0:0:0:
358,0,23766,1,0,0:0:0:0:
256,0,23766,128,0,24812:0:0:0:0:
460,0,24115,1,0,0:0:0:0:
51,0,24115,1,0,0:0:0:0:
358,0,24289,1,0,0:0:0:0:
460,0,24463,1,0,0:0:0:0:
153,0,24638,1,0,0:0:0:0:
51,0,24812,128,0,25859:0:0:0:0:
460,0,24812,1,0,0:0:0:0:
358,0,25161,1,0,0:0:0:0:
153,0,25161,1,0,0:0:0:0:
256,0,25510,1,0,0:0:0:0:
460,0,25859,1,0,0:0:0:0:
358,0,25859,128,0,26731:0:0:0:0:
256,0,26208,1,0,0:0:0:0:
51,0,26208,1,0,0:0:0:0:
153,0,26556,1,0,0:0:0:0:
358,0,26905,128,0,27952:0:0:0:0:
51,0,26905,1,0,0:0:0:0:
460,0,27254,1,0,0:0:0:0:
256,0,27254,1,0,0:0:0:0:
153,0,27603,1,0,0:0:0:0:
153,0,27952,128,0,28824:0:0:0:0:
51,0,27952,1,0,0:0:0:0:
460,192,28126,1,0,0:0:0:0:
358,0,28301,1,0,0:0:0:0:
256,0,28301,1,0,0:0:0:0:
460,0,28649,1,0,0:0:0:0:
358,0,28824,1,0,0:0:0:0:
358,0,28998,1,0,0:0:0:0:
153,0,28998,128,0,30045:0:0:0:0:
51,0,29347,1,0,0:0:0:0:
256,0,29347,1,0,0:0:0:0:
358,0,29696,1,0,0:0:0:0:
460,0,29870,1,0,0:0:0:0:
460,0,30045,1,0,0:0:0:0:
51,0,30045,1,0,0:0:0:0:
256,0,30219,1,0,0:0:0:0:
358,0,30394,1,0,0:0:0:0:
153,0,30568,1,0,0:0:0:0:
256,0,30743,1,0,0:0:0:0:
51,0,30917,1,0,0:0:0:0:
358,0,31091,1,0,0:0:0:0:
256,0,31091,1,0,0:0:0:0:
460,0,31266,1,0,0:0:0:0:
153,0,31440,1,0,0:0:0:0:
358,0,31615,1,0,0:0:0:0:
51,0,31789,1,0,0:0:0:0:
256,0,31963,1,0,0:0:0:0:
460,0,32138,1,0,0:0:0:0:
358,0,32138,1,0,0:0:0:0:
51,0,32487,1,0,0:0:0:0:
153,0,32661,1,0,0:0:0:0:
460,0,32836,1,0,0:0:0:0:
256,0,32836,1,0,0:0:0:0:
358,0,33010,1,0,0:0:0:0:
460,0,33184,128,0,33882:0:0:0:0:
51,0,33184,1,0,0:0:0:0:
256,0,33533,1,0,0:0:0:0:
358,0,33882,1,0,0:0:0:0:
153,0,34158,1,0,0:0:0:0:
460,0,34231,1,0,0:0:0:0:
51,0,34231,1,0,0:0:0:0:
256,0,34580,1,0,0:0:0:0:
153,0,34580,1,0,0:0:0:0:
358,0,34754,1,0,0:0:0:0:
256,0,34929,1,0,0:0:0:0:
460,0,35045,1,0,0:0:0:0:
358,0,35161,1,0,0:0:0:0:
153,0,35277,1,0,0:0:0:0:
51,0,35277,1,0,0:0:0:0:
256,0,35394,1,0,0:0:0:0:
358,0,35510,1,0,0:0:0:0:
460,0,35626,1,0,0:0:0:0:
153,0,35626,1,0,0:0:0:0:
358,0,35743,1,0,0:0:0:0:
256,0,35859,1,0,0:0:0:0:
51,0,35975,1,0,0:0:0:0:
153,0,36091,1,0,0:0:0:0:
256,0,36208,1,0,0:0:0:0:
460,0,36324,1,0,0:0:0:0:
358,0,36324,1,0,0:0:0:0:
256,0,36673,1,0,0:0:0:0:
51,0,36673,1,0,0:0:0:0:
358,0,36847,1,0,0:0:0:0:
460,0,37022,1,0,0:0:0:0:
153,0,37138,1,0,0:0:0:0:
256,0,37254,1,0,0:0:0:0:
358,0,37370,1,0,0:0:0:0:
153,0,37370,1,0,0:0:0:0:
51,0,37487,1,0,0:0:0:0:
460,0,37603,1,0,0:0:0:0:
358,0,37719,1,0,0:0:0:0:
256,0,37719,1,0,0:0:0:0:
153,0,37836,1,0,0:0:0:0:
358,0,37952,1,0,0:0:0:0:
460,0,38068,1,0,0:0:0:0:
51,0,38068,1,0,0:0:0:0:
153,0,38184,1,0,0:0:0:0:
256,0,38301,1,0,0:0:0:0:
358,0,38417,1,0,0:0:0:0:
51,0,38417,1,0,0:0:0:0:
460,0,38766,1,0,0:0:0:0:
153,0,38766,1,0,0:0:0:0:
256,0,38940,1,0,0:0:0:0:
358,0,39115,1,0,0:0:0:0:
460,0,39231,1,0,0:0:0:0:
358,0,39347,1,0,0:0:0:0:
256,0,39463,1,0,0:0:0:0:
51,0,39463,1,0,0:0:0:0:
153,0,39580,1,0,0:0:0:0:
358,0,39696,1,0,0:0:0:0:
460,0,39812,1,0,0:0:0:0:
256,0,39812,1,0,0:0:0:0:
51,0,39929,1,0,0:0:0:0:
358,0,40045,1,0,0:0:0:0:
256,0,40161,1,0,0:0:0:0:
153,0,40161,1,0,0:0:0:0:
460,0,40394,1,0,0:0:0:0:
153,0,40510,1,0,0:0:0:0:
51,0,40510,1,0,0:0:0:0:
358,0,40626,1,0,0:0:0:0:
256,0,40743,1,0,0:0:0:0:
460,0,40859,1,0,0:0:0:0:
153,0,40859,1,0,0:0:0:0:
256,0,40975,1,0,0:0:0:0:
51,0,41091,1,0,0:0:0:0:
358,0,41208,1,0,0:0:0:0:
153,0,41208,1,0,0:0:0:0:
460,0,41556,1,0,0:0:0:0:
51,0,41556,1,0,0:0:0:0:
358,0,41673,1,0,0:0:0:0:
256,0,41789,1,0,0:0:0:0:
358,0,41905,1,0,0:0:0:0:
51,0,41905,1,0,0:0:0:0:
153,0,42022,1,0,0:0:0:0:
460,0,42138,1,0,0:0:0:0:
358,0,42254,1,0,0:0:0:0:
256,0,42254,1,0,0:0:0:0:
51,0,42370,1,0,0:0:0:0:
153,0,42487,1,0,0:0:0:0:
460,0,42603,1,0,0:0:0:0:
256,0,42603,1,0,0:0:0:0:
358,0,42952,1,0,0:0:0:0:
51,0,42952,1,0,0:0:0:0:
153,0,43301,1,0,0:0:0:0:
256,0,43417,1,0,0:0:0:0:
358,0,43533,1,0,0:0:0:0:
153,0,43649,1,0,0:0:0:0:
51,0,43649,1,0,0:0:0:0:
256,0,43766,1,0,0:0:0:0:
460,0,43882,1,0,0:0:0:0:
358,0,43998,1,0,0:0:0:0:
51,0,43998,1,0,0:0:0:0:
153,0,44115,1,0,0:0:0:0:
358,0,44231,1,0,0:0:0:0:
256,0,44347,1,0,0:0:0:0:
153,0,44463,1,0,0:0:0:0:
51,0,44580,1,0,0:0:0:0:
358,0,44696,1,0,0:0:0:0:
256,0,44696,1,0,0:0:0:0:
460,0,45045,1,0,0:0:0:0:
153,0,45045,1,0,0:0:0:0:
256,0,45394,1,0,0:0:0:0:
358,0,45510,1,0,0:0:0:0:
460,0,45626,1,0,0:0:0:0:
153,0,45743,1,0,0:0:0:0:
51,0,45743,1,0,0:0:0:0:
358,0,45859,1,0,0:0:0:0:
256,0,45975,1,0,0:0:0:0:
460,0,46091,1,0,0:0:0:0:
153,0,46091,1,0,0:0:0:0:
358,0,46208,1,0,0:0:0:0:
51,0,46324,1,0,0:0:0:0:
256,0,46440,1,0,0:0:0:0:
153,0,46440,1,0,0:0:0:0:
358,0,46556,1,0,0:0:0:0:
460,0,46673,1,0,0:0:0:0:
358,0,46789,1,0,0:0:0:0:
256,0,46789,1,0,0:0:0:0:
153,0,47138,1,0,0:0:0:0:
51,0,47254,1,0,0:0:0:0:
153,0,47370,1,0,0:0:0:0:
460,0,47487,1,0,0:0:0:0:
256,0,47487,1,0,0:0:0:0:
358,0,47836,1,0,0:0:0:0:
51,0,47836,1,0,0:0:0:0:
256,0,47952,1,0,0:0:0:0:
153,0,48068,1,0,0:0:0:0:
460,0,48184,1,0,0:0:0:0:
358,0,48184,1,0,0:0:0:0:
256,0,48301,1,0,0:0:0:0:
51,0,48417,1,0,0:0:0:0:
358,0,48533,1,0,0:0:0:0:
153,0,48533,1,0,0:0:0:0:
460,0,48649,1,0,0:0:0:0:
358,0,48766,1,0,0:0:0:0:
256,0,48882,1,0,0:0:0:0:
51,0,48882,1,0,0:0:0:0:
460,0,49231,1,0,0:0:0:0:
51,0,49231,1,0,0:0:0:0:
153,0,49347,1,0,0:0:0:0:
256,0,49463,1,0,0:0:0:0:
460,0,49580,1,0,0:0:0:0:
358,0,49580,1,0,0:0:0:0:
153,0,49696,1,0,0:0:0:0:
256,0,49812,1,0,0:0:0:0:
358,0,49929,1,0,0:0:0:0:
51,0,49929,1,0,0:0:0:0:
460,0,50277,1,0,0:0:0:0:
153,0,50277,1,0,0:0:0:0:
358,0,50394,1,0,0:0:0:0:
256,0,50510,1,0,0:0:0:0:
153,0,50626,1,0,0:0:0:0:
51,0,50626,1,0,0:0:0:0:
358,0,50743,1,0,0:0:0:0:
256,0,50859,1,0,0:0:0:0:
460,0,50975,1,0,0:0:0:0:
51,0,50975,1,0,0:0:0:0:
358,0,51324,1,0,0:0:0:0:
153,0,51324,1,0,0:0:0:0:
256,0,51673,1,0,0:0:0:0:
51,0,51789,1,0,0:0:0:0:
153,0,51905,1,0,0:0:0:0:
460,0,52022,1,0,0:0:0:0:
358,0,52022,1,0,0:0:0:0:
256,0,52138,1,0,0:0:0:0:
153,0,52254,1,0,0:0:0:0:
358,0,52370,1,0,0:0:0:0:
51,0,52370,1,0,0:0:0:0:
153,0,52487,1,0,0:0:0:0:
256,0,52603,1,0,0:0:0:0:
460,0,52719,1,0,0:0:0:0:
358,0,52836,1,0,0:0:0:0:
256,0,52952,1,0,0:0:0:0:
153,0,53068,1,0,0:0:0:0:
51,0,53068,1,0,0:0:0:0:
460,0,53417,1,0,0:0:0:0:
256,0,53417,1,0,0:0:0:0:
51,0,53766,1,0,0:0:0:0:
358,0,53882,1,0,0:0:0:0:
256,0,53998,1,0,0:0:0:0:
358,0,54115,1,0,0:0:0:0:
153,0,54115,1,0,0:0:0:0:
460,0,54231,1,0,0:0:0:0:
51,0,54347,1,0,0:0:0:0:
256,0,54463,1,0,0:0:0:0:
153,0,54463,1,0,0:0:0:0:
358,0,54580,1,0,0:0:0:0:
153,0,54696,1,0,0:0:0:0:
460,0,54812,1,0,0:0:0:0:
51,0,54812,1,0,0:0:0:0:
358,0,54929,1,0,0:0:0:0:
256,0,55045,1,0,0:0:0:0:
460,0,55161,1,0,0:0:0:0:
153,0,55161,1,0,0:0:0:0:
358,0,55510,1,0,0:0:0:0:
256,0,55510,1,0,0:0:0:0:
153,0,55859,1,0,0:0:0:0:
51,0,55975,1,0,0:0:0:0:
153,0,56091,1,0,0:0:0:0:
460,0,56208,1,0,0:0:0:0:
256,0,56208,1,0,0:0:0:0:
358,0,56324,1,0,0:0:0:0:
153,0,56440,1,0,0:0:0:0:
256,0,56556,1,0,0:0:0:0:
51,0,56556,1,0,0:0:0:0:
460,0,56673,1,0,0:0:0:0:
153,0,56789,1,0,0:0:0:0:
358,0,56905,1,0,0:0:0:0:
256,0,56905,1,0,0:0:0:0:
460,0,57080,1,0,0:0:0:0:
153,0,57080,1,0,0:0:0:0:
460,0,57254,1,0,0:0:0:0:
153,0,57254,1,0,0:0:0:0:
51,0,57370,1,0,0:0:0:0:
256,0,57487,1,0,0:0:0:0:
358,0,57603,1,0,0:0:0:0:
153,0,57603,1,0,0:0:0:0:
460,0,57719,1,0,0:0:0:0:
256,0,57836,1,0,0:0:0:0:
460,0,57952,1,0,0:0:0:0:
153,0,57952,1,0,0:0:0:0:
358,0,58126,1,0,0:0:0:0:
51,0,58126,1,0,0:0:0:0:
358,0,58301,1,0,0:0:0:0:
51,0,58301,1,0,0:0:0:0:
153,0,58417,1,0,0:0:0:0:
256,0,58533,1,0,0:0:0:0:
460,0,58649,1,0,0:0:0:0:
153,0,58649,1,0,0:0:0:0:
358,0,58766,1,0,0:0:0:0:
51,0,58882,1,0,0:0:0:0:
256,0,58999,1,0,0:0:0:0:
153,0,58999,1,0,0:0:0:0:
358,0,59171,1,0,0:0:0:0:
51,0,59171,1,0,0:0:0:0:
460,0,59344,1,0,0:0:0:0:
256,0,59344,1,0,0:0:0:0:
153,0,59344,1,0,0:0:0:0:
460,0,59692,1,0,0:0:0:0:
358,0,59692,1,0,0:0:0:0:
51,0,59692,1,0,0:0:0:0:
460,0,59867,1,0,0:0:0:0:
256,0,60041,128,0,60390:0:0:0:0:
51,0,60216,1,0,0:0:0:0:
460,0,60390,1,0,0:0:0:0:
153,0,60390,1,0,0:0:0:0:
358,0,60564,1,0,0:0:0:0:
460,0,60739,1,0,0:0:0:0:
256,0,60739,1,0,0:0:0:0:
51,0,60826,1,0,0:0:0:0:
153,0,60913,1,0,0:0:0:0:
256,0,61000,1,0,0:0:0:0:
358,0,61088,1,0,0:0:0:0:
51,0,61088,1,0,0:0:0:0:
460,0,61436,1,0,0:0:0:0:
153,0,61436,1,0,0:0:0:0:
51,0,61436,1,0,0:0:0:0:
51,0,61611,1,0,0:0:0:0:
256,0,61785,128,0,62134:0:0:0:0:
460,0,62018,1,0,0:0:0:0:
358,0,62134,1,0,0:0:0:0:
51,0,62134,1,0,0:0:0:0:
358,0,62483,1,0,0:0:0:0:
153,0,62483,1,0,0:0:0:0:
460,0,62832,1,0,0:0:0:0:
153,0,62832,1,0,0:0:0:0:
460,0,63181,1,0,0:0:0:0:
256,0,63181,1,0,0:0:0:0:
51,0,63181,1,0,0:0:0:0:
358,0,63297,1,0,0:0:0:0:
153,0,63413,1,0,0:0:0:0:
256,0,63529,1,0,0:0:0:0:
51,0,63646,1,0,0:0:0:0:
358,0,63878,1,0,0:0:0:0:
256,0,63878,1,0,0:0:0:0:
153,0,63878,1,0,0:0:0:0:
460,0,64111,1,0,0:0:0:0:
153,0,64111,1,0,0:0:0:0:
358,0,64227,1,0,0:0:0:0:
256,0,64343,1,0,0:0:0:0:
358,0,64576,1,0,0:0:0:0:
153,0,64576,1,0,0:0:0:0:
51,0,64576,1,0,0:0:0:0:
51,0,64808,1,0,0:0:0:0:
256,192,64808,1,0,0:0:0:0:
153,0,65041,1,0,0:0:0:0:
460,192,65041,1,0,0:0:0:0:
460,0,65274,128,0,65836:0:0:0:0:
358,0,65274,128,0,65836:0:0:0:0:
256,0,65274,1,0,0:0:0:0:
358,0,66024,128,0,67549:0:0:0:0:
153,0,66024,128,0,66632:0:0:0:0:
153,0,66835,128,0,67549:0:0:0:0:
51,0,66835,128,0,67549:0:0:0:0:
51,0,67767,1,0,0:0:0:0:
256,0,67787,1,0,0:0:0:0:
460,0,67818,1,0,0:0:0:0:
460,0,68546,1,0,0:0:0:0:
256,0,68546,1,0,0:0:0:0:
153,0,68736,1,0,0:0:0:0:
51,0,68926,1,0,0:0:0:0:
358,0,68926,1,0,0:0:0:0:
460,0,69676,1,0,0:0:0:0:
256,0,69676,1,0,0:0:0:0:
153,0,70051,1,0,0:0:0:0:
358,0,70051,1,0,0:0:0:0:
358,0,70782,1,0,0:0:0:0:
51,0,70782,1,0,0:0:0:0:
256,0,70965,1,0,0:0:0:0:
460,0,71149,1,0,0:0:0:0:
153,0,71149,1,0,0:0:0:0:
256,0,71871,1,0,0:0:0:0:
51,0,71871,1,0,0:0:0:0:
153,0,72052,1,0,0:0:0:0:
460,0,72233,1,0,0:0:0:0:
358,0,72233,1,0,0:0:0:0:
256,0,72233,1,0,0:0:0:0:
460,0,72594,1,0,0:0:0:0:
51,0,72594,1,0,0:0:0:0:
153,0,72775,1,0,0:0:0:0:
358,0,72956,1,0,0:0:0:0:
256,0,72956,1,0,0:0:0:0:
51,0,73136,1,0,0:0:0:0:
256,0,73317,1,0,0:0:0:0:
153,0,73317,1,0,0:0:0:0:
460,0,73679,1,0,0:0:0:0:
153,0,73679,1,0,0:0:0:0:
256,0,73859,1,0,0:0:0:0:
51,0,74040,1,0,0:0:0:0:
358,0,74040,1,0,0:0:0:0:
153,0,74221,1,0,0:0:0:0:
358,0,74402,1,0,0:0:0:0:
256,0,74402,1,0,0:0:0:0:
256,0,74763,1,0,0:0:0:0:
51,0,74763,1,0,0:0:0:0:
460,0,74944,1,0,0:0:0:0:
358,0,75124,1,0,0:0:0:0:
256,0,75305,1,0,0:0:0:0:
358,0,75486,1,0,0:0:0:0:
153,0,75486,128,0,76570:0:0:0:0:
460,0,75847,1,0,0:0:0:0:
51,0,76028,1,0,0:0:0:0:
256,0,76209,1,0,0:0:0:0:
358,0,76389,1,0,0:0:0:0:
460,0,76555,1,0,0:0:0:0:
256,0,76570,1,0,0:0:0:0:
51,0,76600,1,0,0:0:0:0:
153,0,76932,1,0,0:0:0:0:
358,0,77112,1,0,0:0:0:0:
460,0,77293,1,0,0:0:0:0:
51,0,77293,1,0,0:0:0:0:
256,0,77474,1,0,0:0:0:0:
358,0,77655,1,0,0:0:0:0:
153,0,77655,1,0,0:0:0:0:
153,0,78016,1,0,0:0:0:0:
358,0,78197,1,0,0:0:0:0:
460,0,78377,1,0,0:0:0:0:
256,0,78377,1,0,0:0:0:0:
153,0,78558,1,0,0:0:0:0:
51,0,78739,1,0,0:0:0:0:
256,0,78739,1,0,0:0:0:0:
51,0,79100,1,0,0:0:0:0:
153,0,79281,1,0,0:0:0:0:
358,0,79462,1,0,0:0:0:0:
256,0,79462,1,0,0:0:0:0:
153,0,79642,1,0,0:0:0:0:
358,0,79823,1,0,0:0:0:0:
51,0,79823,1,0,0:0:0:0:
256,0,80185,1,0,0:0:0:0:
460,0,80365,1,0,0:0:0:0:
358,0,80546,1,0,0:0:0:0:
153,0,80546,1,0,0:0:0:0:
256,0,80727,1,0,0:0:0:0:
460,0,80908,1,0,0:0:0:0:
153,0,80908,1,0,0:0:0:0:
51,0,80908,1,0,0:0:0:0:
358,0,81278,1,0,0:0:0:0:
256,0,81278,1,0,0:0:0:0:
358,0,81463,1,0,0:0:0:0:
51,0,81463,1,0,0:0:0:0:
460,0,81648,1,0,0:0:0:0:
153,0,81648,1,0,0:0:0:0:
256,0,81833,1,0,0:0:0:0:
358,0,82019,1,0,0:0:0:0:
153,0,82019,1,0,0:0:0:0:
460,0,82389,1,0,0:0:0:0:
51,0,82389,1,0,0:0:0:0:
153,0,82482,1,0,0:0:0:0:
256,0,82574,1,0,0:0:0:0:
358,0,82667,1,0,0:0:0:0:
51,0,82759,1,0,0:0:0:0:
153,0,82852,1,0,0:0:0:0:
358,0,82945,1,0,0:0:0:0:
460,0,83037,1,0,0:0:0:0:
256,0,83130,1,0,0:0:0:0:
153,0,83130,1,0,0:0:0:0:
51,0,83130,1,0,0:0:0:0:
358,0,83505,1,0,0:0:0:0:
153,0,83505,1,0,0:0:0:0:
153,0,83694,1,0,0:0:0:0:
460,0,83885,1,0,0:0:0:0:
256,0,83885,1,0,0:0:0:0:
358,0,84077,1,0,0:0:0:0:
460,0,84269,1,0,0:0:0:0:
153,0,84269,1,0,0:0:0:0:
358,0,84659,1,0,0:0:0:0:
51,0,84659,1,0,0:0:0:0:
153,0,84759,1,0,0:0:0:0:
256,0,84859,1,0,0:0:0:0:
358,0,84959,1,0,0:0:0:0:
51,0,85059,1,0,0:0:0:0:
460,0,85170,1,0,0:0:0:0:
153,0,85282,1,0,0:0:0:0:
256,0,85357,1,0,0:0:0:0:
358,0,85432,1,0,0:0:0:0:
460,0,85507,1,0,0:0:0:0:
153,0,85507,1,0,0:0:0:0:
51,0,85507,1,0,0:0:0:0:
358,0,85882,1,0,0:0:0:0:
256,0,86069,1,0,0:0:0:0:
460,0,86257,1,0,0:0:0:0:
153,0,86257,1,0,0:0:0:0:
358,0,86444,1,0,0:0:0:0:
51,0,86444,1,0,0:0:0:0:
358,0,86632,1,0,0:0:0:0:
256,0,86632,1,0,0:0:0:0:
153,0,86632,1,0,0:0:0:0:
256,0,87002,1,0,0:0:0:0:
51,0,87002,1,0,0:0:0:0:
460,0,87094,1,0,0:0:0:0:
358,0,87187,1,0,0:0:0:0:
256,0,87280,1,0,0:0:0:0:
460,0,87372,1,0,0:0:0:0:
153,0,87372,1,0,0:0:0:0:
460,0,87743,1,0,0:0:0:0:
358,0,87743,1,0,0:0:0:0:
256,0,87743,1,0,0:0:0:0:
51,0,87925,1,0,0:0:0:0:
153,0,88108,1,0,0:0:0:0:
256,0,88291,1,0,0:0:0:0:
358,0,88474,1,0,0:0:0:0:
51,0,88474,1,0,0:0:0:0:
460,0,88657,1,0,0:0:0:0:
153,0,88657,1,0,0:0:0:0:
358,0,88840,1,0,0:0:0:0:
256,0,88840,1,0,0:0:0:0:
153,0,88840,1,0,0:0:0:0:
460,0,89206,1,0,0:0:0:0:
256,0,89206,1,0,0:0:0:0:
51,0,89297,1,0,0:0:0:0:
153,0,89389,1,0,0:0:0:0:
256,0,89480,1,0,0:0:0:0:
358,0,89572,1,0,0:0:0:0:
51,0,89572,1,0,0:0:0:0:
460,0,89938,1,0,0:0:0:0:
358,0,89938,1,0,0:0:0:0:
153,0,89938,1,0,0:0:0:0:
256,0,90125,1,0,0:0:0:0:
51,0,90313,1,0,0:0:0:0:
153,0,90500,1,0,0:0:0:0:
358,0,90688,1,0,0:0:0:0:
256,0,90734,1,0,0:0:0:0:
460,0,90875,1,0,0:0:0:0:
256,0,91063,1,0,0:0:0:0:
51,0,91063,1,0,0:0:0:0:
153,0,91250,1,0,0:0:0:0:
358,0,91438,1,0,0:0:0:0:
51,0,91438,1,0,0:0:0:0:
256,0,91625,1,0,0:0:0:0:
460,0,91813,1,0,0:0:0:0:
153,0,91813,1,0,0:0:0:0:
460,0,92188,1,0,0:0:0:0:
358,0,92188,1,0,0:0:0:0:
51,0,92188,1,0,0:0:0:0:
153,0,92377,1,0,0:0:0:0:
358,0,92568,1,0,0:0:0:0:
51,0,92765,1,0,0:0:0:0:
153,0,92962,1,0,0:0:0:0:
256,0,93141,1,0,0:0:0:0:
153,0,93321,1,0,0:0:0:0:
358,0,93321,1,0,0:0:0:0:
460,0,93804,1,0,0:0:0:0:
358,0,93804,1,0,0:0:0:0:
51,0,93804,1,0,0:0:0:0:
460,0,94621,1,0,0:0:0:0:
153,0,94621,1,0,0:0:0:0:
358,0,94921,1,0,0:0:0:0:
153,0,94921,1,0,0:0:0:0:
51,0,94921,1,0,0:0:0:0:
256,0,95108,1,0,0:0:0:0:
460,0,95296,1,0,0:0:0:0:
153,0,95296,1,0,0:0:0:0:
358,0,95483,1,0,0:0:0:0:
51,0,95671,1,0,0:0:0:0:
256,0,95733,1,0,0:0:0:0:
358,0,96046,1,0,0:0:0:0:
51,0,96231,1,0,0:0:0:0:
460,0,96416,1,0,0:0:0:0:
358,0,96416,1,0,0:0:0:0:
153,0,96508,1,0,0:0:0:0:
256,0,96601,1,0,0:0:0:0:
358,0,96694,1,0,0:0:0:0:
460,0,96786,1,0,0:0:0:0:
51,0,96786,1,0,0:0:0:0:
358,0,97157,1,0,0:0:0:0:
256,0,97157,1,0,0:0:0:0:
51,0,97157,1,0,0:0:0:0:
153,0,97339,1,0,0:0:0:0:
460,0,97522,1,0,0:0:0:0:
256,0,97522,1,0,0:0:0:0:
51,0,97705,1,0,0:0:0:0:
358,0,97888,1,0,0:0:0:0:
256,0,97888,1,0,0:0:0:0:
460,0,98071,1,0,0:0:0:0:
153,0,98071,1,0,0:0:0:0:
358,0,98254,1,0,0:0:0:0:
256,0,98254,1,0,0:0:0:0:
153,0,98254,1,0,0:0:0:0:
460,0,98620,1,0,0:0:0:0:
51,0,98620,1,0,0:0:0:0:
358,0,98711,1,0,0:0:0:0:
256,0,98803,1,0,0:0:0:0:
153,0,98894,1,0,0:0:0:0:
460,0,98986,1,0,0:0:0:0:
51,192,98986,1,0,0:0:0:0:
358,0,99077,1,0,0:0:0:0:
153,0,99169,1,0,0:0:0:0:
51,0,99260,1,0,0:0:0:0:
460,0,99352,1,0,0:0:0:0:
358,0,99352,1,0,0:0:0:0:
256,0,99352,1,0,0:0:0:0:
153,0,99535,1,0,0:0:0:0:
358,0,99717,1,0,0:0:0:0:
51,0,99717,1,0,0:0:0:0:
153,0,99900,1,0,0:0:0:0:
256,0,100083,1,0,0:0:0:0:
460,0,100266,1,0,0:0:0:0:
358,0,100266,1,0,0:0:0:0:
51,0,100266,1,0,0:0:0:0:
153,0,100449,1,0,0:0:0:0:
460,0,100632,1,0,0:0:0:0:
153,0,100815,1,0,0:0:0:0:
51,0,100815,1,0,0:0:0:0:
358,0,100906,1,0,0:0:0:0:
256,0,100998,1,0,0:0:0:0:
153,0,101089,1,0,0:0:0:0:
460,0,101181,1,0,0:0:0:0:
51,0,101181,1,0,0:0:0:0:
460,0,101547,1,0,0:0:0:0:
358,0,101547,1,0,0:0:0:0:
153,0,101547,1,0,0:0:0:0:
51,0,101730,1,0,0:0:0:0:
256,0,101913,1,0,0:0:0:0:
153,0,101913,1,0,0:0:0:0:
358,0,102096,1,0,0:0:0:0:
51,0,102096,1,0,0:0:0:0:
358,0,102278,1,0,0:0:0:0:
256,0,102278,1,0,0:0:0:0:
153,0,102400,1,0,0:0:0:0:
256,0,102522,1,0,0:0:0:0:
460,0,102645,1,0,0:0:0:0:
358,0,102645,1,0,0:0:0:0:
51,0,102645,1,0,0:0:0:0:
256,0,103020,1,0,0:0:0:0:
460,0,103020,1,0,0:0:0:0:
51,0,103113,1,0,0:0:0:0:
153,0,103207,1,0,0:0:0:0:
358,192,103301,1,0,0:0:0:0:
460,0,103395,1,0,0:0:0:0:
51,0,103395,1,0,0:0:0:0:
153,0,103488,1,0,0:0:0:0:
256,0,103582,1,0,0:0:0:0:
460,0,103676,1,0,0:0:0:0:
358,0,103770,1,0,0:0:0:0:
153,0,103770,1,0,0:0:0:0:
51,0,103770,1,0,0:0:0:0:
256,0,103952,1,0,0:0:0:0:
358,0,104135,1,0,0:0:0:0:
153,0,104135,1,0,0:0:0:0:
460,0,104318,1,0,0:0:0:0:
51,0,104318,1,0,0:0:0:0:
358,0,104501,1,0,0:0:0:0:
51,0,104501,1,0,0:0:0:0:
256,0,104684,1,0,0:0:0:0:
51,0,104867,1,0,0:0:0:0:
460,0,104867,1,0,0:0:0:0:
153,0,105050,1,0,0:0:0:0:
460,0,105233,1,0,0:0:0:0:
358,0,105233,1,0,0:0:0:0:
256,0,105233,1,0,0:0:0:0:
153,0,105416,1,0,0:0:0:0:
460,0,105599,1,0,0:0:0:0:
256,0,105599,1,0,0:0:0:0:
51,0,105599,1,0,0:0:0:0:
358,0,105965,1,0,0:0:0:0:
51,0,105965,1,0,0:0:0:0:
460,0,106061,128,0,107118:0:0:0:0:
256,0,107118,1,0,0:0:0:0:
358,0,107214,128,0,108273:0:0:0:0:
153,0,108273,1,0,0:0:0:0:
256,0,108371,128,0,110571:0:0:0:0:
51,0,110571,128,0,111787:0:0:0:0:
153,0,110661,128,0,112192:0:0:0:0:
460,0,113003,1,0,0:0:0:0:
256,0,113003,1,0,0:0:0:0:
51,0,113131,1,0,0:0:0:0:
358,0,113387,1,0,0:0:0:0:
358,0,113772,1,0,0:0:0:0:
256,0,113772,1,0,0:0:0:0:
153,0,114157,1,0,0:0:0:0:
51,0,114157,1,0,0:0:0:0:
460,0,114539,1,0,0:0:0:0:
256,0,114539,1,0,0:0:0:0:
358,0,114921,1,0,0:0:0:0:
51,0,114921,1,0,0:0:0:0:
256,0,115310,1,0,0:0:0:0:
153,0,115310,1,0,0:0:0:0:
460,0,115700,1,0,0:0:0:0:
256,0,115700,1,0,0:0:0:0:
358,0,116089,1,0,0:0:0:0:
153,0,116089,1,0,0:0:0:0:
460,0,116479,1,0,0:0:0:0:
51,0,116479,1,0,0:0:0:0:
358,0,116869,1,0,0:0:0:0:
256,0,116869,1,0,0:0:0:0:
153,0,116937,1,0,0:0:0:0:
460,0,117279,1,0,0:0:0:0:
358,0,117690,1,0,0:0:0:0:
256,0,118101,1,0,0:0:0:0:
256,0,119334,1,0,0:0:0:0:
153,0,119334,1,0,0:0:0:0:
358,0,119403,1,0,0:0:0:0:
51,0,119745,1,0,0:0:0:0:
153,0,120156,1,0,0:0:0:0:
256,0,120567,1,0,0:0:0:0:
460,0,121801,1,0,0:0:0:0:
153,0,121801,1,0,0:0:0:0:
358,0,121909,1,0,0:0:0:0:
153,0,122235,1,0,0:0:0:0:
51,0,122235,1,0,0:0:0:0:
256,0,122453,1,0,0:0:0:0:
358,0,122670,1,0,0:0:0:0:
256,0,123105,1,0,0:0:0:0:
51,0,123105,1,0,0:0:0:0:
460,0,123553,1,0,0:0:0:0:
153,0,124022,1,0,0:0:0:0:
358,0,124469,1,0,0:0:0:0:
51,0,124469,1,0,0:0:0:0:
153,0,124584,1,0,0:0:0:0:
460,0,125025,1,0,0:0:0:0:
358,0,125025,1,0,0:0:0:0:
256,0,125313,1,0,0:0:0:0:
153,0,125602,1,0,0:0:0:0:
51,0,126227,1,0,0:0:0:0:
358,192,126227,1,0,0:0:0:0:
51,0,126924,1,0,0:0:0:0:
460,0,127017,1,0,0:0:0:0:
