osu file format v14

[General]
AudioFilename: audio.mp3
AudioLeadIn: 0
PreviewTime: 5940
Countdown: 0
SampleSet: Normal
StackLeniency: 0.7
Mode: 1
LetterboxInBreaks: 0
WidescreenStoryboard: 1

[Editor]
Bookmarks: 90,6323,18791,31258,43726,56193
DistanceSpacing: 1.3
BeatDivisor: 6
GridSize: 32
TimelineZoom: 1.2

[Metadata]
Title:Able Sisters
TitleUnicode:エイブルシスターズ
Artist:Kataoka Manaka & Asahi Atsuko
ArtistUnicode:片岡真央 & 朝日温子
Creator:yenmaster
Version:Muzukashii
Source:とびだせ どうぶつの森
Tags:video game electronic instrumental animal crossing: new leaf mable sable あさみ きぬよ asami kinuyo
BeatmapID:2565325
BeatmapSetID:1232875

[Difficulty]
HPDrainRate:8
CircleSize:2
OverallDifficulty:4
ApproachRate:10
SliderMultiplier:1.4
SliderTickRate:1

[Events]
//Background and Video events
0,0,"background.jpg",0,0
//Break Periods
//Storyboard Layer 0 (Background)
//Storyboard Layer 1 (Fail)
//Storyboard Layer 2 (Pass)
//Storyboard Layer 3 (Foreground)
//Storyboard Layer 4 (Overlay)
//Storyboard Sound Samples

[TimingPoints]
108,389.61038961039,4,1,0,60,1,0
108,-117.647058823529,4,1,0,60,0,0
31276,-119.205298013245,4,1,0,53,0,0
31666,-120.805369127517,4,1,0,49,0,0
31861,-122.448979591837,4,1,0,49,0,0
32055,-124.137931034483,4,1,0,45,0,0
32445,-125.874125874126,4,1,0,42,0,0
32834,-127.659574468085,4,1,0,38,0,0
33030,-129.496402877698,4,1,0,38,0,0
33224,-131.386861313869,4,1,0,34,0,0
33614,-133.333333333333,4,1,0,31,0,0
34004,-135.338345864662,4,1,0,27,0,0
34198,-137.404580152672,4,1,0,27,0,0
34393,-139.53488372093,4,1,0,23,0,0
34783,-141.732283464567,4,1,0,20,0,0
34913,-144,4,1,0,20,0,0
35043,-146.341463414634,4,1,0,20,0,0
35172,-148.760330578512,4,1,0,16,0,0
35562,-151.260504201681,4,1,0,12,0,0
35951,-153.846153846154,4,1,0,9,0,0

[HitObjects]
256,192,108,5,0,0:0:0:0:
256,192,497,1,8,0:0:0:0:
256,192,887,1,8,0:0:0:0:
256,192,1666,1,0,0:0:0:0:
256,192,2055,1,0,0:0:0:0:
256,192,2445,1,8,0:0:0:0:
256,192,3224,1,0,0:0:0:0:
256,192,3614,1,8,0:0:0:0:
256,192,4004,1,8,0:0:0:0:
256,192,4782,1,0,0:0:0:0:
256,192,5173,1,8,0:0:0:0:
256,192,5562,1,8,0:0:0:0:
256,192,5952,1,0,0:0:0:0:
256,192,6146,1,0,0:0:0:0:
256,192,6341,1,8,0:0:0:0:
256,192,6731,1,8,0:0:0:0:
256,192,6926,1,8,0:0:0:0:
256,192,7120,1,0,0:0:0:0:
256,192,7900,1,8,0:0:0:0:
256,192,8095,1,0,0:0:0:0:
256,192,8289,1,0,0:0:0:0:
256,192,8679,1,8,0:0:0:0:
256,192,9069,1,8,0:0:0:0:
256,192,9263,1,8,0:0:0:0:
256,192,9458,1,0,0:0:0:0:
256,192,9848,1,8,0:0:0:0:
256,192,10237,1,0,0:0:0:0:
256,192,11017,1,0,0:0:0:0:
256,192,11406,1,8,0:0:0:0:
256,192,11796,1,8,0:0:0:0:
256,192,12185,1,0,0:0:0:0:
256,192,12380,1,0,0:0:0:0:
256,192,12575,1,8,0:0:0:0:
256,192,12965,1,8,0:0:0:0:
256,192,13159,1,8,0:0:0:0:
256,192,13354,1,0,0:0:0:0:
256,192,14133,1,8,0:0:0:0:
256,192,14328,1,0,0:0:0:0:
256,192,14523,1,0,0:0:0:0:
256,192,14913,1,8,0:0:0:0:
256,192,15302,1,8,0:0:0:0:
256,192,15497,1,0,0:0:0:0:
256,192,15692,1,0,0:0:0:0:
256,192,16082,1,8,0:0:0:0:
256,192,16471,1,0,0:0:0:0:
256,192,17250,1,0,0:0:0:0:
256,192,17640,1,8,0:0:0:0:
256,192,18030,1,8,0:0:0:0:
256,192,18419,1,8,0:0:0:0:
256,192,18809,1,0,0:0:0:0:
256,192,19069,1,0,0:0:0:0:
256,192,19198,1,8,0:0:0:0:
256,192,19393,1,0,0:0:0:0:
256,192,19588,1,8,0:0:0:0:
256,192,19978,1,0,0:0:0:0:
256,192,20367,1,8,0:0:0:0:
256,192,20562,1,8,0:0:0:0:
256,192,20757,1,0,0:0:0:0:
256,192,21146,1,0,0:0:0:0:
256,192,21406,1,8,0:0:0:0:
256,192,21536,1,0,0:0:0:0:
256,192,21731,1,8,0:0:0:0:
256,192,21926,1,8,0:0:0:0:
256,192,22315,1,0,0:0:0:0:
256,192,23095,1,8,0:0:0:0:
256,192,23484,1,0,0:0:0:0:
256,192,23874,1,8,0:0:0:0:
256,192,24263,1,8,0:0:0:0:
256,192,24653,1,8,0:0:0:0:
256,192,25043,1,0,0:0:0:0:
256,192,25432,1,0,0:0:0:0:
256,192,25627,1,0,0:0:0:0:
256,192,25822,1,8,0:0:0:0:
256,192,26211,1,8,0:0:0:0:
256,192,26406,1,0,0:0:0:0:
256,192,26601,1,8,0:0:0:0:
256,192,26796,1,8,0:0:0:0:
256,192,26991,1,0,0:0:0:0:
256,192,27380,1,0,0:0:0:0:
256,192,27770,1,0,0:0:0:0:
256,192,28159,1,8,0:0:0:0:
256,192,28549,1,0,0:0:0:0:
256,192,29328,1,0,0:0:0:0:
256,192,29718,1,0,0:0:0:0:
256,192,30108,1,8,0:0:0:0:
256,192,30497,1,8,0:0:0:0:
256,192,31276,1,8,0:0:0:0:
256,192,31666,1,8,0:0:0:0:
256,192,31861,1,0,0:0:0:0:
256,192,32056,1,0,0:0:0:0:
256,192,32445,1,0,0:0:0:0:
256,192,32835,1,8,0:0:0:0:
256,192,33030,1,8,0:0:0:0:
256,192,33224,1,0,0:0:0:0:
256,192,34004,1,8,0:0:0:0:
256,192,34198,1,8,0:0:0:0:
256,192,34393,1,0,0:0:0:0:
256,192,34783,1,8,0:0:0:0:
256,192,35172,1,0,0:0:0:0:
256,192,35952,1,0,0:0:0:0:
