osu file format v14

[General]
AudioFilename: audio.mp3
AudioLeadIn: 0
PreviewTime: 5940
Countdown: 0
SampleSet: Normal
StackLeniency: 0.7
Mode: 1
LetterboxInBreaks: 0
WidescreenStoryboard: 1

[Editor]
Bookmarks: 90,6323,18791,31258,43726,56193
DistanceSpacing: 1.3
BeatDivisor: 6
GridSize: 32
TimelineZoom: 1.2

[Metadata]
Title:Able Sisters
TitleUnicode:エイブルシスターズ
Artist:Kataoka Manaka & Asahi Atsuko
ArtistUnicode:片岡真央 & 朝日温子
Creator:yenmaster
Version:Futsuu
Source:とびだせ どうぶつの森
Tags:video game electronic instrumental animal crossing: new leaf mable sable あさみ きぬよ asami kinuyo
BeatmapID:2565324
BeatmapSetID:1232875

[Difficulty]
HPDrainRate:9
CircleSize:2
OverallDifficulty:3
ApproachRate:10
SliderMultiplier:1.4
SliderTickRate:1

[Events]
//Background and Video events
0,0,"background.jpg",0,0
//Break Periods
//Storyboard Layer 0 (Background)
//Storyboard Layer 1 (Fail)
//Storyboard Layer 2 (Pass)
//Storyboard Layer 3 (Foreground)
//Storyboard Layer 4 (Overlay)
//Storyboard Sound Samples

[TimingPoints]
108,389.61038961039,4,1,0,60,1,0
108,-125,4,1,0,60,0,0
31276,-126.315789473684,4,1,0,53,0,0
31666,-127.659574468085,4,1,0,49,0,0
31861,-129.032258064516,4,1,0,49,0,0
32055,-130.434782608696,4,1,0,45,0,0
32445,-131.868131868132,4,1,0,42,0,0
32834,-133.333333333333,4,1,0,38,0,0
33030,-134.831460674157,4,1,0,38,0,0
33224,-136.363636363636,4,1,0,34,0,0
33614,-137.931034482759,4,1,0,31,0,0
34004,-139.53488372093,4,1,0,27,0,0
34198,-141.176470588235,4,1,0,27,0,0
34393,-142.857142857143,4,1,0,23,0,0
34783,-144.578313253012,4,1,0,20,0,0
34913,-146.341463414634,4,1,0,20,0,0
35043,-148.148148148148,4,1,0,20,0,0
35172,-150,4,1,0,16,0,0
35562,-151.898734177215,4,1,0,12,0,0
35951,-153.846153846154,4,1,0,9,0,0

[HitObjects]
256,192,108,5,0,0:0:0:0:
256,192,1276,1,0,0:0:0:0:
256,192,1666,1,8,0:0:0:0:
256,192,2835,1,0,0:0:0:0:
256,192,3224,1,0,0:0:0:0:
256,192,4393,1,0,0:0:0:0:
256,192,4783,1,0,0:0:0:0:
256,192,5952,1,0,0:0:0:0:
256,192,6341,1,8,0:0:0:0:
256,192,6731,1,8,0:0:0:0:
256,192,6926,1,8,0:0:0:0:
256,192,7120,1,0,0:0:0:0:
256,192,7510,1,0,0:0:0:0:
256,192,7900,1,8,0:0:0:0:
256,192,8289,1,0,0:0:0:0:
256,192,9069,1,8,0:0:0:0:
256,192,9263,1,8,0:0:0:0:
256,192,9458,1,0,0:0:0:0:
256,192,9848,1,8,0:0:0:0:
256,192,10237,1,0,0:0:0:0:
256,192,11017,1,0,0:0:0:0:
256,192,11407,1,8,0:0:0:0:
256,192,11796,1,8,0:0:0:0:
256,192,12185,1,0,0:0:0:0:
256,192,12575,1,8,0:0:0:0:
256,192,12965,1,8,0:0:0:0:
256,192,13159,1,8,0:0:0:0:
256,192,13354,1,0,0:0:0:0:
256,192,13744,1,0,0:0:0:0:
256,192,14133,1,8,0:0:0:0:
256,192,14523,1,0,0:0:0:0:
256,192,15302,1,8,0:0:0:0:
256,192,15497,1,0,0:0:0:0:
256,192,15692,1,0,0:0:0:0:
256,192,16082,1,0,0:0:0:0:
256,192,16471,1,8,0:0:0:0:
256,192,17250,1,0,0:0:0:0:
256,192,17640,1,8,0:0:0:0:
256,192,18030,1,8,0:0:0:0:
256,192,18419,1,8,0:0:0:0:
256,192,18809,1,0,0:0:0:0:
256,192,19069,1,0,0:0:0:0:
256,192,19198,1,8,0:0:0:0:
256,192,19588,1,8,0:0:0:0:
256,192,20367,1,8,0:0:0:0:
256,192,20757,1,0,0:0:0:0:
256,192,21406,1,8,0:0:0:0:
256,192,21536,1,0,0:0:0:0:
256,192,21926,1,0,0:0:0:0:
256,192,22315,1,8,0:0:0:0:
256,192,23095,1,8,0:0:0:0:
256,192,23484,1,0,0:0:0:0:
256,192,24653,1,8,0:0:0:0:
256,192,25043,1,0,0:0:0:0:
256,192,25432,1,0,0:0:0:0:
256,192,25822,1,8,0:0:0:0:
256,192,26211,1,0,0:0:0:0:
256,192,26601,1,8,0:0:0:0:
256,192,26796,1,0,0:0:0:0:
256,192,26991,1,0,0:0:0:0:
256,192,27770,1,8,0:0:0:0:
256,192,28159,1,8,0:0:0:0:
256,192,28549,1,0,0:0:0:0:
256,192,28939,1,0,0:0:0:0:
256,192,29328,1,8,0:0:0:0:
256,192,29718,1,0,0:0:0:0:
256,192,30887,1,0,0:0:0:0:
256,192,31276,1,8,0:0:0:0:
256,192,31666,1,8,0:0:0:0:
256,192,31861,1,8,0:0:0:0:
256,192,32055,1,0,0:0:0:0:
256,192,32445,1,0,0:0:0:0:
256,192,32835,1,8,0:0:0:0:
256,192,34004,1,8,0:0:0:0:
256,192,34393,1,0,0:0:0:0:
256,192,34783,1,0,0:0:0:0:
256,192,35172,1,8,0:0:0:0:
256,192,35952,1,0,0:0:0:0:
