osu file format v14

[General]
AudioFilename: audio.mp3
AudioLeadIn: 0
PreviewTime: 112351
Countdown: 0
SampleSet: Soft
StackLeniency: 0.6
Mode: 0
LetterboxInBreaks: 0
WidescreenStoryboard: 1

[Editor]
DistanceSpacing: 0.95
BeatDivisor: 4
GridSize: 32
TimelineZoom: 2.800001

[Metadata]
Title:Tamayura - Open the "AKABEi JAZZ CONCERT"
TitleUnicode:魂響 - Open the “AKABEi JAZZ CONCERT”
Artist:Katakiri Rekka
ArtistUnicode:片霧烈火
Creator:Lasse
Version:Hard
Source:魂響〜たまゆら〜
Tags:Mirash Kyouhei Kyohei Nishizaka 西坂恭平 AKABEiSOFT2 10th Anniversary Arrange jazz rock Noriyasu Agematsu 上松範康 Elements Garden eroge visual novel full version opening japanese
BeatmapID:2948342
BeatmapSetID:1431401

[Difficulty]
HPDrainRate:4
CircleSize:3.8
OverallDifficulty:6.8
ApproachRate:8
SliderMultiplier:1.6
SliderTickRate:1

[Events]
//Background and Video events
0,0,"a2.jpg",0,0
//Break Periods
2,139562,144343
2,228262,233312
2,255062,260124
//Storyboard Layer 0 (Background)
//Storyboard Layer 1 (Fail)
//Storyboard Layer 2 (Pass)
//Storyboard Layer 3 (Foreground)
//Storyboard Layer 4 (Overlay)
//Storyboard Sound Samples

[TimingPoints]
13562,375,4,2,34,70,1,0
28374,-200,4,3,34,48,0,0
28562,-125,4,3,34,50,0,0
34562,-111.111111111111,4,3,34,53,0,0
40093,-90.9090909090909,4,2,35,65,0,0
40280,-90.9090909090909,4,2,34,65,0,0
40374,-100,4,2,34,55,0,0
40562,-100,4,2,34,60,0,0
49562,-100,4,2,35,60,0,0
49749,-100,4,2,34,60,0,0
51062,-99.9999999999999,4,2,34,60,0,0
51249,-100,4,2,34,60,0,0
51812,-100,4,2,34,60,0,0
51999,-100,4,2,34,60,0,0
52093,-100,4,2,71,60,0,0
52187,-100,4,2,34,60,0,0
61562,-100,4,2,35,60,0,0
61749,-100,4,2,34,60,0,0
63062,-100,4,2,34,60,0,0
63343,-100,4,2,34,60,0,0
63812,-100,4,2,34,62,0,0
64093,-100,4,2,71,62,0,0
64280,-100,4,2,34,56,0,0
64374,-100,4,2,34,56,0,0
64468,-100,4,2,34,54,0,0
64655,-100,4,2,34,46,0,0
64749,-111.111111111111,4,2,34,54,0,0
64843,-100,4,2,34,44,0,0
64937,-100,4,2,34,54,0,0
65499,-100,4,2,71,54,0,0
65593,-100,4,2,34,54,0,0
66999,-100,4,2,34,50,0,0
67093,-153.846153846154,4,2,34,30,0,0
68312,-153.846153846154,4,2,34,10,0,0
68499,-153.846153846154,4,2,34,5,0,0
68593,-153.846153846154,4,2,34,50,0,0
69062,-200,4,2,34,45,0,0
70562,-133.333333333333,4,2,35,45,0,0
70843,-133.333333333333,4,2,34,45,0,0
75062,-133.333333333333,4,2,34,45,0,0
80687,-133.333333333333,4,2,34,45,0,0
81062,-133.333333333333,4,2,35,45,0,0
81155,-133.333333333333,4,2,34,45,0,0
82562,-133.333333333333,4,2,35,45,0,0
82843,-133.333333333333,4,2,34,45,0,0
83312,-133.333333333333,4,2,34,50,0,0
83499,-133.333333333333,4,2,34,52,0,0
83687,-133.333333333333,4,2,34,55,0,0
84062,-111.111111111111,4,2,34,60,0,0
86593,-111.111111111111,4,2,34,50,0,0
87062,-100,4,2,34,60,0,0
96062,-100,4,2,35,60,0,0
96155,-100,4,2,34,60,0,0
97562,-100,4,2,35,60,0,0
97655,-100,4,2,34,60,0,0
99062,-166.666666666667,4,2,34,50,0,0
99249,-166.666666666667,4,2,34,40,0,0
102062,-166.666666666667,4,2,35,45,0,0
102155,-166.666666666667,4,2,34,40,0,0
103093,-166.666666666667,4,2,34,50,0,0
103187,-166.666666666667,4,2,34,52,0,0
103280,-166.666666666667,4,2,34,54,0,0
103374,-166.666666666667,4,2,34,56,0,0
103468,-166.666666666667,4,2,34,58,0,0
103562,-100,4,2,35,60,0,0
103655,-100,4,2,34,60,0,0
103937,-100,4,2,71,60,0,0
104030,-100,4,2,34,60,0,0
104499,-100,4,2,71,60,0,0
104593,-100,4,2,34,60,0,0
105062,-111.111111111111,4,2,34,55,0,0
108062,-90.9090909090909,4,2,34,56,0,0
108343,-90.9090909090909,4,2,71,56,0,0
108437,-90.9090909090909,4,2,34,56,0,0
109093,-90.9090909090909,4,2,71,56,0,0
109187,-90.9090909090909,4,2,34,56,0,0
109562,-90.9090909090909,4,2,35,56,0,0
109655,-90.9090909090909,4,2,34,56,0,0
109843,-90.9090909090909,4,2,71,56,0,0
109937,-90.9090909090909,4,2,34,56,0,0
110593,-90.9090909090909,4,2,71,56,0,0
110687,-90.9090909090909,4,2,34,56,0,0
111062,-90.9090909090909,4,2,34,60,0,0
111812,-90.9090909090909,4,2,35,58,0,0
112093,-90.9090909090909,4,2,35,55,0,0
112562,-86.9565217391304,4,2,34,70,0,1
122312,-86.9565217391304,4,2,35,70,0,1
122405,-86.9565217391304,4,2,34,70,0,1
124374,-133.333333333333,4,2,34,60,0,0
124749,-200,4,2,34,5,0,0
124843,-200,4,2,34,50,0,0
124937,-76.9230769230769,4,2,34,70,0,1
125030,-76.9230769230769,4,2,34,70,0,0
125312,-76.9230769230769,4,2,71,70,0,0
125593,-76.9230769230769,4,2,34,65,0,0
126062,-86.9565217391304,4,2,34,70,0,1
130562,-100,4,2,34,70,0,0
130749,-100,4,2,34,65,0,0
133562,-90.9090909090909,4,2,34,68,0,1
133749,-90.9090909090909,4,2,34,68,0,0
135249,-83.3333333333333,4,2,35,70,0,1
135437,-83.3333333333333,4,2,34,70,0,1
135812,-83.3333333333333,4,2,71,70,0,1
135999,-83.3333333333333,4,2,34,70,0,1
136374,-83.3333333333333,4,2,34,70,0,0
136562,-90.9090909090909,4,2,34,70,0,1
136749,-90.9090909090909,4,2,34,70,0,1
137312,-83.3333333333333,4,2,35,70,0,1
137499,-83.3333333333333,4,2,34,70,0,1
138062,-71.4285714285714,4,2,34,70,0,0
139562,-200,4,2,34,44,0,0
145093,-200,4,2,34,50,0,0
145280,-200,4,2,34,52,0,0
145562,-111.111111111111,4,2,34,54,0,0
148562,-111.111111111111,4,2,34,56,0,0
151562,-105.263157894737,4,2,34,50,0,0
160562,-105.263157894737,4,2,35,50,0,0
160749,-105.263157894737,4,2,34,50,0,0
162062,-105.263157894737,4,2,35,50,0,0
162249,-105.263157894737,4,2,34,50,0,0
163187,-105.263157894737,4,2,34,50,0,0
163280,-100,4,2,34,44,0,0
163374,-100,4,2,34,50,0,0
163562,-166.666666666667,4,2,34,50,0,0
163749,-166.666666666667,4,2,34,40,0,0
166562,-166.666666666667,4,2,35,45,0,0
166655,-166.666666666667,4,2,34,40,0,0
167593,-166.666666666667,4,2,34,50,0,0
167687,-166.666666666667,4,2,34,52,0,0
167780,-166.666666666667,4,2,34,54,0,0
167874,-166.666666666667,4,2,34,56,0,0
167968,-166.666666666667,4,2,34,58,0,0
168062,-100,4,2,35,60,0,0
168155,-100,4,2,34,60,0,0
168437,-100,4,2,71,60,0,0
168530,-100,4,2,34,60,0,0
168999,-100,4,2,71,60,0,0
169093,-100,4,2,34,60,0,0
169562,-111.111111111111,4,2,34,55,0,0
172562,-90.9090909090909,4,2,34,56,0,0
172843,-90.9090909090909,4,2,71,56,0,0
172937,-90.9090909090909,4,2,34,56,0,0
173593,-90.9090909090909,4,2,71,56,0,0
173687,-90.9090909090909,4,2,34,56,0,0
174062,-90.9090909090909,4,2,35,56,0,0
174155,-90.9090909090909,4,2,34,56,0,0
174343,-90.9090909090909,4,2,71,56,0,0
174437,-90.9090909090909,4,2,34,56,0,0
175093,-90.9090909090909,4,2,71,56,0,0
175187,-90.9090909090909,4,2,34,56,0,0
175562,-90.9090909090909,4,2,34,60,0,0
176312,-90.9090909090909,4,2,35,58,0,0
176593,-90.9090909090909,4,2,35,55,0,0
177062,-86.9565217391304,4,2,34,70,0,1
186812,-86.9565217391304,4,2,35,70,0,1
186905,-86.9565217391304,4,2,34,70,0,1
188874,-133.333333333333,4,2,34,60,0,0
189249,-200,4,2,34,5,0,0
189343,-200,4,2,34,50,0,0
189437,-76.9230769230769,4,2,34,70,0,1
189530,-76.9230769230769,4,2,34,70,0,0
189812,-76.9230769230769,4,2,71,70,0,0
190093,-76.9230769230769,4,2,34,65,0,0
190562,-86.9565217391304,4,2,34,70,0,1
195062,-100,4,2,34,70,0,0
195249,-100,4,2,34,65,0,0
198062,-90.9090909090909,4,2,34,68,0,1
198249,-90.9090909090909,4,2,34,68,0,0
199749,-83.3333333333333,4,2,35,70,0,1
199937,-83.3333333333333,4,2,34,70,0,1
200312,-83.3333333333333,4,2,71,70,0,1
200499,-83.3333333333333,4,2,34,70,0,1
200874,-83.3333333333333,4,2,34,70,0,0
201062,-90.9090909090909,4,2,34,70,0,1
201249,-90.9090909090909,4,2,34,70,0,1
201812,-83.3333333333333,4,2,35,70,0,1
201999,-83.3333333333333,4,2,34,70,0,1
202562,-71.4285714285714,4,2,34,70,0,0
203124,-125,4,2,34,54,0,0
204062,-111.111111111111,4,2,34,56,0,0
204343,-111.111111111111,4,2,34,48,0,0
206874,-111.111111111111,4,2,71,54,0,0
207062,-111.111111111111,4,2,35,56,0,0
207343,-111.111111111111,4,2,34,48,0,0
210062,-111.111111111111,4,3,34,54,0,0
215593,-90.9090909090909,4,2,35,65,0,0
215780,-90.9090909090909,4,2,34,65,0,0
215874,-99.9999999999999,4,2,34,55,0,0
216062,-100,4,2,34,60,0,0
222062,-90.9090909090909,4,2,34,62,0,0
225062,-90.9090909090909,4,2,35,62,0,0
225155,-83.3333333333333,4,2,34,62,0,0
225343,-83.3333333333333,4,2,34,62,0,0
226374,-133.333333333333,4,2,34,60,0,0
226562,-76.9230769230769,4,2,35,64,0,0
226749,-76.9230769230769,4,2,34,64,0,0
227312,-71.4285714285714,4,2,34,64,0,0
227405,-71.4285714285714,4,2,34,64,0,0
227593,-71.4285714285714,4,2,71,64,0,0
227687,-71.4285714285714,4,2,34,65,0,0
228062,-200,4,2,34,60,0,0
229562,-200,4,2,34,40,0,0
234062,-133.333333333333,4,2,35,46,0,0
234249,-133.333333333333,4,2,34,46,0,0
237062,-117.647058823529,4,2,35,48,0,0
237249,-117.647058823529,4,2,34,48,0,0
237812,-117.647058823529,4,2,71,48,0,0
237905,-117.647058823529,4,2,34,48,0,0
238562,-105.263157894737,4,2,35,50,0,0
239312,-133.333333333333,4,2,34,52,0,0
239593,-133.333333333333,4,2,34,54,0,0
239874,-133.333333333333,4,2,34,56,0,0
240437,-76.9230769230769,4,2,34,70,0,1
240530,-76.9230769230769,4,2,34,70,0,0
240812,-76.9230769230769,4,2,71,70,0,0
241093,-76.9230769230769,4,2,34,65,0,0
241562,-86.9565217391304,4,2,34,70,0,1
246062,-100,4,2,34,70,0,0
246249,-100,4,2,34,65,0,0
249062,-90.9090909090909,4,2,34,68,0,1
249249,-90.9090909090909,4,2,34,68,0,0
250749,-83.3333333333333,4,2,35,70,0,1
250937,-83.3333333333333,4,2,34,70,0,1
251312,-83.3333333333333,4,2,71,70,0,1
251499,-83.3333333333333,4,2,34,70,0,1
251874,-83.3333333333333,4,2,34,70,0,0
252062,-90.9090909090909,4,2,34,70,0,1
252249,-90.9090909090909,4,2,34,70,0,1
252812,-83.3333333333333,4,2,35,70,0,1
252999,-83.3333333333333,4,2,34,70,0,1
253562,-71.4285714285714,4,2,34,70,0,0
255062,-153.846153846153,4,2,35,50,0,0
255343,-153.846153846153,4,2,34,50,0,0
261062,-100,4,2,34,60,0,0
264062,-100,4,2,35,60,0,0
264249,-100,4,2,34,60,0,0
265562,-100,4,2,34,60,0,0
265749,-100,4,2,34,60,0,0
266312,-100,4,2,34,60,0,0
266499,-100,4,2,34,60,0,0
266593,-100,4,2,71,60,0,0
266687,-100,4,2,34,60,0,0
276062,-100,4,2,35,60,0,0
276249,-100,4,2,34,60,0,0
277562,-100,4,2,34,60,0,0
277843,-100,4,2,34,60,0,0
278312,-100,4,2,34,62,0,0
278593,-100,4,2,71,62,0,0
278780,-100,4,2,34,56,0,0
278874,-100,4,2,34,56,0,0
278968,-100,4,2,34,54,0,0
279155,-100,4,2,34,46,0,0
279249,-111.111111111111,4,2,34,54,0,0
279343,-100,4,2,34,44,0,0
279437,-100,4,2,34,54,0,0
279999,-100,4,2,71,54,0,0
280093,-100,4,2,34,54,0,0
281499,-100,4,2,34,50,0,0
281593,-100,4,2,34,30,0,0
282437,-100,4,2,34,20,0,0
282905,-100,4,2,34,5,0,0
282999,-100,4,2,34,50,0,0
283562,-83.3333333333333,4,2,34,60,0,0
283749,-83.3333333333333,4,2,34,46,0,0
283843,-83.3333333333333,4,2,35,60,0,0
285405,-83.3333333333333,4,2,35,50,0,0

[Colours]
Combo1 : 240,140,140
Combo2 : 200,180,220
Combo3 : 240,200,155
Combo4 : 150,185,220

[HitObjects]
92,318,28562,6,0,P|49:326|-11:304,2,96,2|0|0,1:2|1:2|1:2,0:2:0:0:
163,289,29312,1,0,1:2:0:0:
163,289,29405,2,0,P|158:259|168:222,1,64,0|0,1:2|1:2,0:2:0:0:
194,212,29687,2,0,P|224:217|261:207,1,64,0|0,1:2|1:2,0:2:0:0:
327,144,30062,6,0,L|331:48,2,96,2|0|0,1:2|1:2|1:2,0:2:0:0:
376,203,30812,2,0,L|451:199,1,64,0|2,1:0|1:0,0:0:0:0:
469,212,31093,2,0,L|473:308,1,96,2|0,1:2|1:2,0:2:0:0:
394,364,31562,6,0,P|343:365|305:343,2,96,2|0|0,1:2|1:2|1:2,0:2:0:0:
466,329,32312,1,0,1:2:0:0:
466,329,32405,2,0,L|467:244,1,64,0|0,1:2|1:2,0:2:0:0:
484,238,32687,2,0,L|485:153,1,64,0|0,1:2|1:2,0:2:0:0:
420,85,33062,6,0,B|466:101|466:101|522:77,2,96,2|0|0,1:2|1:2|1:2,0:2:0:0:
348,99,33812,1,0,1:2:0:0:
348,99,33905,2,0,P|318:85|272:86,1,64,0|0,1:2|1:2,0:2:0:0:
252,98,34187,2,0,P|222:84|176:85,1,64,0|0,1:2|1:2,0:2:0:0:
103,113,34562,6,0,B|70:130|70:130|16:114,1,71.9999978027344,6|0,1:1|0:2,0:2:0:0:
22,155,34843,1,0,1:2:0:0:
22,155,34937,2,0,L|27:250,1,71.9999978027344,8|0,0:1|1:2,0:2:0:0:
70,298,35312,1,10,3:1:0:0:
70,298,35405,2,0,B|103:307|103:307|136:290,1,71.9999978027344,0|0,1:2|1:2,0:2:0:0:
167,309,35687,2,0,B|200:318|200:318|233:301,1,71.9999978027344,10|0,0:1|1:2,0:2:0:0:
298,223,36062,6,0,P|285:191|288:137,1,71.9999978027344,2|0,1:2|0:2,0:2:0:0:
298,123,36343,1,0,1:2:0:0:
298,123,36437,2,0,P|335:105|394:109,1,71.9999978027344,8|0,0:1|1:1,0:2:0:0:
448,131,36812,1,10,3:1:0:0:
448,131,36905,2,0,P|461:163|458:217,1,71.9999978027344,0|0,1:1|1:2,0:2:0:0:
478,232,37187,2,0,P|491:264|488:318,1,71.9999978027344,10|0,0:1|1:1,0:2:0:0:
421,363,37562,6,0,P|389:353|336:350,1,71.9999978027344,2|0,1:2|0:2,0:2:0:0:
315,357,37843,1,0,1:2:0:0:
315,357,37937,2,0,P|280:367|244:370,1,71.9999978027344,8|0,0:1|1:1,0:2:0:0:
173,338,38312,1,10,3:1:0:0:
173,338,38405,2,0,L|180:263,1,71.9999978027344,0|0,1:1|1:2,0:2:0:0:
165,232,38687,2,0,L|158:157,1,71.9999978027344,10|0,0:1|1:1,0:2:0:0:
174,74,39062,6,0,L|185:40,12,23.9999992675781,2|0|0|0|0|0|0|0|0|0|0|0|0,1:2|0:2|0:2|1:2|0:2|0:2|1:2|0:0|0:0|1:0|0:0|0:0|1:0,0:2:0:0:
174,74,40093,6,2,P|236:91|314:47,1,132.00000402832,12|8,3:1|1:2,0:1:0:0:
312,57,40468,1,8,1:2:0:0:
329,48,40562,6,0,B|381:26|381:26|452:47,2,120,14|10|10,0:1|0:1|0:1,0:2:0:0:
278,129,41312,2,0,P|272:176|280:220,1,80,10|0,0:2|0:2,0:2:0:0:
298,247,41593,1,10,0:2:0:0:
298,247,41687,2,0,P|347:235|395:239,1,80,8|10,0:1|0:2,0:2:0:0:
434,333,42062,6,0,P|385:345|337:341,1,80,10|8,0:1|0:2,0:2:0:0:
344,340,42343,1,10,0:1:0:0:
332,335,42437,1,8,0:1:0:0:
247,380,42624,1,10,0:1:0:0:
180,310,42812,2,0,L|173:202,1,80,10|0,0:2|0:2,0:2:0:0:
190,196,43093,1,10,0:2:0:0:
190,196,43187,2,0,L|183:88,1,80,8|10,0:1|0:2,0:2:0:0:
113,35,43562,6,0,P|57:23|-14:54,2,120,10|10|10,0:1|0:1|0:1,0:2:0:0:
186,96,44312,2,0,P|221:103|266:84,1,80,10|0,0:2|0:2,0:2:0:0:
300,72,44593,1,10,0:2:0:0:
300,72,44687,2,0,P|336:56|375:64,1,80,8|10,0:1|0:2,0:2:0:0:
447,135,45062,6,0,L|437:244,1,80,10|8,0:1|0:2,0:2:0:0:
438,226,45343,1,10,0:1:0:0:
435,237,45437,1,8,0:1:0:0:
351,283,45624,1,10,0:1:0:0:
276,222,45812,2,0,P|242:204|172:211,1,80,10|0,0:2|0:2,0:2:0:0:
162,189,46093,2,0,L|117:204,1,40,10|8,0:2|0:1,0:0:0:0:
43,262,46374,5,8,1:2:0:0:
43,262,46468,1,8,1:2:0:0:
43,262,46562,2,0,P|26:221|57:133,2,120,14|10|10,0:1|0:1|0:1,0:2:0:0:
103,337,47312,2,0,P|137:325|181:325,1,80,10|0,0:2|0:2,0:2:0:0:
221,347,47593,1,10,0:2:0:0:
221,347,47687,2,0,P|260:347|298:334,1,80,8|10,0:1|0:2,0:2:0:0:
356,249,48062,6,0,P|353:220|369:163,1,80,10|8,0:1|0:2,0:2:0:0:
372,161,48343,1,10,0:1:0:0:
382,155,48437,1,8,0:1:0:0:
452,219,48624,1,10,0:1:0:0:
496,133,48812,2,0,P|499:104|483:47,1,80,10|0,0:2|0:2,0:2:0:0:
456,37,49093,1,10,0:2:0:0:
456,37,49187,2,0,P|414:50|353:43,1,80,8|10,0:1|0:2,0:2:0:0:
276,23,49562,6,0,B|237:16|237:16|209:29|209:29|152:17,2,120,14|10|10,0:1|0:1|0:1,0:2:0:0:
319,109,50312,2,0,P|318:142|293:188,1,80,10|0,0:2|0:2,0:2:0:0:
267,210,50593,1,10,0:2:0:0:
267,210,50687,2,0,P|225:194|186:196,1,80,8|10,0:1|0:2,0:2:0:0:
147,289,51062,6,0,P|105:305|66:303,1,80,14|8,0:1|0:2,0:2:0:0:
58,301,51343,1,10,0:1:0:0:
46,297,51437,1,8,0:1:0:0:
1,212,51624,1,10,0:1:0:0:
35,122,51812,2,0,B|68:102|68:102|116:108,1,80,14|8,0:2|0:2,0:2:0:0:
146,120,52093,2,0,B|187:125|187:125|220:105,1,80,14|8,0:1|1:2,0:2:0:0:
251,80,52374,2,0,L|271:32,1,40,10|8,1:2|1:2,0:0:0:0:
303,27,52562,6,0,P|351:19|421:69,2,120,14|10|10,0:1|0:1|0:1,0:2:0:0:
240,100,53312,2,0,L|256:191,1,80,10|0,0:2|0:2,0:2:0:0:
248,218,53593,1,10,0:2:0:0:
248,218,53687,2,0,P|199:230|150:223,1,80,8|10,0:1|0:2,0:2:0:0:
76,184,54062,6,0,L|60:275,1,80,10|8,0:1|0:2,0:2:0:0:
60,274,54343,1,10,0:1:0:0:
59,286,54437,1,8,0:1:0:0:
84,378,54624,1,10,0:1:0:0:
171,337,54812,2,0,P|208:323|263:328,1,80,10|0,0:2|0:2,0:2:0:0:
287,345,55093,1,10,0:2:0:0:
287,345,55187,2,0,P|326:346|363:332,1,80,8|10,0:1|0:2,0:2:0:0:
453,268,55562,6,0,B|439:328|481:331|470:405,2,120,10|10|10,0:1|0:1|0:1,0:2:0:0:
498,183,56312,2,0,P|509:146|505:102,1,80,10|0,0:2|0:2,0:2:0:0:
486,70,56593,1,10,0:2:0:0:
486,70,56687,2,0,L|392:55,1,80,8|10,0:1|0:2,0:2:0:0:
319,119,57062,6,0,L|239:131,1,80,10|8,0:1|0:2,0:2:0:0:
228,134,57343,1,10,0:1:0:0:
216,138,57437,1,8,0:1:0:0:
144,201,57624,1,10,0:1:0:0:
63,148,57812,2,0,P|62:102|79:53,1,80,10|0,0:2|0:2,0:2:0:0:
95,37,58093,2,0,L|142:26,1,40,10|8,0:2|0:1,0:0:0:0:
235,45,58374,5,8,1:2:0:0:
235,45,58468,1,8,1:2:0:0:
235,45,58562,2,0,B|292:57|292:57|354:27,2,120,14|10|10,0:1|0:1|0:1,0:2:0:0:
158,102,59312,2,0,P|141:148|148:184,1,80,10|0,0:2|0:2,0:2:0:0:
172,214,59593,1,10,0:2:0:0:
172,214,59687,2,0,L|260:200,1,80,8|10,0:1|0:2,0:2:0:0:
344,150,60062,6,0,L|432:164,1,80,10|8,0:1|0:2,0:2:0:0:
434,161,60343,1,10,0:1:0:0:
445,158,60437,1,8,0:1:0:0:
507,230,60624,1,10,0:1:0:0:
449,307,60812,2,0,P|403:317|364:303,1,80,10|0,0:2|0:2,0:2:0:0:
338,297,61093,1,10,0:2:0:0:
338,297,61187,2,0,P|299:286|261:295,1,80,8|10,0:1|0:2,0:2:0:0:
164,346,61562,6,0,B|106:363|106:363|45:335,2,120,14|10|10,0:1|0:1|0:1,0:2:0:0:
240,282,62312,2,0,P|230:249|242:196,1,80,10|0,0:2|0:2,0:2:0:0:
264,175,62593,1,10,0:2:0:0:
264,175,62687,2,0,P|301:178|340:159,1,80,8|10,0:1|0:2,0:2:0:0:
249,73,63062,6,0,P|213:56|173:58,1,80,14|8,0:1|0:2,0:2:0:0:
164,66,63343,1,10,0:1:0:0:
156,75,63437,1,8,0:1:0:0:
73,26,63624,1,10,0:1:0:0:
23,108,63812,2,0,B|34:217,1,80,14|8,0:2|0:2,0:2:0:0:
48,223,64093,2,0,B|37:332,1,80,14|8,0:1|0:2,0:0:0:0:
62,341,64374,1,10,1:2:0:0:
62,341,64468,2,0,B|100:349|100:349|148:330,1,80,8|8,0:0|0:0,0:0:0:0:
169,315,64749,6,0,B|179:277|179:277|172:254|172:254|185:194,1,107.999996704102,10|10,0:1|0:2,0:0:0:0:
234,150,65218,1,14,0:1:0:0:
310,246,65499,5,12,0:1:0:0:
382,212,65687,1,10,0:1:0:0:
382,212,65780,2,0,P|384:175|364:117,1,80,10|10,0:2|0:1,0:0:0:0:
277,54,66249,5,10,0:1:0:0:
222,113,66437,1,10,0:2:0:0:
222,113,66530,2,0,P|154:109|132:91,1,80,10|14,0:2|0:2,0:0:0:0:
58,24,66999,5,14,0:1:0:0:
256,192,67093,12,14,69062,3:1:0:0:
122,330,70562,6,0,L|20:324,2,90.0000034332277,14|0|0,3:1|0:2|0:2,0:0:0:0:
380,251,72062,2,0,P|412:168|388:83,2,180.000006866455,10|0|0,3:1|0:2|0:2,0:0:0:0:
279,290,73562,2,0,L|177:284,2,90.0000034332277,10|0|0,3:1|0:2|0:2,0:0:0:0:
462,91,75062,6,0,P|480:177|451:261,1,180.000006866455,14|0,3:1|0:2,0:0:0:0:
195,348,76562,2,0,L|93:342,2,90.0000034332277,10|0|0,3:1|0:2|0:2,0:0:0:0:
449,256,78062,2,0,P|467:169|438:85,2,180.000006866455,10|0|0,3:1|0:2|0:2,0:0:0:0:
355,310,79562,2,0,L|253:304,1,90.0000034332277,10|0,3:1|0:2,0:0:0:0:
193,343,80124,2,0,L|91:337,2,90.0000034332277,0|0|0,0:2|0:2|0:0,0:0:0:0:
322,289,81062,6,0,P|338:247|327:193,1,90.0000034332277,14|0,0:1|0:2,0:2:0:0:
243,144,81624,2,0,L|142:149,2,90.0000034332277,0|0|0,0:2|0:2|0:2,0:0:0:0:
313,101,82374,1,2,3:2:0:0:
313,101,82468,1,2,3:2:0:0:
313,101,82562,2,0,P|316:59|293:12,2,90.0000034332277,14|0|0,0:1|0:2|0:2,0:2:0:0:
250,151,83312,5,8,3:3:0:0:
250,151,83405,1,8,3:3:0:0:
250,151,83499,2,0,L|192:142,5,30.0000011444092,8|8|0|0|0|0,3:2|3:2|1:2|1:2|1:2|1:2,0:0:0:0:
183,148,84062,6,0,P|139:203|156:292,1,143.999995605469,14|8,0:1|0:2,0:2:0:0:
198,337,84624,1,8,0:1:0:0:
198,337,84718,2,0,P|256:321|334:327,1,107.999996704102,8|8,0:2|0:1,0:0:0:0:
383,334,85187,1,8,0:2:0:0:
391,338,85280,1,8,0:2:0:0:
399,342,85374,1,8,0:3:0:0:
407,346,85468,1,8,0:3:0:0:
415,350,85562,1,8,0:2:0:0:
512,254,86593,6,0,L|509:290,4,35.9999989013672,8|8|4|8|8,0:3|0:3|0:3|0:1|0:1,0:0:0:0:
497,217,87062,6,0,L|484:118,2,80,14|10|8,0:1|0:2|0:1,0:2:0:0:
491,227,87530,1,10,0:2:0:0:
482,235,87624,1,8,0:1:0:0:
411,288,87812,2,0,P|351:270|281:266,1,120,10|10,0:2|0:2,0:0:0:0:
265,237,88187,2,0,P|225:243|188:257,1,80,8|10,0:1|0:2,0:2:0:0:
103,302,88562,5,10,0:1:0:0:
49,231,88749,2,0,P|43:188|64:127,1,80,10|8,0:2|0:1,0:2:0:0:
58,143,89030,1,10,0:2:0:0:
68,136,89124,1,8,0:1:0:0:
144,85,89312,2,0,P|197:102|273:90,2,120,10|10|8,0:2|0:2|0:2,0:0:0:0:
73,19,90062,5,10,0:1:0:0:
17,85,90249,2,0,P|3:129|19:182,1,80,8|8,0:2|0:1,0:2:0:0:
14,172,90530,1,10,0:2:0:0:
19,182,90624,1,8,0:1:0:0:
101,221,90812,2,0,P|161:203|231:199,1,120,10|10,0:2|0:2,0:0:0:0:
247,170,91187,2,0,P|287:176|324:190,1,80,8|10,0:1|0:2,0:2:0:0:
410,245,91562,5,10,0:1:0:0:
482,187,91749,2,0,P|488:144|467:83,1,80,10|0,0:2|0:2,0:0:0:0:
475,97,92030,1,8,0:0:0:0:
466,88,92124,1,8,0:1:0:0:
392,34,92312,2,0,B|369:50|337:50|337:50|316:28|277:24,1,120,10|10,0:0|0:0,0:0:0:0:
160,97,92874,5,8,1:2:0:0:
160,97,92968,1,8,1:2:0:0:
160,97,93062,2,0,L|147:196,2,80,14|10|8,0:1|0:2|0:1,0:2:0:0:
170,90,93530,1,10,0:2:0:0:
181,86,93624,1,8,0:1:0:0:
249,153,93812,2,0,L|255:282,1,120,10|10,0:2|0:2,0:0:0:0:
274,307,94187,2,0,B|311:294|311:294|354:308,1,80,8|10,0:1|0:2,0:2:0:0:
454,341,94562,5,10,0:1:0:0:
511,270,94749,2,0,P|517:227|496:166,1,80,10|8,0:2|0:1,0:2:0:0:
502,182,95030,1,10,0:2:0:0:
492,175,95124,1,10,0:1:0:0:
415,117,95312,2,0,B|421:78|421:78|418:64|418:64|429:-5,2,120,10|10|10,0:2|0:2|0:2,0:0:0:0:
333,175,96062,5,14,0:1:0:0:
265,123,96249,2,0,P|233:110|183:111,1,80,10|8,0:2|0:1,0:2:0:0:
177,115,96530,1,10,0:2:0:0:
169,124,96624,1,8,0:1:0:0:
211,206,96812,2,0,P|221:258|194:333,1,120,10|10,0:2|0:2,0:0:0:0:
173,349,97187,2,0,P|134:361|93:355,1,80,8|10,0:1|0:2,0:2:0:0:
0,306,97562,5,14,0:1:0:0:
41,229,97749,2,0,B|47:206|47:206|45:196|45:196|57:133,1,80,10|0,0:0|0:2,0:0:0:0:
58,140,98030,1,10,0:2:0:0:
65,131,98124,1,8,0:1:0:0:
149,160,98312,2,0,B|206:178|206:178|261:148,1,120,10|8,0:2|0:2,0:0:0:0:
287,121,98687,2,0,L|291:79,3,40,8|8|8|8,0:3|0:2|0:2|0:2,0:0:0:0:
320,55,99062,6,0,B|395:72|439:20|439:20|378:95|391:202|463:244,1,383.99998828125,14|2,0:1|0:2,0:2:0:0:
461,243,101687,2,0,L|467:205,1,23.9999992675781,2|8,0:2|0:1,0:0:0:0:
512,146,102062,6,0,P|442:200|357:159,1,191.999994140625,14|0,0:1|0:2,0:2:0:0:
304,90,103093,2,0,L|299:54,4,23.9999992675781,8|8|8|4|4,3:2|3:2|3:3|3:3|3:3,0:0:0:0:
272,114,103562,6,0,P|220:119|186:101,1,80,14|8,0:2|0:1,0:2:0:0:
123,172,103937,2,0,P|71:167|37:185,1,80,14|8,0:2|0:1,0:2:0:0:
20,208,104218,1,12,0:2:0:0:
20,208,104312,2,0,P|11:246|28:294,1,80,8|12,0:1|0:2,0:2:0:0:
87,341,104687,1,8,3:2:0:0:
96,338,104780,1,8,3:2:0:0:
106,335,104874,1,8,3:2:0:0:
115,332,104968,1,8,3:2:0:0:
126,330,105062,6,0,P|137:304|136:257,1,71.9999978027344,14|8,0:1|0:1,0:2:0:0:
88,188,105437,2,0,L|35:181,2,35.9999989013672,8|8|4,0:3|0:3|0:3,0:0:0:0:
154,132,105812,2,0,P|177:112|222:104,1,71.9999978027344,10|8,0:3|0:1,0:2:0:0:
310,121,106187,1,8,0:3:0:0:
310,121,106280,1,8,0:2:0:0:
310,121,106374,1,8,0:2:0:0:
379,182,106562,6,0,B|415:187|415:187|447:172,1,71.9999978027344,6|8,0:3|0:1,0:2:0:0:
502,105,106937,2,0,L|509:70,2,35.9999989013672,8|8|4,0:3|0:3|0:3,0:0:0:0:
450,177,107312,2,0,P|438:220|446:253,1,71.9999978027344,8|8,0:3|0:3,0:0:0:0:
494,327,107687,1,8,3:1:0:0:
494,327,107780,1,8,3:2:0:0:
494,327,107874,1,8,3:2:0:0:
399,372,108062,6,0,L|295:357,1,88.000002685547,14|8,0:1|0:1,0:2:0:0:
280,374,108343,2,0,P|276:352|280:307,1,44.0000013427735,14|0,0:2|0:0,0:2:0:0:
307,229,108624,5,8,0:2:0:0:
307,229,108718,1,8,0:2:0:0:
307,229,108812,2,0,P|326:194|321:139,1,88.000002685547,12|10,0:2|0:1,0:2:0:0:
335,115,109093,2,0,L|314:69,1,44.0000013427735,12|0,0:2|0:0,0:2:0:0:
236,18,109374,5,8,0:2:0:0:
236,18,109468,1,8,0:2:0:0:
236,18,109562,2,0,P|189:40|149:31,1,88.000002685547,12|8,0:2|0:1,0:2:0:0:
124,52,109843,2,0,P|94:38|76:35,1,44.0000013427735,12|0,0:2|0:2,0:2:0:0:
0,110,110124,5,8,0:2:0:0:
0,110,110218,1,8,0:2:0:0:
0,110,110312,2,0,L|5:214,1,88.000002685547,12|8,0:2|0:1,0:2:0:0:
23,237,110593,2,0,P|65:222|117:225,1,88.000002685547,12|8,0:2|0:1,0:2:0:0:
147,241,110874,1,8,0:2:0:0:
238,299,111062,5,10,0:2:0:0:
238,299,111155,1,10,0:2:0:0:
238,299,111249,2,0,L|245:351,1,44.0000013427735,10|10,0:1|0:1,0:0:0:0:
343,378,111530,2,0,L|348:334,1,44.0000013427735,10|10,0:2|0:1,0:0:0:0:
445,289,111812,5,14,0:1:0:0:
342,168,112093,5,14,0:1:0:0:
342,168,112562,6,0,B|394:191|394:191|465:164|444:71,1,184.000003509522,14|8,0:1|0:1,0:0:0:0:
369,24,113124,1,8,0:0:0:0:
369,24,113218,1,8,0:1:0:0:
369,24,113312,2,0,P|326:41|281:44,1,92.0000017547608,10|8,0:1|0:2,0:0:0:0:
218,136,113687,2,0,P|172:132|130:115,1,92.0000017547608,10|8,0:1|0:2,0:0:0:0:
39,30,114062,6,0,L|55:226,1,184.000003509522,10|8,0:1|0:1,0:0:0:0:
26,325,114624,1,8,0:2:0:0:
26,325,114718,1,0,0:0:0:0:
26,325,114812,2,0,L|127:312,1,92.0000017547608,10|8,0:1|0:0,0:0:0:0:
199,238,115187,1,8,0:1:0:0:
124,156,115374,1,8,0:2:0:0:
209,73,115562,6,0,B|325:46|287:114|386:90,1,184.000003509522,10|8,0:1|0:1,0:0:0:0:
497,137,116124,1,8,0:0:0:0:
497,137,116218,1,8,0:1:0:0:
497,137,116312,2,0,P|499:70|480:27,1,92.0000017547608,10|8,0:1|0:0,0:0:0:0:
384,96,116687,2,0,P|382:163|401:206,1,92.0000017547608,10|8,0:1|0:0,0:0:0:0:
505,238,117062,6,0,P|507:305|488:348,1,92.0000017547608,10|8,0:1|0:0,0:0:0:0:
396,369,117437,2,0,P|340:346|291:345,1,92.0000017547608,10|10,0:1|0:2,0:0:0:0:
265,349,117718,1,8,0:1:0:0:
265,349,117812,2,0,P|223:368|178:374,1,92.0000017547608,10|8,0:1|0:0,0:0:0:0:
74,333,118187,1,8,0:0:0:0:
72,321,118280,1,8,0:0:0:0:
70,310,118374,1,8,0:3:0:0:
68,298,118468,1,8,0:3:0:0:
66,287,118562,6,0,B|59:252|50:232|50:232|60:204|60:204|37:160|40:106,1,184.000003509522,14|8,0:1|0:1,0:0:0:0:
121,37,119124,1,8,0:0:0:0:
121,37,119218,1,8,0:1:0:0:
121,37,119312,2,0,P|180:65|218:63,1,92.0000017547608,10|8,0:1|0:2,0:0:0:0:
304,114,119687,2,0,P|349:109|388:85,1,92.0000017547608,10|8,0:1|0:2,0:0:0:0:
493,17,120062,6,0,L|481:113,1,92.0000017547608,10|8,0:1|0:0,0:0:0:0:
512,214,120437,2,0,L|500:310,1,92.0000017547608,10|8,0:1|0:2,0:0:0:0:
419,374,120812,1,10,0:1:0:0:
417,362,120905,1,8,0:1:0:0:
415,351,120999,1,8,0:0:0:0:
413,339,121093,1,8,0:1:0:0:
411,328,121187,2,0,L|399:236,1,92.0000017547608,10|8,0:1|0:2,0:0:0:0:
323,134,121562,6,0,B|316:171|268:179|268:179|222:145|166:143,1,184.000003509522,14|8,0:1|0:1,0:0:0:0:
60,170,122124,1,8,0:2:0:0:
60,170,122218,1,8,0:1:0:0:
60,170,122312,1,14,0:1:0:0:
52,281,122499,1,8,0:2:0:0:
156,323,122687,1,10,0:1:0:0:
228,237,122874,1,8,0:2:0:0:
167,142,123062,6,0,P|194:59|280:43,1,184.000003509522,14|8,0:1|1:2,0:1:0:0:
384,80,123624,1,10,1:2:0:0:
384,80,123718,1,8,1:2:0:0:
384,80,123812,1,2,1:1:0:0:
298,149,123999,1,2,1:1:0:0:
402,186,124187,1,2,1:1:0:0:
316,255,124374,6,2,P|289:315|347:368,1,150.000005722046,2|0,0:0|0:0,0:1:0:0:
377,380,124937,6,2,P|418:355|479:353,1,103.999995239258,14|8,0:1|0:0,0:1:0:0:
486,359,125218,1,8,0:0:0:0:
500,365,125312,2,0,B|522:333|526:301|526:301|502:274|506:214,2,155.999992858887,12|8|4,0:0|0:3|0:3,0:0:0:0:
405,312,126062,6,0,B|298:273|320:325|211:297,1,184.000003509522,14|8,0:1|0:1,0:0:0:0:
139,359,126624,1,8,0:0:0:0:
139,359,126718,1,8,0:1:0:0:
139,359,126812,2,0,L|134:263,1,92.0000017547608,10|8,0:1|0:2,0:0:0:0:
200,188,127187,2,0,L|195:92,1,92.0000017547608,8|8,0:1|0:2,0:0:0:0:
93,24,127562,6,0,P|28:40|7:155,1,184.000003509522,10|8,0:1|0:1,0:0:0:0:
74,237,128124,1,8,0:2:0:0:
74,237,128218,1,8,0:1:0:0:
74,237,128312,2,0,P|127:225|177:227,1,92.0000017547608,10|8,0:1|0:0,0:0:0:0:
258,288,128687,2,0,P|303:287|348:276,1,92.0000017547608,10|8,0:1|0:2,0:0:0:0:
441,195,129062,6,0,L|449:99,1,92.0000017547608,10|8,0:1|0:0,0:0:0:0:
350,149,129437,2,0,L|357:57,1,92.0000017547608,10|8,0:1|0:2,0:0:0:0:
261,105,129812,1,10,0:1:0:0:
261,105,129905,1,8,0:1:0:0:
261,105,129999,1,8,0:2:0:0:
193,35,130187,2,0,P|173:26|120:29,3,46.0000008773804,8|8|8|8,0:0|0:0|0:3|0:3,0:0:0:0:
112,39,130562,6,0,L|6:50,2,80,14|10|8,0:1|0:2|0:1,0:0:0:0:
118,49,131030,1,10,0:1:0:0:
123,59,131124,1,8,0:1:0:0:
74,139,131312,2,0,P|46:174|39:263,2,120,10|10|10,0:1|0:1|0:1,0:0:0:0:
159,80,132062,6,0,L|152:-16,2,80,10|10|8,0:1|0:1|0:1,0:0:0:0:
164,90,132530,1,10,0:1:0:0:
171,99,132624,1,8,0:1:0:0:
252,143,132812,2,0,P|291:145|344:123,1,80,10|8,0:1|0:1,0:0:0:0:
370,120,133093,1,10,0:1:0:0:
370,120,133187,2,0,P|407:107|447:109,1,80,8|10,0:1|0:0,0:0:0:0:
510,199,133562,6,0,L|500:308,1,88.000002685547,14|8,0:1|0:3,0:0:0:0:
443,363,133937,1,4,0:3:0:0:
443,363,134030,1,4,0:3:0:0:
443,363,134124,1,8,0:3:0:0:
363,306,134312,2,0,L|354:218,1,88.000002685547,10|8,0:3|0:3,0:0:0:0:
319,191,134593,2,0,L|310:103,1,88.000002685547,8|8,0:1|0:0,0:0:0:0:
283,69,134874,2,0,L|278:25,2,44.0000013427735,8|8|8,0:0|0:0|0:1,0:0:0:0:
209,130,135249,6,2,P|165:116|109:113,1,95.9999970703126,14|8,0:0|0:1,0:1:0:0:
72,135,135530,2,2,P|45:172|24:224,1,95.9999970703126,14|8,0:0|0:1,0:1:0:0:
34,266,135812,2,2,P|61:303|104:338,1,95.9999970703126,14|8,0:0|0:1,0:1:0:0:
146,342,136093,2,2,P|189:327|214:305,1,47.9999985351563,14|0,0:0|0:0,0:1:0:0:
275,269,136374,5,8,0:0:0:0:
275,269,136468,1,8,0:0:0:0:
275,269,136562,2,0,P|262:231|274:181,1,88.000002685547,14|0,0:1|0:0,0:0:0:0:
289,146,136843,2,0,P|302:107|290:57,1,88.000002685547,8|0,0:0|0:0,0:0:0:0:
267,26,137124,1,8,0:0:0:0:
193,103,137312,6,0,B|163:124|163:124|140:125|105:110,1,95.9999970703126,14|0,0:1|0:0,0:0:0:0:
62,88,137593,1,8,0:0:0:0:
62,88,137687,2,0,P|34:129|46:187,2,95.9999970703126,8|12|14,0:3|0:3|0:1,0:0:0:0:
48,332,145093,6,0,L|46:364,4,20,8|8|8|8|8,0:0|0:0|0:0|0:3|0:3,0:0:0:0:
30,300,145562,6,0,P|22:276|42:213,1,71.9999978027344,14|8,0:1|0:3,0:0:0:0:
64,151,145937,2,0,L|50:103,2,35.9999989013672,4|4|8,0:3|0:3|0:3,0:0:0:0:
140,191,146312,2,0,B|175:199|175:199|224:178,1,71.9999978027344,10|8,0:3|0:3,0:0:0:0:
287,148,146687,1,4,0:3:0:0:
287,148,146780,1,8,0:2:0:0:
287,148,146874,1,8,0:2:0:0:
355,216,147062,6,0,P|345:251|365:306,1,71.9999978027344,6|8,0:3|0:3,0:0:0:0:
410,349,147437,2,0,L|405:390,2,35.9999989013672,4|4|8,0:3|0:3|0:3,0:0:0:0:
476,293,147812,2,0,P|486:258|466:203,1,71.9999978027344,10|8,0:3|0:3,0:0:0:0:
432,156,148187,1,4,0:3:0:0:
432,156,148280,1,8,0:2:0:0:
432,156,148374,1,8,0:2:0:0:
355,216,148562,6,0,B|321:224|321:224|266:203,1,71.9999978027344,10|8,0:1|0:3,0:0:0:0:
221,153,148937,2,0,L|212:97,2,35.9999989013672,4|4|8,0:3|0:3|0:3,0:0:0:0:
183,231,149312,2,0,B|148:244|148:244|114:236,1,71.9999978027344,10|8,0:3|0:3,0:0:0:0:
40,214,149687,1,4,0:3:0:0:
40,214,149780,1,8,0:2:0:0:
40,214,149874,1,8,0:2:0:0:
0,126,150062,6,0,P|7:93|33:57,1,71.9999978027344,6|8,0:3|0:3,0:0:0:0:
109,33,150437,2,0,L|125:-12,2,35.9999989013672,4|4|8,0:3|0:3|0:3,0:0:0:0:
168,96,150812,2,0,P|224:107|251:91,1,71.9999978027344,10|8,0:3|0:3,0:0:0:0:
316,63,151187,1,4,0:3:0:0:
316,63,151280,1,8,0:2:0:0:
316,63,151374,1,8,0:2:0:0:
385,128,151562,6,0,L|379:214,2,75.9999979705811,12|10|0,0:1|0:0|0:0,0:0:0:0:
393,120,152030,1,10,0:0:0:0:
401,111,152124,1,8,0:1:0:0:
475,163,152312,2,0,L|480:238,1,75.9999979705811,10|0,0:0|0:0,0:0:0:0:
473,280,152593,1,10,0:0:0:0:
473,280,152687,2,0,P|434:292|378:280,1,75.9999979705811,8|10,0:1|0:0,0:0:0:0:
306,256,153062,5,10,0:1:0:0:
338,171,153249,2,0,P|343:132|333:89,1,75.9999979705811,10|0,0:0|0:0,0:0:0:0:
330,86,153530,1,10,0:0:0:0:
322,77,153624,1,8,0:1:0:0:
237,108,153812,2,0,P|174:106|152:94,1,75.9999979705811,10|0,0:0|0:0,0:0:0:0:
134,85,154093,1,10,0:0:0:0:
134,85,154187,2,0,P|97:74|60:78,1,75.9999979705811,8|10,0:1|0:0,0:0:0:0:
0,159,154562,5,10,0:1:0:0:
61,226,154749,2,0,P|98:229|134:218,1,75.9999979705811,10|0,0:0|0:0,0:0:0:0:
145,214,155030,1,10,0:0:0:0:
154,207,155124,1,8,0:1:0:0:
231,158,155312,2,0,P|228:109|247:63,1,75.9999979705811,10|0,0:0|0:0,0:0:0:0:
263,57,155593,1,10,0:0:0:0:
263,57,155687,2,0,L|362:49,1,75.9999979705811,8|10,0:1|0:0,0:0:0:0:
437,11,156062,5,10,0:1:0:0:
492,79,156249,2,0,P|496:116|487:153,1,75.9999979705811,10|0,0:0|0:0,0:0:0:0:
483,164,156530,1,10,0:0:0:0:
476,173,156624,1,8,0:1:0:0:
398,221,156812,2,0,B|336:212|358:185|293:181,1,113.999996955872,10|10,0:0|0:0,0:0:0:0:
156,216,157374,5,10,0:0:0:0:
156,216,157468,1,8,0:0:0:0:
156,215,157562,2,0,P|118:221|83:210,2,75.9999979705811,12|10|0,0:1|0:0|0:0,0:0:0:0:
167,213,158030,1,10,0:0:0:0:
178,210,158124,1,8,0:1:0:0:
225,288,158312,2,0,P|260:299|297:293,1,75.9999979705811,10|0,0:0|0:0,0:0:0:0:
330,322,158593,1,10,0:0:0:0:
330,322,158687,2,0,P|365:333|402:327,1,75.9999979705811,8|10,0:1|0:0,0:0:0:0:
490,280,159062,5,10,0:1:0:0:
467,194,159249,2,0,B|461:163|461:163|462:147|462:147|454:106,1,75.9999979705811,10|0,0:0|0:0,0:0:0:0:
453,108,159530,1,10,0:0:0:0:
450,96,159624,1,8,0:1:0:0:
373,46,159812,2,0,P|330:46|291:18,1,75.9999979705811,10|0,0:0|0:0,0:0:0:0:
270,47,160093,1,10,0:0:0:0:
270,47,160187,2,0,P|227:47|188:75,1,75.9999979705811,8|10,0:1|0:0,0:0:0:0:
136,141,160562,5,12,0:1:0:0:
206,197,160749,2,0,P|216:236|215:271,1,75.9999979705811,10|0,0:0|0:0,0:0:0:0:
214,282,161030,1,10,0:0:0:0:
209,292,161124,1,8,0:1:0:0:
134,349,161312,2,0,L|50:340,1,75.9999979705811,10|0,0:0|0:0,0:0:0:0:
27,328,161593,1,10,0:0:0:0:
27,328,161687,2,0,P|25:290|36:253,1,75.9999979705811,8|10,0:1|0:0,0:0:0:0:
102,165,162062,5,12,0:1:0:0:
183,205,162249,2,0,B|217:213|217:213|256:198,1,75.9999979705811,10|0,0:0|0:0,0:0:0:0:
265,193,162530,1,10,0:0:0:0:
275,188,162624,1,8,0:1:0:0:
330,118,162812,2,0,P|319:69|342:23,1,75.9999979705811,10|0,0:0|0:0,0:0:0:0:
346,23,163093,2,0,L|391:12,1,37.9999989852906,10|8,0:0|0:1,0:0:0:0:
476,70,163374,5,10,1:2:0:0:
476,70,163468,1,8,1:2:0:0:
476,70,163562,2,0,B|517:203|428:171|426:323|426:323|418:254|362:231,1,383.99998828125,14|2,0:1|0:2,0:2:0:0:
363,231,166187,2,0,L|327:240,1,23.9999992675781,2|8,0:2|0:1,0:0:0:0:
276,306,166562,6,0,B|275:342|236:365|236:365|182:369|126:327,1,191.999994140625,14|0,0:1|0:2,0:2:0:0:
50,279,167593,2,0,L|15:302,4,23.9999992675781,8|8|8|4|4,3:2|3:2|3:3|3:3|3:3,0:0:0:0:
66,241,168062,6,0,L|80:148,1,80,14|8,0:2|0:1,0:2:0:0:
168,193,168437,2,0,L|182:100,1,80,14|8,0:2|0:1,0:2:0:0:
205,82,168718,1,12,0:2:0:0:
205,82,168812,2,0,P|243:71|302:97,1,80,8|14,0:1|0:2,0:2:0:0:
333,156,169187,1,8,3:2:0:0:
336,164,169280,1,8,3:2:0:0:
339,174,169374,1,8,3:2:0:0:
342,183,169468,1,8,3:2:0:0:
344,194,169562,6,0,P|370:205|418:198,1,71.9999978027344,14|8,0:1|0:1,0:2:0:0:
472,137,169937,2,0,L|478:81,2,35.9999989013672,8|8|4,0:3|0:3|0:3,0:0:0:0:
509,215,170312,2,0,P|513:260|491:315,1,71.9999978027344,10|8,0:3|0:1,0:2:0:0:
462,362,170687,1,8,0:3:0:0:
462,362,170780,1,8,0:2:0:0:
462,362,170874,1,8,0:2:0:0:
370,328,171062,6,0,P|346:318|298:318,1,71.9999978027344,6|8,0:3|0:1,0:2:0:0:
218,344,171437,2,0,L|202:376,2,35.9999989013672,8|8|4,0:3|0:3|0:3,0:0:0:0:
236,259,171812,2,0,L|227:178,1,71.9999978027344,8|8,0:3|0:3,0:0:0:0:
188,122,172187,1,8,3:1:0:0:
188,122,172280,1,8,3:2:0:0:
188,122,172374,1,8,3:2:0:0:
100,181,172562,6,0,B|54:189|54:189|7:158,1,88.000002685547,14|8,0:1|0:1,0:2:0:0:
5,133,172843,2,0,L|21:70,1,44.0000013427735,14|0,0:2|0:0,0:2:0:0:
100,25,173124,5,8,0:2:0:0:
100,25,173218,1,8,0:2:0:0:
100,25,173312,2,0,P|154:48|194:39,1,88.000002685547,12|10,0:2|0:1,0:2:0:0:
213,58,173593,2,0,P|238:44|264:41,1,44.0000013427735,12|0,0:2|0:0,0:2:0:0:
358,75,173874,5,8,0:2:0:0:
358,75,173968,1,8,0:2:0:0:
358,75,174062,2,0,L|345:178,1,88.000002685547,12|8,0:2|0:1,0:2:0:0:
328,192,174343,2,0,L|336:252,1,44.0000013427735,12|0,0:2|0:2,0:2:0:0:
399,320,174624,5,8,0:2:0:0:
399,320,174718,1,8,0:2:0:0:
399,320,174812,2,0,P|453:328|483:310,1,88.000002685547,12|8,0:2|0:1,0:2:0:0:
502,279,175093,2,0,L|490:191,1,88.000002685547,12|8,0:2|0:1,0:2:0:0:
466,160,175374,1,8,0:2:0:0:
370,118,175562,5,10,0:2:0:0:
370,118,175655,1,10,0:2:0:0:
370,118,175749,2,0,L|311:128,1,44.0000013427735,10|10,0:1|0:1,0:0:0:0:
234,176,176030,2,0,L|175:166,1,44.0000013427735,10|10,0:2|0:1,0:0:0:0:
103,107,176312,5,14,0:1:0:0:
2,229,176593,5,14,0:1:0:0:
2,229,177062,6,0,B|102:237|57:173|173:185,1,184.000003509522,14|8,0:1|0:1,0:0:0:0:
275,251,177624,1,8,0:2:0:0:
275,251,177718,1,8,0:1:0:0:
275,251,177812,2,0,P|268:307|286:346,1,92.0000017547608,10|8,0:1|0:2,0:0:0:0:
382,383,178187,2,0,L|391:280,1,92.0000017547608,10|8,0:1|0:2,0:0:0:0:
501,246,178562,6,0,B|480:201|480:201|505:132|469:58,1,184.000003509522,10|8,0:1|0:1,0:0:0:0:
378,15,179124,1,8,0:2:0:0:
378,15,179218,1,8,0:1:0:0:
378,15,179312,2,0,P|374:66|349:104,1,92.0000017547608,10|8,0:1|0:0,0:0:0:0:
249,138,179687,1,8,0:1:0:0:
159,74,179874,1,8,0:2:0:0:
51,123,180062,6,0,P|21:176|41:304,1,184.000003509522,10|8,0:1|0:1,0:0:0:0:
121,361,180624,1,8,0:2:0:0:
121,361,180718,1,8,0:1:0:0:
121,361,180812,2,0,L|218:350,1,92.0000017547608,8|8,0:1|0:0,0:0:0:0:
318,381,181187,2,0,L|303:270,1,92.0000017547608,10|8,0:1|0:2,0:0:0:0:
228,183,181562,6,0,L|243:72,1,92.0000017547608,10|8,0:1|0:0,0:0:0:0:
327,23,181937,2,0,P|374:18|424:34,1,92.0000017547608,10|10,0:1|0:2,0:0:0:0:
463,52,182218,1,8,0:1:0:0:
463,52,182312,2,0,L|478:163,1,92.0000017547608,10|8,0:1|0:2,0:0:0:0:
503,250,182687,1,8,0:0:0:0:
501,262,182780,1,8,0:0:0:0:
499,273,182874,1,8,0:3:0:0:
497,285,182968,1,8,0:3:0:0:
495,296,183062,6,0,B|487:358|413:368|413:368|356:331,1,184.000003509522,14|8,0:1|0:1,0:0:0:0:
294,255,183624,1,8,0:2:0:0:
294,255,183718,1,8,0:1:0:0:
294,255,183812,2,0,P|309:200|296:157,1,92.0000017547608,10|8,0:1|0:2,0:0:0:0:
232,80,184187,2,0,L|131:64,1,92.0000017547608,10|8,0:1|0:2,0:0:0:0:
34,137,184562,6,0,P|19:192|32:235,1,92.0000017547608,10|8,0:1|0:0,0:0:0:0:
99,308,184937,2,0,L|200:292,1,92.0000017547608,10|8,0:1|0:2,0:0:0:0:
290,339,185312,1,10,0:1:0:0:
292,327,185405,1,8,0:1:0:0:
294,316,185499,1,8,0:0:0:0:
296,304,185593,1,8,0:1:0:0:
298,293,185687,2,0,B|305:261|305:261|301:246|301:246|309:204,1,92.0000017547608,10|8,0:1|0:2,0:0:0:0:
414,147,186062,6,0,B|447:176|518:160|518:160|530:119|496:73,1,184.000003509522,14|8,0:1|0:1,0:0:0:0:
437,15,186624,1,8,0:2:0:0:
437,15,186718,1,8,0:1:0:0:
437,15,186812,1,14,2:1:0:0:
351,84,186999,1,8,2:2:0:0:
262,17,187187,1,10,2:1:0:0:
195,104,187374,1,8,2:2:0:0:
94,28,187562,6,0,B|53:32|36:59|36:59|35:133|86:187,1,184.000003509522,14|8,0:1|1:2,0:1:0:0:
147,260,188124,1,10,1:2:0:0:
147,260,188218,1,8,1:2:0:0:
147,260,188312,1,2,1:1:0:0:
225,183,188499,1,2,1:1:0:0:
292,270,188687,1,2,1:1:0:0:
382,208,188874,6,2,L|368:35,1,150.000005722046,2|0,0:0|0:0,0:1:0:0:
385,37,189437,6,2,B|435:19|435:19|493:49,1,103.999995239258,14|8,0:1|0:0,0:1:0:0:
491,53,189718,1,8,0:0:0:0:
501,65,189812,2,0,B|493:122|493:122|502:146|502:146|487:238,2,155.999992858887,12|8|4,0:0|0:3|0:3,0:0:0:0:
388,119,190562,6,0,B|326:91|272:120|272:120|238:127|208:105,1,184.000003509522,14|8,0:1|0:1,0:0:0:0:
134,43,191124,1,8,0:0:0:0:
134,43,191218,1,8,0:1:0:0:
134,43,191312,2,0,P|76:22|32:29,1,92.0000017547608,10|8,0:1|0:0,0:1:0:0:
41,135,191687,2,0,P|19:193|26:237,1,92.0000017547608,10|8,0:1|0:2,0:1:0:0:
86,325,192062,6,0,P|194:296|285:303,1,184.000003509522,10|8,0:1|0:1,0:0:0:0:
371,356,192624,1,8,0:2:0:0:
371,356,192718,1,0,0:0:0:0:
371,356,192812,2,0,P|380:295|367:247,1,92.0000017547608,10|8,0:1|0:0,0:0:0:0:
296,186,193187,2,0,P|286:141|292:95,1,92.0000017547608,10|8,0:1|0:2,0:0:0:0:
390,21,193562,6,0,L|498:11,1,92.0000017547608,10|8,0:1|0:0,0:0:0:0:
508,119,193937,2,0,L|400:129,1,92.0000017547608,10|10,0:1|0:2,0:0:0:0:
311,97,194312,1,10,0:1:0:0:
311,97,194405,1,8,0:1:0:0:
311,97,194499,1,8,0:2:0:0:
277,202,194687,2,0,L|290:275,3,46.0000008773804,8|8|8|8,0:0|0:0|0:3|0:3,0:0:0:0:
256,285,195062,6,0,L|155:274,2,80,14|10|8,0:1|0:2|0:1,0:0:0:0:
263,294,195530,1,10,0:1:0:0:
269,304,195624,1,8,0:1:0:0:
351,355,195812,2,0,L|479:344,2,120,10|10|10,0:1|0:1|0:1,0:0:0:0:
269,304,196562,6,0,L|179:291,2,80,10|10|8,0:1|0:1|0:1,0:0:0:0:
280,299,197030,1,10,0:1:0:0:
290,293,197124,1,8,0:1:0:0:
361,226,197312,2,0,P|360:187|340:136,1,80,10|8,0:1|0:1,0:0:0:0:
326,115,197593,1,10,0:1:0:0:
326,115,197687,2,0,L|246:103,1,80,8|10,0:1|0:0,0:0:0:0:
157,151,198062,6,0,P|158:107|122:55,1,88.000002685547,14|8,0:1|0:3,0:0:0:0:
67,18,198437,1,4,0:3:0:0:
67,18,198530,1,4,0:3:0:0:
67,18,198624,1,8,0:3:0:0:
23,104,198812,2,0,P|22:148|58:200,1,88.000002685547,10|8,0:3|0:3,0:0:0:0:
22,225,199093,2,0,P|21:269|57:321,1,88.000002685547,8|8,0:1|0:0,0:0:0:0:
69,341,199374,2,0,L|60:385,2,44.0000013427735,8|8|8,0:0|0:0|0:1,0:0:0:0:
160,310,199749,6,2,L|153:201,1,95.9999970703126,14|8,0:0|0:1,0:1:0:0:
156,166,200030,2,2,L|228:83,1,95.9999970703126,14|8,0:0|0:1,0:1:0:0:
254,61,200312,2,2,L|363:53,1,95.9999970703126,14|8,0:0|0:1,0:1:0:0:
397,56,200593,2,2,L|438:92,1,47.9999985351563,14|0,0:0|0:0,0:1:0:0:
498,175,200874,5,8,0:0:0:0:
498,175,200968,1,8,0:0:0:0:
498,175,201062,2,0,P|505:217|488:265,1,88.000002685547,14|0,0:1|0:0,0:0:0:0:
465,294,201343,2,0,P|418:284|364:301,1,88.000002685547,8|0,0:0|0:0,0:0:0:0:
343,318,201624,1,8,0:0:0:0:
242,376,201812,6,0,L|250:275,1,95.9999970703126,14|8,0:1|0:0,0:0:0:0:
235,234,202093,1,8,0:0:0:0:
235,234,202187,2,0,L|227:133,2,95.9999970703126,8|12|14,0:3|0:3|0:1,0:0:0:0:
235,234,203124,5,8,0:0:0:0:
250,239,203218,1,8,0:0:0:0:
264,244,203312,2,0,P|319:243|371:218,2,96,8|4|4,0:3|0:3|0:3,0:0:0:0:
189,200,204062,6,0,L|182:73,1,107.999996704102,12|0,0:1|0:0,0:1:0:0:
188,13,206874,1,12,0:1:0:0:
183,92,207062,2,0,L|177:199,1,107.999996704102,12|0,0:1|0:0,0:0:0:0:
177,199,209593,6,0,L|131:208,4,35.9999989013672,8|8|8|8|8,0:0|0:0|0:0|0:3|0:3,0:0:0:0:
208,216,210062,6,0,B|241:228|241:228|277:221,1,71.9999978027344,6|0,1:1|0:2,0:2:0:0:
309,204,210343,1,0,1:2:0:0:
309,204,210437,2,0,L|318:110,1,71.9999978027344,8|0,0:1|1:1,0:2:0:0:
382,73,210812,1,10,3:1:0:0:
382,73,210905,2,0,B|418:66|418:66|451:78,1,71.9999978027344,0|0,1:2|1:2,0:2:0:0:
478,102,211187,2,0,L|469:196,1,71.9999978027344,10|0,2:1|1:2,0:2:0:0:
434,254,211562,6,0,L|425:348,1,71.9999978027344,2|0,1:2|0:2,0:2:0:0:
411,359,211843,1,0,1:2:0:0:
411,359,211937,2,0,P|376:364|336:350,1,71.9999978027344,8|0,0:1|1:2,0:2:0:0:
274,308,212312,1,10,3:1:0:0:
274,308,212405,2,0,P|239:303|199:317,1,71.9999978027344,0|0,1:1|1:2,0:2:0:0:
172,331,212687,2,0,P|137:341|102:336,1,71.9999978027344,10|0,2:1|1:1,0:2:0:0:
20,277,213062,6,0,L|28:187,1,71.9999978027344,2|0,1:2|0:2,0:2:0:0:
50,179,213343,1,0,1:2:0:0:
50,179,213437,2,0,P|84:168|119:173,1,71.9999978027344,8|0,0:1|1:1,0:2:0:0:
198,222,213812,1,10,3:1:0:0:
198,222,213905,2,0,P|233:227|267:216,1,71.9999978027344,0|0,1:1|1:2,0:2:0:0:
299,199,214187,2,0,L|305:125,1,71.9999978027344,10|0,0:1|1:1,0:2:0:0:
292,40,214562,6,0,L|286:7,12,23.9999992675781,2|0|0|0|0|0|0|0|0|0|0|0|0,1:2|0:2|0:2|1:2|0:2|0:2|1:2|0:0|0:0|0:0|0:0|0:0|1:0,0:2:0:0:
292,40,215593,6,2,B|314:87|314:87|356:105|409:62,1,132.00000402832,12|8,3:1|1:2,0:1:0:0:
404,68,215968,1,8,1:2:0:0:
418,61,216062,6,0,P|454:47|493:55,1,80,14|10,0:1|0:0,0:0:0:0:
506,93,216343,2,0,L|489:205,1,80,2|8,0:1|0:0,0:0:0:0:
416,228,216718,1,2,0:1:0:0:
416,228,216812,2,0,P|365:221|323:182,1,80,8|2,0:0|0:0,0:0:0:0:
271,140,217187,2,0,P|267:96|251:46,1,80,8|10,0:1|0:0,0:0:0:0:
177,19,217562,5,10,0:1:0:0:
169,28,217655,1,0,0:0:0:0:
159,35,217749,1,8,0:0:0:0:
147,38,217843,1,0,0:0:0:0:
135,37,217937,2,0,P|113:24|83:15,3,40,10|8|0|2,0:1|0:0|0:0|0:0,0:0:0:0:
62,33,218312,2,0,P|37:78|45:174,2,120,8|10|8,0:0|0:0|0:0,0:0:0:0:
162,3,219062,5,10,0:1:0:0:
214,95,219249,1,8,0:0:0:0:
214,95,219343,1,2,0:0:0:0:
214,95,219437,2,0,L|205:144,3,40,8|8|8|0,0:1|0:0|0:1|0:0,0:0:0:0:
223,170,219812,6,0,B|261:182|261:182|299:171,1,80,10|0,0:2|0:0,0:0:0:0:
337,158,220093,1,10,0:0:0:0:
337,158,220187,2,0,B|375:146|375:146|413:156,1,80,8|8,0:1|0:0,0:0:0:0:
510,214,220562,5,10,0:1:0:0:
453,292,220749,1,10,0:0:0:0:
453,292,220843,2,0,B|415:304|415:304|377:294,1,80,2|10,0:0|0:0,0:0:0:0:
286,258,221218,1,2,0:0:0:0:
286,258,221312,2,0,L|277:164,2,80,8|2|8,0:2|0:0|0:1,0:0:0:0:
219,332,221874,5,8,0:0:0:0:
219,332,221968,1,8,0:0:0:0:
219,332,222062,2,2,B|152:352|152:352|91:314,2,132.00000402832,14|10|10,0:1|0:1|0:1,0:1:0:0:
286,258,222812,1,10,0:0:0:0:
279,244,222905,1,2,0:0:0:0:
275,229,222999,1,2,0:0:0:0:
274,213,223093,1,10,0:0:0:0:
277,198,223187,2,0,P|292:163|289:109,1,88.000002685547,10|10,0:1|0:0,0:0:0:0:
223,36,223562,6,0,L|123:25,1,88.000002685547,10|8,0:1|0:0,0:0:0:0:
100,51,223843,1,10,0:1:0:0:
100,51,223937,2,0,P|85:86|88:140,1,88.000002685547,8|10,0:1|0:1,0:0:0:0:
165,205,224312,2,0,L|265:194,1,88.000002685547,10|0,0:2|0:0,0:1:0:0:
297,215,224593,1,10,0:0:0:0:
297,215,224687,2,0,L|397:204,1,88.000002685547,10|10,0:1|0:2,0:0:0:0:
493,245,225062,5,14,0:1:0:0:
493,245,225155,2,2,P|509:314|489:361,1,95.9999970703126,2|2,0:0|0:0,0:1:0:0:
408,379,225530,1,8,0:0:0:0:
408,379,225624,2,2,P|355:358|306:353,1,95.9999970703126,2|8,0:0|0:0,0:1:0:0:
212,372,225999,1,2,0:0:0:0:
151,285,226187,1,10,0:1:0:0:
258,266,226374,5,10,0:0:0:0:
258,266,226468,1,0,0:0:0:0:
258,266,226562,2,2,B|283:235|288:206|288:206|281:135|235:68,1,207.999990478516,14|8,0:1|0:1,0:1:0:0:
132,30,227124,5,10,0:3:0:0:
132,30,227218,1,8,0:3:0:0:
132,30,227312,2,2,P|106:86|115:139,1,111.999996582031,14|8,0:1|0:0,0:1:0:0:
124,159,227593,2,2,L|185:150,1,55.9999982910157,14|0,0:1|0:0,0:1:0:0:
272,66,227874,5,8,1:2:0:0:
272,66,227968,1,8,1:2:0:0:
272,66,228062,1,14,0:1:0:0:
0,298,234062,6,0,L|194:289,1,180.000006866455,12|0,0:1|0:0,0:0:0:0:
239,340,234812,2,0,L|433:331,1,180.000006866455,0|8,1:0|1:1,0:0:0:0:
489,297,235562,2,0,P|500:209|466:118,1,180.000006866455,10|0,2:1|0:0,0:0:0:0:
403,84,236312,2,0,L|209:93,1,180.000006866455,0|8,1:0|1:1,0:0:0:0:
160,170,237062,6,0,B|183:246|117:302|117:302|36:270,1,204.000003890991,14|0,0:1|0:0,0:0:0:0:
4,226,237812,2,0,P|20:123|97:50,1,204.000003890991,4|8,1:2|1:1,0:0:0:0:
168,30,238562,1,12,0:1:0:0:
214,99,238749,2,0,L|223:155,5,37.9999989852906,0|0|0|0|0|0,1:0|1:0|1:0|1:0|1:0|1:0,0:0:0:0:
234,163,239312,6,0,P|283:174|329:140,2,90.0000034332277,10|10|10,0:3|0:3|0:3,0:0:0:0:
234,163,240437,6,2,B|190:131|190:131|140:136,1,103.999995239258,14|8,0:1|0:0,0:1:0:0:
127,143,240718,1,8,0:0:0:0:
114,152,240812,2,0,B|81:130|86:82|86:82|108:51|108:1,2,155.999992858887,12|8|4,0:0|0:3|0:3,0:0:0:0:
231,182,241562,6,0,P|309:158|418:185,1,184.000003509522,14|8,0:1|0:1,0:0:0:0:
500,255,242124,1,8,2:2:0:0:
500,255,242218,1,8,0:1:0:0:
500,255,242312,2,0,L|487:353,1,92.0000017547608,10|10,0:1|0:2,0:0:0:0:
382,380,242687,2,0,L|369:288,1,92.0000017547608,8|8,0:1|0:2,0:0:0:0:
293,186,243062,6,0,B|198:183|234:126|122:127,1,184.000003509522,10|10,0:1|0:1,0:0:0:0:
24,156,243624,1,8,0:2:0:0:
24,156,243718,1,0,0:1:0:0:
24,156,243812,2,0,P|21:112|43:64,1,92.0000017547608,10|8,0:1|0:0,0:0:0:0:
139,21,244187,2,0,L|249:15,1,92.0000017547608,10|8,0:1|0:2,0:0:0:0:
317,104,244562,6,0,L|408:109,1,92.0000017547608,10|8,0:1|0:0,0:0:0:0:
502,168,244937,2,0,P|512:208|485:282,1,92.0000017547608,10|8,0:1|0:2,0:0:0:0:
428,340,245312,1,10,0:1:0:0:
428,340,245405,1,8,0:1:0:0:
428,340,245499,1,8,0:2:0:0:
335,279,245687,2,0,L|323:216,3,46.0000008773804,8|8|8|8,0:0|0:0|0:3|0:3,0:0:0:0:
300,203,246062,6,0,L|194:192,2,80,14|10|8,0:1|0:2|0:1,0:0:0:0:
306,193,246530,1,10,0:1:0:0:
311,183,246624,1,8,0:1:0:0:
392,118,246812,2,0,L|521:109,2,120,10|10|10,0:1|0:1|0:1,0:0:0:0:
296,78,247562,6,0,L|289:-18,2,80,10|10|8,0:1|0:1|0:1,0:0:0:0:
290,88,248030,1,10,0:1:0:0:
284,98,248124,1,8,0:1:0:0:
194,131,248312,2,0,L|112:117,1,80,10|8,0:1|0:1,0:0:0:0:
80,134,248593,1,10,0:1:0:0:
80,134,248687,2,0,P|57:183|65:219,1,80,8|10,0:1|0:0,0:0:0:0:
121,291,249062,6,0,P|165:277|219:281,1,88.000002685547,14|8,0:1|0:3,0:0:0:0:
300,328,249437,1,4,0:3:0:0:
300,328,249530,1,4,0:3:0:0:
300,328,249624,1,8,0:3:0:0:
376,268,249812,2,0,P|382:226|367:180,1,88.000002685547,10|8,0:3|0:3,0:0:0:0:
334,154,250093,2,0,P|320:112|326:69,1,88.000002685547,8|8,0:1|0:0,0:0:0:0:
356,36,250374,2,0,L|410:20,2,44.0000013427735,8|8|8,0:0|0:0|0:1,0:0:0:0:
264,113,250749,6,2,P|218:95|164:96,1,95.9999970703126,14|8,0:0|0:1,0:1:0:0:
130,119,251030,2,2,P|98:157|82:208,1,95.9999970703126,14|8,0:0|0:1,0:1:0:0:
94,248,251312,2,2,P|120:289|164:320,1,95.9999970703126,14|8,0:0|0:1,0:1:0:0:
205,322,251593,2,2,P|252:309|282:287,1,47.9999985351563,14|0,0:0|0:0,0:1:0:0:
334,240,251874,5,8,0:0:0:0:
334,240,251968,1,8,0:0:0:0:
334,240,252062,2,0,L|320:151,1,88.000002685547,14|0,0:1|0:0,0:0:0:0:
336,112,252343,2,0,P|385:114|437:78,1,88.000002685547,8|0,0:0|0:0,0:0:0:0:
443,60,252624,1,8,0:0:0:0:
511,145,252812,6,0,L|500:248,1,95.9999970703126,14|0,0:1|0:0,0:0:0:0:
479,283,253093,1,8,0:0:0:0:
479,283,253187,2,0,B|434:302|434:302|394:277,2,95.9999970703126,8|12|14,0:3|0:3|0:1,0:0:0:0:
480,169,260874,5,8,1:2:0:0:
480,169,260968,1,8,1:2:0:0:
480,169,261062,2,0,P|497:210|466:298,2,120,14|10|10,0:1|0:1|0:1,0:2:0:0:
399,102,261812,2,0,P|358:105|321:90,1,80,10|0,0:2|0:2,0:2:0:0:
290,76,262093,1,10,0:2:0:0:
290,76,262187,2,0,P|252:61|213:64,1,80,8|10,0:1|0:2,0:2:0:0:
124,126,262562,6,0,P|111:163|115:204,1,80,10|8,0:1|0:2,0:2:0:0:
121,213,262843,1,10,0:1:0:0:
130,220,262937,1,8,0:1:0:0:
221,191,263124,1,10,0:1:0:0:
300,244,263312,2,0,P|313:281|309:320,1,80,10|0,0:2|0:2,0:2:0:0:
293,360,263593,1,10,0:2:0:0:
293,360,263687,2,0,L|194:348,1,80,8|10,0:1|0:2,0:2:0:0:
114,315,264062,6,0,B|56:325|56:325|1:293,2,120,14|10|10,0:1|0:1|0:1,0:2:0:0:
164,233,264812,2,0,P|153:201|159:149,1,80,10|0,0:2|0:2,0:2:0:0:
176,120,265093,1,10,0:2:0:0:
176,120,265187,2,0,L|262:113,1,80,8|10,0:1|0:2,0:2:0:0:
338,178,265562,6,0,L|424:171,1,80,14|8,0:1|0:2,0:2:0:0:
427,178,265843,1,10,0:1:0:0:
436,184,265937,1,8,0:1:0:0:
492,106,266124,1,10,0:1:0:0:
430,31,266312,2,0,L|344:24,1,80,14|8,0:2|0:2,0:2:0:0:
324,55,266593,2,0,L|238:62,1,80,14|8,0:1|1:2,0:2:0:0:
207,77,266874,2,0,L|153:64,1,40,10|8,1:2|1:2,0:0:0:0:
132,48,267062,6,0,P|81:42|10:81,2,120,14|10|10,0:1|0:1|0:1,0:2:0:0:
195,120,267812,2,0,L|180:214,1,80,10|0,0:2|0:2,0:2:0:0:
198,240,268093,1,10,0:2:0:0:
198,240,268187,2,0,P|240:250|285:228,1,80,8|10,0:1|0:2,0:2:0:0:
369,189,268562,6,0,P|406:176|444:186,1,80,10|8,0:1|0:2,0:2:0:0:
453,194,268843,1,10,0:1:0:0:
461,202,268937,1,8,0:1:0:0:
510,283,269124,1,10,0:1:0:0:
447,356,269312,2,0,P|409:368|371:358,1,80,10|0,0:2|0:2,0:2:0:0:
342,338,269593,1,10,0:2:0:0:
342,338,269687,2,0,P|303:349|266:336,1,80,8|10,0:1|0:2,0:2:0:0:
190,273,270062,6,0,B|64:287,2,120,10|10|10,0:1|0:1|0:1,0:2:0:0:
255,202,270812,2,0,P|266:165|262:121,1,80,10|0,0:2|0:2,0:2:0:0:
243,89,271093,1,10,0:2:0:0:
243,89,271187,2,0,L|149:74,1,80,8|10,0:1|0:2,0:2:0:0:
65,109,271562,6,0,P|51:138|53:199,1,80,10|8,0:1|0:2,0:2:0:0:
52,196,271843,1,10,0:1:0:0:
57,206,271937,1,8,0:1:0:0:
11,290,272124,1,10,0:1:0:0:
79,357,272312,2,0,P|126:359|174:328,1,80,10|0,0:2|0:2,0:2:0:0:
183,316,272593,2,0,L|186:268,1,40,10|8,0:2|0:1,0:0:0:0:
246,193,272874,5,8,1:2:0:0:
246,193,272968,1,8,1:2:0:0:
246,193,273062,2,0,L|230:66,2,120,14|10|10,0:1|0:1|0:1,0:2:0:0:
311,263,273812,2,0,P|358:277|401:269,1,80,10|0,0:2|0:2,0:2:0:0:
425,260,274093,1,10,0:2:0:0:
425,260,274187,2,0,L|438:172,1,80,8|10,0:1|0:2,0:2:0:0:
512,114,274562,6,0,L|499:23,1,80,10|8,0:1|0:2,0:2:0:0:
490,28,274843,1,10,0:1:0:0:
479,21,274937,1,8,0:1:0:0:
394,66,275124,1,10,0:1:0:0:
305,28,275312,2,0,P|263:13|215:19,1,80,10|0,0:2|0:2,0:2:0:0:
195,35,275593,1,10,0:2:0:0:
195,35,275687,2,0,L|180:120,1,80,8|10,0:1|0:2,0:2:0:0:
237,204,276062,6,0,B|295:221|295:221|355:190,2,120,14|10|10,0:1|0:1|0:1,0:2:0:0:
166,136,276812,2,0,P|126:117|79:121,1,80,10|0,0:2|0:2,0:2:0:0:
58,136,277093,1,10,0:2:0:0:
58,136,277187,2,0,L|36:228,1,80,8|10,0:1|0:2,0:2:0:0:
96,291,277562,6,0,P|135:290|171:272,1,80,14|8,0:1|0:2,0:2:0:0:
181,267,277843,1,10,0:1:0:0:
191,260,277937,1,8,0:1:0:0:
247,182,278124,1,10,0:1:0:0:
337,148,278312,2,0,P|376:148|412:166,1,80,14|8,0:2|0:2,0:2:0:0:
440,194,278593,2,0,B|451:303,1,80,14|8,0:1|0:2,0:0:0:0:
436,314,278874,1,10,1:2:0:0:
436,314,278968,2,0,P|400:331|360:332,1,80,8|8,0:0|0:0,0:0:0:0:
335,358,279249,6,0,B|329:326|329:326|330:303|330:303|314:241,1,107.999996704102,10|10,0:1|0:2,0:0:0:0:
296,174,279718,1,14,0:1:0:0:
183,215,279999,5,12,0:1:0:0:
126,165,280187,1,10,0:1:0:0:
126,165,280280,2,0,P|124:128|144:70,1,80,10|10,0:2|0:1,0:0:0:0:
233,18,280749,5,10,0:1:0:0:
288,77,280937,1,10,0:2:0:0:
288,77,281030,2,0,P|336:81|381:57,1,80,10|14,0:2|0:2,0:0:0:0:
467,6,281499,5,14,0:1:0:0:
256,192,281593,12,10,283187,0:0:0:0:
330,266,283562,6,0,P|394:266|424:176,1,143.999995605469,14|14,0:1|0:1,0:2:0:0:
256,192,283937,12,8,285405,0:0:0:0:
