osu file format v14

[General]
AudioFilename: audio.mp3
AudioLeadIn: 0
PreviewTime: 112351
Countdown: 0
SampleSet: Soft
StackLeniency: 0.6
Mode: 0
LetterboxInBreaks: 0
WidescreenStoryboard: 1

[Editor]
Bookmarks: 13562,28374,34562,40562,46562,52562,58562,64562,69062,75062,84062,87062,99062,112562,126062,138062,139562,151562,163562,177062,190562,202562,204062,216062,228062,240437,240530,240624,240718,241562,253562,261062,273062,279062,283562,285405
DistanceSpacing: 0.7
BeatDivisor: 4
GridSize: 32
TimelineZoom: 2.2

[Metadata]
Title:Tamayura - Open the "AKABEi JAZZ CONCERT"
TitleUnicode:魂響 - Open the “AKABEi JAZZ CONCERT”
Artist:Katakiri Rekka
ArtistUnicode:片霧烈火
Creator:Lasse
Version:Expert
Source:魂響〜たまゆら〜
Tags:Mirash Kyouhei Kyohei Nishizaka 西坂恭平 AKABEiSOFT2 10th Anniversary Arrange jazz rock Noriyasu Agematsu 上松範康 Elements Garden eroge visual novel full version opening japanese
BeatmapID:3003518
BeatmapSetID:1431401

[Difficulty]
HPDrainRate:5
CircleSize:4
OverallDifficulty:8.2
ApproachRate:9.2
SliderMultiplier:2.4
SliderTickRate:1

[Events]
//Background and Video events
0,0,"a2.jpg",0,0
//Break Periods
//Storyboard Layer 0 (Background)
//Storyboard Layer 1 (Fail)
//Storyboard Layer 2 (Pass)
//Storyboard Layer 3 (Foreground)
//Storyboard Layer 4 (Overlay)
//Storyboard Sound Samples

[TimingPoints]
13562,375,4,2,34,70,1,0
28374,-200,4,3,34,48,0,0
28562,-166.666666666667,4,3,34,50,0,0
34562,-142.857142857143,4,3,34,53,0,0
40093,-90.9090909090909,4,2,35,65,0,0
40280,-90.9090909090909,4,2,34,65,0,0
40374,-111.111111111111,4,2,34,55,0,0
40562,-111.111111111111,4,2,34,60,0,0
49562,-111.111111111111,4,2,35,60,0,0
49749,-111.111111111111,4,2,34,60,0,0
51062,-99.9999999999999,4,2,34,60,0,0
51249,-111.111111111111,4,2,34,60,0,0
51812,-90.9090909090909,4,2,34,60,0,0
51999,-105.263157894737,4,2,34,60,0,0
52093,-105.263157894737,4,2,71,60,0,0
52187,-105.263157894737,4,2,34,60,0,0
61562,-105.263157894737,4,2,35,60,0,0
61749,-105.263157894737,4,2,34,60,0,0
63062,-95.2380952380954,4,2,34,60,0,0
63343,-105.263157894737,4,2,34,60,0,0
63812,-86.9565217391304,4,2,34,62,0,0
64093,-86.9565217391304,4,2,71,62,0,0
64280,-86.9565217391304,4,2,34,56,0,0
64374,-105.263157894737,4,2,34,56,0,0
64468,-133.333333333333,4,2,34,54,0,0
64655,-105.263157894737,4,2,34,46,0,0
64749,-153.846153846154,4,2,34,54,0,0
64843,-153.846153846154,4,2,34,44,0,0
64937,-153.846153846154,4,2,34,54,0,0
65499,-153.846153846154,4,2,71,54,0,0
65593,-153.846153846154,4,2,34,54,0,0
66999,-153.846153846154,4,2,34,50,0,0
67093,-153.846153846154,4,2,34,30,0,0
68312,-153.846153846154,4,2,34,10,0,0
68499,-153.846153846154,4,2,34,5,0,0
68593,-153.846153846154,4,2,34,50,0,0
69062,-200,4,2,34,45,0,0
70562,-200,4,2,35,45,0,0
70843,-200,4,2,34,45,0,0
80687,-156.25,4,2,34,45,0,0
81062,-156.25,4,2,35,45,0,0
81155,-156.25,4,2,34,45,0,0
82562,-156.25,4,2,35,45,0,0
82843,-156.25,4,2,34,45,0,0
83312,-156.25,4,2,34,50,0,0
83499,-156.25,4,2,34,52,0,0
83687,-156.25,4,2,34,55,0,0
84062,-111.111111111111,4,2,34,60,0,0
86593,-111.111111111111,4,2,34,50,0,0
87062,-100,4,2,34,60,0,0
96062,-100,4,2,35,60,0,0
96155,-100,4,2,34,60,0,0
97562,-100,4,2,35,60,0,0
97655,-100,4,2,34,60,0,0
99062,-200,4,2,34,50,0,0
99249,-200,4,2,34,40,0,0
102062,-200,4,2,35,45,0,0
102155,-200,4,2,34,40,0,0
103093,-200,4,2,34,50,0,0
103187,-200,4,2,34,52,0,0
103280,-200,4,2,34,54,0,0
103374,-200,4,2,34,56,0,0
103468,-200,4,2,34,58,0,0
103562,-100,4,2,35,60,0,0
103655,-100,4,2,34,60,0,0
103937,-100,4,2,71,60,0,0
104030,-100,4,2,34,60,0,0
104499,-100,4,2,71,60,0,0
104593,-100,4,2,34,60,0,0
105062,-133.333333333333,4,2,34,55,0,0
108062,-90.9090909090909,4,2,34,56,0,0
108343,-90.9090909090909,4,2,71,56,0,0
108437,-90.9090909090909,4,2,34,56,0,0
109093,-90.9090909090909,4,2,71,56,0,0
109187,-90.9090909090909,4,2,34,56,0,0
109562,-90.9090909090909,4,2,35,56,0,0
109655,-90.9090909090909,4,2,34,56,0,0
109843,-90.9090909090909,4,2,71,56,0,0
109937,-90.9090909090909,4,2,34,56,0,0
110593,-90.9090909090909,4,2,71,56,0,0
110687,-90.9090909090909,4,2,34,56,0,0
111062,-90.9090909090909,4,2,34,60,0,0
111812,-90.9090909090909,4,2,35,58,0,0
112093,-90.9090909090909,4,2,35,55,0,0
112562,-86.9565217391304,4,2,34,70,0,1
122312,-86.9565217391304,4,2,35,70,0,1
122405,-86.9565217391304,4,2,34,70,0,1
123812,-95.2380952380952,4,2,34,70,0,1
123999,-105.263157894737,4,2,34,70,0,1
124187,-117.647058823529,4,2,34,70,0,1
124374,-200,4,2,34,60,0,0
124749,-200,4,2,34,5,0,0
124843,-200,4,2,34,50,0,0
124937,-76.9230769230769,4,2,34,70,0,1
125030,-76.9230769230769,4,2,34,70,0,0
125312,-76.9230769230769,4,2,71,70,0,0
125593,-76.9230769230769,4,2,34,65,0,0
126062,-86.9565217391304,4,2,34,70,0,1
130562,-100,4,2,34,70,0,0
130749,-100,4,2,34,65,0,0
133562,-90.9090909090909,4,2,34,68,0,1
133749,-90.9090909090909,4,2,34,68,0,0
135249,-71.4285714285714,4,2,35,70,0,1
135437,-71.4285714285714,4,2,34,70,0,1
135812,-71.4285714285714,4,2,71,70,0,1
135999,-71.4285714285714,4,2,34,70,0,1
136374,-76.9230769230769,4,2,34,70,0,0
136562,-76.9230769230769,4,2,34,70,0,1
136749,-90.9090909090909,4,2,34,70,0,1
137312,-76.9230769230769,4,2,35,70,0,1
137499,-76.9230769230769,4,2,34,70,0,1
138062,-66.6666666666667,4,2,34,70,0,0
139562,-200,4,2,34,44,0,0
145093,-200,4,2,34,50,0,0
145280,-200,4,2,34,52,0,0
145562,-125,4,2,34,54,0,0
148562,-125,4,2,34,56,0,0
151562,-111.111111111111,4,2,34,50,0,0
160562,-111.111111111111,4,2,35,50,0,0
160749,-111.111111111111,4,2,34,50,0,0
162062,-111.111111111111,4,2,35,50,0,0
162249,-111.111111111111,4,2,34,50,0,0
163187,-133.333333333333,4,2,34,50,0,0
163280,-133.333333333333,4,2,34,44,0,0
163374,-133.333333333333,4,2,34,50,0,0
163562,-200,4,2,34,50,0,0
163749,-200,4,2,34,40,0,0
166562,-200,4,2,35,45,0,0
166655,-200,4,2,34,40,0,0
167593,-200,4,2,34,50,0,0
167687,-200,4,2,34,52,0,0
167780,-200,4,2,34,54,0,0
167874,-200,4,2,34,56,0,0
167968,-200,4,2,34,58,0,0
168062,-100,4,2,35,60,0,0
168155,-100,4,2,34,60,0,0
168437,-100,4,2,71,60,0,0
168530,-100,4,2,34,60,0,0
168999,-100,4,2,71,60,0,0
169093,-100,4,2,34,60,0,0
169562,-133.333333333333,4,2,34,55,0,0
172562,-90.9090909090909,4,2,34,56,0,0
172843,-90.9090909090909,4,2,71,56,0,0
172937,-90.9090909090909,4,2,34,56,0,0
173593,-90.9090909090909,4,2,71,56,0,0
173687,-90.9090909090909,4,2,34,56,0,0
174062,-90.9090909090909,4,2,35,56,0,0
174155,-90.9090909090909,4,2,34,56,0,0
174343,-90.9090909090909,4,2,71,56,0,0
174437,-90.9090909090909,4,2,34,56,0,0
175093,-90.9090909090909,4,2,71,56,0,0
175187,-90.9090909090909,4,2,34,56,0,0
175562,-90.9090909090909,4,2,34,60,0,0
176312,-90.9090909090909,4,2,35,58,0,0
176593,-90.9090909090909,4,2,35,55,0,0
177062,-83.3333333333333,4,2,34,70,0,1
186812,-83.3333333333333,4,2,35,70,0,1
186905,-83.3333333333333,4,2,34,70,0,1
188312,-90.9090909090909,4,2,34,70,0,1
188499,-100,4,2,34,70,0,1
188687,-111.111111111111,4,2,34,70,0,1
188874,-200,4,2,34,60,0,0
189249,-200,4,2,34,5,0,0
189343,-200,4,2,34,50,0,0
189437,-74.0740740740741,4,2,34,70,0,1
189530,-76.9230769230769,4,2,34,70,0,0
189812,-76.9230769230769,4,2,71,70,0,0
190093,-76.9230769230769,4,2,34,65,0,0
190562,-83.3333333333333,4,2,34,70,0,1
195062,-100,4,2,34,70,0,0
195249,-100,4,2,34,65,0,0
198062,-90.9090909090909,4,2,34,68,0,1
198249,-90.9090909090909,4,2,34,68,0,0
199749,-68.9655172413793,4,2,35,70,0,1
199937,-68.9655172413793,4,2,34,70,0,1
200312,-68.9655172413793,4,2,71,70,0,1
200499,-68.9655172413793,4,2,34,70,0,1
200874,-68.9655172413793,4,2,34,70,0,0
201062,-74.0740740740741,4,2,34,70,0,1
201249,-90.9090909090909,4,2,34,70,0,1
201812,-74.0740740740741,4,2,35,70,0,1
201999,-74.0740740740741,4,2,34,70,0,1
202562,-66.6666666666667,4,2,34,70,0,0
203124,-100,4,2,34,54,0,0
204062,-111.111111111111,4,2,34,56,0,0
204343,-111.111111111111,4,2,34,48,0,0
206874,-111.111111111111,4,2,71,54,0,0
207062,-111.111111111111,4,2,35,56,0,0
207343,-111.111111111111,4,2,34,48,0,0
210062,-125,4,3,34,54,0,0
215593,-90.9090909090909,4,2,35,65,0,0
215780,-90.9090909090909,4,2,34,65,0,0
215874,-111.111111111111,4,2,34,55,0,0
216062,-100,4,2,34,60,0,0
222062,-90.9090909090909,4,2,34,62,0,0
225062,-90.9090909090909,4,2,35,62,0,0
225155,-83.3333333333333,4,2,34,62,0,0
225343,-83.3333333333333,4,2,34,62,0,0
226374,-133.333333333333,4,2,34,60,0,0
226562,-76.9230769230769,4,2,35,64,0,0
226749,-76.9230769230769,4,2,34,64,0,0
227312,-71.4285714285714,4,2,34,64,0,0
227405,-71.4285714285714,4,2,34,64,0,0
227593,-71.4285714285714,4,2,71,64,0,0
227687,-71.4285714285714,4,2,34,65,0,0
227780,-200,4,2,34,65,0,0
228062,-200,4,2,34,60,0,0
229562,-200,4,2,34,40,0,0
234062,-133.333333333333,4,2,35,46,0,0
234249,-133.333333333333,4,2,34,46,0,0
237062,-133.333333333333,4,2,35,48,0,0
237249,-133.333333333333,4,2,34,48,0,0
237812,-133.333333333333,4,2,71,48,0,0
237905,-133.333333333333,4,2,34,48,0,0
238562,-133.333333333333,4,2,35,50,0,0
239312,-133.333333333333,4,2,34,52,0,0
239593,-133.333333333333,4,2,34,54,0,0
239874,-133.333333333333,4,2,34,56,0,0
240437,-76.9230769230769,4,2,34,70,0,1
240530,-76.9230769230769,4,2,34,70,0,0
240812,-76.9230769230769,4,2,71,70,0,0
241093,-76.9230769230769,4,2,34,65,0,0
241562,-80,4,2,34,70,0,1
246062,-100,4,2,34,70,0,0
246249,-100,4,2,34,65,0,0
249062,-83.3333333333333,4,2,34,68,0,1
249249,-90.9090909090909,4,2,34,68,0,0
250749,-66.6666666666667,4,2,35,70,0,1
250937,-66.6666666666667,4,2,34,70,0,1
251312,-66.6666666666667,4,2,71,70,0,1
251499,-66.6666666666667,4,2,34,70,0,1
251874,-66.6666666666667,4,2,34,70,0,0
252062,-71.4285714285714,4,2,34,70,0,1
252249,-90.9090909090909,4,2,34,70,0,1
252812,-71.4285714285714,4,2,35,70,0,1
252999,-76.9230769230769,4,2,34,70,0,1
253562,-66.6666666666667,4,2,34,70,0,0
255062,-153.846153846153,4,2,35,50,0,0
255343,-153.846153846153,4,2,34,50,0,0
261062,-111.111111111111,4,2,34,60,0,0
264062,-111.111111111111,4,2,35,60,0,0
264249,-111.111111111111,4,2,34,60,0,0
265562,-99.9999999999999,4,2,34,60,0,0
265749,-111.111111111111,4,2,34,60,0,0
266312,-90.9090909090909,4,2,34,60,0,0
266499,-105.263157894737,4,2,34,60,0,0
266593,-105.263157894737,4,2,71,60,0,0
266687,-105.263157894737,4,2,34,60,0,0
276062,-105.263157894737,4,2,35,60,0,0
276249,-105.263157894737,4,2,34,60,0,0
277562,-95.2380952380954,4,2,34,60,0,0
277843,-105.263157894737,4,2,34,60,0,0
278312,-86.9565217391304,4,2,34,62,0,0
278593,-86.9565217391304,4,2,71,62,0,0
278780,-86.9565217391304,4,2,34,56,0,0
278874,-105.263157894737,4,2,34,56,0,0
278968,-133.333333333333,4,2,34,54,0,0
279155,-105.263157894737,4,2,34,46,0,0
279249,-153.846153846154,4,2,34,54,0,0
279343,-153.846153846154,4,2,34,44,0,0
279437,-153.846153846154,4,2,34,54,0,0
279999,-153.846153846154,4,2,71,54,0,0
280093,-153.846153846154,4,2,34,54,0,0
281499,-153.846153846154,4,2,34,50,0,0
281593,-153.846153846154,4,2,34,30,0,0
282437,-153.846153846154,4,2,34,20,0,0
282905,-153.846153846154,4,2,34,5,0,0
282999,-153.846153846154,4,2,34,50,0,0
283562,-66.6666666666667,4,2,34,60,0,0
283749,-90.9090909090909,4,2,34,46,0,0
283843,-90.9090909090909,4,2,35,60,0,0
285405,-90.9090909090909,4,2,35,50,0,0

[Colours]
Combo1 : 240,140,140
Combo2 : 200,180,220
Combo3 : 240,200,155
Combo4 : 150,185,220

[HitObjects]
116,26,28374,5,0,0:2:0:0:
119,33,28437,1,0,0:2:0:0:
121,40,28499,1,0,0:2:0:0:
124,47,28562,6,0,B|71:63|71:63|15:35,2,107.999996704102,2|0|0,1:2|1:2|1:2,0:2:0:0:
202,23,29312,1,0,1:2:0:0:
202,23,29405,1,0,1:2:0:0:
188,104,29593,1,0,1:2:0:0:
188,104,29687,1,0,1:2:0:0:
263,80,29874,1,0,1:2:0:0:
362,142,30062,6,0,P|379:200|357:263,2,107.999996704102,2|0|0,1:2|1:2|1:2,0:2:0:0:
296,187,30812,1,0,1:0:0:0:
285,196,30905,1,0,0:0:0:0:
298,200,30999,1,2,1:0:0:0:
287,209,31093,2,0,B|237:223|237:223|179:188,1,107.999996704102,2|0,1:2|1:2,0:2:0:0:
60,267,31562,6,0,P|43:325|65:388,2,107.999996704102,2|0|0,1:2|1:2|1:2,0:2:0:0:
113,209,32312,1,0,1:2:0:0:
113,209,32405,1,0,1:2:0:0:
39,195,32593,1,0,1:2:0:0:
39,195,32687,1,0,1:2:0:0:
88,133,32874,1,0,1:2:0:0:
197,209,33062,6,0,B|249:224|249:224|313:199,2,107.999996704102,2|0|0,1:2|1:2|1:2,0:2:0:0:
126,184,33812,1,0,1:2:0:0:
126,184,33905,1,0,1:2:0:0:
183,129,34093,1,0,1:2:0:0:
183,129,34187,2,0,L|206:46,1,71.9999978027344,0|0,1:2|1:2,0:2:0:0:
361,94,34562,6,0,P|346:34|293:1,2,125.999996154785,6|0|0,1:1|1:2|1:2,0:2:0:0:
325,179,35312,1,10,3:1:0:0:
325,179,35405,1,0,1:2:0:0:
420,170,35594,1,0,1:2:0:0:
420,170,35687,1,10,0:1:0:0:
379,252,35874,1,0,1:2:0:0:
242,194,36062,6,0,P|204:183|128:178,1,83.9999974365235,2|0,1:2|0:2,0:2:0:0:
107,187,36344,1,0,1:2:0:0:
107,187,36437,2,0,P|94:237|89:282,1,83.9999974365235,8|0,0:1|1:1,0:2:0:0:
111,363,36812,1,10,3:1:0:0:
111,363,36905,1,0,1:1:0:0:
175,296,37093,1,0,1:2:0:0:
175,296,37187,1,10,0:1:0:0:
217,377,37374,1,0,1:1:0:0:
314,316,37562,6,0,P|371:320|473:343,2,125.999996154785,2|0|0,1:2|1:2|1:1,0:2:0:0:
250,248,38312,1,10,3:1:0:0:
250,248,38405,1,0,1:1:0:0:
340,218,38593,1,0,1:2:0:0:
340,218,38687,1,10,0:1:0:0:
273,153,38874,1,0,1:1:0:0:
351,73,39062,6,0,L|359:34,5,27.9999991455078,2|0|0|0|0|0,1:2|0:2|0:2|1:2|0:2|0:2,0:2:0:0:
383,52,39437,2,0,L|391:13,6,27.9999991455078,0|0|0|0|0|0|0,1:2|0:0|0:0|0:0|0:0|0:0|1:0,0:0:0:0:
389,24,40093,6,2,B|479:131|479:131|467:151|469:195,1,198.000006042481,12|8,3:1|1:2,0:1:0:0:
497,257,40468,1,8,1:2:0:0:
460,323,40562,6,0,P|409:340|357:321,1,107.999996704102,14|8,0:1|0:2,0:2:0:0:
311,265,40843,1,10,0:1:0:0:
315,227,40937,1,8,0:1:0:0:
320,189,41030,1,8,0:2:0:0:
324,151,41124,2,0,L|308:81,1,53.9999983520508,10|0,0:1|0:2,0:2:0:0:
264,20,41312,6,0,B|241:36|232:54|232:54|153:34,1,107.999996704102,10|0,0:2|0:2,0:2:0:0:
104,76,41593,1,10,0:2:0:0:
104,76,41687,2,0,P|94:53|96:19,1,53.9999983520508,8|0,0:1|0:2,0:2:0:0:
171,116,41874,2,0,P|153:136|128:147,1,53.9999983520508,10|0,0:2|0:2,0:2:0:0:
22,207,42062,6,0,B|1:234|1:234|23:314,1,107.999996704102,10|8,0:1|0:2,0:2:0:0:
46,376,42343,1,10,0:1:0:0:
79,357,42437,1,8,0:1:0:0:
116,352,42530,1,8,0:2:0:0:
152,362,42624,2,0,P|188:369|208:363,1,53.9999983520508,10|0,0:1|0:2,0:2:0:0:
301,294,42812,6,0,L|281:145,1,107.999996704102,10|0,0:2|0:2,0:2:0:0:
231,135,43093,1,10,0:2:0:0:
231,135,43187,2,0,P|215:164|215:201,1,53.9999983520508,8|0,0:1|0:2,0:2:0:0:
355,163,43374,2,0,P|343:138|324:120,1,53.9999983520508,10|0,0:2|0:2,0:2:0:0:
244,260,43562,6,0,P|297:267|360:228,1,107.999996704102,10|8,0:1|0:2,0:2:0:0:
375,175,43843,1,10,0:1:0:0:
361,139,43937,1,8,0:1:0:0:
365,101,44030,1,8,0:2:0:0:
388,71,44124,2,0,P|421:59|468:54,1,53.9999983520508,10|0,0:1|0:2,0:2:0:0:
512,120,44312,6,0,B|503:161|503:161|507:177|507:177|495:228,1,107.999996704102,10|0,0:2|0:2,0:2:0:0:
475,299,44593,1,10,0:2:0:0:
475,299,44687,2,0,L|405:279,1,53.9999983520508,8|0,0:1|0:2,0:2:0:0:
361,332,44874,2,0,L|309:317,1,53.9999983520508,10|0,0:2|0:2,0:2:0:0:
239,384,45062,6,0,B|230:343|230:343|234:327|234:327|224:275,1,107.999996704102,10|8,0:1|0:2,0:2:0:0:
205,205,45343,1,10,0:1:0:0:
170,220,45437,1,8,0:1:0:0:
132,219,45530,1,8,0:2:0:0:
96,205,45624,2,0,P|95:183|103:136,1,53.9999983520508,10|0,0:1|0:2,0:2:0:0:
169,70,45812,6,0,B|199:87|199:87|295:68,1,107.999996704102,10|0,0:2|0:2,0:2:0:0:
347,92,46093,1,10,0:2:0:0:
347,92,46187,2,0,P|348:65|342:38,1,53.9999983520508,8|0,0:1|0:2,0:2:0:0:
248,156,46374,1,8,1:2:0:0:
235,230,46468,1,8,1:2:0:0:
295,276,46562,6,0,P|350:281|412:241,1,107.999996704102,14|8,0:1|0:2,0:2:0:0:
455,206,46843,1,10,0:1:0:0:
435,173,46937,1,8,0:1:0:0:
434,135,47030,1,8,0:2:0:0:
449,100,47124,2,0,P|450:73|444:46,1,53.9999983520508,10|0,0:1|0:2,0:2:0:0:
330,24,47312,6,0,B|260:19|285:47|225:44,1,107.999996704102,10|0,0:2|0:2,0:2:0:0:
160,81,47593,1,10,0:2:0:0:
160,81,47687,2,0,P|153:38|160:15,1,53.9999983520508,8|0,0:1|0:2,0:2:0:0:
226,119,47874,2,0,P|194:148|171:155,1,53.9999983520508,10|0,0:2|0:2,0:2:0:0:
77,43,48062,6,0,P|82:102|112:151,1,107.999996704102,10|8,0:1|0:2,0:2:0:0:
175,174,48343,1,10,0:1:0:0:
208,156,48437,1,8,0:1:0:0:
245,158,48530,1,8,0:2:0:0:
277,178,48624,2,0,P|284:206|282:249,1,53.9999983520508,10|0,0:1|0:2,0:2:0:0:
184,291,48812,6,0,B|114:296|139:268|79:270,1,107.999996704102,10|0,0:2|0:2,0:2:0:0:
14,308,49093,1,10,0:2:0:0:
14,308,49187,2,0,P|3:274|9:239,1,53.9999983520508,8|0,0:1|0:2,0:2:0:0:
83,345,49374,2,0,P|58:369|23:380,1,53.9999983520508,10|0,0:2|0:2,0:2:0:0:
55,196,49562,6,0,P|116:167|158:174,1,107.999996704102,14|8,0:1|0:2,0:2:0:0:
220,211,49843,1,10,0:1:0:0:
245,238,49937,1,8,0:1:0:0:
281,247,50030,1,8,0:2:0:0:
318,247,50124,2,0,P|332:221|347:172,1,53.9999983520508,10|0,0:1|0:2,0:2:0:0:
429,118,50312,6,0,B|445:75|417:38|417:38|430:19,1,107.999996704102,10|0,0:2|0:2,0:2:0:0:
360,90,50593,1,10,0:2:0:0:
360,90,50687,2,0,P|328:89|286:66,1,53.9999983520508,8|0,0:1|0:2,0:2:0:0:
236,111,50874,2,0,P|204:110|162:87,1,53.9999983520508,10|0,0:2|0:2,0:2:0:0:
83,32,51062,6,0,B|49:39|49:39|15:73|43:127,1,120,14|8,0:1|0:2,0:2:0:0:
64,189,51343,1,10,0:1:0:0:
101,182,51437,1,8,0:1:0:0:
137,189,51530,1,8,0:2:0:0:
161,218,51624,2,0,L|167:300,1,53.9999983520508,10|0,0:1|0:2,0:2:0:0:
257,373,51812,6,0,B|294:387|294:387|345:362|332:302,1,132.00000402832,14|8,0:2|0:2,0:2:0:0:
424,242,52093,2,0,P|369:241|307:175,1,113.999996955872,14|8,0:1|1:2,0:2:0:0:
278,142,52374,1,10,1:2:0:0:
314,73,52468,1,8,1:2:0:0:
257,20,52562,6,0,P|191:14|131:46,1,113.999996955872,14|8,0:1|0:2,0:2:0:0:
95,88,52843,1,10,0:1:0:0:
103,127,52937,1,8,0:1:0:0:
112,165,53030,1,8,0:2:0:0:
115,204,53124,2,0,B|101:268,1,56.9999984779358,10|0,0:1|0:2,0:2:0:0:
177,350,53312,6,0,B|219:359|219:359|248:337|285:340,1,113.999996955872,10|0,0:2|0:2,0:2:0:0:
359,376,53593,1,10,0:2:0:0:
359,376,53687,2,0,P|364:348|359:320,1,56.9999984779358,8|0,0:1|0:2,0:2:0:0:
301,265,53874,2,0,P|296:237|301:209,1,56.9999984779358,10|0,0:2|0:2,0:2:0:0:
369,101,54062,6,0,B|443:115|443:115|461:98|500:88,1,113.999996955872,10|8,0:1|0:2,0:2:0:0:
507,169,54343,1,10,0:1:0:0:
505,208,54437,1,8,0:1:0:0:
503,247,54530,1,8,0:2:0:0:
501,286,54624,2,0,B|473:291|473:291|435:269,1,56.9999984779358,10|0,0:1|0:2,0:2:0:0:
374,348,54812,6,0,B|359:310|359:310|371:280|356:238,1,113.999996955872,10|0,0:2|0:2,0:2:0:0:
285,216,55093,1,10,0:2:0:0:
285,216,55187,2,0,P|282:244|290:275,1,56.9999984779358,8|0,0:1|0:2,0:2:0:0:
412,185,55374,2,0,P|389:168|361:160,1,56.9999984779358,10|0,0:2|0:2,0:2:0:0:
289,272,55562,6,0,B|233:289|233:289|168:249,1,113.999996955872,10|8,0:1|0:2,0:2:0:0:
121,212,55843,1,10,0:1:0:0:
140,176,55937,1,8,0:1:0:0:
146,136,56030,1,8,0:2:0:0:
130,99,56124,2,0,P|104:86|77:78,1,56.9999984779358,10|0,0:1|0:2,0:2:0:0:
214,33,56312,6,0,B|278:25|268:51|336:41,1,113.999996955872,10|0,0:2|0:2,0:2:0:0:
406,69,56593,1,10,0:2:0:0:
406,69,56687,2,0,P|409:40|403:11,1,56.9999984779358,8|0,0:1|0:2,0:2:0:0:
340,118,56874,2,0,P|336:146|343:176,1,56.9999984779358,10|0,0:2|0:2,0:2:0:0:
429,244,57062,6,0,B|460:261|460:261|470:303|436:356,1,113.999996955872,10|8,0:1|0:2,0:2:0:0:
380,382,57343,1,10,0:1:0:0:
353,352,57437,1,8,0:1:0:0:
314,342,57530,1,8,0:2:0:0:
276,356,57624,2,0,L|207:370,1,56.9999984779358,10|0,0:1|0:2,0:2:0:0:
137,298,57812,6,0,P|126:242|146:189,1,113.999996955872,10|0,0:2|0:2,0:2:0:0:
212,144,58093,1,10,0:2:0:0:
212,144,58187,2,0,P|222:170|226:198,1,56.9999984779358,8|0,0:1|0:2,0:2:0:0:
134,110,58374,1,8,1:2:0:0:
70,158,58468,1,8,1:2:0:0:
5,111,58562,6,0,B|-23:72|0:27|0:27|47:14,1,113.999996955872,14|8,0:1|0:2,0:2:0:0:
102,5,58843,1,10,0:1:0:0:
134,28,58937,1,8,0:1:0:0:
171,40,59030,1,8,0:2:0:0:
210,38,59124,2,0,P|252:23|271:19,1,56.9999984779358,10|0,0:1|0:2,0:2:0:0:
364,71,59312,6,0,B|357:113|357:113|366:141|366:141|357:181,1,113.999996955872,10|0,0:2|0:2,0:2:0:0:
292,226,59593,1,10,0:2:0:0:
292,226,59687,2,0,P|280:195|285:158,1,56.9999984779358,8|0,0:1|0:2,0:2:0:0:
424,217,59874,2,0,P|403:242|368:257,1,56.9999984779358,10|0,0:2|0:2,0:2:0:0:
268,152,60062,6,0,P|214:125|128:149,1,113.999996955872,10|8,0:1|0:2,0:2:0:0:
88,162,60343,1,10,0:1:0:0:
65,194,60437,1,8,0:1:0:0:
55,232,60530,1,8,0:2:0:0:
52,271,60624,2,0,P|55:314|61:331,1,56.9999984779358,10|0,0:1|0:2,0:2:0:0:
176,363,60812,6,0,B|214:359|244:379|244:379|289:356,1,113.999996955872,10|0,0:2|0:2,0:2:0:0:
341,308,61093,1,10,0:2:0:0:
341,308,61187,2,0,P|356:334|358:361,1,56.9999984779358,8|0,0:1|0:2,0:2:0:0:
240,293,61374,2,0,P|243:264|258:240,1,56.9999984779358,10|0,0:2|0:2,0:2:0:0:
361,186,61562,6,0,B|415:208|415:208|462:173,1,113.999996955872,14|8,0:1|0:2,0:2:0:0:
512,120,61843,1,10,0:1:0:0:
509,80,61937,1,8,0:1:0:0:
489,45,62030,1,8,0:2:0:0:
453,26,62124,2,0,B|363:15,1,56.9999984779358,10|0,0:1|0:2,0:2:0:0:
287,74,62312,6,0,B|226:63|251:36|183:30,1,113.999996955872,10|0,0:2|0:2,0:2:0:0:
118,69,62593,1,10,0:2:0:0:
118,69,62687,2,0,P|108:39|110:7,1,56.9999984779358,8|0,0:1|0:2,0:2:0:0:
187,110,62874,2,0,P|164:131|135:145,1,56.9999984779358,10|0,0:2|0:2,0:2:0:0:
4,112,63062,6,0,B|-28:151|-9:197|-9:197|5:203|19:217,1,125.999996154785,14|8,0:1|0:2,0:2:0:0:
67,281,63343,1,10,0:1:0:0:
90,313,63437,1,8,0:1:0:0:
127,324,63530,1,8,0:2:0:0:
166,317,63624,2,0,P|191:303|221:301,1,56.9999984779358,10|0,0:1|0:2,0:2:0:0:
363,356,63812,6,0,B|431:378|431:378|455:310,1,138.000002632141,14|8,0:2|0:2,0:2:0:0:
512,210,64093,2,0,B|444:231|444:231|420:164,1,138.000002632141,14|8,0:1|0:2,0:0:0:0:
340,143,64374,5,10,1:2:0:0:
340,143,64468,2,0,B|362:104|362:104|345:60,1,90.0000034332277,8|8,0:0|0:0,0:0:0:0:
279,24,64749,6,0,B|261:34|261:34|231:31,1,38.9999982147218,10|8,0:1|0:0,0:0:0:0:
172,0,64937,1,10,0:1:0:0:
172,0,65030,1,10,0:2:0:0:
132,280,65218,1,14,0:1:0:0:
345,61,65499,5,12,0:1:0:0:
323,323,65687,1,10,0:1:0:0:
323,323,65780,1,10,0:2:0:0:
416,192,65968,1,10,0:1:0:0:
160,112,66249,5,10,0:1:0:0:
138,374,66437,1,10,0:2:0:0:
138,374,66530,1,10,0:2:0:0:
55,258,66718,1,14,0:2:0:0:
256,192,66999,5,14,0:1:0:0:
256,192,67093,12,0,68499,0:2:0:0:
256,192,68593,5,8,0:2:0:0:
260,202,68687,1,8,0:2:0:0:
264,212,68780,1,8,0:3:0:0:
268,222,68874,1,4,0:3:0:0:
329,146,69062,5,14,3:1:0:0:
397,188,69343,1,0,0:2:0:0:
457,136,69624,1,0,0:2:0:0:
426,63,69905,1,0,0:2:0:0:
349,70,70187,1,0,0:2:0:0:
349,70,70374,1,8,3:1:0:0:
256,0,70562,5,14,3:1:0:0:
221,68,70843,1,0,0:2:0:0:
144,71,71124,1,0,0:2:0:0:
109,139,71405,1,0,0:2:0:0:
33,143,71686,1,0,0:2:0:0:
33,143,71874,1,8,3:1:0:0:
100,223,72062,5,10,3:1:0:0:
173,200,72343,1,0,0:2:0:0:
241,233,72624,1,0,0:2:0:0:
314,210,72905,1,0,0:2:0:0:
378,260,73187,1,0,0:2:0:0:
378,260,73374,1,8,3:1:0:0:
468,207,73562,5,10,3:1:0:0:
430,140,73843,1,0,0:2:0:0:
474,77,74124,1,0,0:2:0:0:
512,144,74405,1,0,0:2:0:0:
472,210,74687,1,0,0:2:0:0:
472,210,74874,1,8,3:1:0:0:
392,143,75062,5,14,3:1:0:0:
356,220,75343,1,0,0:2:0:0:
287,269,75624,1,0,0:2:0:0:
202,276,75905,1,0,0:2:0:0:
128,242,76187,1,0,0:2:0:0:
128,242,76374,1,8,3:1:0:0:
219,178,76562,5,10,3:1:0:0:
146,133,76843,1,0,0:2:0:0:
166,49,77124,1,0,0:2:0:0:
251,40,77405,1,0,0:2:0:0:
287,122,77687,1,0,0:2:0:0:
287,122,77874,1,8,3:1:0:0:
388,60,78062,5,10,3:1:0:0:
444,124,78343,1,0,0:2:0:0:
471,204,78624,1,0,0:2:0:0:
466,288,78905,1,0,0:2:0:0:
428,366,79187,1,0,0:2:0:0:
428,366,79374,1,8,3:1:0:0:
332,313,79562,5,10,3:1:0:0:
249,334,79843,1,0,0:2:0:0:
166,313,80124,1,0,0:2:0:0:
88,349,80405,1,0,0:2:0:0:
8,318,80687,1,0,0:0:0:0:
79,254,80874,5,2,3:1:0:0:
79,254,80968,1,2,3:1:0:0:
79,254,81062,2,0,B|92:202|62:196|77:139,1,115.2,14|0,0:1|0:2,0:2:0:0:
116,56,81624,1,0,0:2:0:0:
203,27,81905,1,0,0:2:0:0:
285,67,82187,1,0,0:2:0:0:
369,29,82374,5,2,3:2:0:0:
369,29,82468,1,2,3:2:0:0:
369,29,82562,2,0,P|405:68|406:152,2,115.2,14|0|0,0:1|0:2|0:2,0:2:0:0:
263,80,83312,5,8,3:3:0:0:
229,110,83405,1,8,3:3:0:0:
183,118,83499,1,8,3:2:0:0:
139,101,83593,1,8,3:2:0:0:
110,64,83687,5,0,1:2:0:0:
65,93,83780,1,0,1:2:0:0:
44,142,83874,1,0,1:2:0:0:
53,194,83968,1,0,1:2:0:0:
88,232,84062,6,0,P|146:222|233:214,1,107.999996704102,14|0,0:1|0:2,0:2:0:0:
271,219,84343,1,8,0:1:0:0:
271,219,84437,1,8,0:2:0:0:
141,314,84624,1,8,0:1:0:0:
141,314,84718,1,8,0:2:0:0:
288,379,84905,1,8,0:2:0:0:
288,379,84999,1,8,0:1:0:0:
418,284,85187,5,8,0:2:0:0:
394,242,85280,1,8,0:2:0:0:
403,194,85374,1,8,0:3:0:0:
443,166,85468,1,8,0:3:0:0:
512,205,85562,5,8,0:2:0:0:
419,20,86593,5,8,0:3:0:0:
385,52,86686,1,8,0:3:0:0:
341,71,86780,1,4,0:3:0:0:
294,74,86874,1,8,0:1:0:0:
249,59,86968,1,8,0:1:0:0:
215,26,87062,6,0,P|130:49|123:111,2,120,14|10|8,0:1|0:2|0:1,0:2:0:0:
278,89,87530,1,10,0:2:0:0:
278,89,87624,2,0,B|281:152,1,60,8|0,0:1|0:2,0:2:0:0:
202,217,87812,5,10,0:2:0:0:
202,217,87905,2,0,B|167:188|111:200|111:200|101:177,1,120,8|10,0:1|0:2,0:2:0:0:
39,241,88187,2,0,L|17:159,1,60,8|0,0:1|0:2,0:2:0:0:
151,273,88374,2,0,P|102:288|79:326,1,60,10|0,0:2|0:2,0:2:0:0:
196,384,88562,6,0,P|245:369|268:331,1,60,10|0,0:1|0:2,0:2:0:0:
295,304,88749,2,0,L|305:143,1,120,10|8,0:2|0:1,0:2:0:0:
380,157,89030,1,10,0:2:0:0:
380,157,89124,2,0,L|376:216,1,60,8|0,0:1|0:2,0:2:0:0:
450,306,89312,5,10,0:2:0:0:
450,306,89405,2,0,B|482:318|482:318|524:284|509:217,1,120,8|10,0:1|0:2,0:2:0:0:
459,183,89686,2,0,P|484:164|514:160,1,60,8|0,0:1|0:2,0:2:0:0:
433,100,89874,2,0,P|408:81|378:77,1,60,8|0,0:2|0:2,0:2:0:0:
277,32,90062,6,0,P|306:27|329:8,1,60,10|0,0:1|0:2,0:2:0:0:
315,121,90249,2,0,P|235:119|185:172,1,120,8|8,0:2|0:1,0:2:0:0:
169,209,90530,1,10,0:2:0:0:
169,209,90624,2,0,P|197:219|231:210,1,60,8|0,0:1|0:2,0:2:0:0:
299,254,90812,5,10,0:2:0:0:
299,254,90905,2,0,P|309:226|303:197,1,60,8|0,0:1|0:2,0:2:0:0:
228,294,91093,1,10,0:2:0:0:
228,294,91187,2,0,P|218:322|224:351,1,60,8|0,0:1|0:2,0:2:0:0:
305,381,91374,2,0,L|373:369,1,60,10|0,0:2|0:2,0:2:0:0:
228,294,91562,6,0,L|160:282,1,60,10|0,0:1|0:2,0:2:0:0:
139,211,91749,1,10,0:2:0:0:
139,211,91843,2,0,L|183:158,1,60,8|0,0:1|0:2,0:2:0:0:
259,173,92030,1,8,0:0:0:0:
259,173,92124,2,0,L|282:237,1,60,8|0,0:1|0:2,0:2:0:0:
369,285,92312,6,0,P|427:286|490:238,1,120,10|8,0:0|0:1,0:0:0:0:
512,165,92593,2,0,P|513:107|465:44,1,120,10|0,0:0|0:2,0:0:0:0:
388,10,92874,5,8,1:2:0:0:
327,49,92968,1,8,1:2:0:0:
258,27,93062,2,0,P|181:16|116:52,2,120,14|10|8,0:1|0:2|0:1,0:2:0:0:
318,87,93530,1,10,0:2:0:0:
318,87,93624,2,0,B|328:167,1,60,8|0,0:1|0:2,0:2:0:0:
258,214,93812,5,10,0:2:0:0:
258,214,93905,2,0,P|181:225|116:189,1,120,8|10,0:1|0:2,0:2:0:0:
73,240,94186,2,0,P|67:211|72:181,1,60,8|0,0:1|0:2,0:2:0:0:
135,291,94374,2,0,P|112:310|84:321,1,60,10|0,0:2|0:2,0:2:0:0:
227,368,94562,6,0,P|249:348|277:337,1,60,10|0,0:1|0:2,0:2:0:0:
354,323,94749,2,0,P|401:359|459:368,1,120,10|8,0:2|0:1,0:2:0:0:
512,310,95030,1,10,0:2:0:0:
512,310,95124,2,0,P|505:267|477:216,1,60,10|0,0:1|0:2,0:2:0:0:
414,187,95312,5,10,0:2:0:0:
414,187,95405,2,0,B|344:206|344:206|328:190|302:182,1,120,8|10,0:1|0:2,0:2:0:0:
239,228,95686,2,0,P|258:250|286:258,1,60,8|0,0:1|0:2,0:2:0:0:
231,153,95874,2,0,P|201:158|180:178,1,60,10|0,0:2|0:2,0:2:0:0:
101,260,96062,6,0,B|70:265|70:265|23:245,1,60,14|0,0:1|0:2,0:2:0:0:
2,187,96249,2,0,P|2:127|39:72,1,120,10|8,0:2|0:1,0:2:0:0:
97,31,96530,1,10,0:2:0:0:
97,31,96624,2,0,B|128:36|128:36|175:16,1,60,8|0,0:1|0:2,0:2:0:0:
258,62,96812,5,10,0:2:0:0:
258,62,96905,2,0,L|247:135,1,60,8|0,0:1|0:2,0:2:0:0:
378,58,97093,1,10,0:2:0:0:
378,58,97187,2,0,L|320:11,1,60,8|0,0:1|0:2,0:2:0:0:
321,163,97374,2,0,L|389:136,1,60,10|0,0:2|0:2,0:2:0:0:
472,106,97562,6,0,B|464:155|500:186|500:186|454:245,1,120,14|10,0:1|0:0,0:2:0:0:
443,285,97843,2,0,B|403:269|398:225|398:225|349:243,1,120,8|10,0:1|0:2,0:2:0:0:
300,298,98124,2,0,P|278:256|279:239,1,60,8|0,0:1|0:2,0:2:0:0:
304,139,98312,5,10,0:2:0:0:
304,139,98405,2,0,B|266:156|266:156|161:124,1,120,8|8,0:1|0:2,0:2:0:0:
118,195,98687,5,8,0:3:0:0:
69,164,98780,1,8,0:2:0:0:
25,199,98874,1,8,0:2:0:0:
45,252,98968,1,8,0:2:0:0:
101,249,99062,6,0,B|162:193|245:206|245:206|294:266|377:256|377:256|398:334|451:358|451:358|472:342|506:345,1,480,14|2,0:1|0:2,0:2:0:0:
512,82,101687,1,2,0:2:0:0:
512,82,101780,1,8,0:1:0:0:
463,143,102062,6,0,P|401:160|236:80,1,240,14|0,0:1|0:2,0:2:0:0:
151,0,103093,1,8,3:2:0:0:
153,35,103186,1,8,3:2:0:0:
156,71,103280,1,8,3:3:0:0:
159,107,103374,1,4,3:3:0:0:
162,143,103468,1,4,3:3:0:0:
165,179,103562,6,0,B|155:230|155:230|162:249|162:249|149:306,1,120,14|8,0:2|0:1,0:2:0:0:
392,384,103937,2,0,B|402:337|402:337|395:318|395:318|405:267,1,120,14|8,0:2|0:1,0:2:0:0:
472,225,104218,1,12,0:2:0:0:
472,225,104312,2,0,B|508:178|508:178|487:117,1,120,8|12,0:1|0:2,0:2:0:0:
348,6,104687,5,8,3:2:0:0:
319,51,104780,1,8,3:2:0:0:
339,101,104874,1,8,3:2:0:0:
304,142,104968,1,8,3:2:0:0:
324,192,105062,6,0,P|326:232|300:288,1,90.0000034332277,14|8,0:1|0:1,0:2:0:0:
302,285,105343,1,8,0:1:0:0:
296,292,105437,1,8,0:3:0:0:
290,298,105530,1,8,0:3:0:0:
283,303,105624,1,4,0:3:0:0:
197,241,105812,6,0,B|184:138,1,90.0000034332277,10|8,0:3|0:1,0:2:0:0:
164,180,106093,1,8,0:1:0:0:
131,195,106187,1,8,0:3:0:0:
95,191,106280,1,8,0:2:0:0:
64,170,106374,1,8,0:2:0:0:
112,47,106562,6,0,P|178:32|214:31,1,90.0000034332277,6|8,0:3|0:1,0:2:0:0:
208,33,106843,1,8,0:1:0:0:
216,36,106937,1,8,0:3:0:0:
223,40,107030,1,8,0:3:0:0:
229,46,107124,1,4,0:3:0:0:
318,123,107312,5,8,0:3:0:0:
345,19,107499,1,8,0:3:0:0:
438,88,107687,5,8,3:1:0:0:
482,117,107780,1,8,3:2:0:0:
488,170,107874,1,8,3:2:0:0:
463,218,107968,1,8,3:1:0:0:
408,222,108062,6,0,B|372:199|372:199|283:212,1,132.00000402832,14|8,0:1|0:1,0:2:0:0:
235,132,108343,2,0,B|199:109|199:109|110:122,1,132.00000402832,14|8,0:2|0:1,0:2:0:0:
17,84,108624,5,8,0:2:0:0:
3,155,108718,1,8,0:2:0:0:
43,215,108812,2,0,P|125:235|175:187,1,132.00000402832,12|10,0:2|0:1,0:2:0:0:
213,296,109093,2,0,P|295:316|345:268,1,132.00000402832,12|0,0:2|0:2,0:2:0:0:
435,271,109374,5,8,0:2:0:0:
417,200,109468,1,8,0:2:0:0:
453,137,109562,2,0,B|484:100|467:47|467:47|400:17,1,132.00000402832,12|8,0:2|0:1,0:2:0:0:
339,109,109843,2,0,B|370:72|353:19|353:19|319:4,1,132.00000402832,12|8,0:2|0:1,0:2:0:0:
234,64,110124,5,8,0:2:0:0:
165,38,110218,1,8,0:2:0:0:
99,69,110312,2,0,P|67:125|70:191,1,132.00000402832,12|8,0:2|0:1,0:2:0:0:
133,269,110593,2,0,B|164:237|225:250|225:250|257:275,1,132.00000402832,12|8,0:2|0:1,0:2:0:0:
291,346,110874,2,0,P|259:356|212:340,1,66.0000020141602,8|8,0:2|0:1,0:2:0:0:
342,265,111062,5,10,0:2:0:0:
377,226,111155,1,10,0:2:0:0:
377,173,111249,1,10,0:1:0:0:
348,128,111343,1,10,0:1:0:0:
179,182,111530,5,10,0:2:0:0:
179,182,111624,1,10,0:1:0:0:
261,19,111812,5,14,0:1:0:0:
228,375,112093,5,14,0:1:0:0:
28,162,112562,6,0,B|43:201|27:242|27:242|54:240|86:259,1,138.000002632141,14|8,0:1|0:0,0:0:0:0:
135,308,112843,1,8,0:1:0:0:
201,345,112937,2,0,P|237:343|277:321,1,69.0000013160706,8|0,0:1|0:0,0:0:0:0:
366,383,113124,2,0,L|342:319,1,69.0000013160706,8|8,0:0|0:1,0:0:0:0:
372,199,113312,2,0,L|396:263,1,69.0000013160706,10|8,0:1|0:1,0:0:0:0:
495,340,113499,2,0,L|471:276,1,69.0000013160706,8|0,0:2|0:0,0:0:0:0:
495,202,113687,2,0,P|502:140|450:64,1,138.000002632141,10|8,0:1|0:2,0:0:0:0:
243,0,114062,6,0,L|225:154,1,138.000002632141,10|8,0:1|0:0,0:0:0:0:
173,191,114343,1,8,0:1:0:0:
149,118,114437,2,0,L|157:49,1,69.0000013160706,8|0,0:1|0:0,0:0:0:0:
73,90,114624,2,0,L|64:158,1,69.0000013160706,8|0,0:2|0:0,0:0:0:0:
6,243,114812,5,10,0:1:0:0:
4,318,114905,1,8,0:1:0:0:
63,364,114999,1,8,0:0:0:0:
138,358,115093,1,8,0:1:0:0:
191,304,115187,2,0,L|199:235,1,69.0000013160706,8|0,0:1|0:0,0:0:0:0:
322,316,115374,2,0,L|313:384,1,69.0000013160706,8|0,0:2|0:0,0:0:0:0:
469,238,115562,6,0,B|453:279|392:278|392:278|381:258|360:246,1,138.000002632141,10|8,0:1|0:0,0:0:0:0:
284,246,115843,1,8,0:1:0:0:
322,180,115937,2,0,P|326:143|312:91,1,69.0000013160706,8|0,0:1|0:0,0:0:0:0:
193,107,116124,2,0,P|220:87|253:75,1,69.0000013160706,8|8,0:0|0:1,0:0:0:0:
438,69,116312,2,0,P|406:56|371:52,1,69.0000013160706,10|8,0:1|0:1,0:0:0:0:
299,7,116499,1,8,0:0:0:0:
299,7,116593,1,8,0:1:0:0:
299,7,116687,2,0,B|340:40|306:104|306:104|256:80,1,138.000002632141,10|8,0:1|0:0,0:0:0:0:
0,200,117062,6,0,P|59:162|156:184,1,138.000002632141,10|8,0:1|0:0,0:0:0:0:
173,223,117343,1,8,0:1:0:0:
127,284,117437,2,0,P|96:298|61:301,1,69.0000013160706,10|0,0:1|0:0,0:0:0:0:
124,165,117624,2,0,P|110:134|107:99,1,69.0000013160706,10|8,0:2|0:1,0:0:0:0:
235,168,117812,1,10,0:1:0:0:
235,168,117905,1,8,0:1:0:0:
235,168,117999,2,0,P|266:153|301:150,1,69.0000013160706,8|8,0:0|0:1,0:0:0:0:
232,279,118187,5,8,0:0:0:0:
308,307,118280,1,8,0:0:0:0:
386,293,118374,1,8,0:3:0:0:
448,241,118468,1,8,0:3:0:0:
474,165,118562,6,0,B|460:125|460:125|465:88|465:88|446:27,1,138.000002632141,14|8,0:1|0:0,0:0:0:0:
376,0,118843,1,8,0:1:0:0:
319,50,118937,2,0,L|253:71,1,69.0000013160706,8|0,0:1|0:0,0:0:0:0:
182,26,119124,2,0,L|173:100,1,69.0000013160706,8|8,0:0|0:1,0:0:0:0:
316,131,119312,2,0,L|170:177,1,138.000002632141,10|8,0:1|0:2,0:0:0:0:
112,147,119593,1,8,0:1:0:0:
65,207,119687,2,0,P|44:288|84:353,1,138.000002632141,10|8,0:1|0:2,0:0:0:0:
383,206,120062,6,0,P|405:269|382:333,1,138.000002632141,10|8,0:1|0:0,0:0:0:0:
321,379,120343,1,8,0:1:0:0:
254,341,120437,2,0,P|231:277|253:213,1,138.000002632141,10|8,0:1|0:2,0:0:0:0:
458,65,120812,5,10,0:1:0:0:
458,65,120905,1,8,0:1:0:0:
401,14,120999,1,8,0:0:0:0:
341,60,121093,1,8,0:1:0:0:
398,111,121187,2,0,P|414:138|412:195,1,69.0000013160706,10|0,0:1|0:0,0:0:0:0:
260,272,121374,2,0,P|244:245|246:188,1,69.0000013160706,8|0,0:2|0:0,0:0:0:0:
188,17,121562,6,0,B|166:48|121:58|121:58|99:37|66:33,1,138.000002632141,14|8,0:1|0:0,0:0:0:0:
2,69,121843,1,8,0:1:0:0:
18,143,121937,2,0,P|46:161|80:164,1,69.0000013160706,8|0,0:1|0:0,0:0:0:0:
149,201,122124,2,0,P|182:198|210:178,1,69.0000013160706,8|8,0:2|0:1,0:0:0:0:
277,303,122312,6,0,B|280:267|280:267|267:236,1,69.0000013160706,14|0,0:1|0:1,0:1:0:0:
198,275,122499,2,12,B|195:311|195:311|207:341,1,69.0000013160706,8|0,0:2|0:1,0:1:0:0:
354,287,122687,2,12,B|357:251|357:251|344:220,1,69.0000013160706,10|0,0:1|0:1,0:1:0:0:
122,289,122874,2,12,B|119:325|119:325|131:355,1,69.0000013160706,8|0,0:2|0:1,0:1:0:0:
429,303,123062,6,0,B|436:233|436:233|402:163,1,138.000002632141,14|8,0:1|1:2,0:1:0:0:
365,108,123343,1,8,1:2:0:0:
331,175,123437,1,8,1:2:0:0:
155,29,123624,5,10,1:2:0:0:
155,29,123718,1,8,1:2:0:0:
155,29,123812,2,0,L|163:113,1,62.9999980773926,2|0,1:1|1:2,0:0:0:0:
87,117,123999,6,0,L|81:54,1,56.9999984779358,2|0,1:1|1:2,0:0:0:0:
235,79,124187,6,0,L|240:135,1,51.0000009727478,2|0,1:1|1:2,0:0:0:0:
14,185,124374,6,2,L|0:33,1,150,2|0,0:0|0:0,0:1:0:0:
0,35,124937,6,2,B|85:55|85:55|110:31|146:26,1,155.999992858887,14|8,0:1|0:0,0:1:0:0:
220,68,125218,1,8,0:0:0:0:
147,112,125312,1,12,0:0:0:0:
259,199,125593,5,8,0:3:0:0:
99,302,125874,5,4,0:3:0:0:
196,358,126062,6,0,B|277:343|254:381|333:371,1,138.000002632141,14|8,0:1|0:0,0:0:0:0:
404,351,126343,1,8,0:1:0:0:
456,295,126437,2,0,P|453:268|435:227,1,69.0000013160706,8|0,0:1|0:0,0:0:0:0:
360,230,126624,2,0,P|346:262|343:296,1,69.0000013160706,8|8,0:0|0:1,0:0:0:0:
288,194,126812,2,0,P|285:167|267:126,1,69.0000013160706,10|8,0:1|0:1,0:0:0:0:
359,139,126999,2,0,P|383:149|428:154,1,69.0000013160706,8|0,0:2|0:0,0:0:0:0:
208,183,127187,2,0,P|186:199|159:235,1,69.0000013160706,8|0,0:1|0:0,0:0:0:0:
307,57,127374,2,0,P|334:35|353:7,1,69.0000013160706,8|0,0:2|0:0,0:0:0:0:
209,75,127562,6,0,P|126:52|71:72,1,138.000002632141,10|8,0:1|0:0,0:0:0:0:
13,105,127843,1,8,0:1:0:0:
1,182,127937,2,0,B|15:298,1,69.0000013160706,8|0,0:1|0:0,0:0:0:0:
69,349,128124,2,0,B|78:281,1,69.0000013160706,8|8,0:2|0:1,0:0:0:0:
135,172,128312,2,0,B|144:241,1,69.0000013160706,10|8,0:1|0:1,0:0:0:0:
204,302,128499,1,8,0:0:0:0:
204,302,128593,1,8,0:1:0:0:
204,302,128687,2,0,P|260:310|331:269,1,138.000002632141,10|8,0:1|0:2,0:0:0:0:
497,89,129062,6,0,L|481:254,1,138.000002632141,10|8,0:1|0:0,0:0:0:0:
485,302,129343,1,8,0:1:0:0:
430,354,129437,2,0,P|402:361|353:332,1,69.0000013160706,10|0,0:1|0:0,0:0:0:0:
282,301,129624,2,0,L|275:369,1,69.0000013160706,8|8,0:2|0:1,0:0:0:0:
367,267,129812,1,10,0:1:0:0:
367,267,129905,1,8,0:1:0:0:
367,267,129999,2,0,L|373:198,1,69.0000013160706,8|8,0:2|0:1,0:0:0:0:
286,92,130187,5,8,0:0:0:0:
232,148,130280,1,8,0:0:0:0:
157,168,130374,1,8,0:3:0:0:
81,148,130468,1,8,0:3:0:0:
28,90,130562,1,14,0:1:0:0:
83,260,130749,6,0,P|160:248|238:246,1,120,10|8,0:2|0:1,0:0:0:0:
201,245,131030,1,10,0:1:0:0:
201,245,131124,1,8,0:1:0:0:
307,384,131312,6,0,B|317:344|290:302|290:302|298:268,1,120,10|8,0:1|0:1,0:0:0:0:
313,229,131593,1,10,0:1:0:0:
342,259,131687,1,8,0:0:0:0:
381,273,131780,1,8,0:0:0:0:
422,277,131874,1,10,0:1:0:0:
462,265,131968,1,8,0:1:0:0:
498,243,132062,1,10,0:1:0:0:
411,125,132249,6,0,B|406:89|406:89|417:53|417:53|410:7,1,120,10|8,0:1|0:1,0:0:0:0:
410,7,132530,1,10,0:1:0:0:
410,7,132624,1,8,0:1:0:0:
299,92,132812,6,0,B|238:70|246:105|180:91,1,120,10|8,0:1|0:1,0:0:0:0:
139,115,133093,1,10,0:1:0:0:
111,75,133187,1,8,0:1:0:0:
63,74,133280,1,8,0:0:0:0:
36,114,133374,1,10,0:0:0:0:
49,160,133468,1,8,0:0:0:0:
113,209,133562,6,0,P|193:191|255:195,1,132.00000402832,14|8,0:1|0:3,0:0:0:0:
254,199,133843,1,8,0:3:0:0:
265,205,133937,1,4,0:3:0:0:
275,213,134030,1,4,0:3:0:0:
283,222,134124,1,8,0:3:0:0:
203,364,134312,6,0,P|137:364|73:347,1,132.00000402832,10|8,0:3|0:3,0:0:0:0:
36,376,134593,1,8,0:1:0:0:
58,335,134687,1,8,0:1:0:0:
66,290,134780,1,8,0:0:0:0:
66,243,134874,1,8,0:0:0:0:
58,197,134968,1,8,0:0:0:0:
32,158,135062,1,8,0:1:0:0:
139,13,135249,6,2,B|177:42|177:42|315:17,1,167.999994873047,14|8,0:0|0:1,0:1:0:0:
412,104,135530,6,2,B|374:133|374:133|236:108,1,167.999994873047,14|8,0:0|0:1,0:1:0:0:
140,198,135812,6,2,B|178:227|178:227|316:202,1,167.999994873047,14|8,0:0|0:1,0:1:0:0:
413,289,136093,6,2,B|375:318|375:318|237:293,1,167.999994873047,14|8,0:0|0:1,0:1:0:0:
135,384,136374,5,8,0:0:0:0:
143,367,136468,1,8,0:0:0:0:
151,351,136562,2,0,B|140:305|140:305|157:260|137:190,1,155.999992858887,14|0,0:1|0:0,0:0:0:0:
105,114,136843,2,0,B|69:123|55:156|55:156|18:158|5:121,1,132.00000402832,8|0,0:0|0:0,0:0:0:0:
45,39,137124,2,0,P|74:23|108:18,1,66.0000020141602,8|0,0:0|0:0,0:0:0:0:
221,83,137312,6,0,B|239:114|282:119|282:119|312:84|354:83,1,155.999992858887,14|0,0:1|0:0,0:0:0:0:
419,45,137593,1,8,0:0:0:0:
393,84,137687,1,8,0:3:0:0:
389,130,137780,1,8,0:3:0:0:
403,174,137874,1,12,0:3:0:0:
440,202,137968,1,12,0:3:0:0:
512,150,138062,5,14,0:1:0:0:
400,295,139562,6,0,L|410:391,2,90,14|0|0,0:1|0:0|0:0,0:0:0:0:
321,224,140312,2,0,L|331:128,2,90,0|0|0,0:1|0:0|0:0,0:0:0:0:
191,160,141062,2,0,L|181:256,2,90,2|0|0,0:0|0:0|0:0,0:0:0:0:
112,89,141812,2,0,L|102:-7,2,90
35,191,142562,6,0,P|17:235|28:302,2,90,2|0|0,0:0|0:0|0:0,0:0:0:0:
184,245,143312,2,0,P|184:289|167:330,2,90
266,153,144062,2,0,P|269:114|281:72,1,60,2|0,0:0|0:0,0:0:0:0:
281,84,144343,1,0,0:0:0:0:
291,77,144437,2,0,P|320:71|350:69,1,60
426,151,144812,2,0,P|423:190|411:232,1,60,2|0,0:0|0:0,0:0:0:0:
409,239,145093,1,8,0:0:0:0:
390,262,145186,1,8,0:0:0:0:
365,278,145280,1,8,0:0:0:0:
336,284,145374,1,8,0:3:0:0:
307,279,145468,1,8,0:3:0:0:
281,264,145562,6,0,L|269:159,1,96,14|8,0:1|0:3,0:0:0:0:
261,164,145843,1,8,0:3:0:0:
253,158,145937,1,4,0:3:0:0:
244,154,146030,1,4,0:3:0:0:
235,150,146124,1,8,0:3:0:0:
119,230,146312,6,0,P|105:278|113:349,1,96,10|8,0:3|0:3,0:0:0:0:
122,358,146593,1,8,0:3:0:0:
151,333,146687,1,4,0:3:0:0:
188,323,146780,1,8,0:2:0:0:
227,325,146874,1,8,0:2:0:0:
344,371,147062,6,0,B|392:383|392:383|462:357,1,96,6|8,0:3|0:3,0:0:0:0:
444,362,147343,1,8,0:3:0:0:
451,356,147437,1,4,0:3:0:0:
458,350,147530,1,4,0:3:0:0:
464,343,147624,1,8,0:3:0:0:
512,239,147812,6,0,B|487:228|487:228|468:211|474:148,1,96,10|8,0:3|0:3,0:0:0:0:
483,126,148093,1,8,0:3:0:0:
448,143,148187,1,4,0:3:0:0:
410,137,148280,1,8,0:2:0:0:
381,111,148374,1,8,0:2:0:0:
281,172,148562,6,0,B|264:212|298:227|279:269,1,96,10|8,0:1|0:3,0:0:0:0:
277,274,148843,1,8,0:3:0:0:
271,281,148937,1,4,0:3:0:0:
264,288,149030,1,4,0:3:0:0:
254,291,149124,1,8,0:3:0:0:
158,370,149312,6,0,P|125:357|57:358,1,96,10|8,0:3|0:3,0:0:0:0:
92,328,149593,1,8,0:3:0:0:
104,291,149687,1,4,0:3:0:0:
96,253,149780,1,8,0:2:0:0:
75,220,149874,1,8,0:2:0:0:
0,121,150062,6,0,B|48:132|48:132|102:101,1,96,6|8,0:3|0:3,0:0:0:0:
96,103,150343,1,8,0:3:0:0:
103,97,150437,1,4,0:3:0:0:
109,90,150530,1,4,0:3:0:0:
116,83,150624,1,8,0:3:0:0:
227,6,150812,6,0,P|221:68|242:116,1,96,10|8,0:3|0:3,0:0:0:0:
258,126,151093,1,8,0:3:0:0:
291,107,151187,1,4,0:3:0:0:
329,104,151280,1,8,0:2:0:0:
364,117,151374,1,8,0:2:0:0:
497,35,151562,6,0,B|509:76|509:76|503:98|503:98|514:142,2,107.999996704102,12|10|0,0:1|0:0|0:0,0:0:0:0:
427,4,152030,1,10,0:0:0:0:
427,4,152124,1,8,0:1:0:0:
358,127,152312,2,0,B|367:168|367:168|361:190|361:190|371:234,1,107.999996704102,10|0,0:0|0:0,0:0:0:0:
389,310,152593,1,10,0:0:0:0:
389,310,152687,1,8,0:1:0:0:
266,377,152874,1,10,0:0:0:0:
147,311,153062,5,10,0:1:0:0:
147,311,153249,2,0,P|149:249|167:197,1,107.999996704102,10|0,0:0|0:0,0:0:0:0:
205,145,153530,1,10,0:0:0:0:
205,145,153624,1,8,0:1:0:0:
329,210,153812,2,0,P|327:148|309:96,1,107.999996704102,10|0,0:0|0:0,0:0:0:0:
280,38,154093,1,10,0:0:0:0:
280,38,154187,1,8,0:1:0:0:
205,145,154374,1,10,0:0:0:0:
106,46,154562,6,0,B|53:56|53:56|4:31,2,107.999996704102,10|10|0,0:1|0:0|0:0,0:0:0:0:
179,19,155030,1,10,0:0:0:0:
179,19,155124,1,8,0:1:0:0:
90,128,155312,2,0,P|70:184|86:259,1,107.999996704102,10|0,0:0|0:0,0:0:0:0:
108,303,155593,1,10,0:0:0:0:
108,303,155687,1,8,0:1:0:0:
232,366,155874,1,10,0:0:0:0:
321,257,156062,5,10,0:1:0:0:
321,257,156249,2,0,B|313:222|313:222|316:199|316:199|305:151,1,107.999996704102,10|0,0:0|0:0,0:0:0:0:
287,80,156530,1,10,0:0:0:0:
287,80,156624,1,8,0:1:0:0:
399,7,156812,2,0,P|463:20|480:71,1,107.999996704102,10|0,0:0|0:0,0:0:0:0:
491,131,157093,1,10,0:0:0:0:
491,131,157187,1,8,0:1:0:0:
360,191,157374,5,10,0:0:0:0:
313,175,157468,1,8,0:0:0:0:
268,194,157562,2,0,P|204:200|146:155,2,107.999996704102,12|10|0,0:1|0:0|0:0,0:0:0:0:
338,164,158030,1,10,0:0:0:0:
338,164,158124,1,8,0:1:0:0:
467,219,158312,2,0,P|483:278|467:333,1,107.999996704102,10|0,0:0|0:0,0:0:0:0:
428,384,158593,1,10,0:0:0:0:
428,384,158687,1,8,0:1:0:0:
296,335,158874,1,10,0:0:0:0:
329,199,159062,5,10,0:1:0:0:
329,199,159249,2,0,P|339:146|323:95,1,107.999996704102,10|0,0:0|0:0,0:0:0:0:
278,40,159530,1,10,0:0:0:0:
278,40,159624,1,8,0:1:0:0:
169,129,159812,2,0,B|119:144|119:144|50:112,1,107.999996704102,10|0,0:0|0:0,0:0:0:0:
5,80,160093,1,10,0:0:0:0:
5,80,160187,1,8,0:1:0:0:
5,220,160374,1,10,0:0:0:0:
159,261,160562,6,0,B|208:256|208:256|213:259|213:259|269:252,2,107.999996704102,12|10|0,0:1|0:0|0:0,0:0:0:0:
98,304,161030,1,10,0:0:0:0:
98,304,161124,1,8,0:1:0:0:
223,367,161312,2,0,B|272:362|272:362|277:365|277:365|333:358,1,107.999996704102,10|0,0:0|0:0,0:0:0:0:
405,384,161593,1,10,0:0:0:0:
405,384,161687,1,8,0:1:0:0:
484,268,161874,1,10,0:0:0:0:
375,164,162062,5,12,0:1:0:0:
375,164,162249,2,0,B|358:127|366:111|372:109|376:85|365:57,1,107.999996704102,10|0,0:0|0:0,0:0:0:0:
315,8,162530,1,10,0:0:0:0:
315,8,162624,1,8,0:1:0:0:
211,103,162812,2,0,P|194:164|206:212,1,107.999996704102,10|0,0:0|0:0,0:0:0:0:
244,272,163093,1,10,0:0:0:0:
244,272,163187,2,0,L|298:263,1,45.0000017166138,8|8,0:1|0:0,0:0:0:0:
371,288,163374,5,10,1:2:0:0:
418,314,163468,1,8,1:2:0:0:
466,290,163562,2,0,B|519:175|490:25|370:18|370:18|347:85|370:122|411:147,1,480,14|2,0:1|0:2,0:2:0:0:
107,28,166187,1,2,0:2:0:0:
107,28,166280,1,8,0:1:0:0:
38,87,166562,6,0,B|39:183|-15:237|-15:237|-23:277|10:321,1,240,14|0,0:1|0:2,0:2:0:0:
151,384,167593,1,8,3:2:0:0:
153,349,167686,1,8,3:2:0:0:
156,313,167780,1,8,3:3:0:0:
159,277,167874,1,4,3:3:0:0:
162,241,167968,1,4,3:3:0:0:
165,205,168062,6,0,B|155:161|155:161|163:137|163:137|149:78,1,120,14|8,0:2|0:1,0:2:0:0:
290,255,168437,2,0,B|300:211|300:211|292:187|292:187|306:128,1,120,14|8,0:2|0:1,0:2:0:0:
362,84,168718,1,12,0:2:0:0:
362,84,168812,2,0,B|419:68|419:68|485:111,1,120,8|14,0:1|0:2,0:2:0:0:
512,268,169187,5,8,3:2:0:0:
458,261,169280,1,8,3:2:0:0:
423,302,169374,1,8,3:2:0:0:
370,289,169468,1,8,3:2:0:0:
338,333,169562,6,0,B|299:356|299:356|220:324,1,90.0000034332277,14|8,0:1|0:1,0:2:0:0:
254,330,169843,1,8,0:1:0:0:
252,321,169937,1,8,0:3:0:0:
250,312,170030,1,8,0:3:0:0:
248,303,170124,1,4,0:3:0:0:
197,192,170312,6,0,B|219:87,1,90.0000034332277,10|8,0:3|0:1,0:2:0:0:
200,71,170593,1,8,0:1:0:0:
168,54,170687,1,8,0:3:0:0:
132,48,170780,1,8,0:2:0:0:
97,58,170874,1,8,0:2:0:0:
12,151,171062,6,0,L|25:262,1,90.0000034332277,6|8,0:3|0:1,0:2:0:0:
21,249,171343,1,8,0:1:0:0:
19,257,171437,1,8,0:3:0:0:
17,265,171530,1,8,0:3:0:0:
15,273,171624,1,4,0:3:0:0:
70,380,171812,5,8,0:3:0:0:
131,235,171999,1,8,0:3:0:0:
204,349,172187,5,8,3:1:0:0:
248,378,172280,1,8,3:2:0:0:
302,375,172374,1,8,3:2:0:0:
345,343,172468,1,8,3:1:0:0:
352,289,172562,6,0,B|339:247|339:247|346:215|346:215|327:150,1,132.00000402832,14|8,0:1|0:1,0:2:0:0:
263,274,172843,2,0,B|250:232|250:232|257:200|257:200|238:135,1,132.00000402832,14|8,0:2|0:1,0:2:0:0:
202,70,173124,5,8,0:2:0:0:
143,112,173218,1,8,0:2:0:0:
81,72,173312,2,0,B|57:63|57:63|0:86|17:157,1,132.00000402832,12|10,0:2|0:1,0:2:0:0:
91,221,173593,2,0,B|67:212|67:212|10:235|27:306,1,132.00000402832,12|0,0:2|0:2,0:2:0:0:
99,369,173874,5,8,0:2:0:0:
161,332,173968,1,8,0:2:0:0:
224,368,174062,2,0,P|305:368|330:325,1,132.00000402832,12|8,0:2|0:1,0:2:0:0:
390,248,174343,2,0,P|471:248|496:205,1,132.00000402832,12|8,0:2|0:1,0:2:0:0:
512,114,174624,5,8,0:2:0:0:
442,136,174718,1,8,0:2:0:0:
382,94,174812,2,0,B|334:89|334:89|309:100|309:100|240:93,1,132.00000402832,12|8,0:2|0:1,0:2:0:0:
193,20,175093,2,0,B|145:15|145:15|120:26|120:26|51:19,1,132.00000402832,12|8,0:2|0:1,0:2:0:0:
5,92,175374,2,0,P|-5:118|8:171,1,66.0000020141602,8|8,0:2|0:1,0:2:0:0:
68,232,175562,5,10,0:2:0:0:
115,209,175655,1,10,0:2:0:0:
163,230,175749,1,10,0:1:0:0:
212,210,175843,1,10,0:1:0:0:
349,91,176030,5,10,0:2:0:0:
349,91,176124,1,10,0:1:0:0:
354,311,176312,5,14,0:1:0:0:
185,12,176593,5,14,0:1:0:0:
475,116,177062,6,0,B|396:131|396:131|378:100|348:90,1,143.999995605469,14|8,0:1|0:0,0:0:0:0:
269,88,177343,1,8,0:1:0:0:
211,142,177437,2,0,P|209:188|228:230,1,71.9999978027344,8|0,0:1|0:0,0:0:0:0:
278,262,177624,2,0,L|347:244,1,71.9999978027344,8|8,0:2|0:1,0:0:0:0:
204,293,177812,2,0,L|134:275,1,71.9999978027344,10|8,0:1|0:1,0:0:0:0:
260,348,177999,2,0,L|329:330,1,71.9999978027344,8|0,0:2|0:0,0:0:0:0:
182,368,178187,2,0,L|42:332,1,143.999995605469,10|8,0:1|0:2,0:0:0:0:
117,123,178562,6,0,B|71:172|20:146|20:146|3:114,1,143.999995605469,10|8,0:1|0:0,0:0:0:0:
6,34,178843,1,8,0:1:0:0:
84,47,178937,2,0,P|128:38|175:14,1,71.9999978027344,8|0,0:1|0:0,0:0:0:0:
194,140,179124,2,0,P|229:146|262:159,1,71.9999978027344,8|8,0:2|0:1,0:0:0:0:
348,83,179312,5,10,0:1:0:0:
425,70,179405,1,8,0:1:0:0:
488,115,179499,1,8,0:0:0:0:
500,191,179593,1,8,0:1:0:0:
467,260,179687,2,0,P|439:275|390:271,1,71.9999978027344,8|0,0:1|0:0,0:0:0:0:
337,384,179874,2,0,L|327:312,1,71.9999978027344,8|0,0:2|0:0,0:0:0:0:
181,245,180062,6,0,B|205:277|255:275|255:275|271:247|300:236,1,143.999995605469,10|8,0:1|0:0,0:0:0:0:
373,205,180343,1,8,0:1:0:0:
403,131,180437,2,0,P|402:93|380:44,1,71.9999978027344,8|0,0:1|0:0,0:0:0:0:
293,91,180624,2,0,P|294:129|316:178,1,71.9999978027344,8|8,0:2|0:1,0:0:0:0:
373,205,180812,2,0,L|449:222,1,71.9999978027344,8|8,0:1|0:1,0:0:0:0:
262,232,180999,1,8,0:0:0:0:
262,232,181093,1,8,0:1:0:0:
262,232,181187,2,0,L|186:215,1,71.9999978027344,10|0,0:1|0:0,0:0:0:0:
336,305,181374,2,0,L|406:320,1,71.9999978027344,8|0,0:2|0:0,0:0:0:0:
237,349,181562,6,0,B|180:339|180:339|149:379|103:377,1,143.999995605469,10|8,0:1|0:0,0:0:0:0:
28,362,181843,1,8,0:1:0:0:
4,286,181937,2,0,P|9:250|28:220,1,71.9999978027344,10|0,0:1|0:0,0:0:0:0:
129,206,182124,2,0,P|157:228|173:259,1,71.9999978027344,10|8,0:2|0:1,0:0:0:0:
236,101,182312,1,10,0:1:0:0:
236,101,182405,1,8,0:1:0:0:
236,101,182499,2,0,P|202:114|166:113,1,71.9999978027344,8|8,0:2|0:1,0:0:0:0:
303,192,182687,5,8,0:0:0:0:
367,140,182780,1,8,0:0:0:0:
449,149,182874,1,8,0:3:0:0:
499,213,182968,1,8,0:3:0:0:
461,287,183062,6,0,B|392:308|392:308|316:258,1,143.999995605469,14|8,0:1|0:0,0:0:0:0:
264,226,183343,1,8,0:1:0:0:
207,281,183437,2,0,B|194:315|194:315|200:349,1,71.9999978027344,8|0,0:1|0:0,0:0:0:0:
331,268,183624,2,0,B|344:234|344:234|337:199,1,71.9999978027344,8|8,0:2|0:1,0:0:0:0:
220,152,183812,2,0,B|151:173|151:173|90:133,1,143.999995605469,10|8,0:1|0:2,0:0:0:0:
35,76,184093,1,8,0:1:0:0:
105,39,184187,2,0,B|174:18|174:18|234:57,1,143.999995605469,10|8,0:1|0:2,0:0:0:0:
331,268,184562,6,0,B|400:289|400:289|460:249,1,143.999995605469,10|8,0:1|0:0,0:0:0:0:
505,184,184843,1,8,0:1:0:0:
440,137,184937,2,0,B|371:116|371:116|310:155,1,143.999995605469,10|8,0:1|0:2,0:0:0:0:
167,324,185312,5,10,0:1:0:0:
167,324,185405,1,8,0:1:0:0:
109,378,185499,1,8,0:0:0:0:
48,326,185593,1,8,0:1:0:0:
106,272,185687,2,0,L|116:188,1,71.9999978027344,10|0,0:1|0:0,0:0:0:0:
260,313,185874,2,0,L|268:384,1,71.9999978027344,8|0,0:2|0:0,0:0:0:0:
407,213,186062,6,0,B|446:204|480:227|480:227|515:211|512:170,1,143.999995605469,14|8,0:1|0:0,0:0:0:0:
512,93,186343,1,8,0:1:0:0:
456,35,186437,2,0,P|424:21|388:18,1,71.9999978027344,8|0,0:1|0:0,0:0:0:0:
319,59,186624,2,0,P|283:61|250:76,1,71.9999978027344,8|8,0:2|0:1,0:0:0:0:
124,173,186812,6,0,B|122:137|122:137|134:103,1,71.9999978027344,14|0,2:1|0:1,0:0:0:0:
209,147,186999,2,0,B|211:183|211:183|198:216,1,71.9999978027344,8|0,2:2|0:1,0:0:0:0:
60,60,187187,2,0,B|84:33|84:33|116:18,1,71.9999978027344,10|0,2:1|0:1,0:0:0:0:
271,255,187374,2,0,B|246:281|246:281|214:296,1,71.9999978027344,8|0,2:2|0:1,0:0:0:0:
312,38,187562,6,0,B|374:5|374:5|454:29,1,143.999995605469,14|8,0:1|1:2,0:1:0:0:
507,74,187843,1,8,1:2:0:0:
434,105,187937,1,8,1:2:0:0:
484,296,188124,5,10,1:2:0:0:
484,296,188218,1,8,1:2:0:0:
484,296,188312,2,0,L|475:220,1,66.0000020141602,2|0,1:1|1:2,0:0:0:0:
375,368,188499,6,0,L|451:359,1,60,2|0,1:1|1:2,0:0:0:0:
308,256,188687,6,0,L|314:309,1,53.9999983520508,2|0,1:1|1:2,0:0:0:0:
445,155,188874,6,2,B|382:192|382:192|296:168,1,150,2|0,0:0|0:0,0:1:0:0:
307,171,189437,6,2,B|278:131|299:85|299:85|279:44|228:57,1,162.000000617981,14|8,0:1|0:0,0:1:0:0:
157,74,189718,1,8,0:0:0:0:
207,143,189812,1,12,0:0:0:0:
6,237,190093,5,8,0:3:0:0:
251,321,190374,5,4,0:3:0:0:
111,382,190562,6,0,B|137:317|86:321|114:241,1,143.999995605469,14|8,0:1|0:0,0:0:0:0:
157,176,190843,1,8,0:1:0:0:
231,202,190937,2,0,P|269:203|329:178,1,71.9999978027344,8|0,0:1|0:0,0:0:0:0:
360,140,191124,2,0,P|369:105|388:74,1,71.9999978027344,8|8,0:0|0:1,0:0:0:0:
376,215,191312,2,0,P|402:241|419:273,1,71.9999978027344,10|8,0:1|0:1,0:1:0:0:
285,120,191499,2,0,P|259:94|242:62,1,71.9999978027344,8|0,0:0|0:1,0:0:0:0:
430,162,191687,2,0,P|464:152|500:154,1,71.9999978027344,10|0,0:1|0:1,0:1:0:0:
320,267,191874,2,0,P|310:301|291:332,1,71.9999978027344,8|0,0:2|0:0,0:0:0:0:
213,213,192062,6,0,B|166:195|124:227|124:227|67:205,1,143.999995605469,10|8,0:1|0:0,0:0:0:0:
10,167,192343,1,8,0:1:0:0:
7,87,192437,2,0,L|41:11,1,71.9999978027344,8|0,0:1|0:0,0:0:0:0:
131,0,192624,2,0,L|102:65,1,71.9999978027344,8|0,0:2|0:0,0:0:0:0:
144,164,192812,2,0,L|174:99,1,71.9999978027344,10|8,0:1|0:1,0:0:0:0:
252,71,192999,1,8,0:0:0:0:
252,71,193093,1,8,0:1:0:0:
252,71,193187,2,0,P|315:87|383:48,1,143.999995605469,10|8,0:1|0:2,0:0:0:0:
512,240,193562,6,0,B|465:222|423:254|423:254|376:236,1,143.999995605469,10|8,0:1|0:0,0:0:0:0:
299,219,193843,1,8,0:1:0:0:
251,282,193937,2,0,P|243:308|255:359,1,71.9999978027344,10|0,0:1|0:0,0:0:0:0:
330,366,194124,2,0,P|338:340|326:289,1,71.9999978027344,10|0,0:2|0:0,0:0:0:0:
164,311,194312,1,10,0:1:0:0:
164,311,194405,1,8,0:1:0:0:
164,311,194499,2,0,P|159:337|177:386,1,71.9999978027344,8|8,0:2|0:1,0:0:0:0:
299,219,194687,5,8,0:0:0:0:
324,144,194780,1,8,0:0:0:0:
304,67,194874,1,8,0:3:0:0:
245,13,194968,1,8,0:3:0:0:
167,0,195062,1,14,0:1:0:0:
31,93,195249,6,0,L|46:235,1,120,10|8,0:2|0:1,0:0:0:0:
43,212,195530,1,10,0:1:0:0:
43,212,195624,1,8,0:1:0:0:
189,109,195812,6,0,B|206:129|232:135|232:135|298:118,1,120,10|8,0:1|0:1,0:0:0:0:
332,142,196093,1,10,0:1:0:0:
345,101,196187,1,8,0:0:0:0:
378,76,196280,1,8,0:0:0:0:
420,75,196374,1,10,0:1:0:0:
458,92,196468,1,8,0:1:0:0:
475,130,196562,1,10,0:1:0:0:
389,237,196749,6,0,B|348:230|348:230|317:243|317:243|271:236,1,120,10|8,0:1|0:1,0:0:0:0:
272,236,197030,1,10,0:1:0:0:
272,236,197124,1,8,0:1:0:0:
173,384,197312,6,0,L|158:242,1,120,10|8,0:1|0:1,0:0:0:0:
127,300,197593,1,10,0:1:0:0:
79,309,197687,1,8,0:1:0:0:
34,292,197780,1,8,0:0:0:0:
13,248,197874,1,10,0:0:0:0:
25,201,197968,1,8,0:0:0:0:
109,178,198062,6,0,P|173:179|230:144,1,132.00000402832,14|8,0:1|0:3,0:0:0:0:
238,134,198343,1,8,0:3:0:0:
246,123,198437,1,4,0:3:0:0:
252,111,198530,1,4,0:3:0:0:
257,98,198624,1,8,0:3:0:0:
393,21,198812,6,0,P|458:20|491:88,1,132.00000402832,10|8,0:3|0:3,0:0:0:0:
501,117,199093,1,8,0:1:0:0:
461,140,199187,1,8,0:1:0:0:
452,185,199280,1,8,0:0:0:0:
477,223,199374,1,8,0:0:0:0:
484,268,199468,1,8,0:0:0:0:
460,308,199562,1,8,0:1:0:0:
325,369,199749,6,2,B|260:355|260:355|222:373|222:373|141:357,1,174.000005310059,14|8,0:0|0:1,0:1:0:0:
75,256,200030,6,2,B|140:242|140:242|178:260|178:260|259:244,1,174.000005310059,14|8,0:0|0:1,0:1:0:0:
353,157,200312,6,2,B|288:143|288:143|250:161|250:161|169:145,1,174.000005310059,14|8,0:0|0:1,0:1:0:0:
103,44,200593,6,2,B|168:30|168:30|206:48|206:48|287:32,1,174.000005310059,14|8,0:0|0:1,0:1:0:0:
401,0,200874,5,8,0:0:0:0:
410,16,200968,1,8,0:0:0:0:
419,32,201062,2,0,B|440:54|444:81|444:81|460:102|485:106|485:106|474:133|483:177,1,162.000000617981,14|0,0:1|0:0,0:0:0:0:
417,237,201343,2,0,B|445:291|512:274|512:274|488:234,1,132.00000402832,8|0,0:0|0:0,0:0:0:0:
395,154,201624,2,0,P|361:139|330:138,1,66.0000020141602,8|0,0:0|0:0,0:0:0:0:
229,224,201812,6,0,B|189:234|168:263|168:263|68:239,1,162.000000617981,14|8,0:1|0:0,0:0:0:0:
37,260,202093,1,8,0:0:0:0:
5,223,202187,1,8,0:3:0:0:
0,172,202280,1,8,0:3:0:0:
20,127,202374,1,12,0:3:0:0:
61,101,202468,1,12,0:3:0:0:
133,144,202562,5,14,0:1:0:0:
288,32,203124,5,8,0:0:0:0:
256,40,203218,1,8,0:0:0:0:
224,32,203312,1,8,0:3:0:0:
326,181,203593,5,4,0:3:0:0:
169,298,203874,5,4,0:3:0:0:
308,363,204062,6,0,P|376:354|482:355,1,161.999995056153,12|0,0:1|0:0,0:1:0:0:
220,225,206874,1,12,0:1:0:0:
161,276,207062,2,0,P|93:267|-13:268,1,161.999995056153,12|0,0:1|0:0,0:0:0:0:
321,99,209593,1,8,0:0:0:0:
352,93,209686,1,8,0:0:0:0:
385,90,209780,1,8,0:0:0:0:
417,88,209874,1,8,0:3:0:0:
449,88,209968,1,8,0:3:0:0:
482,89,210062,6,0,P|507:139|506:239,2,144,6|0|0,1:1|1:2|1:1,0:2:0:0:
414,14,210812,1,10,3:1:0:0:
414,14,210905,1,0,1:2:0:0:
360,107,211094,1,0,1:2:0:0:
360,107,211187,1,10,2:1:0:0:
289,28,211374,1,0,1:2:0:0:
193,83,211562,6,0,P|146:73|98:68,1,96,2|0,1:2|0:2,0:2:0:0:
57,94,211844,1,0,1:2:0:0:
57,94,211937,2,0,P|44:144|40:199,1,96,8|0,0:1|1:2,0:2:0:0:
52,297,212312,1,10,3:1:0:0:
52,297,212405,1,0,1:1:0:0:
156,279,212593,1,0,1:2:0:0:
156,279,212687,1,10,2:1:0:0:
143,170,212874,1,0,1:1:0:0:
256,242,213062,6,0,P|313:246|406:267,2,144,2|0|0,1:2|1:2|1:1,0:2:0:0:
161,283,213812,1,10,3:1:0:0:
161,283,213905,1,0,1:1:0:0:
215,373,214093,1,0,1:2:0:0:
215,373,214187,1,10,0:1:0:0:
310,332,214374,1,0,1:1:0:0:
253,218,214562,6,0,L|248:170,5,32,2|0|0|0|0|0,1:2|0:2|0:2|1:2|0:2|0:2,0:2:0:0:
218,185,214937,2,0,L|213:137,6,32,0|0|0|0|0|0|0,1:2|0:0|0:0|0:0|0:0|0:0|1:0,0:0:0:0:
214,153,215593,6,2,B|153:173|153:173|93:127,1,132.00000402832,12|0,3:1|0:2,0:1:0:0:
55,68,215874,5,8,1:2:0:0:
63,48,215968,1,8,1:2:0:0:
72,25,216062,1,14,0:1:0:0:
241,6,216249,1,10,0:0:0:0:
241,6,216343,1,2,0:1:0:0:
260,175,216530,1,8,0:0:0:0:
91,194,216718,1,2,0:1:0:0:
91,194,216812,1,8,0:0:0:0:
210,324,216999,5,2,0:0:0:0:
245,317,217093,1,8,0:0:0:0:
279,325,217187,2,0,B|297:339|329:342|329:342|341:300|373:277,1,120,8|10,0:1|0:0,0:0:0:0:
512,184,217562,5,10,0:1:0:0:
484,195,217655,1,0,0:0:0:0:
454,197,217749,1,8,0:0:0:0:
424,190,217843,1,0,0:0:0:0:
345,205,217937,5,10,0:1:0:0:
334,164,218030,1,8,0:0:0:0:
299,139,218124,1,0,0:0:0:0:
256,136,218218,1,2,0:0:0:0:
202,78,218312,6,0,P|115:101|61:55,1,120,8|0,0:0|0:0,0:0:0:0:
21,50,218593,1,10,0:0:0:0:
21,50,218687,1,8,0:1:0:0:
111,191,218874,1,8,0:0:0:0:
138,25,219062,1,10,0:1:0:0:
295,120,219249,5,8,0:0:0:0:
331,141,219343,1,2,0:0:0:0:
372,146,219437,1,8,0:1:0:0:
413,139,219530,1,8,0:0:0:0:
446,113,219624,1,8,0:1:0:0:
465,75,219718,1,0,0:0:0:0:
463,36,219812,5,10,0:2:0:0:
463,36,219905,1,2,0:0:0:0:
512,175,220093,1,10,0:0:0:0:
512,175,220187,1,8,0:1:0:0:
468,311,220374,1,8,0:0:0:0:
308,378,220562,5,10,0:1:0:0:
294,227,220749,1,10,0:0:0:0:
294,227,220843,1,2,0:0:0:0:
225,309,221030,1,10,0:0:0:0:
376,295,221218,1,2,0:0:0:0:
376,295,221312,1,8,0:2:0:0:
278,137,221499,1,2,0:0:0:0:
278,137,221593,1,8,0:0:0:0:
278,137,221687,1,8,0:1:0:0:
145,265,221874,5,8,0:0:0:0:
75,283,221968,1,8,0:0:0:0:
10,249,222062,2,2,P|0:184|28:122,1,132.00000402832,14|8,0:1|0:2,0:1:0:0:
41,112,222343,1,10,0:1:0:0:
59,105,222437,1,8,0:1:0:0:
77,99,222530,1,8,0:0:0:0:
96,96,222624,1,10,0:1:0:0:
197,5,222812,5,10,0:0:0:0:
234,37,222905,1,2,0:0:0:0:
280,54,222999,1,2,0:0:0:0:
329,52,223093,1,10,0:0:0:0:
374,33,223187,1,10,0:1:0:0:
379,160,223374,5,10,0:0:0:0:
445,130,223468,1,2,0:0:0:0:
507,167,223562,2,0,P|524:230|498:311,1,132.00000402832,10|8,0:1|0:0,0:0:0:0:
499,311,223843,1,10,0:1:0:0:
485,325,223937,1,8,0:1:0:0:
468,335,224030,1,8,0:0:0:0:
449,341,224124,1,10,0:1:0:0:
352,242,224312,6,0,B|339:196|339:196|342:176|342:176|324:112,1,132.00000402832,10|0,0:2|0:0,0:1:0:0:
270,65,224593,1,10,0:0:0:0:
270,65,224687,1,10,0:1:0:0:
175,136,224874,1,10,0:2:0:0:
56,44,225062,5,14,0:1:0:0:
56,44,225155,1,2,0:0:0:0:
2,193,225343,1,2,0:0:0:0:
76,337,225530,1,8,0:0:0:0:
76,337,225624,2,2,P|158:314|232:318,1,143.999995605469,2|8,0:0|0:0,0:1:0:0:
426,382,225999,5,2,0:0:0:0:
383,323,226093,1,10,0:0:0:0:
415,257,226187,2,0,B|447:226|447:226|423:120,1,143.999995605469,10|10,0:1|0:0,0:0:0:0:
205,34,226562,6,2,B|190:67|197:101|197:101|212:123|212:123|222:154|205:205,1,155.999992858887,14|8,0:1|0:0,0:1:0:0:
200,228,226843,1,8,0:1:0:0:
184,272,226936,1,8,0:1:0:0:
150,303,227030,1,10,0:0:0:0:
106,317,227124,1,10,0:3:0:0:
60,308,227218,1,8,0:3:0:0:
8,237,227312,6,2,B|25:199|25:199|-6:145|39:77,1,167.999994873047,14|8,0:1|0:0,0:1:0:0:
162,41,227593,2,2,B|172:78|214:98|214:98|258:79|320:87,1,167.999994873047,14|8,0:1|1:2,0:1:0:0:
393,153,227874,5,8,1:2:0:0:
425,85,227968,1,8,1:2:0:0:
388,19,228062,1,14,0:1:0:0:
388,19,229562,5,10,2:1:0:0:
355,202,231062,5,10,2:1:0:0:
259,48,232562,5,10,2:1:0:0:
195,291,234062,5,12,0:1:0:0:
111,335,234249,5,0,1:0:0:0:
45,369,234530,1,0,1:0:0:0:
5,306,234812,1,0,1:0:0:0:
71,272,235093,1,0,1:0:0:0:
111,335,235374,1,8,1:1:0:0:
162,232,235562,5,10,2:1:0:0:
83,154,235749,5,0,1:0:0:0:
5,131,236030,1,0,1:0:0:0:
2,50,236312,1,0,1:0:0:0:
79,22,236593,1,0,1:0:0:0:
132,84,236874,1,8,1:1:0:0:
244,30,237062,5,14,0:1:0:0:
322,134,237249,5,0,1:0:0:0:
238,178,237530,1,0,1:0:0:0:
373,231,237812,1,4,1:2:0:0:
289,275,238093,1,0,1:0:0:0:
322,134,238374,1,8,1:1:0:0:
256,32,238562,5,12,0:1:0:0:
151,160,238749,5,0,1:0:0:0:
118,178,238842,1,0,1:0:0:0:
81,179,238936,1,0,1:0:0:0:
48,162,239030,1,0,1:0:0:0:
27,131,239124,1,0,1:0:0:0:
23,95,239217,1,0,1:0:0:0:
68,35,239312,5,10,0:3:0:0:
187,267,239593,5,10,0:3:0:0:
256,0,239874,5,10,0:3:0:0:
512,119,240437,6,2,B|480:149|436:136|436:136|416:99|379:92,1,155.999992858887,14|8,0:1|0:0,0:1:0:0:
295,75,240718,1,8,0:0:0:0:
325,155,240812,1,12,0:0:0:0:
190,347,241093,5,8,0:3:0:0:
105,37,241374,5,4,0:3:0:0:
12,110,241562,6,0,P|-6:179|9:261,1,150,14|8,0:1|0:0,0:0:0:0:
44,325,241843,1,8,0:1:0:0:
116,355,241937,2,0,L|210:346,1,75,8|0,0:1|0:0,0:0:0:0:
256,307,242124,2,0,P|267:343|263:380,1,75,8|8,2:2|0:1,0:0:0:0:
213,241,242312,2,0,P|177:233|148:211,1,75,10|8,0:1|0:1,0:0:0:0:
292,236,242499,2,0,P|317:209|352:195,1,75,10|0,0:2|0:1,0:0:0:0:
209,87,242687,2,0,P|220:122|215:159,1,75,8|0,0:1|0:0,0:0:0:0:
380,89,242874,2,0,P|343:81|314:58,1,75,8|0,0:2|0:0,0:0:0:0:
254,5,243062,6,0,B|231:50|176:51|176:51|155:31|122:25,1,150,10|8,0:1|0:0,0:0:0:0:
49,36,243343,1,8,0:1:0:0:
2,99,243437,2,0,L|13:182,1,75,10|0,0:1|0:1,0:0:0:0:
108,214,243624,2,0,L|117:139,1,75,8|0,0:2|0:1,0:0:0:0:
209,87,243812,2,0,L|218:161,1,75,10|8,0:1|0:1,0:0:0:0:
292,221,243999,1,8,0:0:0:0:
292,221,244093,1,8,0:1:0:0:
292,221,244187,2,0,B|335:246|382:217|382:217|389:188|413:165,1,150,10|8,0:1|0:2,0:0:0:0:
512,384,244562,6,0,P|464:335|367:347,1,150,10|8,0:1|0:0,0:0:0:0:
319,376,244843,1,8,0:1:0:0:
244,350,244937,2,0,P|232:320|237:271,1,75,10|0,0:1|0:0,0:0:0:0:
377,263,245124,2,0,P|389:293|384:342,1,75,8|0,0:2|0:0,0:0:0:0:
154,291,245312,1,10,0:1:0:0:
154,291,245405,1,8,0:1:0:0:
154,291,245499,2,0,P|154:253|171:220,1,75,8|0,0:2|0:0,0:0:0:0:
301,124,245687,5,8,0:0:0:0:
359,177,245780,1,8,0:0:0:0:
439,178,245874,1,8,0:3:0:0:
500,127,245968,1,8,0:3:0:0:
512,47,246062,1,14,0:1:0:0:
370,9,246249,6,0,P|322:23|246:8,1,120,10|8,0:2|0:1,0:0:0:0:
253,11,246530,1,10,0:1:0:0:
253,11,246624,1,8,0:1:0:0:
117,57,246812,6,0,B|89:87|89:87|111:191,1,120,10|8,0:1|0:1,0:0:0:0:
115,204,247093,1,10,0:1:0:0:
142,176,247186,1,8,0:0:0:0:
175,155,247280,1,8,0:0:0:0:
213,143,247374,1,10,0:1:0:0:
252,140,247468,1,8,0:1:0:0:
291,145,247561,1,10,0:1:0:0:
377,257,247749,6,0,B|370:298|370:298|383:329|383:329|376:375,1,120,10|8,0:1|0:1,0:0:0:0:
376,373,248030,1,10,0:1:0:0:
376,373,248124,1,8,0:1:0:0:
241,338,248312,6,0,B|177:312|182:353|119:337,1,120,10|8,0:1|0:1,0:0:0:0:
90,372,248593,1,10,0:1:0:0:
97,324,248687,1,8,0:1:0:0:
79,279,248780,1,8,0:0:0:0:
53,238,248874,1,10,0:0:0:0:
57,190,248968,1,8,0:0:0:0:
132,143,249062,6,0,B|201:162|201:162|253:109,1,143.999995605469,14|8,0:1|0:3,0:0:0:0:
261,100,249343,1,8,0:3:0:0:
270,90,249437,1,4,0:3:0:0:
280,82,249530,1,4,0:3:0:0:
290,73,249624,1,8,0:3:0:0:
427,9,249812,6,0,B|467:14|467:14|488:57|459:104,1,132.00000402832,10|8,0:3|0:3,0:0:0:0:
476,144,250093,1,8,0:1:0:0:
434,124,250187,1,8,0:1:0:0:
389,136,250280,1,8,0:0:0:0:
363,174,250374,1,8,0:0:0:0:
365,220,250468,1,8,0:0:0:0:
393,256,250562,1,8,0:1:0:0:
290,364,250749,6,2,B|225:349|225:349|187:368|187:368|107:349,1,180.000006866455,14|8,0:0|0:1,0:1:0:0:
84,226,251030,6,2,B|99:160|99:160|80:123|80:123|99:43,1,180.000006866455,14|8,0:0|0:1,0:1:0:0:
222,20,251312,6,2,B|287:35|287:35|325:16|325:16|405:35,1,180.000006866455,14|8,0:0|0:1,0:1:0:0:
428,158,251593,6,2,B|413:223|413:223|432:261|432:261|415:329,1,180.000006866455,14|8,0:0|0:1,0:1:0:0:
294,384,251874,5,8,0:0:0:0:
282,359,251968,1,8,0:0:0:0:
270,334,252062,2,0,B|237:294|255:233|255:233|213:164,1,167.999994873047,14|0,0:1|0:0,0:0:0:0:
150,268,252343,2,0,B|138:290|105:300|105:300|19:259,1,132.00000402832,8|0,0:0|0:0,0:0:0:0:
0,162,252624,2,0,L|55:94,1,66.0000020141602,8|0,0:0|0:0,0:0:0:0:
153,48,252812,6,0,B|174:82|210:90|210:90|314:63,1,167.999994873047,14|0,0:1|0:0,0:0:0:0:
342,31,253093,1,8,0:0:0:0:
333,83,253186,1,8,0:3:0:0:
359,130,253280,1,8,0:3:0:0:
409,149,253374,1,12,0:3:0:0:
459,133,253468,1,12,0:3:0:0:
486,61,253562,5,14,0:1:0:0:
443,249,255062,6,0,L|449:390,2,116.999994644165,12|0|0,0:1|0:0|0:0,0:0:0:0:
387,154,255812,2,0,L|381:13,2,116.999994644165,0|0|0,0:1|0:0|0:0,0:0:0:0:
336,251,256562,2,0,L|342:392,2,116.999994644165,2|0|0,0:0|0:0|0:0,0:0:0:0:
271,154,257312,2,0,P|225:133|142:146,1,116.999994644165,2|0,0:0|0:0,0:0:0:0:
12,197,257874,5,8,2:1:0:0:
12,197,258062,2,0,L|6:56,2,116.999994644165,2|0|0,0:0|0:0|0:0,0:0:0:0:
103,256,258812,2,0,L|97:397,2,116.999994644165
180,171,259562,5,2,0:0:0:0:
245,225,259843,1,0,0:0:0:0:
259,140,260124,1,0,0:0:0:0:
193,86,260312,5,2,0:0:0:0:
166,255,260593,1,10,0:1:0:0:
324,194,260874,1,8,1:2:0:0:
334,177,260968,1,8,1:2:0:0:
346,161,261062,6,0,B|399:144|399:144|449:160,1,107.999996704102,14|8,0:1|0:2,0:2:0:0:
512,199,261343,1,10,0:1:0:0:
507,236,261437,1,8,0:1:0:0:
502,273,261530,1,8,0:2:0:0:
489,308,261624,2,0,P|476:316|433:320,1,53.9999983520508,10|0,0:1|0:2,0:2:0:0:
354,366,261812,6,0,P|310:347|249:346,1,107.999996704102,10|0,0:2|0:2,0:2:0:0:
181,379,262093,1,10,0:2:0:0:
181,379,262187,2,0,P|174:336|181:313,1,53.9999983520508,8|0,0:1|0:2,0:2:0:0:
232,270,262374,2,0,P|234:243|226:217,1,53.9999983520508,10|0,0:2|0:2,0:2:0:0:
129,181,262562,6,0,B|96:196|96:196|57:195|36:153,1,107.999996704102,10|8,0:1|0:2,0:2:0:0:
0,93,262843,1,10,0:1:0:0:
2,55,262937,1,8,0:1:0:0:
28,28,263030,1,8,0:2:0:0:
64,19,263124,2,0,L|137:13,1,53.9999983520508,10|0,0:1|0:2,0:2:0:0:
220,49,263312,6,0,B|253:56|286:27|286:27|325:28,1,107.999996704102,10|0,0:2|0:2,0:2:0:0:
393,70,263593,1,10,0:2:0:0:
393,70,263687,2,0,P|401:44|400:17,1,53.9999983520508,8|0,0:1|0:2,0:2:0:0:
319,105,263874,2,0,P|310:130|311:157,1,53.9999983520508,10|0,0:2|0:2,0:2:0:0:
424,236,264062,6,0,B|439:276|423:310|423:310|394:323,1,107.999996704102,14|8,0:1|0:2,0:2:0:0:
320,311,264343,1,10,0:1:0:0:
310,274,264437,1,8,0:1:0:0:
301,237,264530,1,8,0:2:0:0:
291,200,264624,2,0,L|271:120,1,53.9999983520508,10|0,0:1|0:2,0:2:0:0:
181,93,264812,6,0,B|125:73|136:110|75:98,1,107.999996704102,10|0,0:2|0:2,0:2:0:0:
0,111,265093,1,10,0:2:0:0:
0,111,265187,2,0,P|0:84|17:44,1,53.9999983520508,8|0,0:1|0:2,0:2:0:0:
53,171,265374,2,0,P|28:183|-14:186,1,53.9999983520508,10|0,0:2|0:2,0:2:0:0:
100,70,265562,6,0,B|151:63|151:63|169:71|169:71|228:64,1,120,14|8,0:1|0:2,0:2:0:0:
293,77,265843,1,10,0:1:0:0:
300,39,265937,1,8,0:1:0:0:
328,14,266030,1,8,0:2:0:0:
364,4,266124,2,0,P|397:16|439:47,1,53.9999983520508,10|0,0:1|0:2,0:2:0:0:
476,111,266312,6,0,B|484:170|433:190|433:190|420:178|398:170,1,132.00000402832,14|8,0:2|0:2,0:2:0:0:
360,252,266593,2,0,B|306:268|306:268|254:229,1,113.999996955872,14|8,0:1|1:2,0:2:0:0:
195,179,266874,1,10,1:2:0:0:
229,109,266968,1,8,1:2:0:0:
178,50,267062,6,0,B|157:31|137:25|137:25|42:55,1,113.999996955872,14|8,0:1|0:2,0:2:0:0:
16,99,267343,1,10,0:1:0:0:
21,138,267437,1,8,0:1:0:0:
27,176,267530,1,8,0:2:0:0:
27,216,267624,2,0,B|12:278,1,56.9999984779358,10|0,0:1|0:2,0:2:0:0:
77,364,267812,6,0,B|141:362|124:333|193:328,1,113.999996955872,10|0,0:2|0:2,0:2:0:0:
262,341,268093,1,10,0:2:0:0:
262,341,268187,2,0,P|261:312|250:286,1,56.9999984779358,8|0,0:1|0:2,0:2:0:0:
180,251,268374,2,0,P|180:222|191:196,1,56.9999984779358,10|0,0:2|0:2,0:2:0:0:
265,110,268562,6,0,B|303:101|337:125|337:125|354:113|385:105,1,113.999996955872,10|8,0:1|0:2,0:2:0:0:
450,97,268843,1,10,0:1:0:0:
487,111,268937,1,8,0:1:0:0:
508,143,269030,1,8,0:2:0:0:
510,182,269124,2,0,P|504:208|491:244,1,56.9999984779358,10|0,0:1|0:2,0:2:0:0:
403,291,269312,6,0,B|344:267|348:299|290:283,1,113.999996955872,10|0,0:2|0:2,0:2:0:0:
226,331,269593,1,10,0:2:0:0:
226,331,269687,2,0,P|215:304|213:276,1,56.9999984779358,8|0,0:1|0:2,0:2:0:0:
316,206,269874,2,0,P|314:177|303:151,1,56.9999984779358,10|0,0:2|0:2,0:2:0:0:
218,57,270062,6,0,B|199:80|169:75|169:75|148:54|105:46,1,113.999996955872,10|8,0:1|0:2,0:2:0:0:
42,68,270343,1,10,0:1:0:0:
15,97,270437,1,8,0:1:0:0:
6,135,270530,1,8,0:2:0:0:
7,174,270624,2,0,P|11:203|34:243,1,56.9999984779358,10|0,0:1|0:2,0:2:0:0:
102,300,270812,6,0,B|141:285|141:285|158:261|158:261|199:247,1,113.999996955872,10|0,0:2|0:2,0:2:0:0:
276,263,271093,1,10,0:2:0:0:
276,263,271187,2,0,P|275:233|265:206,1,56.9999984779358,8|0,0:1|0:2,0:2:0:0:
184,173,271374,2,0,L|115:192,1,56.9999984779358,10|0,0:2|0:2,0:2:0:0:
249,77,271562,6,0,B|288:62|288:62|305:38|305:38|346:24,1,113.999996955872,10|8,0:1|0:2,0:2:0:0:
423,45,271843,1,10,0:1:0:0:
462,52,271937,1,8,0:1:0:0:
489,79,272030,1,8,0:2:0:0:
503,116,272124,2,0,P|502:146|488:191,1,56.9999984779358,10|0,0:1|0:2,0:2:0:0:
409,243,272312,6,0,B|353:216|352:253|297:232,1,113.999996955872,10|0,0:2|0:2,0:2:0:0:
235,186,272593,1,10,0:2:0:0:
235,186,272687,2,0,L|229:129,1,56.9999984779358,8|0,0:1|0:2,0:2:0:0:
186,40,272874,1,8,1:2:0:0:
112,29,272968,1,8,1:2:0:0:
47,65,273062,6,0,P|18:120|32:191,1,113.999996955872,14|8,0:1|0:2,0:2:0:0:
62,240,273343,1,10,0:1:0:0:
98,223,273437,1,8,0:1:0:0:
137,224,273530,1,8,0:2:0:0:
169,246,273624,2,0,L|181:321,1,56.9999984779358,10|0,0:1|0:2,0:2:0:0:
263,364,273812,6,0,B|316:356|301:322|360:309,1,113.999996955872,10|0,0:2|0:2,0:2:0:0:
426,349,274093,1,10,0:2:0:0:
426,349,274187,2,0,P|402:372|364:380,1,56.9999984779358,8|0,0:1|0:2,0:2:0:0:
364,232,274374,2,0,P|395:241|423:266,1,56.9999984779358,10|0,0:2|0:2,0:2:0:0:
245,290,274562,6,0,B|205:286|174:302|174:302|155:281|117:264,1,113.999996955872,10|8,0:1|0:2,0:2:0:0:
68,247,274843,1,10,0:1:0:0:
37,220,274937,1,8,0:1:0:0:
27,181,275030,1,8,0:2:0:0:
27,141,275124,2,0,P|33:106|49:77,1,56.9999984779358,10|0,0:1|0:2,0:2:0:0:
145,31,275312,6,0,B|194:22|194:22|216:47|265:50,1,113.999996955872,10|0,0:2|0:2,0:2:0:0:
328,53,275593,1,10,0:2:0:0:
328,53,275687,2,0,P|325:24|310:0,1,56.9999984779358,8|0,0:1|0:2,0:2:0:0:
281,121,275874,2,0,P|306:132|334:132,1,56.9999984779358,10|0,0:2|0:2,0:2:0:0:
208,49,276062,6,0,P|172:123|197:180,1,113.999996955872,14|8,0:1|0:2,0:2:0:0:
223,215,276343,1,10,0:1:0:0:
259,199,276437,1,8,0:1:0:0:
298,203,276530,1,8,0:2:0:0:
330,226,276624,2,0,P|340:256|344:316,1,56.9999984779358,10|0,0:1|0:2,0:2:0:0:
277,362,276812,6,0,B|235:354|235:354|213:365|213:365|146:355,1,113.999996955872,10|0,0:2|0:2,0:2:0:0:
100,320,277093,1,10,0:2:0:0:
100,320,277187,2,0,P|90:351|92:382,1,56.9999984779358,8|0,0:1|0:2,0:2:0:0:
192,285,277374,2,0,P|191:256|182:229,1,56.9999984779358,10|0,0:2|0:2,0:2:0:0:
97,152,277562,6,0,B|68:136|68:136|52:87|84:48,1,125.999996154785,14|8,0:1|0:2,0:2:0:0:
155,10,277843,1,10,0:1:0:0:
178,42,277937,1,8,0:1:0:0:
216,52,278030,1,8,0:2:0:0:
255,45,278124,2,0,P|283:34|310:29,1,56.9999984779358,10|0,0:1|0:2,0:2:0:0:
414,80,278312,6,0,B|423:119|398:162|398:162|409:190|444:196,1,138.000002632141,14|8,0:2|0:2,0:2:0:0:
491,287,278593,2,0,P|414:241|331:253,1,138.000002632141,14|8,0:1|0:2,0:0:0:0:
301,207,278874,5,10,1:2:0:0:
301,207,278968,2,0,B|318:248|318:248|302:294,1,90.0000034332277,8|8,0:0|0:0,0:0:0:0:
251,345,279249,6,0,B|203:335,1,38.9999982147218,10|8,0:1|0:0,0:0:0:0:
151,384,279437,1,10,0:1:0:0:
151,384,279530,1,10,0:2:0:0:
124,128,279718,1,14,0:1:0:0:
361,384,279999,5,12,0:1:0:0:
388,128,280187,1,10,0:1:0:0:
388,128,280280,1,10,0:2:0:0:
436,274,280468,1,10,0:1:0:0:
216,77,280749,5,10,0:1:0:0:
144,302,280937,1,10,0:2:0:0:
144,302,281030,1,10,0:2:0:0:
64,185,281218,1,14,0:2:0:0:
350,30,281499,5,14,0:1:0:0:
256,192,281593,12,0,282812,0:0:0:0:
165,299,282999,5,8,0:1:0:0:
165,299,283093,1,8,0:1:0:0:
165,299,283187,2,0,L|177:231,3,38.9999982147218,10|2|2|2,0:0|0:0|0:0|0:0,0:0:0:0:
244,204,283562,6,0,B|315:190|349:238|349:238|382:244|411:213,1,180.000006866455,14|0,0:1|0:0,0:2:0:0:
490,115,283843,5,14,0:1:0:0:
256,192,283937,12,8,285405,0:0:0:0:
