osu file format v14

[General]
AudioFilename: audio.mp3
AudioLeadIn: 0
PreviewTime: 112351
Countdown: 0
SampleSet: Soft
StackLeniency: 0.7
Mode: 0
LetterboxInBreaks: 0
WidescreenStoryboard: 1

[Editor]
Bookmarks: 13562,28374,34562,40562,46562,52562,58562,64562,69062,75062,84062,87062,99062,112562,126062,138062,139562,151562,163562,177062,190562,202562,216062,228062,240437,241562,253562,261062,273062,279062,283562,285405
DistanceSpacing: 0.95
BeatDivisor: 4
GridSize: 32
TimelineZoom: 2.8

[Metadata]
Title:Tamayura - Open the "AKABEi JAZZ CONCERT"
TitleUnicode:魂響 - Open the “AKABEi JAZZ CONCERT”
Artist:Katakiri Rekka
ArtistUnicode:片霧烈火
Creator:Lasse
Version:Affection
Source:魂響〜たまゆら〜
Tags:Mirash Kyouhei Kyohei Nishizaka 西坂恭平 AKABEiSOFT2 10th Anniversary Arrange jazz rock Noriyasu Agematsu 上松範康 Elements Garden eroge visual novel full version opening japanese
BeatmapID:2946497
BeatmapSetID:1431401

[Difficulty]
HPDrainRate:5
CircleSize:4
OverallDifficulty:9
ApproachRate:9.5
SliderMultiplier:3.4
SliderTickRate:1

[Events]
//Background and Video events
0,0,"a2.jpg",0,0
//Break Periods
//Storyboard Layer 0 (Background)
//Storyboard Layer 1 (Fail)
//Storyboard Layer 2 (Pass)
//Storyboard Layer 3 (Foreground)
//Storyboard Layer 4 (Overlay)
//Storyboard Sound Samples

[TimingPoints]
13562,375,4,2,34,70,1,0
28374,-200,4,3,34,48,0,0
28562,-166.666666666667,4,3,34,50,0,0
34562,-142.857142857143,4,3,34,53,0,0
40093,-90.9090909090909,4,2,35,65,0,0
40280,-90.9090909090909,4,2,34,65,0,0
40374,-111.111111111111,4,2,34,55,0,0
40562,-111.111111111111,4,2,34,60,0,0
49562,-111.111111111111,4,2,35,60,0,0
49749,-111.111111111111,4,2,34,60,0,0
51062,-99.9999999999999,4,2,34,60,0,0
51249,-111.111111111111,4,2,34,60,0,0
51812,-90.9090909090909,4,2,34,60,0,0
51999,-105.263157894737,4,2,34,60,0,0
52093,-105.263157894737,4,2,71,60,0,0
52187,-105.263157894737,4,2,34,60,0,0
61562,-105.263157894737,4,2,35,60,0,0
61749,-105.263157894737,4,2,34,60,0,0
63062,-95.2380952380954,4,2,34,60,0,0
63343,-105.263157894737,4,2,34,60,0,0
63812,-86.9565217391304,4,2,34,62,0,0
64093,-86.9565217391304,4,2,71,62,0,0
64280,-86.9565217391304,4,2,34,56,0,0
64374,-105.263157894737,4,2,34,56,0,0
64468,-133.333333333333,4,2,34,54,0,0
64655,-105.263157894737,4,2,34,46,0,0
64749,-153.846153846154,4,2,34,54,0,0
64843,-153.846153846154,4,2,34,44,0,0
64937,-153.846153846154,4,2,34,54,0,0
65499,-153.846153846154,4,2,71,54,0,0
65593,-153.846153846154,4,2,34,54,0,0
66999,-153.846153846154,4,2,34,50,0,0
67093,-153.846153846154,4,2,34,30,0,0
68312,-153.846153846154,4,2,34,10,0,0
68499,-153.846153846154,4,2,34,5,0,0
68593,-153.846153846154,4,2,34,50,0,0
69062,-200,4,2,34,45,0,0
70562,-200,4,2,35,45,0,0
70843,-200,4,2,34,45,0,0
80687,-156.25,4,2,34,45,0,0
81062,-156.25,4,2,35,45,0,0
81155,-156.25,4,2,34,45,0,0
82562,-156.25,4,2,35,45,0,0
82843,-156.25,4,2,34,45,0,0
83312,-156.25,4,2,34,50,0,0
83499,-156.25,4,2,34,52,0,0
83687,-156.25,4,2,34,55,0,0
84062,-111.111111111111,4,2,34,60,0,0
86593,-111.111111111111,4,2,34,50,0,0
87062,-100,4,2,34,60,0,0
96062,-100,4,2,35,60,0,0
96155,-100,4,2,34,60,0,0
97562,-100,4,2,35,60,0,0
97655,-100,4,2,34,60,0,0
99062,-200,4,2,34,50,0,0
99249,-200,4,2,34,40,0,0
102062,-200,4,2,35,45,0,0
102155,-200,4,2,34,40,0,0
103093,-200,4,2,34,50,0,0
103187,-200,4,2,34,52,0,0
103280,-200,4,2,34,54,0,0
103374,-200,4,2,34,56,0,0
103468,-200,4,2,34,58,0,0
103562,-100,4,2,35,60,0,0
103655,-100,4,2,34,60,0,0
103937,-100,4,2,71,60,0,0
104030,-100,4,2,34,60,0,0
104499,-100,4,2,71,60,0,0
104593,-100,4,2,34,60,0,0
105062,-133.333333333333,4,2,34,55,0,0
108062,-90.9090909090909,4,2,34,56,0,0
108343,-90.9090909090909,4,2,71,56,0,0
108437,-90.9090909090909,4,2,34,56,0,0
109093,-90.9090909090909,4,2,71,56,0,0
109187,-90.9090909090909,4,2,34,56,0,0
109562,-90.9090909090909,4,2,35,56,0,0
109655,-90.9090909090909,4,2,34,56,0,0
109843,-90.9090909090909,4,2,71,56,0,0
109937,-90.9090909090909,4,2,34,56,0,0
110593,-90.9090909090909,4,2,71,56,0,0
110687,-90.9090909090909,4,2,34,56,0,0
111062,-90.9090909090909,4,2,34,60,0,0
111812,-90.9090909090909,4,2,35,58,0,0
112093,-90.9090909090909,4,2,35,55,0,0
112562,-86.9565217391304,4,2,34,70,0,1
122312,-86.9565217391304,4,2,35,70,0,1
122405,-86.9565217391304,4,2,34,70,0,1
124374,-200,4,2,34,60,0,0
124749,-200,4,2,34,5,0,0
124843,-200,4,2,34,50,0,0
124937,-76.9230769230769,4,2,34,70,0,1
125030,-76.9230769230769,4,2,34,70,0,0
125312,-76.9230769230769,4,2,71,70,0,0
125593,-76.9230769230769,4,2,34,65,0,0
126062,-86.9565217391304,4,2,34,70,0,1
130562,-100,4,2,34,70,0,0
130749,-100,4,2,34,65,0,0
133562,-90.9090909090909,4,2,34,68,0,1
133749,-90.9090909090909,4,2,34,68,0,0
135249,-71.4285714285714,4,2,35,70,0,1
135437,-71.4285714285714,4,2,34,70,0,1
135812,-71.4285714285714,4,2,71,70,0,1
135999,-71.4285714285714,4,2,34,70,0,1
136374,-71.4285714285714,4,2,34,70,0,0
136562,-76.9230769230769,4,2,34,70,0,1
136749,-90.9090909090909,4,2,34,70,0,1
137312,-76.9230769230769,4,2,35,70,0,1
137499,-76.9230769230769,4,2,34,70,0,1
138062,-66.6666666666667,4,2,34,70,0,0
139562,-200,4,2,34,44,0,0
145093,-200,4,2,34,50,0,0
145280,-200,4,2,34,52,0,0
145562,-125,4,2,34,54,0,0
148562,-125,4,2,34,56,0,0
151562,-111.111111111111,4,2,34,50,0,0
160562,-111.111111111111,4,2,35,50,0,0
160749,-111.111111111111,4,2,34,50,0,0
162062,-111.111111111111,4,2,35,50,0,0
162249,-111.111111111111,4,2,34,50,0,0
163187,-133.333333333333,4,2,34,50,0,0
163280,-133.333333333333,4,2,34,44,0,0
163374,-133.333333333333,4,2,34,50,0,0
163562,-200,4,2,34,50,0,0
163749,-200,4,2,34,40,0,0
166562,-200,4,2,35,45,0,0
166655,-200,4,2,34,40,0,0
167593,-200,4,2,34,50,0,0
167687,-200,4,2,34,52,0,0
167780,-200,4,2,34,54,0,0
167874,-200,4,2,34,56,0,0
167968,-200,4,2,34,58,0,0
168062,-100,4,2,35,60,0,0
168155,-100,4,2,34,60,0,0
168437,-100,4,2,71,60,0,0
168530,-100,4,2,34,60,0,0
168999,-100,4,2,71,60,0,0
169093,-100,4,2,34,60,0,0
169562,-133.333333333333,4,2,34,55,0,0
172562,-90.9090909090909,4,2,34,56,0,0
172843,-90.9090909090909,4,2,71,56,0,0
172937,-90.9090909090909,4,2,34,56,0,0
173593,-90.9090909090909,4,2,71,56,0,0
173687,-90.9090909090909,4,2,34,56,0,0
174062,-90.9090909090909,4,2,35,56,0,0
174155,-90.9090909090909,4,2,34,56,0,0
174343,-90.9090909090909,4,2,71,56,0,0
174437,-90.9090909090909,4,2,34,56,0,0
175093,-90.9090909090909,4,2,71,56,0,0
175187,-90.9090909090909,4,2,34,56,0,0
175562,-90.9090909090909,4,2,34,60,0,0
176312,-90.9090909090909,4,2,35,58,0,0
176593,-90.9090909090909,4,2,35,55,0,0
177062,-83.3333333333333,4,2,34,70,0,1
186812,-83.3333333333333,4,2,35,70,0,1
186905,-83.3333333333333,4,2,34,70,0,1
188874,-200,4,2,34,60,0,0
189249,-200,4,2,34,5,0,0
189343,-200,4,2,34,50,0,0
189437,-74.0740740740741,4,2,34,70,0,1
189530,-76.9230769230769,4,2,34,70,0,0
189812,-76.9230769230769,4,2,71,70,0,0
190093,-76.9230769230769,4,2,34,65,0,0
190562,-83.3333333333333,4,2,34,70,0,1
195062,-100,4,2,34,70,0,0
195249,-100,4,2,34,65,0,0
198062,-90.9090909090909,4,2,34,68,0,1
198249,-90.9090909090909,4,2,34,68,0,0
199749,-68.9655172413793,4,2,35,70,0,1
199937,-68.9655172413793,4,2,34,70,0,1
200312,-68.9655172413793,4,2,71,70,0,1
200499,-68.9655172413793,4,2,34,70,0,1
200874,-68.9655172413793,4,2,34,70,0,0
201062,-74.0740740740741,4,2,34,70,0,1
201249,-90.9090909090909,4,2,34,70,0,1
201812,-74.0740740740741,4,2,35,70,0,1
201999,-74.0740740740741,4,2,34,70,0,1
202562,-66.6666666666667,4,2,34,70,0,0
203124,-100,4,2,34,54,0,0
204062,-111.111111111111,4,2,34,56,0,0
204343,-111.111111111111,4,2,34,48,0,0
206874,-111.111111111111,4,2,71,54,0,0
207062,-111.111111111111,4,2,35,56,0,0
207343,-111.111111111111,4,2,34,48,0,0
210062,-125,4,3,34,54,0,0
215593,-90.9090909090909,4,2,35,65,0,0
215780,-90.9090909090909,4,2,34,65,0,0
215874,-111.111111111111,4,2,34,55,0,0
216062,-100,4,2,34,60,0,0
222062,-90.9090909090909,4,2,34,62,0,0
225062,-90.9090909090909,4,2,35,62,0,0
225155,-83.3333333333333,4,2,34,62,0,0
225343,-83.3333333333333,4,2,34,62,0,0
226374,-133.333333333333,4,2,34,60,0,0
226562,-76.9230769230769,4,2,35,64,0,0
226749,-76.9230769230769,4,2,34,64,0,0
227312,-71.4285714285714,4,2,34,64,0,0
227405,-71.4285714285714,4,2,34,64,0,0
227593,-71.4285714285714,4,2,71,64,0,0
227687,-71.4285714285714,4,2,34,65,0,0
228062,-200,4,2,34,60,0,0
229562,-200,4,2,34,40,0,0
234062,-133.333333333333,4,2,35,46,0,0
234249,-133.333333333333,4,2,34,46,0,0
237062,-133.333333333333,4,2,35,48,0,0
237249,-133.333333333333,4,2,34,48,0,0
237812,-133.333333333333,4,2,71,48,0,0
237905,-133.333333333333,4,2,34,48,0,0
238562,-133.333333333333,4,2,35,50,0,0
239312,-133.333333333333,4,2,34,52,0,0
239593,-133.333333333333,4,2,34,54,0,0
239874,-133.333333333333,4,2,34,56,0,0
240437,-76.9230769230769,4,2,34,70,0,1
240530,-76.9230769230769,4,2,34,70,0,0
240812,-76.9230769230769,4,2,71,70,0,0
241093,-76.9230769230769,4,2,34,65,0,0
241562,-80,4,2,34,70,0,1
246062,-100,4,2,34,70,0,0
246249,-100,4,2,34,65,0,0
249062,-83.3333333333333,4,2,34,68,0,1
249249,-90.9090909090909,4,2,34,68,0,0
250749,-66.6666666666667,4,2,35,70,0,1
250937,-66.6666666666667,4,2,34,70,0,1
251312,-66.6666666666667,4,2,71,70,0,1
251499,-66.6666666666667,4,2,34,70,0,1
251874,-66.6666666666667,4,2,34,70,0,0
252062,-71.4285714285714,4,2,34,70,0,1
252249,-90.9090909090909,4,2,34,70,0,1
252812,-71.4285714285714,4,2,35,70,0,1
252999,-76.9230769230769,4,2,34,70,0,1
253562,-66.6666666666667,4,2,34,70,0,0
255062,-153.846153846153,4,2,35,50,0,0
255343,-153.846153846153,4,2,34,50,0,0
261062,-111.111111111111,4,2,34,60,0,0
264062,-111.111111111111,4,2,35,60,0,0
264249,-111.111111111111,4,2,34,60,0,0
265562,-99.9999999999999,4,2,34,60,0,0
265749,-111.111111111111,4,2,34,60,0,0
266312,-90.9090909090909,4,2,34,60,0,0
266499,-105.263157894737,4,2,34,60,0,0
266593,-105.263157894737,4,2,71,60,0,0
266687,-105.263157894737,4,2,34,60,0,0
276062,-105.263157894737,4,2,35,60,0,0
276249,-105.263157894737,4,2,34,60,0,0
277562,-95.2380952380954,4,2,34,60,0,0
277843,-105.263157894737,4,2,34,60,0,0
278312,-86.9565217391304,4,2,34,62,0,0
278593,-86.9565217391304,4,2,71,62,0,0
278780,-86.9565217391304,4,2,34,56,0,0
278874,-105.263157894737,4,2,34,56,0,0
278968,-133.333333333333,4,2,34,54,0,0
279155,-105.263157894737,4,2,34,46,0,0
279249,-153.846153846154,4,2,34,54,0,0
279343,-153.846153846154,4,2,34,44,0,0
279437,-153.846153846154,4,2,34,54,0,0
279999,-153.846153846154,4,2,71,54,0,0
280093,-153.846153846154,4,2,34,54,0,0
281499,-153.846153846154,4,2,34,50,0,0
281593,-153.846153846154,4,2,34,30,0,0
282437,-153.846153846154,4,2,34,20,0,0
282905,-153.846153846154,4,2,34,5,0,0
282999,-153.846153846154,4,2,34,50,0,0
283562,-66.6666666666667,4,2,34,60,0,0
283749,-90.9090909090909,4,2,34,46,0,0
283843,-90.9090909090909,4,2,35,60,0,0
285405,-90.9090909090909,4,2,35,50,0,0

[Colours]
Combo1 : 240,140,140
Combo2 : 200,180,220
Combo3 : 240,200,155
Combo4 : 150,185,220

[HitObjects]
106,61,28374,5,0,0:2:0:0:
109,68,28437,1,0,0:2:0:0:
111,75,28499,1,0,0:2:0:0:
114,82,28562,6,0,B|67:98|67:98|5:76,1,101.999996887207,2|0,1:2|0:2,0:2:0:0:
53,171,28843,2,0,P|24:222|38:275,1,101.999996887207,0|0,1:2|0:2,0:2:0:0:
85,317,29124,2,0,L|145:305,1,50.9999984436036,0|0,1:2|0:2,0:2:0:0:
225,376,29312,1,0,1:2:0:0:
225,376,29405,2,0,L|209:306,1,50.9999984436036,0|0,1:2|0:2,0:2:0:0:
282,252,29593,1,0,1:2:0:0:
282,252,29687,2,0,L|294:302,1,50.9999984436036,0|0,1:2|0:2,0:2:0:0:
366,360,29874,2,0,L|416:349,1,50.9999984436036,0|0,1:2|0:2,0:2:0:0:
512,380,30062,6,0,P|515:330|490:287,1,101.999996887207,2|0,1:2|0:2,0:2:0:0:
411,233,30343,2,0,P|411:185|445:131,1,101.999996887207,0|0,1:2|0:2,0:2:0:0:
463,57,30624,2,0,P|488:64|516:67,1,50.9999984436036,0|0,1:2|0:2,0:2:0:0:
393,10,30812,1,0,1:0:0:0:
362,10,30905,1,0,0:0:0:0:
335,25,30999,1,2,1:0:0:0:
314,47,31093,2,0,P|265:61|202:30,1,101.999996887207,2|0,1:2|0:2,0:2:0:0:
140,13,31374,2,0,P|115:18|93:29,1,50.9999984436036,0|0,1:2|0:2,0:2:0:0:
222,132,31562,6,0,L|234:254,1,101.999996887207,2|0,1:2|0:2,0:2:0:0:
319,293,31843,2,0,L|309:191,1,101.999996887207,0|0,1:2|0:2,0:2:0:0:
224,311,32124,2,0,P|199:305|176:291,1,50.9999984436036,0|0,1:2|0:2,0:2:0:0:
113,243,32312,1,0,1:2:0:0:
113,243,32405,2,0,P|88:244|63:257,1,50.9999984436036,0|0,1:2|0:2,0:2:0:0:
138,161,32593,1,0,1:2:0:0:
138,161,32687,2,0,L|124:94,1,50.9999984436036,0|0,1:2|0:2,0:2:0:0:
44,56,32874,2,0,L|33:105,1,50.9999984436036,0|0,1:2|0:2,0:2:0:0:
136,23,33062,6,0,B|185:36|185:36|242:14,1,101.999996887207,2|0,1:2|0:2,0:2:0:0:
299,73,33343,2,0,B|348:86|348:86|405:64,1,101.999996887207,0|0,1:2|0:2,0:2:0:0:
480,71,33624,2,0,P|478:46|465:16,1,50.9999984436036,0|0,1:2|0:2,0:2:0:0:
434,143,33812,1,0,1:2:0:0:
434,143,33905,2,0,P|436:168|449:198,1,50.9999984436036,0|0,1:2|0:2,0:2:0:0:
512,260,34093,1,0,1:2:0:0:
512,260,34187,2,0,B|527:310|527:310|513:371,1,101.999996887207,0|0,1:2|1:2,0:2:0:0:
312,286,34562,6,0,B|244:263|264:303|187:279,1,118.999996368408,6|0,1:1|0:2,0:2:0:0:
121,374,34843,1,0,1:2:0:0:
121,374,34937,2,0,P|124:339|116:302,1,59.4999981842042,8|0,0:1|0:2,0:2:0:0:
0,261,35124,2,0,L|58:252,1,59.4999981842042,0|0,1:2|0:2,0:2:0:0:
138,209,35312,1,10,3:1:0:0:
138,209,35405,2,0,P|144:180|144:151,1,59.4999981842042,0|0,1:2|0:2,0:2:0:0:
82,88,35593,1,0,1:2:0:0:
82,88,35687,2,0,L|17:77,1,59.4999981842042,10|0,0:1|0:2,0:2:0:0:
143,20,35874,2,0,L|205:8,1,59.4999981842042,0|0,1:2|0:2,0:2:0:0:
309,71,36062,6,0,P|353:108|412:98,1,118.999996368408,2|0,1:2|0:2,0:2:0:0:
490,123,36343,1,0,1:2:0:0:
490,123,36437,2,0,P|493:88|480:52,1,59.4999981842042,8|0,0:1|0:2,0:2:0:0:
364,159,36624,2,0,P|362:189|369:218,1,59.4999981842042,0|0,1:1|0:2,0:2:0:0:
470,269,36812,1,10,3:1:0:0:
470,269,36905,2,0,P|473:298|466:327,1,59.4999981842042,0|0,1:1|0:2,0:2:0:0:
365,373,37093,1,0,1:2:0:0:
365,373,37187,2,0,L|300:361,1,59.4999981842042,10|0,0:1|0:2,0:2:0:0:
222,288,37374,2,0,L|163:298,1,59.4999981842042,0|0,1:1|0:2,0:2:0:0:
298,166,37562,6,0,B|308:115|273:103|292:47,1,118.999996368408,2|0,1:2|0:2,0:2:0:0:
370,81,37843,1,0,1:2:0:0:
370,81,37937,2,0,P|405:78|438:57,1,59.4999981842042,8|0,0:1|0:2,0:2:0:0:
280,29,38124,2,0,P|253:16|223:15,1,59.4999981842042,0|0,1:1|0:2,0:2:0:0:
167,99,38312,1,10,3:1:0:0:
167,99,38405,2,0,P|140:111|110:112,1,59.4999981842042,0|0,1:1|0:2,0:2:0:0:
31,58,38593,1,0,1:2:0:0:
31,58,38687,2,0,L|43:-9,1,59.4999981842042,10|0,0:1|0:2,0:2:0:0:
110,112,38874,2,0,L|120:170,1,59.4999981842042,0|0,1:1|0:2,0:2:0:0:
41,243,39062,6,0,L|1:248,2,39.6666654561361,2|0|0,1:2|0:2|0:2,0:2:0:0:
138,264,39249,2,0,L|178:259,2,39.6666654561361,0|0|0,1:2|0:2|0:2,0:2:0:0:
75,320,39437,1,0,1:2:0:0:
71,328,39499,1,0,0:0:0:0:
68,335,39562,1,0,0:0:0:0:
66,344,39624,1,0,0:0:0:0:
66,352,39687,1,0,0:0:0:0:
66,361,39749,1,0,0:0:0:0:
68,369,39812,1,0,1:0:0:0:
462,296,40093,6,2,L|428:76,1,187.000005706787,12|0,3:1|0:2,0:1:0:0:
407,1,40374,5,8,1:2:0:0:
407,1,40468,1,8,1:2:0:0:
334,38,40562,6,0,B|257:11|272:63|181:40,1,152.999995330811,14|8,0:1|0:2,0:2:0:0:
126,114,40843,1,10,0:1:0:0:
94,147,40937,1,8,0:1:0:0:
49,156,41030,1,8,0:2:0:0:
5,140,41124,2,0,P|-6:105|6:52,1,76.4999976654053,10|0,0:1|0:2,0:2:0:0:
133,157,41312,6,0,P|204:168|228:237,1,152.999995330811,10|0,0:2|0:2,0:2:0:0:
88,265,41593,1,10,0:2:0:0:
88,265,41687,2,0,B|51:255|51:255|-12:266,1,76.4999976654053,8|0,0:1|0:2,0:2:0:0:
5,364,41874,2,0,B|42:374|42:374|105:363,1,76.4999976654053,10|0,0:2|0:2,0:2:0:0:
223,316,42062,6,0,B|317:301|285:351|369:343,1,152.999995330811,10|8,0:1|0:2,0:2:0:0:
497,384,42343,1,10,0:1:0:0:
465,350,42437,1,8,0:1:0:0:
464,304,42530,1,8,0:2:0:0:
497,272,42624,2,0,P|501:237|486:186,1,76.4999976654053,10|0,0:1|0:2,0:2:0:0:
403,94,42812,6,0,P|356:155|285:150,1,152.999995330811,10|0,0:2|0:2,0:2:0:0:
328,12,43093,1,10,0:2:0:0:
328,12,43187,2,0,B|314:47|314:47|322:86,1,76.4999976654053,8|0,0:1|0:2,0:2:0:0:
199,195,43374,2,0,B|207:157|207:157|193:122,1,76.4999976654053,10|0,0:2|0:2,0:2:0:0:
27,107,43562,6,0,P|72:49|145:58,1,152.999995330811,10|8,0:1|0:2,0:2:0:0:
80,182,43843,1,10,0:1:0:0:
48,215,43937,1,8,0:1:0:0:
45,260,44030,1,8,0:2:0:0:
66,300,44124,2,0,P|100:312|155:304,1,76.4999976654053,10|0,0:1|0:2,0:2:0:0:
300,232,44312,6,0,L|286:395,1,152.999995330811,10|0,0:2|0:2,0:2:0:0:
398,304,44593,1,10,0:2:0:0:
398,304,44687,2,0,P|431:295|493:302,1,76.4999976654053,8|0,0:1|0:2,0:2:0:0:
398,202,44874,2,0,P|400:165|380:110,1,76.4999976654053,10|0,0:2|0:2,0:2:0:0:
239,32,45062,6,0,B|330:8|313:56|389:28,1,152.999995330811,10|8,0:1|0:2,0:2:0:0:
259,130,45343,1,10,0:1:0:0:
226,162,45437,1,8,0:1:0:0:
181,171,45530,1,8,0:2:0:0:
135,168,45624,2,0,L|49:147,1,76.4999976654053,10|0,0:1|0:2,0:2:0:0:
0,289,45812,6,0,P|33:361|105:356,1,152.999995330811,10|0,0:2|0:2,0:2:0:0:
207,308,46093,1,10,0:2:0:0:
207,308,46187,2,0,B|219:346|219:346|207:386,1,76.4999976654053,8|0,0:1|0:2,0:2:0:0:
342,259,46374,1,8,1:2:0:0:
412,292,46468,1,8,1:2:0:0:
479,253,46562,6,0,P|495:170|465:98,1,152.999995330811,14|8,0:1|0:2,0:2:0:0:
352,163,46843,1,10,0:1:0:0:
308,177,46937,1,8,0:1:0:0:
262,178,47030,1,8,0:2:0:0:
222,154,47124,2,0,P|216:128|224:58,1,76.4999976654053,10|0,0:1|0:2,0:2:0:0:
0,197,47312,6,0,P|22:127|98:125,1,152.999995330811,10|0,0:2|0:2,0:2:0:0:
160,252,47593,1,10,0:2:0:0:
160,252,47687,2,0,B|123:242|123:242|60:253,1,76.4999976654053,8|0,0:1|0:2,0:2:0:0:
155,358,47874,2,0,B|117:364|117:364|80:354,1,76.4999976654053,10|0,0:2|0:2,0:2:0:0:
282,314,48062,6,0,B|366:305|353:342|433:341,1,152.999995330811,10|8,0:1|0:2,0:2:0:0:
512,262,48343,1,10,0:1:0:0:
471,240,48437,1,8,0:1:0:0:
447,201,48530,1,8,0:2:0:0:
455,155,48624,2,0,P|466:120|456:62,1,76.4999976654053,10|0,0:1|0:2,0:2:0:0:
329,43,48812,6,0,B|242:44|283:4|181:12,1,152.999995330811,10|0,0:2|0:2,0:2:0:0:
116,151,49093,1,10,0:2:0:0:
116,151,49187,2,0,P|115:112|100:78,1,76.4999976654053,8|0,0:1|0:2,0:2:0:0:
1,104,49374,2,0,P|2:142|18:177,1,76.4999976654053,10|0,0:2|0:2,0:2:0:0:
205,212,49562,6,0,P|276:173|351:184,1,152.999995330811,14|8,0:1|0:2,0:2:0:0:
244,289,49843,1,10,0:1:0:0:
245,334,49937,1,8,0:1:0:0:
273,369,50030,1,8,0:2:0:0:
316,382,50124,2,0,P|373:374|408:341,1,76.4999976654053,10|0,0:1|0:2,0:2:0:0:
470,246,50312,6,0,P|516:320|505:399,1,152.999995330811,10|0,0:2|0:2,0:2:0:0:
395,281,50593,1,10,0:2:0:0:
395,281,50687,2,0,B|359:269|359:269|300:279,1,76.4999976654053,8|0,0:1|0:2,0:2:0:0:
242,351,50874,2,0,B|206:339|206:339|147:349,1,76.4999976654053,10|0,0:2|0:2,0:2:0:0:
68,215,51062,6,0,P|4:265|14:379,1,170,14|8,0:1|0:2,0:2:0:0:
153,253,51343,1,10,0:1:0:0:
182,217,51437,1,8,0:1:0:0:
179,171,51530,1,8,0:2:0:0:
153,132,51624,2,0,P|107:114|58:109,1,76.4999976654053,10|0,0:1|0:2,0:2:0:0:
418,78,51812,6,0,P|330:82|298:1,1,187.000005706787,14|8,0:2|0:2,0:2:0:0:
491,118,52093,2,0,B|501:78|501:78|493:37,1,80.7499978437424,14|8,0:1|0:1,0:2:0:0:
356,192,52280,1,8,1:2:0:0:
292,242,52374,1,10,1:2:0:0:
210,236,52468,1,8,1:2:0:0:
153,178,52562,6,0,P|143:102|69:86,1,161.499995687485,14|8,0:1|0:2,0:2:0:0:
0,175,52843,1,10,0:1:0:0:
11,222,52937,1,8,0:1:0:0:
22,269,53030,1,8,0:2:0:0:
33,316,53124,2,0,B|74:320|74:320|112:295,1,80.7499978437424,10|0,0:1|0:2,0:2:0:0:
319,383,53312,6,0,B|221:389|266:342|163:352,1,161.499995687485,10|0,0:2|0:2,0:2:0:0:
285,226,53593,1,10,0:2:0:0:
285,226,53687,2,0,P|295:265|289:314,1,80.7499978437424,8|0,0:1|0:2,0:2:0:0:
149,225,53874,2,0,P|145:184|155:146,1,80.7499978437424,10|0,0:2|0:2,0:2:0:0:
265,32,54062,6,0,B|342:57|342:57|415:7,1,161.499995687485,10|8,0:1|0:2,0:2:0:0:
417,145,54343,1,10,0:1:0:0:
465,146,54437,1,8,0:1:0:0:
500,178,54530,1,8,0:2:0:0:
512,224,54624,2,0,P|513:264|495:306,1,80.7499978437424,10|0,0:1|0:2,0:2:0:0:
353,384,54812,6,0,B|329:313|367:303|340:225,1,161.499995687485,10|0,0:2|0:2,0:2:0:0:
190,280,55093,1,10,0:2:0:0:
190,280,55187,2,0,B|228:294|228:294|266:283,1,80.7499978437424,8|0,0:1|0:2,0:2:0:0:
184,142,55374,2,0,B|152:168|152:168|142:206,1,80.7499978437424,10|0,0:2|0:2,0:2:0:0:
365,127,55562,6,0,P|289:133|247:65,1,161.499995687485,10|8,0:1|0:2,0:2:0:0:
112,100,55843,1,10,0:1:0:0:
72,71,55937,1,8,0:1:0:0:
25,81,56030,1,8,0:2:0:0:
0,123,56124,2,0,P|-4:160|24:216,1,80.7499978437424,10|0,0:1|0:2,0:2:0:0:
136,306,56312,6,0,B|231:283|200:322|309:302,1,161.499995687485,10|0,0:2|0:2,0:2:0:0:
401,384,56593,1,10,0:2:0:0:
401,384,56687,2,0,P|404:347|386:298,1,80.7499978437424,8|0,0:1|0:2,0:2:0:0:
225,260,56874,2,0,P|212:298|214:338,1,80.7499978437424,10|0,0:2|0:2,0:2:0:0:
417,211,57062,6,0,B|330:201|367:152|274:145,1,161.499995687485,10|8,0:1|0:2,0:2:0:0:
176,49,57343,1,10,0:1:0:0:
143,85,57437,1,8,0:1:0:0:
97,100,57530,1,8,0:2:0:0:
49,91,57624,2,0,B|31:55|31:55|46:10,1,80.7499978437424,10|0,0:1|0:2,0:2:0:0:
250,130,57812,6,0,P|324:141|361:75,1,161.499995687485,10|0,0:2|0:2,0:2:0:0:
492,152,58093,1,10,0:2:0:0:
492,152,58187,2,0,B|503:111|503:111|486:67,1,80.7499978437424,8|0,0:1|0:2,0:2:0:0:
360,236,58374,1,8,1:2:0:0:
283,257,58468,1,8,1:2:0:0:
213,215,58562,6,0,B|187:128|242:146|213:45,1,161.499995687485,14|8,0:1|0:2,0:2:0:0:
112,166,58843,1,10,0:1:0:0:
72,137,58937,1,8,0:1:0:0:
25,147,59030,1,8,0:2:0:0:
0,190,59124,2,0,P|-2:233|18:282,1,80.7499978437424,10|0,0:1|0:2,0:2:0:0:
175,388,59312,6,0,P|247:339|327:348,1,161.499995687485,10|0,0:2|0:2,0:2:0:0:
211,264,59593,1,10,0:2:0:0:
211,264,59687,2,0,B|199:228|199:228|207:186,1,80.7499978437424,8|0,0:1|0:2,0:2:0:0:
391,223,59874,2,0,B|399:264|399:264|387:300,1,80.7499978437424,10|0,0:2|0:2,0:2:0:0:
310,158,60062,6,0,B|288:81|341:83|323:1,1,161.499995687485,10|8,0:1|0:2,0:2:0:0:
387,124,60343,1,10,0:1:0:0:
426,151,60437,1,8,0:1:0:0:
473,148,60530,1,8,0:2:0:0:
506,113,60624,2,0,P|510:75|485:26,1,80.7499978437424,10|0,0:1|0:2,0:2:0:0:
272,82,60812,6,0,B|181:73|235:28|114:30,1,161.499995687485,10|0,0:2|0:2,0:2:0:0:
0,96,61093,1,10,0:2:0:0:
0,96,61187,2,0,P|5:46|38:7,1,80.7499978437424,8|0,0:1|0:2,0:2:0:0:
150,115,61374,2,0,P|148:154|128:189,1,80.7499978437424,10|0,0:2|0:2,0:2:0:0:
377,158,61562,6,0,P|348:86|271:81,1,161.499995687485,14|8,0:1|0:2,0:2:0:0:
324,236,61843,1,10,0:1:0:0:
278,218,61937,1,8,0:1:0:0:
229,219,62030,1,8,0:2:0:0:
193,251,62124,2,0,B|175:287|175:287|183:340,1,80.7499978437424,10|0,0:1|0:2,0:2:0:0:
406,378,62312,6,0,B|316:361|355:325|257:312,1,161.499995687485,10|0,0:2|0:2,0:2:0:0:
414,216,62593,1,10,0:2:0:0:
414,216,62687,2,0,B|420:256|420:256|402:292,1,80.7499978437424,8|0,0:1|0:2,0:2:0:0:
256,197,62874,2,0,B|249:156|249:156|267:120,1,80.7499978437424,10|0,0:2|0:2,0:2:0:0:
512,18,63062,6,0,B|407:25|461:79|351:86,1,178.499994552612,14|8,0:1|0:2,0:2:0:0:
183,118,63343,1,10,0:1:0:0:
151,81,63437,1,8,0:1:0:0:
103,72,63530,1,8,0:2:0:0:
59,93,63624,2,0,P|35:131|48:186,1,80.7499978437424,10|0,0:1|0:2,0:2:0:0:
159,291,63812,6,0,B|275:291|214:235|349:236,1,195.500003728867,14|8,0:2|0:2,0:2:0:0:
504,384,64093,2,0,P|514:285|485:193,1,195.500003728867,14|8,0:1|0:2,0:0:0:0:
399,120,64374,5,10,1:2:0:0:
399,120,64468,2,0,B|341:145|341:145|271:96,1,127.500004863739,8|8,0:0|0:0,0:0:0:0:
236,54,64749,6,0,L|246:-16,1,55.2499974708558,10|8,0:1|0:0,0:0:0:0:
351,47,64937,1,10,0:1:0:0:
351,47,65030,1,10,0:2:0:0:
100,129,65218,1,14,0:1:0:0:
412,255,65499,1,12,0:1:0:0:
161,337,65687,1,10,0:1:0:0:
161,337,65780,1,10,0:2:0:0:
302,384,65968,1,10,0:1:0:0:
75,119,66249,1,10,0:1:0:0:
401,57,66437,1,10,0:2:0:0:
401,57,66530,1,10,0:2:0:0:
256,0,66718,1,14,0:2:0:0:
144,360,66999,5,14,0:1:0:0:
256,192,67093,12,0,68499,0:2:0:0:
355,30,68593,5,8,0:2:0:0:
334,75,68687,1,8,0:2:0:0:
350,121,68780,1,8,0:3:0:0:
350,121,68874,1,4,0:3:0:0:
508,201,69062,5,14,3:1:0:0:
434,172,69343,1,0,0:2:0:0:
356,216,69624,1,0,0:2:0:0:
280,176,69905,1,0,0:2:0:0:
182,227,70187,1,0,0:2:0:0:
113,187,70374,1,8,3:1:0:0:
385,238,70562,5,14,3:1:0:0:
311,270,70843,1,0,0:2:0:0:
235,240,71124,1,0,0:2:0:0:
145,286,71405,1,0,0:2:0:0:
67,236,71687,1,0,0:2:0:0:
0,276,71874,1,8,3:1:0:0:
223,383,72062,5,10,3:1:0:0:
174,314,72343,1,0,0:2:0:0:
229,241,72624,1,0,0:2:0:0:
160,169,72905,1,0,0:2:0:0:
218,74,73187,1,0,0:2:0:0:
192,0,73374,1,8,3:1:0:0:
153,194,73562,5,10,3:1:0:0:
229,172,73843,1,0,0:2:0:0:
319,204,74124,1,0,0:2:0:0:
388,129,74405,1,0,0:2:0:0:
488,176,74687,1,0,0:2:0:0:
466,100,74874,1,8,3:1:0:0:
390,374,75062,5,14,3:1:0:0:
341,308,75343,1,0,0:2:0:0:
387,224,75624,1,0,0:2:0:0:
316,149,75905,1,0,0:2:0:0:
391,67,76187,1,0,0:2:0:0:
343,5,76374,1,8,3:1:0:0:
271,242,76562,5,10,3:1:0:0:
225,168,76843,1,0,0:2:0:0:
136,188,77124,1,0,0:2:0:0:
118,91,77405,1,0,0:2:0:0:
14,133,77687,1,0,0:2:0:0:
0,56,77874,1,8,3:1:0:0:
146,214,78062,5,10,3:1:0:0:
65,244,78343,1,0,0:2:0:0:
21,339,78624,1,0,0:2:0:0:
51,219,78905,1,0,0:2:0:0:
1,103,79187,1,0,0:2:0:0:
37,32,79374,1,8,3:1:0:0:
234,183,79562,5,10,3:1:0:0:
164,135,79843,1,0,0:2:0:0:
228,53,80124,1,0,0:2:0:0:
250,193,80405,1,0,0:2:0:0:
212,342,80687,1,0,0:0:0:0:
355,284,80874,5,2,3:1:0:0:
355,284,80968,1,2,3:1:0:0:
355,284,81062,2,0,B|451:295|408:247|529:255,1,163.2,14|0,0:1|0:2,0:2:0:0:
375,195,81624,1,0,0:2:0:0:
331,114,81905,1,0,0:2:0:0:
371,25,82187,1,0,0:2:0:0:
236,112,82374,5,2,3:2:0:0:
236,112,82468,1,2,3:2:0:0:
236,112,82562,2,0,P|144:115|85:62,2,163.2,14|0|0,0:1|0:2|0:2,0:2:0:0:
371,25,83312,5,8,3:3:0:0:
382,16,83405,1,8,3:3:0:0:
456,33,83499,1,8,3:2:0:0:
461,109,83593,1,8,3:2:0:0:
386,165,83687,5,0,1:2:0:0:
318,119,83780,5,0,1:2:0:0:
237,133,83874,5,0,1:2:0:0:
211,210,83968,5,0,1:2:0:0:
290,268,84062,6,0,L|479:248,1,152.999995330811,14|0,0:1|0:2,0:2:0:0:
512,300,84343,1,8,0:1:0:0:
512,300,84437,1,8,0:2:0:0:
325,382,84624,1,8,0:1:0:0:
325,382,84718,1,8,0:2:0:0:
157,273,84905,1,8,0:2:0:0:
157,273,84999,1,8,0:1:0:0:
393,60,85187,5,8,0:2:0:0:
421,145,85280,1,8,0:2:0:0:
389,187,85374,1,8,0:3:0:0:
352,199,85468,1,8,0:3:0:0:
286,146,85562,5,8,0:2:0:0:
229,233,86593,5,8,0:3:0:0:
263,309,86687,1,8,0:3:0:0:
202,365,86780,1,4,0:3:0:0:
131,324,86874,1,8,0:1:0:0:
135,306,86968,1,8,0:1:0:0:
89,231,87062,6,0,P|4:254|4:332,2,170,14|10|8,0:1|0:2|0:1,0:2:0:0:
295,319,87530,1,10,0:2:0:0:
295,319,87624,2,0,B|306:278|306:278|287:222,1,85,8|0,0:1|0:2,0:2:0:0:
155,83,87812,5,10,0:2:0:0:
87,118,87905,2,0,P|34:111|0:90,1,85,8|0,0:1|0:2,0:2:0:0:
225,26,88093,1,10,0:2:0:0:
293,61,88186,2,0,P|346:54|374:35,1,85,8|0,0:1|0:2,0:2:0:0:
232,184,88374,2,0,P|179:191|151:210,1,85,10|0,0:2|0:2,0:2:0:0:
436,136,88562,6,0,B|474:156|474:156|498:220,1,85,10|0,0:1|0:2,0:2:0:0:
451,375,88749,2,0,B|452:288|396:315|410:210,1,170,10|8,0:2|0:1,0:2:0:0:
290,350,89030,1,10,0:2:0:0:
290,350,89124,2,0,B|329:367|329:367|377:353,1,85,8|0,0:1|0:2,0:2:0:0:
232,184,89312,5,10,0:2:0:0:
186,245,89405,2,0,P|181:281|210:352,1,85,8|0,0:1|0:2,0:2:0:0:
331,138,89593,1,10,0:2:0:0:
377,199,89686,2,0,P|382:235|353:306,1,85,8|0,0:1|0:2,0:2:0:0:
259,103,89874,2,0,L|245:9,1,85,8|0,0:2|0:2,0:2:0:0:
49,146,90062,6,0,L|62:229,1,85,10|0,0:1|0:2,0:2:0:0:
158,315,90249,2,0,P|74:308|19:374,1,170,8|8,0:2|0:1,0:2:0:0:
242,356,90530,1,10,0:2:0:0:
242,356,90624,2,0,B|248:313|248:313|228:258,1,85,8|0,0:1|0:2,0:2:0:0:
163,116,90812,5,10,0:2:0:0:
91,153,90905,2,0,P|52:151|2:113,1,85,8|0,0:1|0:2,0:2:0:0:
211,50,91093,1,10,0:2:0:0:
283,86,91186,2,0,P|322:84|372:46,1,85,8|0,0:1|0:2,0:2:0:0:
142,8,91374,2,0,P|103:10|53:48,1,85,10|0,0:2|0:2,0:2:0:0:
265,177,91562,6,0,L|344:222,1,85,10|0,0:1|0:2,0:2:0:0:
174,311,91749,1,10,0:2:0:0:
174,311,91843,2,0,L|173:220,1,85,8|0,0:1|0:2,0:2:0:0:
336,323,92030,1,8,0:0:0:0:
336,323,92124,2,0,L|257:368,1,85,8|0,0:1|0:2,0:2:0:0:
89,271,92312,6,0,B|188:246|154:292|256:269,1,170,10|8,0:0|0:1,0:0:0:0:
28,382,92593,1,10,0:0:0:0:
28,382,92687,2,0,P|14:339|18:290,1,85,8|0,0:1|0:2,0:2:0:0:
131,166,92874,5,8,1:2:0:0:
211,195,92968,1,8,1:2:0:0:
288,159,93062,2,0,P|372:187|385:260,2,170,14|10|8,0:1|0:2|0:1,0:2:0:0:
164,265,93530,1,10,0:2:0:0:
164,265,93624,2,0,B|122:269|122:269|82:245,1,85,8|0,0:1|0:2,0:2:0:0:
52,144,93812,5,10,0:2:0:0:
12,208,93905,2,0,P|4:255|20:302,1,85,8|0,0:1|0:2,0:2:0:0:
211,195,94093,1,10,0:2:0:0:
251,259,94186,2,0,P|259:306|243:353,1,85,8|0,0:1|0:2,0:2:0:0:
130,183,94374,2,0,P|134:149|159:106,1,85,10|0,0:2|0:2,0:2:0:0:
301,22,94562,6,0,B|343:31|343:31|396:14,1,85,10|0,0:1|0:2,0:2:0:0:
511,164,94749,2,0,B|505:64|462:109|458:6,1,170,10|8,0:2|0:1,0:2:0:0:
345,157,95030,1,10,0:2:0:0:
345,157,95124,2,0,B|387:166|387:166|440:149,1,85,10|0,0:1|0:2,0:2:0:0:
298,44,95312,5,10,0:2:0:0:
255,106,95405,2,0,P|250:145|270:200,1,85,8|0,0:1|0:2,0:2:0:0:
463,80,95593,1,10,0:2:0:0:
511,138,95686,2,0,P|516:177|496:232,1,85,8|0,0:1|0:2,0:2:0:0:
402,305,95874,2,0,L|393:221,1,85,10|0,0:2|0:2,0:2:0:0:
239,99,96062,6,0,B|203:88|203:88|124:103,1,85,14|0,0:1|0:2,0:2:0:0:
54,211,96249,2,0,P|21:137|76:40,1,170,10|8,0:2|0:1,0:2:0:0:
147,183,96530,1,10,0:2:0:0:
147,183,96624,2,0,L|139:276,1,85,8|0,0:1|0:2,0:2:0:0:
264,336,96812,5,10,0:2:0:0:
198,373,96905,2,0,L|94:379,1,85,8|0,0:1|0:2,0:2:0:0:
321,281,97093,1,10,0:2:0:0:
393,302,97186,2,0,L|497:308,1,85,8|0,0:1|0:2,0:2:0:0:
298,208,97374,2,0,L|280:86,1,85,10|0,0:2|0:2,0:2:0:0:
127,269,97562,6,0,P|80:268|28:223,1,85,14|0,0:1|0:2,0:2:0:0:
1,129,97749,1,10,0:0:0:0:
1,129,97843,2,0,P|20:91|55:69,1,85,8|0,0:1|0:2,0:2:0:0:
185,89,98030,1,10,0:2:0:0:
185,89,98124,2,0,P|206:126|207:168,1,85,8|0,0:1|0:2,0:2:0:0:
282,286,98312,5,10,0:2:0:0:
282,286,98405,2,0,B|319:295|319:295|372:273,1,85,8|0,0:1|0:2,0:2:0:0:
512,116,98593,1,8,0:2:0:0:
510,138,98687,1,8,0:3:0:0:
448,195,98780,1,8,0:2:0:0:
365,173,98874,1,8,0:2:0:0:
355,88,98968,1,8,0:2:0:0:
429,49,99062,6,0,P|394:271|127:252,1,510,14|0,0:1|0:2,0:2:0:0:
98,214,100374,5,0,0:2:0:0:
98,214,100468,1,0,0:2:0:0:
98,214,100562,2,0,L|106:118,1,85,2|0,0:2|0:2,0:2:0:0:
193,178,100937,2,0,L|201:82,1,85,0|0,0:2|0:2,0:2:0:0:
19,154,101312,2,0,L|27:58,1,85,0|0,0:2|0:2,0:2:0:0:
151,5,101687,5,2,0:2:0:0:
146,16,101780,1,8,0:1:0:0:
204,72,102062,6,0,P|280:115|502:14,1,340,14|0,0:1|0:2,0:2:0:0:
503,105,103093,1,8,3:2:0:0:
471,97,103187,1,8,3:2:0:0:
429,111,103280,1,8,3:3:0:0:
422,162,103374,1,4,3:3:0:0:
451,188,103468,1,4,3:3:0:0:
466,189,103562,6,0,P|505:289|461:370,1,170,14|8,0:2|0:1,0:2:0:0:
81,384,103937,2,0,P|61:303|100:229,1,170,14|8,0:2|0:1,0:2:0:0:
258,287,104218,1,12,0:2:0:0:
258,287,104312,2,0,P|216:291|176:277,1,85,8|8,0:1|0:1,0:2:0:0:
251,158,104499,2,0,P|209:153|169:167,1,85,12|0,0:2|0:1,0:2:0:0:
334,220,104687,1,8,3:2:0:0:
403,249,104780,1,8,3:2:0:0:
472,220,104874,1,8,3:2:0:0:
500,150,104968,1,8,3:2:0:0:
470,80,105062,6,0,B|400:73|424:36|330:33,1,127.500004863739,14|8,0:1|0:1,0:2:0:0:
336,17,105343,1,8,0:1:0:0:
338,43,105437,1,8,0:3:0:0:
311,55,105530,1,8,0:3:0:0:
325,82,105624,1,4,0:3:0:0:
94,146,105812,6,0,B|164:139|140:102|234:99,1,127.500004863739,10|8,0:3|0:1,0:2:0:0:
228,83,106093,1,8,0:1:0:0:
226,109,106187,1,8,0:3:0:0:
281,156,106280,1,8,0:2:0:0:
255,224,106374,1,8,0:2:0:0:
470,322,106562,6,0,B|400:315|424:278|330:275,1,127.500004863739,6|8,0:3|0:1,0:2:0:0:
336,259,106843,1,8,0:1:0:0:
338,285,106937,1,8,0:3:0:0:
311,297,107030,1,8,0:3:0:0:
325,324,107124,1,4,0:3:0:0:
159,384,107312,5,8,0:3:0:0:
120,128,107499,1,8,0:3:0:0:
0,281,107687,5,8,3:1:0:0:
80,297,107780,1,8,3:2:0:0:
155,261,107874,1,8,3:2:0:0:
159,251,107968,1,8,3:1:0:0:
65,203,108062,6,0,P|36:149|94:40,1,187.000005706787,14|8,0:1|0:1,0:2:0:0:
223,191,108343,2,0,B|327:186|281:135|396:129,1,187.000005706787,14|8,0:2|0:1,0:2:0:0:
387,277,108624,5,8,0:2:0:0:
459,310,108718,1,8,0:2:0:0:
512,253,108812,2,0,P|514:214|493:156,1,93.5000028533936,12|0,0:2|0:2,0:2:0:0:
370,24,108999,5,10,0:1:0:0:
299,60,109093,2,0,B|196:60|245:0|129:0,1,187.000005706787,12|0,0:2|0:2,0:2:0:0:
131,161,109374,5,8,0:2:0:0:
61,200,109468,1,8,0:2:0:0:
0,148,109562,2,0,P|-2:109|19:51,1,93.5000028533936,12|0,0:2|0:2,0:2:0:0:
144,243,109749,1,8,0:1:0:0:
144,243,109843,2,0,P|146:282|125:340,1,93.5000028533936,12|0,0:2|0:2,0:2:0:0:
314,213,110030,5,8,0:1:0:0:
360,283,110124,1,8,0:2:0:0:
443,297,110218,1,8,0:2:0:0:
512,249,110312,2,0,P|532:141|486:65,1,187.000005706787,12|8,0:2|0:1,0:2:0:0:
348,118,110593,2,0,B|237:113|294:52|178:56,1,187.000005706787,12|8,0:2|0:1,0:2:0:0:
24,118,110874,2,0,P|22:76|47:28,1,93.5000028533936,8|8,0:2|0:1,0:2:0:0:
212,212,111062,5,10,0:2:0:0:
237,291,111155,1,10,0:2:0:0:
185,358,111249,1,10,0:1:0:0:
166,354,111343,1,10,0:1:0:0:
0,209,111530,5,10,0:2:0:0:
0,209,111624,1,10,0:1:0:0:
454,272,111812,5,14,0:1:0:0:
199,46,112093,5,14,0:1:0:0:
199,46,112562,6,0,B|83:34|130:94|6:80,1,195.500003728867,14|8,0:1|0:0,0:0:0:0:
165,226,112843,1,8,0:1:0:0:
165,226,112937,2,0,B|179:179|179:179|162:134,1,97.7500018644333,8|0,0:1|0:0,0:0:0:0:
386,79,113124,2,0,L|264:74,1,97.7500018644333,8|8,0:0|0:1,0:0:0:0:
409,288,113312,2,0,L|311:292,1,97.7500018644333,10|8,0:1|0:1,0:0:0:0:
232,384,113499,2,0,B|215:339|215:339|228:291,1,97.7500018644333,8|0,0:2|0:0,0:0:0:0:
494,194,113687,2,0,B|511:239|511:239|497:286,1,97.7500018644333,10|0,0:1|0:0,0:0:0:0:
280,185,113874,2,0,L|380:176,1,97.7500018644333,8|0,0:2|0:0,0:0:0:0:
357,0,114062,6,0,P|449:15|481:102,1,195.500003728867,10|8,0:1|0:0,0:0:0:0:
283,54,114343,1,8,0:1:0:0:
283,54,114437,2,0,P|245:46|170:55,1,97.7500018644333,8|0,0:1|0:0,0:0:0:0:
184,188,114624,2,0,P|233:193|281:185,1,97.7500018644333,8|0,0:2|0:0,0:0:0:0:
65,64,114812,5,10,0:1:0:0:
10,132,114905,1,8,0:1:0:0:
0,219,114999,1,8,0:0:0:0:
36,299,115093,1,8,0:1:0:0:
108,348,115187,2,0,L|213:338,1,97.7500018644333,8|0,0:1|0:0,0:0:0:0:
304,287,115374,2,0,B|326:330|326:330|316:379,1,97.7500018644333,8|0,0:2|0:0,0:0:0:0:
501,145,115562,6,0,P|479:233|389:227,1,195.500003728867,10|8,0:1|0:0,0:0:0:0:
288,92,115843,1,8,0:1:0:0:
288,92,115937,2,0,B|280:45|280:45|302:-6,1,97.7500018644333,8|0,0:1|0:0,0:0:0:0:
466,62,116124,2,0,P|419:48|371:55,1,97.7500018644333,8|8,0:0|0:1,0:0:0:0:
199,109,116312,2,0,P|151:115|105:100,1,97.7500018644333,10|8,0:1|0:1,0:0:0:0:
324,183,116499,1,8,0:0:0:0:
405,150,116593,1,8,0:1:0:0:
468,210,116687,2,0,B|476:257|476:257|456:302,1,97.7500018644333,10|0,0:1|0:0,0:0:0:0:
327,379,116874,2,0,L|211:363,1,97.7500018644333,8|0,0:0|0:0,0:0:0:0:
14,232,117062,6,0,P|44:331|139:315,1,195.500003728867,10|8,0:1|0:0,0:0:0:0:
230,192,117343,1,8,0:1:0:0:
230,192,117437,2,0,L|220:91,1,97.7500018644333,10|0,0:1|0:0,0:0:0:0:
72,116,117624,2,0,L|86:19,1,97.7500018644333,10|8,0:2|0:1,0:0:0:0:
368,98,117812,1,10,0:1:0:0:
368,98,117905,1,8,0:1:0:0:
368,98,117999,2,0,L|334:-10,1,97.7500018644333,8|8,0:0|0:1,0:0:0:0:
320,254,118187,5,8,0:0:0:0:
408,231,118280,1,8,0:0:0:0:
492,268,118374,1,8,0:3:0:0:
494,285,118468,1,8,0:3:0:0:
404,368,118562,6,0,B|293:333|321:398|199:356,1,195.500003728867,14|8,0:1|0:0,0:0:0:0:
324,257,118843,1,8,0:1:0:0:
324,257,118937,2,0,B|338:210|338:210|321:158,1,97.7500018644333,8|0,0:1|0:0,0:0:0:0:
148,212,119124,2,0,L|260:206,1,97.7500018644333,8|8,0:0|0:1,0:0:0:0:
419,58,119312,2,0,L|307:52,1,97.7500018644333,10|8,0:1|0:1,0:0:0:0:
242,102,119499,2,0,B|228:55|228:55|245:3,1,97.7500018644333,8|0,0:2|0:0,0:0:0:0:
55,108,119687,2,0,L|175:102,1,97.7500018644333,10|0,0:1|0:0,0:0:0:0:
420,168,119874,2,0,L|300:162,1,97.7500018644333,8|0,0:2|0:0,0:0:0:0:
89,315,120062,6,0,P|113:221|203:209,1,195.500003728867,10|8,0:1|0:0,0:0:0:0:
234,370,120343,1,8,0:1:0:0:
234,370,120437,2,0,P|285:376|336:356,1,97.7500018644333,10|0,0:1|0:0,0:0:0:0:
420,256,120624,2,0,P|468:254|512:273,1,97.7500018644333,8|8,0:2|0:1,0:0:0:0:
298,151,120812,5,10,0:1:0:0:
221,108,120905,1,8,0:1:0:0:
238,21,120999,1,8,0:0:0:0:
325,10,121093,1,8,0:1:0:0:
362,89,121187,2,0,P|415:91|459:69,1,97.7500018644333,10|0,0:1|0:0,0:0:0:0:
157,48,121374,2,0,P|104:46|57:68,1,97.7500018644333,8|0,0:2|0:0,0:0:0:0:
282,232,121562,6,0,B|317:142|236:131|277:40,1,195.500003728867,14|8,0:1|0:0,0:0:0:0:
117,200,121843,1,8,0:1:0:0:
117,200,121937,2,0,P|160:179|208:184,1,97.7500018644333,8|0,0:1|0:0,0:0:0:0:
368,250,122124,2,0,P|421:252|468:230,1,97.7500018644333,8|8,0:2|0:1,0:0:0:0:
234,384,122312,6,0,B|240:337|240:337|218:286,1,97.7500018644333,14|0,0:1|0:1,0:1:0:0:
97,347,122499,2,12,L|0:356,1,97.7500018644333,8|0,0:2|0:1,0:1:0:0:
209,184,122687,2,12,L|307:193,1,97.7500018644333,10|0,0:1|0:1,0:1:0:0:
107,40,122874,2,12,B|88:87|88:87|94:134,1,97.7500018644333,8|0,0:2|0:1,0:1:0:0:
425,98,123062,6,0,B|431:51|431:51|412:4,1,97.7500018644333,14|0,0:1|0:1,0:1:0:0:
194,187,123249,1,8,1:2:0:0:
176,283,123343,1,8,1:2:0:0:
224,371,123437,1,8,1:2:0:0:
468,169,123624,5,10,1:2:0:0:
506,259,123718,1,8,1:2:0:0:
474,351,123812,1,2,1:1:0:0:
455,357,123905,1,0,1:2:0:0:
381,300,123999,5,2,1:1:0:0:
361,297,124093,1,0,1:2:0:0:
294,343,124187,5,2,1:1:0:0:
272,354,124280,1,0,1:2:0:0:
250,364,124374,6,2,L|300:121,1,212.5,2|0,0:0|0:0,0:1:0:0:
293,156,124937,6,2,L|182:160,1,110.499994941712,14|0,0:1|0:0,0:1:0:0:
73,81,125124,5,8,0:0:0:0:
12,165,125218,1,8,0:0:0:0:
49,261,125312,1,12,0:0:0:0:
269,1,125593,5,8,0:3:0:0:
512,68,125874,5,4,0:3:0:0:
323,347,126062,6,0,B|452:321|392:386|519:362,1,195.500003728867,14|8,0:1|0:0,0:0:0:0:
249,209,126343,1,8,0:1:0:0:
249,209,126437,2,0,P|236:261|253:314,1,97.7500018644333,8|0,0:1|0:0,0:0:0:0:
418,184,126624,2,0,L|303:161,1,97.7500018644333,8|8,0:0|0:1,0:0:0:0:
323,347,126812,2,0,L|428:327,1,97.7500018644333,10|8,0:1|0:1,0:0:0:0:
181,139,126999,2,0,B|85:160,1,97.7500018644333,8|0,0:2|0:0,0:0:0:0:
172,355,127187,2,0,B|76:333,1,97.7500018644333,8|0,0:1|0:0,0:0:0:0:
249,209,127374,2,0,P|260:256|247:303,1,97.7500018644333,8|0,0:2|0:0,0:0:0:0:
105,76,127562,6,0,P|20:98|12:208,1,195.500003728867,10|8,0:1|0:0,0:0:0:0:
185,143,127843,1,8,0:1:0:0:
185,143,127937,2,0,B|206:100|206:100|202:48,1,97.7500018644333,8|0,0:1|0:0,0:0:0:0:
341,223,128124,2,0,B|290:230|290:230|245:207,1,97.7500018644333,8|8,0:2|0:1,0:0:0:0:
435,59,128312,5,10,0:1:0:0:
490,126,128405,1,8,0:1:0:0:
508,212,128499,1,8,0:0:0:0:
487,297,128593,1,8,0:1:0:0:
429,363,128687,2,0,P|375:363|332:344,1,97.7500018644333,10|0,0:1|0:0,0:0:0:0:
182,285,128874,2,0,P|133:283|88:301,1,97.7500018644333,8|0,0:2|0:0,0:0:0:0:
341,223,129062,6,0,P|357:132|277:86,1,195.500003728867,10|8,0:1|0:0,0:0:0:0:
97,118,129343,1,8,0:1:0:0:
97,118,129437,2,0,B|89:71|89:71|111:20,1,97.7500018644333,10|0,0:1|0:0,0:0:0:0:
246,164,129624,2,0,B|254:211|254:211|234:256,1,97.7500018644333,8|8,0:2|0:1,0:0:0:0:
77,374,129812,1,10,0:1:0:0:
77,374,129905,1,8,0:1:0:0:
77,374,129999,2,0,B|69:327|69:327|88:282,1,97.7500018644333,8|8,0:2|0:1,0:0:0:0:
336,183,130187,5,8,0:0:0:0:
413,233,130280,1,8,0:0:0:0:
502,207,130374,1,8,0:3:0:0:
510,192,130468,1,8,0:3:0:0:
508,173,130562,1,14,0:1:0:0:
316,24,130749,6,0,B|228:-5|241:54|137:19,1,170,10|8,0:2|0:1,0:0:0:0:
149,22,131030,1,10,0:1:0:0:
149,22,131124,1,8,0:1:0:0:
187,223,131312,6,0,P|165:144|77:128,1,170,10|8,0:1|0:1,0:0:0:0:
19,196,131593,1,10,0:1:0:0:
0,270,131687,1,8,0:0:0:0:
37,336,131780,1,8,0:0:0:0:
50,330,131874,1,10,0:1:0:0:
63,324,131968,1,8,0:1:0:0:
76,318,132062,1,10,0:1:0:0:
359,161,132249,6,0,P|395:242|376:325,1,170,10|8,0:1|0:1,0:0:0:0:
379,319,132530,1,10,0:1:0:0:
379,319,132624,1,8,0:1:0:0:
223,190,132812,6,0,B|137:164|153:214|45:190,1,170,10|8,0:1|0:1,0:0:0:0:
41,188,133093,1,10,0:1:0:0:
48,203,133187,1,8,0:1:0:0:
123,175,133280,1,8,0:0:0:0:
171,110,133374,1,10,0:0:0:0:
166,31,133468,1,8,0:0:0:0:
242,0,133562,6,0,P|293:44|409:15,1,187.000005706787,14|8,0:1|0:3,0:0:0:0:
418,32,133843,1,8,0:3:0:0:
414,50,133937,1,4,0:3:0:0:
411,68,134030,1,4,0:3:0:0:
408,86,134124,1,8,0:3:0:0:
512,323,134312,6,0,P|436:373|351:344,1,187.000005706787,10|8,0:3|0:3,0:0:0:0:
338,330,134593,1,8,0:1:0:0:
339,311,134687,1,8,0:1:0:0:
288,238,134780,1,8,0:0:0:0:
199,228,134874,1,8,0:0:0:0:
139,293,134968,1,8,0:0:0:0:
142,307,135062,1,8,0:1:0:0:
49,134,135249,6,2,L|8:369,1,237.999992736817,14|8,0:0|0:1,0:1:0:0:
392,285,135530,6,2,L|350:50,1,237.999992736817,14|8,0:0|0:1,0:1:0:0:
144,91,135812,6,2,L|103:326,1,237.999992736817,14|8,0:0|0:1,0:1:0:0:
487,242,136093,6,2,L|445:7,1,237.999992736817,14|8,0:0|0:1,0:1:0:0:
250,204,136374,5,8,0:0:0:0:
250,204,136468,1,8,0:0:0:0:
177,156,136562,6,0,P|109:148|56:286,1,220.999989883423,14|0,0:1|0:0,0:0:0:0:
109,351,136843,2,0,L|335:311,1,187.000005706787,8|0,0:0|0:0,0:0:0:0:
414,384,137124,2,0,P|414:330|390:292,1,93.5000028533936,8|0,0:0|0:0,0:0:0:0:
254,122,137312,6,0,P|280:21|384:10,1,220.999989883423,14|0,0:1|0:0,0:0:0:0:
485,77,137593,1,8,0:0:0:0:
407,133,137687,1,8,0:3:0:0:
402,214,137780,1,8,0:3:0:0:
418,246,137874,1,12,0:3:0:0:
438,259,137968,1,12,0:3:0:0:
511,183,138062,5,14,0:1:0:0:
192,266,139562,6,0,P|163:317|182:419,2,127.5,14|0|0,0:1|0:0|0:0,0:0:0:0:
333,236,140312,2,0,P|362:287|343:389,2,127.5,0|0|0,0:1|0:0|0:0,0:0:0:0:
187,176,141062,6,0,L|49:181,2,127.5,2|0|0,0:0|0:0|0:0,0:0:0:0:
323,150,141812,2,0,L|461:155,2,127.5
161,82,142562,6,0,B|109:60|93:84|35:66,2,127.5,2|0|0,0:0|0:0|0:0,0:0:0:0:
327,31,143312,2,0,B|379:9|395:33|452:15,2,127.5
324,161,144062,6,0,P|348:190|354:261,1,85,2|0,0:0|0:0,0:0:0:0:
357,279,144343,1,0,0:0:0:0:
357,279,144437,2,0,P|328:303|257:309,1,85
173,383,144812,2,0,L|161:279,1,85,2|0,0:0|0:0,0:0:0:0:
140,261,145093,1,8,0:0:0:0:
117,300,145187,1,8,0:0:0:0:
78,317,145280,1,8,0:0:0:0:
35,309,145374,1,8,0:3:0:0:
33,297,145468,1,8,0:3:0:0:
31,284,145562,6,0,P|32:213|64:142,1,136,14|8,0:1|0:3,0:0:0:0:
86,132,145843,1,8,0:3:0:0:
61,119,145937,1,4,0:3:0:0:
104,110,146030,1,4,0:3:0:0:
77,86,146124,1,8,0:3:0:0:
212,331,146312,6,0,P|211:260|179:189,1,136,10|8,0:3|0:3,0:0:0:0:
157,179,146593,1,8,0:3:0:0:
182,166,146687,1,4,0:3:0:0:
131,114,146780,1,8,0:2:0:0:
176,57,146874,1,8,0:2:0:0:
303,249,147062,6,0,P|304:178|336:107,1,136,6|8,0:3|0:3,0:0:0:0:
358,97,147343,1,8,0:3:0:0:
333,84,147437,1,4,0:3:0:0:
376,75,147530,1,4,0:3:0:0:
349,51,147624,1,8,0:3:0:0:
484,296,147812,6,0,P|483:225|451:154,1,136,10|8,0:3|0:3,0:0:0:0:
429,144,148093,1,8,0:3:0:0:
454,131,148187,1,4,0:3:0:0:
404,79,148280,1,8,0:2:0:0:
450,23,148374,1,8,0:2:0:0:
237,92,148562,6,0,B|164:86|194:54|104:55,1,136,10|8,0:1|0:3,0:0:0:0:
83,70,148843,1,8,0:3:0:0:
78,42,148937,1,4,0:3:0:0:
56,80,149030,1,4,0:3:0:0:
42,47,149124,1,8,0:3:0:0:
186,159,149312,6,0,B|259:153|229:121|319:122,1,136,10|8,0:3|0:3,0:0:0:0:
340,137,149593,1,8,0:3:0:0:
348,110,149687,1,4,0:3:0:0:
411,147,149780,1,8,0:2:0:0:
476,109,149874,1,8,0:2:0:0:
234,215,150062,6,0,B|161:209|191:177|101:178,1,136,6|8,0:3|0:3,0:0:0:0:
80,193,150343,1,8,0:3:0:0:
75,165,150437,1,4,0:3:0:0:
53,203,150530,1,4,0:3:0:0:
39,170,150624,1,8,0:3:0:0:
183,282,150812,6,0,B|256:276|226:244|316:245,1,136,10|8,0:3|0:3,0:0:0:0:
337,260,151093,1,8,0:3:0:0:
348,235,151187,1,4,0:3:0:0:
411,277,151280,1,8,0:2:0:0:
472,229,151374,1,8,0:2:0:0:
284,384,151562,5,12,0:1:0:0:
244,322,151749,2,0,B|225:253|260:257|234:154,1,152.999995330811,10|0,0:0|0:0,0:0:0:0:
194,112,152030,1,10,0:0:0:0:
194,112,152124,1,8,0:1:0:0:
117,288,152312,2,0,B|98:219|133:223|107:120,1,152.999995330811,10|0,0:0|0:0,0:0:0:0:
67,78,152593,1,10,0:0:0:0:
67,78,152687,1,8,0:1:0:0:
0,235,152874,1,10,0:0:0:0:
67,78,153062,5,10,0:1:0:0:
111,137,153249,2,0,P|188:161|256:114,1,152.999995330811,10|0,0:0|0:0,0:0:0:0:
287,65,153530,1,10,0:0:0:0:
287,65,153624,1,8,0:1:0:0:
427,201,153812,2,0,P|350:225|282:178,1,152.999995330811,10|0,0:0|0:0,0:0:0:0:
251,131,154093,1,10,0:0:0:0:
251,131,154187,1,8,0:1:0:0:
181,302,154374,1,10,0:0:0:0:
251,131,154562,5,10,0:1:0:0:
291,192,154749,2,0,P|304:255|262:348,1,152.999995330811,10|0,0:0|0:0,0:0:0:0:
213,382,155030,1,10,0:0:0:0:
213,382,155124,1,8,0:1:0:0:
82,292,155312,2,0,P|69:229|111:136,1,152.999995330811,10|0,0:0|0:0,0:0:0:0:
160,102,155593,1,10,0:0:0:0:
160,102,155687,1,8,0:1:0:0:
291,192,155874,1,10,0:0:0:0:
160,102,156062,5,10,0:1:0:0:
231,124,156249,2,0,B|320:120|278:80|378:77,1,152.999995330811,10|0,0:0|0:0,0:0:0:0:
451,87,156530,1,10,0:0:0:0:
451,87,156624,1,8,0:1:0:0:
242,46,156812,2,0,B|153:42|195:2|95:-1,1,152.999995330811,10|0,0:0|0:0,0:0:0:0:
28,9,157093,1,10,0:0:0:0:
28,9,157187,1,8,0:1:0:0:
158,131,157374,5,10,0:0:0:0:
187,201,157468,1,8,0:0:0:0:
140,261,157562,1,12,0:1:0:0:
262,211,157749,2,0,P|334:221|416:175,1,152.999995330811,10|0,0:0|0:0,0:0:0:0:
458,134,158030,1,10,0:0:0:0:
458,134,158124,1,8,0:1:0:0:
344,17,158312,2,0,P|272:7|190:53,1,152.999995330811,10|0,0:0|0:0,0:0:0:0:
148,94,158593,1,10,0:0:0:0:
148,94,158687,1,8,0:1:0:0:
0,1,158874,1,10,0:0:0:0:
148,94,159062,5,10,0:1:0:0:
139,171,159249,2,0,B|117:248|160:249|140:321,1,152.999995330811,10|0,0:0|0:0,0:0:0:0:
96,384,159530,1,10,0:0:0:0:
96,384,159624,1,8,0:1:0:0:
0,254,159812,2,0,B|22:177|-21:176|-1:104,1,152.999995330811,10|0,0:0|0:0,0:0:0:0:
43,41,160093,1,10,0:0:0:0:
43,41,160187,1,8,0:1:0:0:
139,171,160374,1,10,0:0:0:0:
43,41,160562,5,12,0:1:0:0:
109,77,160749,2,0,P|178:89|266:39,1,152.999995330811,10|0,0:0|0:0,0:0:0:0:
309,5,161030,1,10,0:0:0:0:
309,5,161124,1,8,0:1:0:0:
453,130,161312,2,0,P|384:142|296:92,1,152.999995330811,10|0,0:0|0:0,0:0:0:0:
255,59,161593,1,10,0:0:0:0:
255,59,161687,1,8,0:1:0:0:
178,215,161874,1,10,0:0:0:0:
251,55,162062,5,12,0:1:0:0:
311,109,162249,2,0,P|334:163|315:264,1,152.999995330811,10|0,0:0|0:0,0:0:0:0:
279,322,162530,1,10,0:0:0:0:
279,322,162624,1,8,0:1:0:0:
162,171,162812,2,0,P|139:225|158:326,1,152.999995330811,10|0,0:0|0:0,0:0:0:0:
200,380,163093,1,10,0:0:0:0:
200,380,163187,2,0,L|269:361,1,63.7500024318696,8|8,0:1|0:0,0:0:0:0:
361,272,163374,5,10,1:2:0:0:
432,299,163468,1,8,1:2:0:0:
495,254,163562,2,0,P|418:31|180:48,1,510,14|0,0:1|0:2,0:2:0:0:
96,118,164874,5,0,0:2:0:0:
96,118,164968,1,0,0:2:0:0:
96,118,165062,2,0,L|88:22,1,85,2|0,0:2|0:2,0:2:0:0:
187,132,165437,2,0,L|179:36,1,85,2|0,0:2|0:2,0:2:0:0:
10,177,165812,2,0,L|2:81,1,85,2|0,0:2|0:2,0:2:0:0:
105,226,166187,5,2,0:2:0:0:
101,241,166280,1,8,0:1:0:0:
161,297,166562,6,0,P|270:290|356:88,1,340,14|0,0:1|0:2,0:2:0:0:
403,158,167593,1,8,3:2:0:0:
435,138,167687,1,8,3:2:0:0:
487,145,167780,1,8,3:3:0:0:
512,197,167874,1,4,3:3:0:0:
500,236,167968,1,4,3:3:0:0:
486,253,168062,6,0,B|385:219|424:284|313:249,1,170,14|8,0:2|0:1,0:2:0:0:
87,29,168437,2,0,B|188:-5|149:60|260:25,1,170,14|8,0:2|0:1,0:2:0:0:
136,101,168718,1,12,0:2:0:0:
136,101,168812,2,0,P|122:140|129:182,1,85,8|8,0:1|0:1,0:2:0:0:
288,182,168999,2,0,P|295:140|281:100,1,85,14|8,0:2|0:1,0:2:0:0:
174,241,169187,1,8,3:2:0:0:
108,203,169280,1,8,3:2:0:0:
42,241,169374,1,8,3:2:0:0:
41,317,169468,1,8,3:2:0:0:
106,355,169562,6,0,B|178:338|160:377|240:361,1,127.500004863739,14|8,0:1|0:1,0:2:0:0:
260,384,169843,1,8,0:1:0:0:
272,362,169937,1,8,0:3:0:0:
239,343,170030,1,8,0:3:0:0:
267,318,170124,1,4,0:3:0:0:
494,254,170312,6,0,B|422:237|440:276|360:260,1,127.500004863739,10|8,0:3|0:1,0:2:0:0:
338,281,170593,1,8,0:1:0:0:
328,255,170687,1,8,0:3:0:0:
365,192,170780,1,8,0:2:0:0:
322,131,170874,1,8,0:2:0:0:
105,47,171062,6,0,B|177:30|159:69|239:53,1,127.500004863739,6|8,0:3|0:1,0:2:0:0:
259,76,171343,1,8,0:1:0:0:
271,54,171437,1,8,0:3:0:0:
238,35,171530,1,8,0:3:0:0:
266,10,171624,1,4,0:3:0:0:
13,136,171812,5,8,0:3:0:0:
306,225,171999,1,8,0:3:0:0:
134,384,172187,5,8,3:1:0:0:
94,312,172280,1,8,3:2:0:0:
128,236,172374,1,8,3:2:0:0:
148,232,172468,1,8,3:1:0:0:
227,298,172562,6,0,B|314:323|314:323|437:261,1,187.000005706787,14|8,0:1|0:1,0:2:0:0:
189,155,172843,2,0,B|75:145|128:96|21:87,1,187.000005706787,14|8,0:2|0:1,0:2:0:0:
306,225,173124,5,8,0:2:0:0:
382,203,173218,1,8,0:2:0:0:
405,126,173312,2,0,P|408:82|383:32,1,93.5000028533936,12|0,0:2|0:2,0:2:0:0:
155,0,173499,5,10,0:1:0:0:
101,56,173593,2,0,P|80:128|110:244,1,187.000005706787,12|0,0:2|0:2,0:2:0:0:
255,342,173874,5,8,0:2:0:0:
330,317,173968,1,8,0:2:0:0:
397,358,174062,2,0,P|442:365|496:338,1,93.5000028533936,12|0,0:2|0:2,0:2:0:0:
374,193,174249,1,8,0:1:0:0:
374,193,174343,2,0,P|376:154|354:94,1,93.5000028533936,12|0,0:2|0:2,0:2:0:0:
88,85,174530,5,8,0:1:0:0:
160,41,174624,1,8,0:2:0:0:
242,60,174718,1,8,0:2:0:0:
283,133,174812,2,0,B|374:154|374:154|465:107,1,187.000005706787,12|8,0:2|0:1,0:2:0:0:
209,206,175093,2,0,B|118:227|118:227|27:180,1,187.000005706787,12|8,0:2|0:1,0:2:0:0:
242,378,175374,2,0,P|236:332|252:288,1,93.5000028533936,8|8,0:2|0:1,0:2:0:0:
473,135,175562,5,10,0:2:0:0:
512,207,175655,1,10,0:2:0:0:
474,282,175749,1,10,0:1:0:0:
460,288,175843,1,10,0:1:0:0:
266,54,176030,5,10,0:2:0:0:
266,54,176124,1,10,0:1:0:0:
242,378,176312,5,14,0:1:0:0:
465,12,176593,5,14,0:1:0:0:
465,12,177062,6,0,P|447:106|352:124,1,203.999993774414,14|8,0:1|0:0,0:0:0:0:
197,30,177343,1,8,0:1:0:0:
197,30,177437,2,0,B|249:17|249:17|296:30,1,101.999996887207,8|0,0:1|0:0,0:0:0:0:
126,213,177624,2,0,L|119:111,1,101.999996887207,8|8,0:2|0:1,0:0:0:0:
284,205,177812,2,0,L|277:307,1,101.999996887207,10|8,0:1|0:1,0:0:0:0:
181,350,177999,2,0,B|129:363|129:363|82:350,1,101.999996887207,8|0,0:2|0:0,0:0:0:0:
373,365,178187,2,0,B|422:381|422:381|471:371,1,101.999996887207,10|0,0:1|0:0,0:0:0:0:
284,205,178374,2,0,L|276:96,1,101.999996887207,8|0,0:2|0:0,0:0:0:0:
57,97,178562,6,0,P|71:47|219:37,1,203.999993774414,10|8,0:1|0:0,0:0:0:0:
96,212,178843,1,8,0:1:0:0:
96,212,178937,2,0,B|50:226|50:226|0:206,1,101.999996887207,8|0,0:1|0:0,0:0:0:0:
143,384,179124,2,0,B|137:332|137:332|166:278,1,101.999996887207,8|8,0:2|0:1,0:0:0:0:
303,184,179312,5,10,0:1:0:0:
384,225,179405,1,8,0:1:0:0:
467,193,179499,1,8,0:0:0:0:
512,115,179593,1,8,0:1:0:0:
484,29,179687,2,0,P|434:14|385:26,1,101.999996887207,8|0,0:1|0:0,0:0:0:0:
274,95,179874,2,0,P|224:80|175:92,1,101.999996887207,8|0,0:2|0:0,0:0:0:0:
45,236,180062,6,0,B|71:132|10:139|42:33,1,203.999993774414,10|8,0:1|0:0,0:0:0:0:
177,190,180343,1,8,0:1:0:0:
177,190,180437,2,0,P|226:204|275:189,1,101.999996887207,8|0,0:1|0:0,0:0:0:0:
406,47,180624,2,0,P|368:80|356:129,1,101.999996887207,8|8,0:2|0:1,0:0:0:0:
415,316,180812,2,0,P|400:267|363:232,1,101.999996887207,8|8,0:1|0:1,0:0:0:0:
162,188,180999,1,8,0:0:0:0:
84,231,181093,1,8,0:1:0:0:
0,200,181187,2,0,B|-14:149|-14:149|13:84,1,101.999996887207,10|0,0:1|0:0,0:0:0:0:
164,280,181374,2,0,B|178:331|178:331|159:376,1,101.999996887207,8|0,0:2|0:0,0:0:0:0:
253,127,181562,6,0,P|265:37|373:15,1,203.999993774414,10|8,0:1|0:0,0:0:0:0:
341,170,181843,1,8,0:1:0:0:
341,170,181937,2,0,L|329:280,1,101.999996887207,10|0,0:1|0:0,0:0:0:0:
512,144,182124,2,0,P|468:119|417:122,1,101.999996887207,10|8,0:2|0:1,0:0:0:0:
365,358,182312,1,10,0:1:0:0:
365,358,182405,1,8,0:1:0:0:
365,358,182499,2,0,P|397:379|465:377,1,101.999996887207,8|8,0:2|0:1,0:0:0:0:
238,208,182687,5,8,0:0:0:0:
148,174,182780,1,8,0:0:0:0:
65,223,182874,1,8,0:3:0:0:
67,240,182968,1,8,0:3:0:0:
164,290,183062,6,0,B|159:196|217:201|202:93,1,203.999993774414,14|8,0:1|0:0,0:0:0:0:
361,21,183343,1,8,0:1:0:0:
361,21,183437,2,0,P|314:2|261:7,1,101.999996887207,8|0,0:1|0:0,0:0:0:0:
346,194,183624,2,0,P|386:162|409:117,1,101.999996887207,8|8,0:2|0:1,0:0:0:0:
202,93,183812,2,0,P|210:142|239:184,1,101.999996887207,10|8,0:1|0:1,0:0:0:0:
59,76,183999,2,0,P|99:44|122:-3,1,101.999996887207,8|0,0:2|0:0,0:0:0:0:
118,210,184187,2,0,P|72:191|18:196,1,101.999996887207,10|0,0:1|0:0,0:0:0:0:
19,363,184374,2,0,P|70:367|117:348,1,101.999996887207,8|0,0:2|0:0,0:0:0:0:
253,204,184562,6,0,P|341:196|395:295,1,203.999993774414,10|8,0:1|0:0,0:0:0:0:
294,380,184843,1,8,0:1:0:0:
294,380,184937,2,0,P|285:335|321:264,1,101.999996887207,10|0,0:1|0:0,0:0:0:0:
512,374,185124,2,0,P|513:323|490:278,1,101.999996887207,8|8,0:2|0:1,0:0:0:0:
322,159,185312,5,10,0:1:0:0:
236,187,185405,1,8,0:1:0:0:
182,113,185499,1,8,0:0:0:0:
237,41,185593,1,8,0:1:0:0:
322,69,185687,2,0,B|431:54,1,101.999996887207,10|0,0:1|0:0,0:0:0:0:
133,28,185874,2,0,B|24:13,1,101.999996887207,8|0,0:2|0:0,0:0:0:0:
326,261,186062,6,0,B|444:262|400:194|515:192,1,203.999993774414,14|8,0:1|0:0,0:0:0:0:
261,384,186343,1,8,0:1:0:0:
261,384,186437,2,0,P|242:323|254:273,1,101.999996887207,8|0,0:1|0:0,0:0:0:0:
348,179,186624,2,0,P|353:129|335:82,1,101.999996887207,8|8,0:2|0:1,0:0:0:0:
148,245,186812,6,0,B|97:256|97:256|52:236,1,101.999996887207,14|0,2:1|0:1,0:0:0:0:
43,35,186999,2,0,B|88:15|88:15|140:26,1,101.999996887207,8|0,2:2|0:1,0:0:0:0:
350,196,187187,2,0,B|401:206|401:206|446:186,1,101.999996887207,10|0,2:1|0:1,0:0:0:0:
427,38,187374,2,0,B|376:28|376:28|331:48,1,101.999996887207,8|0,2:2|0:1,0:0:0:0:
247,293,187562,6,0,P|252:243|236:195,1,101.999996887207,14|0,0:1|0:1,0:1:0:0:
43,313,187749,1,8,1:2:0:0:
0,221,187843,1,8,1:2:0:0:
55,136,187937,1,8,1:2:0:0:
326,323,188124,5,10,1:2:0:0:
361,227,188218,1,8,1:2:0:0:
307,138,188312,1,2,1:1:0:0:
290,142,188405,1,0,1:2:0:0:
224,195,188499,5,2,1:1:0:0:
206,191,188593,1,0,1:2:0:0:
143,139,188687,5,2,1:1:0:0:
126,146,188780,1,0,1:2:0:0:
111,153,188874,6,2,B|63:167|63:167|-10:115|24:12,1,212.5,2|0,0:0|0:0,0:1:0:0:
21,22,189437,6,2,L|140:29,1,114.750000437737,14|0,0:1|0:0,0:1:0:0:
292,171,189624,5,8,0:0:0:0:
393,198,189718,1,8,0:0:0:0:
486,150,189812,1,12,0:0:0:0:
158,384,190093,5,8,0:3:0:0:
55,68,190374,5,4,0:3:0:0:
209,291,190562,6,0,P|111:286|52:365,1,203.999993774414,14|8,0:1|0:0,0:0:0:0:
286,343,190843,1,8,0:1:0:0:
286,343,190937,2,0,P|298:291|284:237,1,101.999996887207,8|0,0:1|0:0,0:0:0:0:
195,184,191124,2,0,B|153:203|153:203|98:193,1,101.999996887207,8|8,0:0|0:1,0:0:0:0:
181,29,191312,2,0,B|127:18|127:18|84:38,1,101.999996887207,10|8,0:1|0:1,0:1:0:0:
323,143,191499,2,0,B|368:152|368:152|419:131,1,101.999996887207,8|0,0:0|0:1,0:0:0:0:
306,41,191687,2,0,B|356:19|356:19|402:29,1,101.999996887207,10|0,0:1|0:1,0:1:0:0:
231,151,191874,2,0,P|240:114|200:47,1,101.999996887207,8|0,0:2|0:0,0:0:0:0:
3,158,192062,6,0,P|-1:58|89:19,1,203.999993774414,10|8,0:1|0:0,0:0:0:0:
136,241,192343,1,8,0:1:0:0:
136,241,192437,2,0,B|90:222|90:222|38:237,1,101.999996887207,8|0,0:1|0:0,0:0:0:0:
37,359,192624,2,0,B|83:378|83:378|135:363,1,101.999996887207,8|0,0:2|0:0,0:0:0:0:
294,269,192812,5,10,0:1:0:0:
371,317,192905,1,8,0:1:0:0:
460,297,192999,1,8,0:0:0:0:
508,219,193093,1,8,0:1:0:0:
486,129,193187,2,0,P|435:101|376:100,1,101.999996887207,10|0,0:1|0:0,0:0:0:0:
199,135,193374,2,0,P|148:140|105:166,1,101.999996887207,8|0,0:2|0:0,0:0:0:0:
294,269,193562,6,0,B|266:158|321:177|286:69,1,203.999993774414,10|8,0:1|0:0,0:0:0:0:
198,264,193843,1,8,0:1:0:0:
198,264,193937,2,0,B|184:316|184:316|196:363,1,101.999996887207,10|0,0:1|0:0,0:0:0:0:
399,354,194124,2,0,B|404:300|404:300|385:256,1,101.999996887207,10|0,0:2|0:0,0:0:0:0:
167,144,194312,1,10,0:1:0:0:
167,144,194405,1,8,0:1:0:0:
167,144,194499,2,0,B|115:159|115:159|62:144,1,101.999996887207,8|8,0:2|0:1,0:0:0:0:
331,16,194687,5,8,0:0:0:0:
408,66,194780,1,8,0:0:0:0:
497,40,194874,1,8,0:3:0:0:
505,25,194968,1,8,0:3:0:0:
503,6,195062,1,14,0:1:0:0:
264,96,195249,6,0,B|172:81|210:35|104:25,1,170,10|8,0:2|0:1,0:0:0:0:
113,26,195530,1,10,0:1:0:0:
113,26,195624,1,8,0:1:0:0:
259,180,195812,6,0,P|281:259|369:275,1,170,10|8,0:1|0:1,0:0:0:0:
426,206,196093,1,10,0:1:0:0:
445,132,196187,1,8,0:0:0:0:
408,66,196280,1,8,0:0:0:0:
395,72,196374,1,10,0:1:0:0:
382,78,196468,1,8,0:1:0:0:
369,84,196562,1,10,0:1:0:0:
168,222,196749,6,0,P|105:169|6:206,1,170,10|8,0:1|0:1,0:0:0:0:
24,186,197030,1,10,0:1:0:0:
24,186,197124,1,8,0:1:0:0:
232,347,197312,6,0,B|341:326|294:384|396:365,1,170,10|8,0:1|0:1,0:0:0:0:
411,361,197593,1,10,0:1:0:0:
404,376,197687,1,8,0:1:0:0:
329,348,197780,1,8,0:0:0:0:
281,283,197874,1,10,0:0:0:0:
286,204,197968,1,8,0:0:0:0:
387,157,198062,6,0,P|474:163|508:83,1,187.000005706787,14|8,0:1|0:3,0:0:0:0:
512,43,198343,1,8,0:3:0:0:
491,62,198437,1,4,0:3:0:0:
466,74,198530,1,4,0:3:0:0:
439,74,198624,1,8,0:3:0:0:
218,99,198812,6,0,B|102:98|163:38|26:51,1,187.000005706787,10|8,0:3|0:3,0:0:0:0:
32,37,199093,1,8,0:1:0:0:
48,31,199187,1,8,0:1:0:0:
116,93,199280,1,8,0:0:0:0:
116,186,199374,1,8,0:0:0:0:
45,247,199468,1,8,0:0:0:0:
20,239,199562,1,8,0:1:0:0:
210,21,199749,6,2,B|356:-15|303:70|468:15,1,246.500007522583,14|8,0:0|0:1,0:1:0:0:
261,239,200030,6,2,B|115:203|168:288|3:233,1,246.500007522583,14|8,0:0|0:1,0:1:0:0:
208,7,200312,6,2,B|354:-29|301:56|466:1,1,246.500007522583,14|8,0:0|0:1,0:1:0:0:
261,261,200593,6,2,B|112:212|165:297|19:261,1,246.500007522583,14|8,0:0|0:1,0:1:0:0:
325,368,200874,5,8,0:0:0:0:
325,368,200968,1,8,0:0:0:0:
403,291,201062,6,0,P|432:199|379:59,1,229.500000875473,14|0,0:1|0:0,0:0:0:0:
297,29,201343,2,0,B|208:50|208:50|117:-3,1,187.000005706787,8|0,0:0|0:0,0:0:0:0:
12,105,201624,2,0,P|12:51|41:17,1,93.5000028533936,8|0,0:0|0:0,0:0:0:0:
242,162,201812,6,0,P|270:276|221:375,1,229.500000875473,14|8,0:1|0:0,0:0:0:0:
92,211,202093,1,8,0:0:0:0:
4,261,202187,1,8,0:3:0:0:
4,341,202280,1,8,0:3:0:0:
20,373,202374,1,12,0:3:0:0:
45,384,202468,1,12,0:3:0:0:
115,297,202562,5,14,0:1:0:0:
115,297,203124,5,8,0:0:0:0:
102,256,203218,1,8,0:0:0:0:
120,217,203312,1,8,0:3:0:0:
43,105,203593,5,4,0:3:0:0:
155,7,203874,5,4,0:3:0:0:
262,110,204062,6,0,L|246:339,1,229.499992996216,12|0,0:1|0:0,0:1:0:0:
212,261,206874,1,12,0:1:0:0:
268,383,207062,2,0,L|252:154,1,229.499992996216,12|0,0:1|0:0,0:0:0:0:
426,180,209593,5,8,0:0:0:0:
478,124,209687,1,8,0:0:0:0:
457,50,209780,1,8,0:0:0:0:
381,34,209874,1,8,0:3:0:0:
375,49,209968,1,8,0:3:0:0:
299,83,210062,6,0,B|226:56|241:105|147:76,1,136,6|0,1:1|0:2,0:2:0:0:
81,111,210343,1,0,1:2:0:0:
81,111,210437,2,0,P|77:77|89:35,1,68,8|0,0:1|0:2,0:2:0:0:
150,165,210624,2,0,P|154:199|142:241,1,68,0|0,1:1|0:2,0:2:0:0:
75,284,210812,1,10,3:1:0:0:
75,284,210905,2,0,L|2:291,1,68,0|0,1:2|0:2,0:2:0:0:
131,357,211093,1,0,1:2:0:0:
131,357,211187,2,0,L|198:363,1,68,10|0,2:1|0:2,0:2:0:0:
287,384,211374,2,0,L|293:316,1,68,0|0,1:2|0:2,0:2:0:0:
385,255,211562,6,0,P|423:305|494:297,1,136,2|0,1:2|0:2,0:2:0:0:
512,215,211843,1,0,1:2:0:0:
512,215,211937,2,0,L|502:144,1,68,8|0,0:1|0:2,0:2:0:0:
411,162,212124,2,0,L|343:171,1,68,0|0,1:2|0:2,0:2:0:0:
268,118,212312,1,10,3:1:0:0:
268,118,212405,2,0,P|271:89|253:41,1,68,0|0,1:1|0:2,0:2:0:0:
140,152,212593,1,0,1:2:0:0:
140,152,212687,2,0,P|163:169|214:177,1,68,10|0,2:1|0:2,0:2:0:0:
174,24,212874,2,0,P|147:35|114:75,1,68,0|0,1:1|0:2,0:2:0:0:
268,118,213062,6,0,B|339:119|314:69|401:71,1,136,2|0,1:2|0:2,0:2:0:0:
474,87,213343,1,0,1:2:0:0:
474,87,213437,2,0,P|476:68|450:12,1,68,8|0,0:1|0:2,0:2:0:0:
383,155,213624,2,0,P|381:174|407:230,1,68,0|0,1:1|0:2,0:2:0:0:
483,278,213812,1,10,3:1:0:0:
483,278,213905,2,0,P|485:297|459:353,1,68,0|0,1:1|0:2,0:2:0:0:
380,376,214093,1,0,1:2:0:0:
380,376,214187,2,0,L|298:359,1,68,10|0,0:1|0:2,0:2:0:0:
214,327,214374,2,0,L|132:344,1,68,0|0,1:1|0:2,0:2:0:0:
44,276,214562,6,0,L|-13:263,2,45.3333333333333,2|0|0,1:2|0:2|0:2,0:2:0:0:
137,236,214749,2,0,L|197:225,2,45.3333333333333,0|0|0,1:2|0:2|0:2,0:2:0:0:
59,184,214937,1,0,1:2:0:0:
54,174,214999,1,0,0:0:0:0:
50,165,215062,1,0,0:0:0:0:
48,155,215124,1,0,0:0:0:0:
48,145,215187,1,0,0:0:0:0:
48,134,215249,1,0,0:0:0:0:
50,125,215312,1,0,1:0:0:0:
360,0,215593,6,2,B|326:87|413:93|382:185,1,187.000005706787,12|0,3:1|0:2,0:1:0:0:
298,254,215874,5,8,1:2:0:0:
284,328,215968,1,8,1:2:0:0:
347,375,216062,1,14,0:1:0:0:
474,171,216249,1,10,0:0:0:0:
474,171,216343,1,2,0:1:0:0:
269,44,216530,1,8,0:0:0:0:
143,248,216718,1,2,0:1:0:0:
143,248,216812,1,8,0:0:0:0:
6,111,216999,5,2,0:0:0:0:
76,141,217093,1,8,0:0:0:0:
139,97,217187,1,8,0:1:0:0:
71,303,217374,1,10,0:0:0:0:
308,135,217562,5,10,0:1:0:0:
332,157,217655,1,0,0:0:0:0:
339,190,217749,1,8,0:0:0:0:
328,222,217843,1,0,0:0:0:0:
209,287,217937,5,10,0:1:0:0:
162,227,218030,1,8,0:0:0:0:
169,150,218124,1,0,0:0:0:0:
240,95,218218,5,2,0:0:0:0:
240,95,218312,2,0,P|327:118|406:35,1,170,8|0,0:0|0:0,0:0:0:0:
456,8,218593,5,10,0:0:0:0:
446,2,218687,1,8,0:1:0:0:
300,152,218874,5,8,0:0:0:0:
512,205,219062,1,10,0:1:0:0:
293,343,219249,5,8,0:0:0:0:
272,358,219343,1,2,0:0:0:0:
283,380,219437,1,8,0:1:0:0:
305,369,219530,1,8,0:0:0:0:
248,305,219624,1,8,0:1:0:0:
163,298,219718,1,0,0:0:0:0:
102,357,219812,5,10,0:2:0:0:
104,369,219905,1,2,0:0:0:0:
222,178,220093,1,10,0:0:0:0:
221,190,220187,1,8,0:1:0:0:
71,34,220374,1,8,0:0:0:0:
0,172,220562,5,10,0:1:0:0:
229,78,220749,1,10,0:0:0:0:
229,78,220843,1,2,0:0:0:0:
394,259,221030,1,10,0:0:0:0:
165,353,221218,1,2,0:0:0:0:
165,353,221312,1,8,0:2:0:0:
339,384,221499,5,2,0:0:0:0:
285,333,221593,1,8,0:0:0:0:
291,259,221687,1,8,0:1:0:0:
475,170,221874,5,8,0:0:0:0:
512,107,221968,1,8,0:0:0:0:
453,55,222062,2,2,B|352:60|383:16|273:17,1,187.000005706787,14|8,0:1|0:2,0:1:0:0:
184,134,222343,1,10,0:1:0:0:
154,170,222437,1,8,0:1:0:0:
109,183,222530,1,8,0:0:0:0:
64,169,222624,2,0,P|44:125|61:74,1,93.5000028533936,10|0,0:1|0:0,0:0:0:0:
240,4,222812,5,10,0:0:0:0:
283,70,222905,1,2,0:0:0:0:
363,74,222999,1,2,0:0:0:0:
404,142,223093,1,10,0:0:0:0:
484,135,223187,2,0,P|501:95|484:40,1,93.5000028533936,10|0,0:1|0:0,0:0:0:0:
317,181,223374,5,10,0:0:0:0:
399,164,223468,1,2,0:0:0:0:
452,229,223562,2,0,P|438:320|354:337,1,187.000005706787,10|8,0:1|0:0,0:0:0:0:
208,384,223843,1,10,0:1:0:0:
171,341,223937,1,8,0:1:0:0:
174,285,224030,1,8,0:0:0:0:
212,243,224124,2,0,B|224:201|224:201|206:148,1,93.5000028533936,10|0,0:1|0:0,0:0:0:0:
0,303,224312,6,0,P|21:217|113:204,1,187.000005706787,10|0,0:2|0:0,0:1:0:0:
263,321,224593,1,10,0:0:0:0:
263,321,224687,2,0,B|306:337|306:337|373:316,1,93.5000028533936,10|0,0:1|0:0,0:0:0:0:
424,192,224874,2,0,B|467:176|467:176|534:197,1,93.5000028533936,10|0,0:2|0:0,0:0:0:0:
334,0,225062,5,14,0:1:0:0:
280,53,225155,2,2,L|296:180,1,101.999996887207,2|8,0:0|0:0,0:1:0:0:
163,287,225343,2,2,L|150:185,1,101.999996887207,2|8,0:0|0:1,0:1:0:0:
85,0,225530,1,8,0:0:0:0:
27,56,225624,2,2,P|4:99|46:262,1,203.999993774414,2|8,0:0|0:0,0:1:0:0:
325,183,225999,5,2,0:0:0:0:
371,250,226093,1,10,0:0:0:0:
345,327,226187,1,10,0:1:0:0:
60,364,226374,6,0,L|21:367,1,31.8750012159348,10|0,0:0|0:0,0:0:0:0:
56,373,226468,2,0,L|18:375,1,31.8750012159348
52,380,226562,2,2,P|39:251|105:157,1,220.999989883423,14|8,0:1|0:0,0:1:0:0:
148,133,226843,1,8,0:1:0:0:
225,141,226937,1,8,0:1:0:0:
302,246,227030,5,10,0:0:0:0:
377,291,227124,1,10,0:3:0:0:
463,270,227218,1,8,0:3:0:0:
500,189,227312,6,2,P|491:115|346:71,1,237.999992736817,14|8,0:1|0:0,0:1:0:0:
72,183,227593,2,2,B|54:129|54:129|78:71,1,118.999996368408,14|0,0:1|0:0,0:1:0:0:
302,246,227780,5,8,1:2:0:0:
331,326,227874,1,8,1:2:0:0:
267,382,227968,1,8,1:2:0:0:
211,295,228062,5,14,0:1:0:0:
485,226,229562,5,10,2:1:0:0:
94,132,231062,5,10,2:1:0:0:
374,4,232562,5,10,2:1:0:0:
256,192,234062,5,12,0:1:0:0:
333,300,234249,5,0,1:0:0:0:
425,322,234530,1,0,1:0:0:0:
475,242,234812,1,0,1:0:0:0:
414,169,235093,1,0,1:0:0:0:
325,204,235374,1,8,1:1:0:0:
256,96,235562,5,10,2:1:0:0:
148,187,235749,5,0,1:0:0:0:
56,209,236030,1,0,1:0:0:0:
6,129,236312,1,0,1:0:0:0:
67,56,236593,1,0,1:0:0:0:
156,91,236874,1,8,1:1:0:0:
256,0,237062,5,14,0:1:0:0:
312,139,237249,5,0,1:0:0:0:
165,187,237530,1,0,1:0:0:0:
361,258,237812,1,4,1:2:0:0:
178,325,238093,1,0,1:0:0:0:
296,384,238374,1,8,1:1:0:0:
256,192,238562,5,12,0:1:0:0:
128,242,238749,5,0,1:0:0:0:
92,204,238843,1,0,1:0:0:0:
92,152,238937,1,0,1:0:0:0:
129,117,239030,1,0,1:0:0:0:
180,117,239124,1,0,1:0:0:0:
219,84,239218,1,0,1:0:0:0:
187,2,239312,5,10,0:3:0:0:
0,249,239593,5,10,0:3:0:0:
342,378,239874,5,10,0:3:0:0:
342,378,240437,6,2,L|325:255,1,110.499994941712,14|0,0:1|0:0,0:1:0:0:
193,88,240624,5,8,0:0:0:0:
100,138,240718,1,8,0:0:0:0:
2,97,240812,1,12,0:0:0:0:
156,372,241093,5,8,0:3:0:0:
290,3,241374,5,4,0:3:0:0:
512,275,241562,6,0,B|390:246|426:315|304:282,1,212.5,14|8,0:1|0:0,0:0:0:0:
462,180,241843,1,8,0:1:0:0:
462,180,241937,2,0,B|484:132|484:132|463:64,1,106.25,8|0,0:1|0:0,0:0:0:0:
290,3,242124,2,0,L|414:17,1,106.25,8|8,2:2|0:1,0:0:0:0:
175,164,242312,2,0,B|162:217|162:217|176:272,1,106.25,10|8,0:1|0:1,0:0:0:0:
344,240,242499,2,0,B|356:189|356:189|343:136,1,106.25,10|0,0:2|0:1,0:0:0:0:
110,73,242687,2,0,L|225:59,1,106.25,8|0,0:1|0:0,0:0:0:0:
389,344,242874,2,0,L|274:330,1,106.25,8|0,0:2|0:0,0:0:0:0:
83,223,243062,6,0,P|8:263|14:394,1,212.5,10|8,0:1|0:0,0:0:0:0:
178,271,243343,1,8,0:1:0:0:
178,271,243437,2,0,B|190:220|190:220|177:167,1,106.25,10|0,0:1|0:1,0:0:0:0:
292,374,243624,2,0,B|239:361|239:361|188:373,1,106.25,8|0,0:2|0:1,0:0:0:0:
357,224,243812,5,10,0:1:0:0:
441,258,243905,1,8,0:1:0:0:
512,202,243999,1,8,0:0:0:0:
499,113,244093,1,8,0:1:0:0:
415,80,244187,2,0,L|304:51,1,106.25,10|0,0:1|0:0,0:0:0:0:
156,139,244374,2,0,L|52:164,1,106.25,8|0,0:2|0:0,0:0:0:0:
319,248,244562,6,0,B|441:241|395:312|513:316,1,212.5,10|8,0:1|0:0,0:0:0:0:
226,384,244843,1,8,0:1:0:0:
226,384,244937,2,0,P|217:329|240:280,1,106.25,10|0,0:1|0:0,0:0:0:0:
350,164,245124,2,0,P|402:157|442:124,1,106.25,8|0,0:2|0:0,0:0:0:0:
189,126,245312,1,10,0:1:0:0:
189,126,245405,1,8,0:1:0:0:
189,126,245499,2,0,P|157:84|107:67,1,106.25,8|0,0:2|0:0,0:0:0:0:
326,266,245687,5,8,0:0:0:0:
412,315,245780,1,8,0:0:0:0:
505,280,245874,1,8,0:3:0:0:
512,264,245968,1,8,0:3:0:0:
509,246,246062,1,14,0:1:0:0:
370,104,246249,6,0,B|277:99|310:49|201:44,1,170,10|8,0:2|0:1,0:0:0:0:
214,45,246530,1,10,0:1:0:0:
214,45,246624,1,8,0:1:0:0:
245,241,246812,6,0,P|203:311|122:314,1,170,10|8,0:1|0:1,0:0:0:0:
43,251,247093,1,10,0:1:0:0:
24,177,247187,1,8,0:0:0:0:
61,111,247280,1,8,0:0:0:0:
74,117,247374,1,10,0:1:0:0:
87,123,247468,1,8,0:1:0:0:
100,129,247562,1,10,0:1:0:0:
253,63,247749,6,0,B|349:65|309:14|420:19,1,170,10|8,0:1|0:1,0:0:0:0:
412,18,248030,1,10,0:1:0:0:
412,18,248124,1,8,0:1:0:0:
512,153,248312,6,0,P|472:240|389:227,1,170,10|8,0:1|0:1,0:0:0:0:
395,248,248593,1,10,0:1:0:0:
403,229,248687,1,8,0:1:0:0:
386,151,248780,1,8,0:0:0:0:
320,105,248874,1,10,0:0:0:0:
241,119,248968,1,8,0:0:0:0:
176,55,249062,6,0,P|82:91|29:14,1,203.999993774414,14|8,0:1|0:3,0:0:0:0:
0,0,249343,1,8,0:3:0:0:
4,18,249437,1,4,0:3:0:0:
7,36,249530,1,4,0:3:0:0:
10,54,249624,1,8,0:3:0:0:
117,190,249812,6,0,B|226:195|188:136|292:141,1,187.000005706787,10|8,0:3|0:3,0:0:0:0:
307,152,250093,1,8,0:1:0:0:
303,170,250187,1,8,0:1:0:0:
367,232,250280,1,8,0:0:0:0:
456,224,250374,1,8,0:0:0:0:
495,143,250468,1,8,0:0:0:0:
487,125,250562,1,8,0:1:0:0:
500,294,250749,6,2,L|454:33,1,255.000009727478,14|8,0:0|0:1,0:1:0:0:
120,99,251030,6,2,L|166:360,1,255.000009727478,14|8,0:0|0:1,0:1:0:0:
413,346,251312,6,2,L|367:85,1,255.000009727478,14|8,0:0|0:1,0:1:0:0:
21,81,251593,6,2,L|67:342,1,255.000009727478,14|8,0:0|0:1,0:1:0:0:
256,192,251874,5,8,0:0:0:0:
256,192,251968,1,8,0:0:0:0:
328,244,252062,6,0,P|402:246|452:100,1,237.999992736817,14|0,0:1|0:0,0:0:0:0:
370,45,252343,2,0,B|269:53|309:-5|193:3,1,187.000005706787,8|0,0:0|0:0,0:0:0:0:
89,53,252624,2,0,P|70:95|72:141,1,93.5000028533936,8|0,0:0|0:0,0:0:0:0:
244,225,252812,6,0,P|332:253|327:391,1,237.999992736817,14|0,0:1|0:0,0:0:0:0:
148,240,253093,1,8,0:0:0:0:
55,269,253187,1,8,0:3:0:0:
40,346,253280,1,8,0:3:0:0:
77,375,253374,1,12,0:3:0:0:
99,374,253468,1,12,0:3:0:0:
141,260,253562,5,14,0:1:0:0:
178,212,255062,6,0,P|136:277|154:389,2,165.749992412568,12|0|0,0:1|0:0|0:0,0:0:0:0:
330,184,255812,2,0,P|372:249|354:361,2,165.749992412568,0|0|0,0:1|0:0|0:0,0:0:0:0:
175,90,256562,2,0,P|85:113|18:81,2,165.749992412568,2|0|0,0:0|0:0|0:0,0:0:0:0:
335,41,257312,2,0,P|425:64|492:32,1,165.749992412568,2|0,0:0|0:0,0:0:0:0:
488,35,257874,1,8,2:1:0:0:
438,154,258062,6,0,B|413:229|474:251|455:316,2,165.749992412568,2|0|0,0:0|0:0|0:0,0:0:0:0:
256,224,258812,2,0,B|231:299|292:321|273:386,2,165.749992412568
74,154,259562,5,2,0:0:0:0:
154,220,259843,1,0,0:0:0:0:
171,117,260124,1,0,0:0:0:0:
90,51,260312,5,2,0:0:0:0:
57,257,260593,1,10,0:1:0:0:
251,183,260874,1,8,1:2:0:0:
322,214,260968,1,8,1:2:0:0:
392,181,261062,6,0,P|420:107|391:27,1,152.999995330811,14|8,0:1|0:2,0:2:0:0:
270,2,261343,1,10,0:1:0:0:
250,43,261437,1,8,0:1:0:0:
211,67,261530,1,8,0:2:0:0:
165,74,261624,2,0,P|126:69|86:37,1,76.4999976654053,10|0,0:1|0:2,0:2:0:0:
251,183,261812,6,0,P|272:228|240:343,1,152.999995330811,10|0,0:2|0:2,0:2:0:0:
159,384,262093,1,10,0:2:0:0:
159,384,262187,2,0,B|149:347|149:347|155:309,1,76.4999976654053,8|0,0:1|0:2,0:2:0:0:
352,302,262374,2,0,B|362:339|362:339|355:376,1,76.4999976654053,10|0,0:2|0:2,0:2:0:0:
191,239,262562,6,0,B|124:214|121:264|41:237,1,152.999995330811,10|8,0:1|0:2,0:2:0:0:
135,153,262843,1,10,0:1:0:0:
93,132,262937,1,8,0:1:0:0:
80,88,263030,1,8,0:2:0:0:
93,43,263124,2,0,P|123:24|164:16,1,76.4999976654053,10|0,0:1|0:2,0:2:0:0:
280,89,263312,6,0,B|367:90|326:50|425:51,1,152.999995330811,10|0,0:2|0:2,0:2:0:0:
512,72,263593,1,10,0:2:0:0:
512,72,263687,2,0,P|511:33|496:-1,1,76.4999976654053,8|0,0:1|0:2,0:2:0:0:
399,134,263874,2,0,P|400:172|416:207,1,76.4999976654053,10|0,0:2|0:2,0:2:0:0:
512,331,264062,6,0,P|437:287|366:303,1,152.999995330811,14|8,0:1|0:2,0:2:0:0:
283,222,264343,1,10,0:1:0:0:
276,267,264437,1,8,0:1:0:0:
250,304,264530,1,8,0:2:0:0:
209,325,264624,2,0,B|167:330|167:330|116:307,1,76.4999976654053,10|0,0:1|0:2,0:2:0:0:
69,229,264812,6,0,P|21:305|46:384,1,152.999995330811,10|0,0:2|0:2,0:2:0:0:
178,244,265093,1,10,0:2:0:0:
178,244,265187,2,0,P|181:209|164:163,1,76.4999976654053,8|0,0:1|0:2,0:2:0:0:
76,104,265374,2,0,P|38:118|-20:111,1,76.4999976654053,10|0,0:2|0:2,0:2:0:0:
177,22,265562,6,0,B|278:0|247:45|347:28,1,170,14|8,0:1|0:2,0:2:0:0:
398,133,265843,1,10,0:1:0:0:
445,118,265937,1,8,0:1:0:0:
488,130,266030,1,8,0:2:0:0:
508,171,266124,2,0,P|510:220|494:262,1,76.4999976654053,10|0,0:1|0:2,0:2:0:0:
389,383,266312,6,0,B|405:296|334:297|356:203,1,187.000005706787,14|8,0:2|0:2,0:2:0:0:
225,356,266593,2,0,P|271:367|321:331,1,80.7499978437424,14|8,0:1|0:1,0:2:0:0:
211,164,266780,1,8,1:2:0:0:
150,217,266874,1,10,1:2:0:0:
69,222,266968,1,8,1:2:0:0:
7,169,267062,6,0,P|10:82|96:50,1,161.499995687485,14|8,0:1|0:2,0:2:0:0:
176,0,267343,1,10,0:1:0:0:
199,42,267437,1,8,0:1:0:0:
242,62,267530,1,8,0:2:0:0:
290,54,267624,2,0,P|330:40|372:44,1,80.7499978437424,10|0,0:1|0:2,0:2:0:0:
512,126,267812,6,0,P|509:39|423:7,1,161.499995687485,10|0,0:2|0:2,0:2:0:0:
403,133,268093,1,10,0:2:0:0:
403,133,268187,2,0,B|415:170|415:170|405:211,1,80.7499978437424,8|0,0:1|0:2,0:2:0:0:
265,251,268374,2,0,B|253:214|253:214|263:173,1,80.7499978437424,10|0,0:2|0:2,0:2:0:0:
191,52,268562,6,0,B|91:26|128:80|10:55,1,161.499995687485,10|8,0:1|0:2,0:2:0:0:
105,143,268843,1,10,0:1:0:0:
58,155,268937,1,8,0:1:0:0:
31,194,269030,1,8,0:2:0:0:
23,241,269124,2,0,P|24:281|34:320,1,80.7499978437424,10|0,0:1|0:2,0:2:0:0:
178,384,269312,6,0,B|206:306|154:302|192:207,1,161.499995687485,10|0,0:2|0:2,0:2:0:0:
340,283,269593,1,10,0:2:0:0:
340,283,269687,2,0,B|302:297|302:297|264:286,1,80.7499978437424,8|0,0:1|0:2,0:2:0:0:
329,147,269874,2,0,B|291:136|291:136|253:150,1,80.7499978437424,10|0,0:2|0:2,0:2:0:0:
412,208,270062,6,0,P|481:200|499:95,1,161.499995687485,10|8,0:1|0:2,0:2:0:0:
461,19,270343,1,10,0:1:0:0:
436,60,270437,1,8,0:1:0:0:
389,73,270530,1,8,0:2:0:0:
342,58,270624,2,0,P|304:43|264:40,1,80.7499978437424,10|0,0:1|0:2,0:2:0:0:
109,126,270812,6,0,P|39:118|22:13,1,161.499995687485,10|0,0:2|0:2,0:2:0:0:
196,95,271093,1,10,0:2:0:0:
196,95,271187,2,0,B|200:135|200:135|181:181,1,80.7499978437424,8|0,0:1|0:2,0:2:0:0:
78,231,271374,2,0,B|38:227|38:227|1:242,1,80.7499978437424,10|0,0:2|0:2,0:2:0:0:
158,319,271562,6,0,B|247:311|213:370|328:364,1,161.499995687485,10|8,0:1|0:2,0:2:0:0:
460,359,271843,1,10,0:1:0:0:
433,318,271937,1,8,0:1:0:0:
426,270,272030,1,8,0:2:0:0:
445,225,272124,2,0,B|458:188|458:188|448:144,1,80.7499978437424,10|0,0:1|0:2,0:2:0:0:
294,84,272312,6,0,B|383:92|349:33|464:39,1,161.499995687485,10|0,0:2|0:2,0:2:0:0:
208,131,272593,1,10,0:2:0:0:
208,131,272687,2,0,B|195:96|195:96|206:55,1,80.7499978437424,8|0,0:1|0:2,0:2:0:0:
357,173,272874,1,8,1:2:0:0:
378,251,272968,1,8,1:2:0:0:
326,313,273062,6,0,P|238:334|175:251,1,161.499995687485,14|8,0:1|0:2,0:2:0:0:
123,185,273343,1,10,0:1:0:0:
84,155,273437,1,8,0:1:0:0:
37,168,273530,1,8,0:2:0:0:
11,209,273624,2,0,B|3:244|3:244|17:306,1,80.7499978437424,10|0,0:1|0:2,0:2:0:0:
162,191,273812,6,0,B|197:107|138:115|169:33,1,161.499995687485,10|0,0:2|0:2,0:2:0:0:
257,134,274093,1,10,0:2:0:0:
257,134,274187,2,0,P|306:135|356:98,1,80.7499978437424,8|0,0:1|0:2,0:2:0:0:
422,32,274374,2,0,P|471:30|521:67,1,80.7499978437424,10|0,0:2|0:2,0:2:0:0:
421,166,274562,6,0,P|494:194|515:268,1,161.499995687485,10|8,0:1|0:2,0:2:0:0:
440,364,274843,1,10,0:1:0:0:
404,330,274937,1,8,0:1:0:0:
355,329,275030,1,8,0:2:0:0:
315,357,275124,2,0,B|275:365|275:365|232:345,1,80.7499978437424,10|0,0:1|0:2,0:2:0:0:
153,239,275312,6,0,B|65:234|109:181|-5:187,1,161.499995687485,10|0,0:2|0:2,0:2:0:0:
155,149,275593,1,10,0:2:0:0:
155,149,275687,2,0,P|171:103|153:49,1,80.7499978437424,8|0,0:1|0:2,0:2:0:0:
0,200,275874,2,0,P|-4:239|11:276,1,80.7499978437424,10|0,0:2|0:2,0:2:0:0:
147,369,276062,6,0,B|226:361|194:316|293:310,1,161.499995687485,14|8,0:1|0:2,0:2:0:0:
394,232,276343,1,10,0:1:0:0:
424,269,276437,1,8,0:1:0:0:
471,278,276530,1,8,0:2:0:0:
511,250,276624,2,0,B|523:215|523:215|507:157,1,80.7499978437424,10|0,0:1|0:2,0:2:0:0:
422,79,276812,6,0,P|368:93|308:7,1,161.499995687485,10|0,0:2|0:2,0:2:0:0:
238,182,277093,1,10,0:2:0:0:
238,182,277187,2,0,P|281:165|332:172,1,80.7499978437424,8|0,0:1|0:2,0:2:0:0:
211,29,277374,2,0,P|204:74|172:115,1,80.7499978437424,10|0,0:2|0:2,0:2:0:0:
396,3,277562,6,0,P|479:13|502:94,1,178.499994552612,14|8,0:1|0:2,0:2:0:0:
431,179,277843,1,10,0:1:0:0:
397,213,277937,1,8,0:1:0:0:
397,261,278030,1,8,0:2:0:0:
431,295,278124,2,0,P|479:297|520:272,1,80.7499978437424,10|0,0:1|0:2,0:2:0:0:
325,135,278312,6,0,B|210:125|279:70|112:67,1,195.500003728867,14|8,0:2|0:2,0:2:0:0:
239,272,278593,2,0,P|207:359|114:361,1,195.500003728867,14|8,0:1|0:2,0:0:0:0:
39,305,278874,5,10,1:2:0:0:
39,305,278968,2,0,B|31:255|31:255|39:230|39:230|31:175,1,127.500004863739,8|8,0:0|0:0,0:0:0:0:
0,95,279249,6,0,L|63:88,1,55.2499974708558,10|8,0:1|0:0,0:0:0:0:
139,11,279437,1,10,0:1:0:0:
139,11,279530,1,10,0:2:0:0:
227,302,279718,1,14,0:1:0:0:
352,63,279999,1,12,0:1:0:0:
447,358,280187,1,10,0:1:0:0:
447,358,280280,1,10,0:2:0:0:
493,143,280468,1,10,0:1:0:0:
310,374,280749,1,10,0:1:0:0:
202,61,280937,1,10,0:2:0:0:
202,61,281030,1,10,0:2:0:0:
74,378,281218,1,14,0:2:0:0:
487,144,281499,5,14,0:1:0:0:
256,192,281593,12,0,282905,0:2:0:0:
282,98,282999,5,8,0:1:0:0:
321,135,283093,1,8,0:1:0:0:
376,129,283187,1,10,0:0:0:0:
376,118,283280,1,2,0:0:0:0:
376,106,283374,1,2,0:0:0:0:
376,95,283468,1,2,0:0:0:0:
376,85,283562,6,0,P|489:124|461:254,1,255.000009727478,14|0,0:1|0:0,0:2:0:0:
351,360,283843,5,14,0:1:0:0:
256,192,283937,12,8,285405,0:0:0:0:
