osu file format v14

[General]
AudioFilename: audio.mp3
AudioLeadIn: 0
PreviewTime: 11101
Countdown: 0
SampleSet: Soft
StackLeniency: 0.7
Mode: 0
LetterboxInBreaks: 0
WidescreenStoryboard: 1

[Editor]
DistanceSpacing: 1.2
BeatDivisor: 4
GridSize: 4
TimelineZoom: 1

[Metadata]
Title:TSUBASA -Game size-
TitleUnicode:TSUBASA -Game size-
Artist:Katakiri Rekka
ArtistUnicode:片霧烈火
Creator:InternalLight
Version:Insane
Source:うみねこのなく頃に散
Tags:07th expansion when they cry umineko no naku koro ni chiru dai hope djulus visual novel
BeatmapID:1949398
BeatmapSetID:933778

[Difficulty]
HPDrainRate:6
CircleSize:4
OverallDifficulty:7
ApproachRate:8.7
SliderMultiplier:1.5
SliderTickRate:1

[Events]
//Background and Video events
0,0,"anime.jpg",0,0
//Break Periods
//Storyboard Layer 0 (Background)
//Storyboard Layer 1 (Fail)
//Storyboard Layer 2 (Pass)
//Storyboard Layer 3 (Foreground)
//Storyboard Sound Samples

[TimingPoints]
880,332.409972299169,4,2,1,60,1,0
5866,-100,4,2,1,70,0,0
5907,-100,4,2,1,5,0,0
5949,-100,4,2,1,50,0,0
6198,-100,4,2,1,90,0,0
10686,-133.333333333333,4,2,1,90,0,0
11517,-100,4,2,1,70,0,0
43428,-100,4,2,1,90,0,0
48414,-100,4,2,1,80,0,0
48580,-100,4,2,1,70,0,0
48747,-100,4,2,1,60,0,0
50741,-200,4,2,1,60,0,0
51406,-100,4,2,1,70,0,0
52735,-100,4,2,1,80,0,0
54065,-133.333333333333,4,2,1,60,0,0
63373,-133.333333333333,4,2,1,65,0,0
63705,-133.333333333333,4,2,1,70,0,0
64037,-133.333333333333,4,2,1,75,0,0
64370,-133.333333333333,4,2,1,80,0,0
64702,-100,4,2,1,80,0,0
70021,-200,4,2,1,80,0,0
72348,-80,4,2,1,80,0,0
72597,-100,4,2,1,80,0,0
75339,-100,4,2,1,95,0,0
80657,-100,4,2,1,100,0,0
84148,-66.6666666666667,4,2,1,100,0,0
84480,-66.6666666666667,4,2,1,50,0,0
84481,-100,4,2,1,50,0,0
84979,-100,4,2,1,5,0,0

[Colours]
Combo1 : 250,255,192
Combo2 : 255,220,250
Combo3 : 210,250,200
Combo4 : 180,165,230

[HitObjects]
59,53,880,6,0,P|67:89|74:132,1,75,10|0,0:0|0:0,0:0:0:0:
149,213,1212,2,0,P|155:176|163:139,1,75,8|0,0:0|0:0,0:0:0:0:
147,60,1544,2,0,B|242:58|189:105|316:92,1,150,10|8,0:0|0:0,0:0:0:0:
331,26,2043,1,0,0:0:0:0:
394,100,2209,5,10,0:0:0:0:
394,100,2375,1,0,0:0:0:0:
477,67,2542,1,8,0:0:0:0:
477,67,2708,1,0,0:0:0:0:
465,148,2874,2,0,P|465:198|476:253,1,75,10|0,0:0|0:0,0:0:0:0:
383,259,3206,1,8,0:0:0:0:
501,369,3373,1,0,1:0:0:0:
426,331,3539,6,0,P|380:341|320:325,1,75,10|0,0:0|0:0,0:0:0:0:
263,314,3871,2,0,P|225:311|189:321,1,75,8|0,0:0|0:0,0:0:0:0:
114,351,4204,1,10,0:0:0:0:
114,351,4370,1,0,0:0:0:0:
16,260,4536,1,8,0:0:0:0:
103,207,4702,1,0,0:0:0:0:
25,342,4868,6,0,P|12:292|-5:250,1,75,10|0,0:0|0:0,0:0:0:0:
113,108,5201,2,0,P|92:177|99:286,1,150,8|10,0:0|0:0,0:0:0:0:
170,263,5699,1,8,0:0:0:0:
279,191,5866,1,0,1:0:0:0:
279,191,6198,6,0,P|271:143|261:95,1,75,0|0,1:0|1:0,0:0:0:0:
280,105,6447,1,0,1:0:0:0:
296,95,6530,1,0,1:0:0:0:
386,135,6697,2,0,L|446:118,2,37.5,0|0|0,1:0|1:0|1:0,0:0:0:0:
365,227,7029,1,0,1:0:0:0:
365,227,7112,1,0,1:0:0:0:
365,227,7195,2,0,P|412:234|451:248,1,75,0|0,1:0|1:0,0:0:0:0:
439,261,7445,1,0,1:0:0:0:
451,260,7528,5,0,1:0:0:0:
354,379,7694,1,0,1:0:0:0:
450,355,7860,1,0,1:0:0:0:
278,336,8026,1,0,1:0:0:0:
376,300,8193,5,0,1:0:0:0:
266,231,8359,1,0,1:0:0:0:
180,302,8525,2,0,P|192:345|203:381,1,75,0|0,1:0|1:0,0:0:0:0:
200,374,8774,1,0,1:0:0:0:
200,374,8857,5,10,0:0:0:0:
79,307,9024,1,8,0:0:0:0:
139,206,9190,1,8,0:0:0:0:
256,267,9356,1,8,0:0:0:0:
125,377,9522,1,2,1:2:0:0:
125,377,9688,1,0,0:0:0:0:
56,221,9855,1,0,1:0:0:0:
48,203,9938,1,0,1:0:0:0:
40,185,10021,1,0,1:0:0:0:
34,167,10104,1,0,1:0:0:0:
24,150,10187,6,0,P|80:131|100:111,1,75,8|0,0:0|1:0,0:0:0:0:
79,106,10436,1,0,1:0:0:0:
61,99,10519,1,0,1:0:0:0:
158,32,10686,6,0,P|139:95|143:157,1,112.500004291535,8|0,0:0|0:0,0:0:0:0:
180,213,11184,1,2,1:2:0:0:
180,213,11350,1,2,1:2:0:0:
283,82,11517,6,0,B|364:67|333:116|433:101,2,150,14|0|0,0:0|1:0|0:0,0:0:0:0:
283,82,12514,2,0,P|286:16|270:-5,1,75,2|2,1:2|0:0,0:0:0:0:
213,103,12846,6,0,P|278:108|315:185,1,150,10|0,0:0|1:0,0:0:0:0:
250,235,13345,1,8,0:0:0:0:
334,259,13511,2,0,P|377:253|406:231,1,75,2|8,0:0|0:0,0:0:0:0:
488,279,13843,2,0,P|471:319|476:355,1,75,2|0,1:2|0:0,0:0:0:0:
361,353,14176,6,0,B|307:371|307:371|268:354|268:354|200:368,1,150,10|0,0:0|1:0,0:0:0:0:
105,369,14675,2,0,P|122:286|103:188,1,150,10|8,0:0|0:0,0:0:0:0:
46,166,15173,1,2,1:2:0:0:
198,55,15339,1,2,0:2:0:0:
88,31,15506,5,10,0:0:0:0:
115,106,15672,1,0,0:0:0:0:
266,116,15838,1,0,1:0:0:0:
293,41,16004,1,10,0:0:0:0:
193,75,16170,1,2,0:0:0:0:
193,75,16337,1,8,0:0:0:0:
369,103,16503,5,2,1:2:0:0:
369,103,16669,1,0,0:0:0:0:
450,46,16835,2,0,P|406:104|394:206,1,150,14|0,0:2|1:0,0:0:0:0:
440,235,17334,2,0,P|441:282|422:321,1,75,10|0,0:0|0:0,0:0:0:0:
378,369,17666,1,10,0:0:0:0:
259,290,17832,1,0,1:0:0:0:
336,248,17999,1,0,0:0:0:0:
278,384,18165,6,0,P|277:335|266:292,1,75,10|0,0:0|0:0,0:0:0:0:
259,199,18497,1,0,1:0:0:0:
205,141,18663,2,0,P|138:151|105:242,1,150,0|8,0:0|0:0,0:0:0:0:
179,296,19162,1,2,1:2:0:0:
336,248,19328,5,0,3:0:0:0:
336,248,19411,1,0,3:0:0:0:
336,248,19494,2,0,P|342:158|366:78,1,150,10|0,0:0|1:0,0:0:0:0:
422,13,19993,2,0,P|356:75|287:56,1,150,10|10,0:0|0:0,0:0:0:0:
157,12,20492,1,0,1:0:0:0:
88,53,20658,1,0,0:0:0:0:
214,136,20824,6,0,P|218:88|234:44,1,75,10|0,0:0|0:0,0:0:0:0:
33,224,21157,2,0,P|29:176|13:132,1,75,2|8,1:2|0:0,0:0:0:0:
157,323,21489,2,0,P|161:275|177:231,1,75,0|8,0:0|0:0,0:0:0:0:
396,250,21821,5,2,1:2:0:0:
396,250,21988,1,0,0:0:0:0:
376,326,22154,2,0,P|363:237|285:213,2,150,14|0|0,0:0|1:0|0:0,0:0:0:0:
167,352,23151,1,2,1:2:0:0:
208,287,23317,1,0,0:0:0:0:
266,364,23483,6,0,P|191:340|97:342,1,150,10|0,0:0|1:0,0:0:0:0:
25,302,23982,1,10,0:0:0:0:
115,260,24148,2,0,P|128:209|126:173,1,75,2|8,0:0|0:0,0:0:0:0:
15,16,24481,2,0,P|28:67|26:103,1,75,2|0,1:2|0:0,0:0:0:0:
132,48,24813,6,0,B|212:69|172:101|272:127,1,150,10|0,0:0|1:0,0:0:0:0:
416,153,25312,2,0,P|344:180|312:270,1,150,10|8,0:0|0:0,0:0:0:0:
226,378,25810,2,0,P|202:325|165:299,1,75,2|0,1:2|0:0,0:0:0:0:
326,325,26143,6,0,B|390:338|390:338|407:353|407:353|498:373,1,150,10|0,0:0|1:0,0:0:0:0:
507,300,26641,1,8,0:0:0:0:
424,255,26807,1,2,0:0:0:0:
424,255,26974,1,10,0:0:0:0:
461,60,27140,5,2,1:2:0:0:
461,60,27306,1,0,0:0:0:0:
491,128,27472,2,0,P|426:151|343:197,1,150,14|0,0:0|1:0,0:0:0:0:
237,164,27971,1,8,0:0:0:0:
206,79,28137,1,0,0:0:0:0:
358,80,28303,1,8,0:0:0:0:
282,238,28470,2,0,P|236:247|190:244,1,75,2|0,1:2|0:0,0:0:0:0:
12,25,28802,6,0,P|63:79|55:172,1,150,10|0,0:0|1:0,0:0:0:0:
19,227,29301,1,10,0:0:0:0:
82,359,29467,2,0,P|133:345|154:321,1,75,2|8,0:0|0:0,0:0:0:0:
347,266,29799,2,0,P|296:252|275:228,1,75,2|0,1:2|0:0,0:0:0:0:
253,25,30132,5,10,0:0:0:0:
357,30,30298,1,0,0:0:0:0:
296,117,30464,1,0,1:0:0:0:
337,46,30630,2,0,P|408:59|448:143,1,150,10|8,0:0|0:0,0:0:0:0:
489,192,31129,2,0,P|469:233|477:275,1,75,2|0,1:2|0:0,0:0:0:0:
483,275,31378,1,0,0:0:0:0:
499,309,31461,5,8,0:0:0:0:
312,356,31627,1,0,3:0:0:0:
301,338,31711,1,0,1:0:0:0:
297,361,31794,5,0,1:0:0:0:
297,361,31877,2,0,L|213:346,1,75,8|8,0:0|0:0,0:0:0:0:
195,338,32126,2,0,L|142:348,2,37.5,8|8|8,0:0|0:0|0:0,0:0:0:0:
168,122,32458,1,0,1:0:0:0:
130,122,32541,1,0,1:0:0:0:
98,140,32624,1,0,1:0:0:0:
79,172,32707,1,0,1:0:0:0:
77,209,32791,6,0,P|77:289|51:381,1,150,12|0,0:0|1:0,0:0:0:0:
0,274,33289,1,8,0:0:0:0:
157,270,33456,2,0,P|207:258|239:244,1,75,0|8,0:0|0:0,0:0:0:0:
182,16,33788,1,2,1:2:0:0:
130,122,33954,1,2,0:0:0:0:
279,172,34120,6,0,B|335:158|335:158|374:166|374:166|441:142,1,150,10|0,0:0|1:0,0:0:0:0:
493,116,34619,1,8,0:0:0:0:
243,23,34785,5,14,0:0:0:0:
430,308,35118,5,14,0:0:0:0:
141,357,35450,6,0,P|61:339|47:249,1,150,14|0,0:0|1:0,0:0:0:0:
222,207,35949,2,0,L|255:382,1,150,10|8,0:0|0:0,0:0:0:0:
416,369,36447,1,2,1:2:0:0:
448,207,36614,1,2,0:0:0:0:
334,286,36780,5,10,0:0:0:0:
414,295,36946,1,0,0:0:0:0:
466,129,37112,5,0,1:0:0:0:
386,138,37278,1,8,0:0:0:0:
425,219,37445,1,0,0:0:0:0:
424,219,37611,1,8,0:0:0:0:
303,91,37777,5,2,1:2:0:0:
419,5,37943,1,2,0:0:0:0:
218,24,38109,6,0,P|249:99|256:203,1,150,14|0,0:0|1:0,0:0:0:0:
217,237,38608,2,0,P|201:280|207:321,1,75,10|0,0:0|0:0,0:0:0:0:
313,384,38940,1,8,0:0:0:0:
419,286,39107,2,0,P|411:240|385:208,1,75,2|0,1:2|0:0,0:0:0:0:
93,287,39439,6,0,P|163:303|181:397,1,150,10|0,0:0|1:0,0:0:0:0:
134,205,39938,1,10,0:0:0:0:
134,205,40270,1,8,0:0:0:0:
128,124,40436,1,2,1:2:0:0:
122,43,40602,1,0,0:0:0:0:
210,183,40769,6,0,P|209:232|187:268,1,75,8|2,0:0|0:0,0:0:0:0:
93,287,41101,1,0,1:0:0:0:
15,242,41267,1,8,0:0:0:0:
134,205,41434,1,2,0:0:0:0:
4,327,41600,1,8,0:0:0:0:
172,358,41766,2,0,P|211:368|261:381,1,75,2|0,1:2|0:0,0:0:0:0:
451,311,42098,6,0,P|463:262|476:229,1,75,10|0,0:0|0:0,0:0:0:0:
307,135,42431,2,0,P|319:170|328:207,1,75,2|8,1:2|0:0,0:0:0:0:
465,71,42763,2,0,P|477:22|490:-11,1,75,2|8,0:0|0:0,0:0:0:0:
497,148,43096,1,2,1:2:0:0:
311,28,43262,5,2,0:2:0:0:
311,28,43345,1,2,0:0:0:0:
311,28,43428,1,14,0:0:0:0:
311,28,43760,5,2,1:2:0:0:
319,108,43927,1,8,0:0:0:0:
161,114,44093,1,2,1:2:0:0:
169,34,44260,1,8,0:0:0:0:
240,86,44425,5,2,1:2:0:0:
85,72,44591,1,2,1:2:0:0:
189,219,44758,5,10,0:0:0:0:
189,219,45090,5,2,1:2:0:0:
191,300,45256,1,8,0:0:0:0:
261,174,45422,1,2,1:2:0:0:
261,174,45589,1,0,0:0:0:0:
93,143,45755,2,0,P|136:130|171:103,1,75,2|0,1:2|0:0,0:0:0:0:
105,365,46087,5,14,0:0:0:0:
105,365,46420,5,0,1:0:0:0:
184,374,46586,1,10,0:0:0:0:
319,266,46752,5,0,1:0:0:0:
136,284,46918,1,8,0:0:0:0:
274,383,47084,5,2,1:2:0:0:
230,308,47251,1,0,1:0:0:0:
230,308,47334,1,0,1:0:0:0:
230,308,47417,2,0,P|232:226|259:129,1,150,14|0,0:0|1:0,0:0:0:0:
292,96,47916,1,8,0:0:0:0:
151,51,48082,5,0,1:0:0:0:
115,64,48165,1,0,1:0:0:0:
79,76,48248,1,0,1:0:0:0:
43,88,48331,1,0,1:0:0:0:
45,75,48414,5,10,0:0:0:0:
53,54,48497,1,8,0:0:0:0:
76,18,48580,2,0,L|87:75,1,37.5,10|8,0:0|0:0,0:0:0:0:
43,201,48747,5,14,0:0:0:0:
144,343,49245,1,8,0:0:0:0:
144,343,49411,1,0,1:0:0:0:
321,276,49744,1,2,0:0:0:0:
315,188,49910,1,2,3:0:0:0:
315,188,49993,1,0,3:0:0:0:
315,188,50076,1,10,0:0:0:0:
442,51,50575,1,0,0:0:0:0:
442,51,50741,2,0,P|432:103|441:178,1,112.5,2|2,1:2|0:0,0:0:0:0:
436,162,51323,1,2,0:0:0:0:
436,162,51406,5,14,3:0:0:0:
399,238,51572,1,0,3:0:0:0:
507,347,51738,1,0,1:0:0:0:
483,255,51904,5,10,0:0:0:0:
418,329,52071,1,0,0:0:0:0:
272,270,52237,1,0,0:0:0:0:
380,248,52403,1,2,1:2:0:0:
329,358,52569,5,0,0:0:0:0:
329,358,52652,1,0,0:0:0:0:
329,358,52735,1,14,0:0:0:0:
218,316,52902,1,0,1:0:0:0:
292,282,53068,5,2,1:2:0:0:
133,205,53234,1,0,1:0:0:0:
215,234,53400,5,2,1:2:0:0:
378,122,53566,1,0,1:0:0:0:
315,178,53733,5,2,1:2:0:0:
139,113,53899,1,0,1:0:0:0:
414,38,54065,6,0,P|422:120|443:163,2,112.500004291535,14|0|0,0:0|1:0|0:0,0:0:0:0:
247,27,55062,2,0,P|217:48|185:50,1,56.2500021457673,2|0,1:2|0:0,0:0:0:0:
128,14,55395,5,10,0:0:0:0:
16,94,55727,1,0,1:0:0:0:
16,94,55893,2,0,P|26:164|30:213,1,112.500004291535,10|8,0:0|0:0,0:0:0:0:
61,281,56392,2,0,P|56:316|59:347,1,56.2500021457673,2|0,1:2|0:0,0:0:0:0:
138,343,56724,6,0,B|200:343|175:376|260:365,2,112.500004291535,10|0|0,0:0|1:0|0:0,0:0:0:0:
167,265,57555,1,8,0:0:0:0:
167,265,57722,2,0,P|206:267|238:273,1,56.2500021457673,2|0,1:2|0:0,0:0:0:0:
366,380,58054,5,10,0:0:0:0:
326,311,58220,2,0,P|314:283|310:248,1,56.2500021457673,10|0,0:0|1:0,0:0:0:0:
383,223,58553,2,0,P|323:212|293:153,1,112.500004291535,10|8,0:0|0:0,0:0:0:0:
302,78,59051,2,0,P|269:89|223:98,1,56.2500021457673,0|0,1:2|0:0,0:0:0:0:
241,89,59301,1,0,3:0:0:0:
237,78,59384,6,0,P|180:94|122:101,1,112.500004291535,10|0,0:0|1:0,0:0:0:0:
61,47,59882,2,0,P|101:97|92:167,1,112.500004291535,8|8,0:0|0:0,0:0:0:0:
77,215,60381,2,0,P|74:249|85:278,1,56.2500021457673,2|0,1:2|0:0,0:0:0:0:
141,369,60713,5,10,0:0:0:0:
280,307,60880,1,0,0:0:0:0:
153,240,61046,1,0,1:0:0:0:
198,308,61212,6,0,P|211:339|220:382,1,56.2500021457673,8|0,0:0|0:0,0:0:0:0:
360,344,61544,1,8,0:0:0:0:
298,254,61711,2,0,P|290:282|279:307,1,56.2500021457673,0|0,1:0|0:0,0:0:0:0:
490,308,62043,6,0,B|359:289|426:226|281:220,1,225.000008583069,10|0,0:0|0:0,0:0:0:0:
339,145,62874,1,8,0:0:0:0:
339,145,63040,2,0,L|353:73,1,56.2500021457673,0|0,1:0|0:0,0:0:0:0:
247,33,63373,5,10,0:0:0:0:
247,33,63539,1,0,0:0:0:0:
87,126,63705,5,2,1:2:0:0:
87,126,63871,1,0,0:0:0:0:
174,253,64037,5,10,0:0:0:0:
174,253,64203,1,0,0:0:0:0:
139,329,64370,5,2,1:2:0:0:
139,329,64536,1,0,0:0:0:0:
13,222,64702,6,0,P|38:303|56:385,1,150,14|0,0:0|1:0,0:0:0:0:
139,329,65201,1,8,0:0:0:0:
139,329,65533,1,8,0:0:0:0:
213,347,65699,2,0,P|257:356|291:366,1,75,2|0,1:2|0:0,0:0:0:0:
426,253,66032,6,0,P|336:278|263:278,1,150,10|0,0:0|1:0,0:0:0:0:
214,230,66530,1,8,0:0:0:0:
336,162,66697,2,0,P|386:152|426:141,1,75,2|8,0:0|0:0,0:0:0:0:
300,75,67029,2,0,P|250:65|210:54,1,75,0|0,1:0|0:0,0:0:0:0:
123,140,67361,6,0,P|178:150|212:236,1,150,10|0,0:0|1:0,0:0:0:0:
171,295,67860,1,8,0:0:0:0:
17,163,68026,2,0,P|13:117|1:79,1,75,2|8,0:0|0:0,0:0:0:0:
99,245,68359,2,0,P|89:281|87:318,1,75,0|0,1:0|0:0,0:0:0:0:
234,370,68691,5,10,0:0:0:0:
350,260,68857,1,8,0:0:0:0:
196,175,69024,1,0,1:0:0:0:
248,276,69190,1,10,0:0:0:0:
486,50,69522,1,8,0:0:0:0:
425,114,69688,2,0,P|374:127|339:131,1,75,2|0,1:2|3:0,0:0:0:0:
358,143,69938,1,0,3:0:0:0:
361,159,70021,6,0,P|379:216|390:268,1,112.5,14|8,0:0|0:0,0:0:0:0:
364,338,70686,1,0,1:0:0:0:
120,246,71184,1,0,0:0:0:0:
120,246,71267,1,0,3:0:0:0:
120,246,71350,6,0,P|100:176|30:159,1,150,14|2,0:0|1:2,0:0:0:0:
31,158,72348,2,0,L|158:132,1,93.75,2|2,0:0|0:0,0:0:0:0:
126,128,72597,1,2,0:0:0:0:
101,111,72680,5,14,0:0:0:0:
148,26,72846,1,0,0:0:0:0:
275,93,73012,1,0,1:0:0:0:
229,20,73179,5,10,0:0:0:0:
196,93,73345,1,0,0:0:0:0:
360,150,73511,1,8,0:0:0:0:
346,73,73677,2,0,P|337:34|341:-10,1,75,2|0,1:2|0:0,0:0:0:0:
473,188,74010,6,0,P|450:264|306:290,1,225,14|0,0:0|0:0,0:0:0:0:
219,261,74675,1,2,1:2:0:0:
223,298,74758,1,0,1:0:0:0:
228,335,74841,1,0,1:0:0:0:
234,371,74924,1,0,1:0:0:0:
246,358,75007,5,10,0:0:0:0:
257,358,75090,1,8,0:0:0:0:
268,359,75173,1,8,0:0:0:0:
279,361,75256,1,8,0:0:0:0:
290,362,75339,5,14,0:0:0:0:
442,298,75672,1,10,0:0:0:0:
414,135,76004,1,10,0:0:0:0:
414,135,76170,1,10,0:0:0:0:
273,47,76503,5,10,0:0:0:0:
112,85,76835,1,10,0:0:0:0:
50,238,77168,1,10,0:0:0:0:
50,238,77334,1,10,0:0:0:0:
151,367,77666,1,10,0:0:0:0:
292,281,77999,5,14,0:0:0:0:
225,130,78331,1,10,0:0:0:0:
378,73,78663,1,10,0:0:0:0:
378,73,78830,1,10,0:0:0:0:
229,4,79162,5,10,0:0:0:0:
486,65,79494,1,10,0:0:0:0:
283,81,79827,1,10,0:0:0:0:
283,81,79993,1,10,0:0:0:0:
427,139,80325,1,10,0:0:0:0:
167,276,80658,5,14,0:0:0:0:
97,74,80990,1,10,0:0:0:0:
169,30,81323,5,14,0:0:0:0:
107,164,81489,1,10,0:0:0:0:
17,23,81821,5,14,0:0:0:0:
331,72,82154,1,10,0:0:0:0:
246,112,82486,5,10,0:0:0:0:
169,30,82652,1,14,0:0:0:0:
397,0,82985,1,10,0:0:0:0:
484,159,83317,5,14,0:0:0:0:
265,18,83650,1,10,0:0:0:0:
421,39,83982,5,14,0:0:0:0:
416,116,84148,2,0,P|442:194|445:305,1,168.750006437302,10|0,0:0|0:0,0:0:0:0:
453,294,84481,6,0,P|442:226|428:306,1,225,10|0,0:0|0:0,0:0:0:0:
