osu file format v14

[General]
AudioFilename: audio.mp3
AudioLeadIn: 0
PreviewTime: 11101
Countdown: 0
SampleSet: Soft
StackLeniency: 0.7
Mode: 0
LetterboxInBreaks: 0
WidescreenStoryboard: 1

[Editor]
DistanceSpacing: 1.3
BeatDivisor: 4
GridSize: 4
TimelineZoom: 1

[Metadata]
Title:TSUBASA -Game size-
TitleUnicode:TSUBASA -Game size-
Artist:Katakiri Rekka
ArtistUnicode:片霧烈火
Creator:InternalLight
Version:Hard
Source:うみねこのなく頃に散
Tags:07th expansion when they cry umineko no naku koro ni chiru dai hope djulus visual novel
BeatmapID:1949379
BeatmapSetID:933778

[Difficulty]
HPDrainRate:5
CircleSize:4
OverallDifficulty:6
ApproachRate:7.5
SliderMultiplier:1.5
SliderTickRate:1

[Events]
//Background and Video events
0,0,"anime.jpg",0,0
//Break Periods
2,54265,58559
//Storyboard Layer 0 (Background)
//Storyboard Layer 1 (Fail)
//Storyboard Layer 2 (Pass)
//Storyboard Layer 3 (Foreground)
//Storyboard Sound Samples

[TimingPoints]
880,332.409972299169,4,2,1,60,1,0
5866,-100,4,2,1,70,0,0
5907,-100,4,2,1,5,0,0
5949,-100,4,2,1,50,0,0
6198,-100,4,2,1,90,0,0
11517,-100,4,2,1,70,0,0
43428,-100,4,2,1,90,0,0
48414,-100,4,2,1,80,0,0
48580,-100,4,2,1,70,0,0
48747,-100,4,2,1,60,0,0
51406,-100,4,2,1,70,0,0
52735,-100,4,2,1,80,0,0
54065,-100,4,2,1,60,0,0
63373,-100,4,2,1,65,0,0
63705,-100,4,2,1,70,0,0
64037,-100,4,2,1,75,0,0
64370,-100,4,2,1,80,0,0
75339,-100,4,2,1,95,0,0
80657,-100,4,2,1,100,0,0
84480,-100,4,2,1,50,0,0
84979,-100,4,2,1,5,0,0

[Colours]
Combo1 : 250,255,192
Combo2 : 255,220,250
Combo3 : 210,250,200
Combo4 : 180,165,230

[HitObjects]
72,7,880,6,0,P|67:44|79:85,1,75,10|0,0:0|0:0,0:0:0:0:
143,114,1212,2,0,P|148:151|136:192,1,75,8|0,0:0|0:0,0:0:0:0:
71,220,1544,2,0,P|137:226|160:320,1,150,10|8,0:0|0:0,0:0:0:0:
115,350,2043,1,0,0:0:0:0:
187,370,2209,6,0,L|290:347,1,75,10|0,0:0|0:0,0:0:0:0:
307,294,2542,2,0,L|410:317,1,75,8|0,0:0|0:0,0:0:0:0:
443,363,2874,1,10,0:0:0:0:
443,363,3040,1,0,0:0:0:0:
502,292,3206,1,8,0:0:0:0:
446,223,3373,1,0,1:0:0:0:
486,144,3539,6,0,L|494:58,1,75,10|0,0:0|0:0,0:0:0:0:
416,100,3871,2,0,L|408:14,1,75,8|0,0:0|0:0,0:0:0:0:
329,1,4204,1,10,0:0:0:0:
329,1,4370,1,0,0:0:0:0:
266,54,4536,2,0,P|225:66|189:57,1,75,8|0,0:0|0:0,0:0:0:0:
114,39,4868,6,0,P|166:81|158:167,2,150,10|8|10,0:0|0:0|0:0,0:0:0:0:
35,11,5699,1,8,0:0:0:0:
35,11,5866,1,0,1:0:0:0:
32,175,6198,6,0,P|30:222|50:262,1,75,0|0,1:0|1:0,0:0:0:0:
39,247,6447,1,0,1:0:0:0:
39,247,6530,2,0,L|137:236,1,75,0|0,1:0|1:0,0:0:0:0:
186,277,6863,1,0,1:0:0:0:
109,324,7029,1,0,1:0:0:0:
195,361,7195,2,0,P|234:361|281:375,1,75,0|0,1:0|1:0,0:0:0:0:
268,369,7445,1,0,1:0:0:0:
268,369,7528,6,0,P|264:316|277:277,1,75,0|0,1:0|1:0,0:0:0:0:
325,235,7860,2,0,P|361:241|398:236,1,75,0|0,1:0|1:0,0:0:0:0:
454,174,8193,1,0,1:0:0:0:
472,93,8359,1,0,1:0:0:0:
413,35,8525,1,0,1:0:0:0:
333,56,8691,1,0,1:0:0:0:
301,131,8857,6,0,P|257:149|214:148,1,75,10|8,0:0|0:0,0:0:0:0:
181,83,9190,2,0,P|143:86|109:102,1,75,8|8,0:0|0:0,0:0:0:0:
43,151,9522,1,2,1:2:0:0:
43,151,9688,1,0,0:0:0:0:
111,197,9855,2,0,L|101:250,3,37.5,0|0|0|0,1:0|1:0|1:0|1:0,0:0:0:0:
144,243,10187,6,0,L|40:260,1,75,8|0,0:0|1:0,0:0:0:0:
37,280,10436,1,0,1:0:0:0:
37,280,10519,1,0,1:0:0:0:
98,335,10686,2,0,P|154:322|217:399,1,150,8|0,0:0|0:0,0:0:0:0:
297,378,11184,1,2,1:2:0:0:
354,318,11350,1,2,1:2:0:0:
277,285,11517,6,0,P|293:213|294:129,2,150,14|0|0,0:0|1:0|0:0,0:0:0:0:
411,381,12514,2,0,P|442:368|483:355,1,75,2|2,1:2|0:0,0:0:0:0:
486,273,12846,6,0,P|461:192|395:192,1,150,10|0,0:0|1:0,0:0:0:0:
372,110,13345,1,8,0:0:0:0:
444,71,13511,2,0,P|458:23|452:-13,1,75,2|8,0:0|0:0,0:0:0:0:
373,3,13843,2,0,P|325:17|289:11,1,75,2|0,1:2|0:0,0:0:0:0:
240,71,14176,6,0,B|152:71|201:111|83:119,1,150,10|0,0:0|1:0,0:0:0:0:
38,62,14675,2,0,P|62:146|69:221,1,150,10|8,0:0|0:0,0:0:0:0:
143,242,15173,1,2,1:2:0:0:
99,312,15339,1,2,0:2:0:0:
169,354,15506,6,0,P|248:334|339:360,1,150,10|0,0:0|1:0,0:0:0:0:
392,379,16004,1,10,0:0:0:0:
450,316,16170,2,0,P|435:281|437:244,1,75,2|8,0:0|0:0,0:0:0:0:
378,178,16503,1,2,1:2:0:0:
428,112,16669,1,0,0:0:0:0:
358,67,16835,6,0,P|314:70|262:88,1,75,14|0,0:2|0:0,0:0:0:0:
225,136,17168,1,0,1:0:0:0:
185,63,17334,2,0,P|134:28|45:53,1,150,10|10,0:0|0:0,0:0:0:0:
3,112,17832,1,0,1:0:0:0:
71,158,17999,1,0,0:0:0:0:
11,215,18165,2,0,P|25:250|27:310,1,75,10|0,0:0|0:0,0:0:0:0:
76,354,18497,6,0,P|132:323|236:315,1,150,0|0,1:0|0:0,0:0:0:0:
275,254,18996,1,8,0:0:0:0:
340,304,19162,1,2,1:2:0:0:
356,223,19328,5,0,3:0:0:0:
356,223,19411,1,0,3:0:0:0:
356,223,19494,2,0,B|441:227|417:275|515:264,1,150,10|0,0:0|1:0,0:0:0:0:
490,182,19993,2,0,P|477:119|472:29,1,150,10|10,0:0|0:0,0:0:0:0:
393,7,20492,1,0,1:0:0:0:
349,76,20658,1,0,0:0:0:0:
283,25,20824,6,0,L|201:12,1,75,10|0,0:0|0:0,0:0:0:0:
230,93,21157,2,0,L|148:80,1,75,2|8,1:2|0:0,0:0:0:0:
169,162,21489,2,0,L|87:149,1,75,0|8,0:0|0:0,0:0:0:0:
18,180,21821,1,2,1:2:0:0:
77,238,21988,1,0,0:0:0:0:
24,301,22154,6,0,P|118:279|183:273,2,150,14|0|0,0:0|1:0|0:0,0:0:0:0:
175,368,23151,2,0,P|213:371|253:355,1,75,2|0,1:2|0:0,0:0:0:0:
256,274,23483,6,0,P|306:293|329:387,1,150,10|0,0:0|1:0,0:0:0:0:
413,368,23982,1,10,0:0:0:0:
484,326,24148,2,0,P|491:274|474:235,1,75,2|8,0:0|0:0,0:0:0:0:
419,201,24481,2,0,P|412:149|429:110,1,75,2|0,1:2|0:0,0:0:0:0:
485,81,24813,6,0,P|405:101|328:101,1,150,10|0,0:0|1:0,0:0:0:0:
266,59,25312,2,0,P|211:101|242:187,1,150,10|8,0:0|0:0,0:0:0:0:
307,188,25810,1,2,1:2:0:0:
342,260,25976,1,0,0:0:0:0:
256,274,26143,2,0,B|171:272|202:318|86:308,2,150,10|0|2,0:0|1:0|0:0,0:0:0:0:
492,291,27140,5,2,1:2:0:0:
421,332,27306,1,0,0:0:0:0:
485,381,27472,2,0,P|474:309|474:204,2,150,14|0|0,0:0|1:0|0:0,0:0:0:0:
310,342,28470,5,2,1:2:0:0:
310,342,28636,1,0,0:0:0:0:
256,274,28802,2,0,P|191:281|163:359,1,150,10|0,0:0|1:0,0:0:0:0:
79,363,29301,1,10,0:0:0:0:
32,295,29467,2,0,P|22:252|27:205,1,75,2|8,0:0|0:0,0:0:0:0:
91,174,29799,2,0,P|101:131|96:84,1,75,2|0,1:2|0:0,0:0:0:0:
45,37,30132,5,10,0:0:0:0:
256,192,30215,12,0,32458,1:0:0:0:
65,363,32791,6,0,P|90:310|175:295,2,150,12|0|0,0:0|1:0|0:0,0:0:0:0:
45,198,33788,2,0,P|39:149|19:115,1,75,2|2,1:2|0:0,0:0:0:0:
10,45,34120,2,0,P|86:59|181:71,1,150,10|0,0:0|1:0,0:0:0:0:
221,15,34619,1,8,0:0:0:0:
238,104,34785,5,14,0:0:0:0:
427,149,35118,1,14,0:0:0:0:
389,309,35450,6,4,P|339:353|233:343,1,150,14|0,0:0|1:0,0:0:0:0:
168,363,35949,2,0,P|146:263|125:199,1,150,10|8,0:0|0:0,0:0:0:0:
176,140,36447,1,2,1:2:0:0:
121,67,36614,1,2,0:0:0:0:
195,16,36780,6,0,P|236:27|279:22,1,75,10|0,0:0|0:0,0:0:0:0:
319,98,37112,2,0,P|356:96|392:106,1,75,0|8,1:0|0:0,0:0:0:0:
463,2,37445,2,0,P|464:73|485:164,1,150,0|0,0:0|1:0,0:0:0:0:
425,213,37943,1,2,0:0:0:0:
504,249,38109,6,0,P|485:315|388:326,1,150,14|0,0:0|1:0,0:0:0:0:
340,282,38608,2,0,P|291:286|252:316,1,75,10|0,0:0|0:0,0:0:0:0:
186,263,38940,1,8,0:0:0:0:
197,352,39107,2,0,P|163:367|126:368,1,75,2|0,1:2|0:0,0:0:0:0:
45,327,39439,6,0,B|48:246|82:271|74:173,1,150,10|0,0:0|1:0,0:0:0:0:
47,95,39938,2,0,P|79:28|160:44,1,150,10|8,0:0|0:0,0:0:0:0:
230,0,40436,1,2,1:2:0:0:
230,0,40602,1,0,0:0:0:0:
391,140,40935,5,2,0:0:0:0:
466,188,41101,1,0,1:0:0:0:
469,277,41267,1,8,0:0:0:0:
432,359,41434,2,0,P|382:348|357:349,1,75,2|8,0:0|0:0,0:0:0:0:
313,271,41766,2,0,P|263:282|238:281,1,75,2|0,1:2|0:0,0:0:0:0:
204,364,42098,2,0,P|193:281|169:212,2,150,10|2|2,0:0|1:2|0:0,0:0:0:0:
55,260,43096,5,2,1:2:0:0:
22,177,43262,1,2,0:2:0:0:
22,177,43345,1,2,0:0:0:0:
22,177,43428,2,0,P|21:107|114:68,2,150,14|2|2,0:0|1:2|1:2,0:0:0:0:
171,218,44425,6,0,P|217:210|258:195,1,75,2|2,1:2|1:2,0:0:0:0:
280,118,44758,2,0,P|373:143|380:214,1,150,10|2,0:0|1:2,0:0:0:0:
316,243,45256,1,8,0:0:0:0:
397,281,45422,2,0,P|445:271|475:245,1,75,2|0,1:2|0:0,0:0:0:0:
479,166,45755,2,0,P|455:112|467:73,1,75,2|0,1:2|0:0,0:0:0:0:
462,8,46087,6,0,B|347:20|409:120|258:123,2,225,14|10|2,0:0|0:0|1:2,0:0:0:0:
456,98,47251,1,0,1:0:0:0:
456,98,47334,1,0,1:0:0:0:
456,98,47417,2,0,P|466:146|492:176,1,75,14|0,0:0|0:0,0:0:0:0:
465,256,47749,2,0,P|433:275|397:281,1,75,0|8,1:0|0:0,0:0:0:0:
316,243,48082,2,0,L|256:226,3,37.5,0|0|0|0,1:0|1:0|1:0|1:0,0:0:0:0:
269,276,48414,2,0,L|209:259,3,37.5,10|8|10|8,0:0|0:0|0:0|0:0,0:0:0:0:
226,310,48747,6,0,P|208:242|182:166,2,150,14|0|0,0:0|0:0|1:0,0:0:0:0:
45,303,49744,1,2,0:0:0:0:
81,220,49910,1,2,0:0:0:0:
81,220,49993,1,0,0:0:0:0:
81,220,50076,6,0,P|99:152|125:76,2,150,10|0|2,0:0|0:0|1:2,0:0:0:0:
198,357,51073,1,2,0:0:0:0:
235,274,51240,5,2,0:0:0:0:
235,274,51323,1,2,0:0:0:0:
235,274,51406,2,0,P|302:312|354:394,1,150,14|0,0:0|1:0,0:0:0:0:
410,308,51904,2,0,P|420:266|411:228,1,75,10|0,0:0|0:0,0:0:0:0:
340,182,52237,1,0,0:0:0:0:
409,124,52403,2,0,P|451:134|489:125,1,75,2|0,1:2|0:0,0:0:0:0:
502,50,52735,5,14,0:0:0:0:
256,192,52819,12,14,54065,0:0:0:0:
139,17,59384,6,0,P|64:43|65:117,1,150,10|0,0:0|1:0,0:0:0:0:
130,144,59882,2,0,L|107:303,1,150,8|8,0:0|0:0,0:0:0:0:
139,369,60381,2,0,P|190:365|226:338,1,75,2|0,1:2|0:0,0:0:0:0:
233,272,60713,6,0,B|382:280|382:280|420:364,2,225,10|10|2,0:0|0:0|1:2,0:0:0:0:
124,146,62043,6,0,P|129:42|188:31,1,150,10|0,0:0|1:0,0:0:0:0:
233,62,62542,1,8,0:0:0:0:
301,15,62708,2,0,P|348:14|380:22,1,75,0|8,0:0|0:0,0:0:0:0:
437,73,63040,2,0,P|429:109|431:147,1,75,0|0,1:0|0:0,0:0:0:0:
477,216,63373,5,10,0:0:0:0:
346,316,63705,1,2,1:2:0:0:
181,325,64037,1,10,0:0:0:0:
45,263,64370,1,2,1:2:0:0:
164,149,64702,6,0,P|148:62|69:52,2,150,14|0|0,0:0|1:0|0:0,0:0:0:0:
329,156,65699,2,0,P|377:143|406:129,1,75,2|0,1:2|0:0,0:0:0:0:
438,58,66032,6,0,P|431:127|456:231,1,150,10|0,0:0|1:0,0:0:0:0:
506,261,66530,1,8,0:0:0:0:
441,313,66697,2,0,P|398:326|353:326,1,75,2|8,0:0|0:0,0:0:0:0:
304,274,67029,2,0,P|261:261|216:261,1,75,0|0,1:0|0:0,0:0:0:0:
200,335,67361,6,0,B|115:340|153:292|49:296,1,150,10|0,0:0|1:0,0:0:0:0:
22,221,67860,1,8,0:0:0:0:
83,166,68026,2,0,P|93:115|89:79,1,75,2|8,0:0|0:0,0:0:0:0:
152,36,68359,2,0,P|203:46|239:42,1,75,0|0,1:0|0:0,0:0:0:0:
304,68,68691,5,10,0:0:0:0:
242,123,68857,1,8,0:0:0:0:
305,176,69024,1,0,1:0:0:0:
367,122,69190,2,0,P|422:164|401:253,1,150,10|8,0:0|0:0,0:0:0:0:
368,306,69688,2,0,P|422:320|456:310,1,75,2|0,1:2|3:0,0:0:0:0:
439,316,69938,1,0,3:0:0:0:
439,316,70021,6,0,P|358:328|321:385,2,150,14|0|0,0:0|0:0|1:0,0:0:0:0:
276,306,71018,2,0,P|222:320|188:310,1,75,2|0,0:0|0:0,0:0:0:0:
204,316,71268,1,0,0:0:0:0:
204,316,71351,6,0,P|285:327|322:384,2,150,14|0|2,0:0|0:0|1:2,0:0:0:0:
45,269,72348,2,0,P|33:224|18:192,1,75,2|2,0:0|0:0,0:0:0:0:
21,198,72597,1,2,0:0:0:0:
21,198,72680,6,0,P|80:185|179:160,1,150,14|0,0:0|1:0,0:0:0:0:
243,196,73179,2,0,P|261:118|187:65,1,150,10|8,0:0|0:0,0:0:0:0:
154,17,73677,2,0,P|117:42|62:35,1,75,2|0,1:2|0:0,0:0:0:0:
10,12,74010,5,14,0:0:0:0:
83,147,74342,1,0,1:0:0:0:
217,71,74675,2,0,L|273:66,3,37.5,2|0|0|0,1:2|1:0|1:0|1:0,0:0:0:0:
255,108,75007,2,0,L|311:103,3,37.5,10|8|8|8,0:0|0:0|0:0|0:0,0:0:0:0:
285,145,75339,6,0,P|374:165|382:231,1,150,14|10,0:0|0:0,0:0:0:0:
485,345,76004,1,10,0:0:0:0:
485,345,76170,1,10,0:0:0:0:
332,282,76503,6,0,P|312:371|246:379,1,150,10|10,0:0|0:0,0:0:0:0:
100,360,77168,1,10,0:0:0:0:
100,360,77334,1,10,0:0:0:0:
194,225,77666,1,10,0:0:0:0:
66,120,77999,6,0,P|94:233|112:295,1,150,14|10,0:0|0:0,0:0:0:0:
262,308,78663,1,10,0:0:0:0:
262,308,78830,1,10,0:0:0:0:
316,152,79162,6,0,P|358:80|433:77,1,150,10|10,0:0|0:0,0:0:0:0:
502,214,79827,1,10,0:0:0:0:
502,214,79993,1,10,0:0:0:0:
344,262,80325,1,10,0:0:0:0:
469,369,80658,6,0,P|382:368|296:374,1,150,14|10,0:0|0:0,0:0:0:0:
190,225,81323,1,14,0:0:0:0:
190,225,81489,1,10,0:0:0:0:
39,348,81821,6,0,P|149:350|199:320,1,150,14|10,0:0|0:0,0:0:0:0:
294,172,82486,1,10,0:0:0:0:
294,172,82652,1,14,0:0:0:0:
439,302,82985,1,10,0:0:0:0:
445,107,83317,6,0,P|418:40|315:18,1,150,14|10,0:0|0:0,0:0:0:0:
164,72,83982,1,14,0:0:0:0:
164,72,84148,1,10,0:0:0:0:
230,255,84481,5,10,0:0:0:0:
