osu file format v14

[General]
AudioFilename: audio.mp3
AudioLeadIn: 0
PreviewTime: 11101
Countdown: 0
SampleSet: Soft
StackLeniency: 0.5
Mode: 0
LetterboxInBreaks: 0
WidescreenStoryboard: 0

[Editor]
DistanceSpacing: 1.2
BeatDivisor: 4
GridSize: 4
TimelineZoom: 1

[Metadata]
Title:TSUBASA -Game size-
TitleUnicode:TSUBASA -Game size-
Artist:Katakiri Rekka
ArtistUnicode:片霧烈火
Creator:InternalLight
Version:Expert
Source:うみねこのなく頃に散
Tags:07th expansion when they cry umineko no naku koro ni chiru dai hope djulus visual novel
BeatmapID:1949380
BeatmapSetID:933778

[Difficulty]
HPDrainRate:6
CircleSize:4
OverallDifficulty:8.3
ApproachRate:9
SliderMultiplier:1.6
SliderTickRate:1

[Events]
//Background and Video events
0,0,"anime.jpg",0,0
//Break Periods
//Storyboard Layer 0 (Background)
//Storyboard Layer 1 (Fail)
//Storyboard Layer 2 (Pass)
//Storyboard Layer 3 (Foreground)
//Storyboard Sound Samples

[TimingPoints]
880,332.409972299169,4,2,1,60,1,0
880,-133.333333333333,4,2,1,60,0,0
5866,-133.333333333333,4,2,1,70,0,0
5907,-133.333333333333,4,2,1,5,0,0
5949,-133.333333333333,4,2,1,50,0,0
6198,-90.9090909090909,4,2,1,90,0,0
10686,-200,4,2,1,90,0,0
11184,-66.6666666666667,4,2,1,90,0,0
11517,-100,4,2,1,70,0,0
34785,-80,4,2,1,70,0,0
35118,-66.6666666666667,4,2,1,70,0,0
35450,-100,4,2,1,70,0,0
37943,-80,4,2,1,70,0,0
40769,-100,4,2,1,70,0,0
43262,-80,4,2,1,70,0,0
43428,-80,4,2,1,90,0,0
43760,-100,4,2,1,90,0,0
44758,-80,4,2,1,90,0,0
45090,-100,4,2,1,90,0,0
46087,-80,4,2,1,90,0,0
46420,-100,4,2,1,90,0,0
47251,-80,4,2,1,90,0,0
48414,-80,4,2,1,80,0,0
48580,-80,4,2,1,70,0,0
48747,-285.714285714286,4,2,1,60,0,0
49411,-100,4,2,1,60,0,0
50076,-200,4,2,1,60,0,0
50741,-100,4,2,1,60,0,0
51406,-100,4,2,1,70,0,0
52735,-80,4,2,1,80,0,0
54065,-133.333333333333,4,2,1,60,0,0
63373,-100,4,2,1,65,0,0
63705,-80,4,2,1,70,0,0
64037,-66.6666666666667,4,2,1,75,0,0
64370,-57.1428571428571,4,2,1,80,0,0
64702,-100,4,2,1,80,0,0
75339,-66.6666666666667,4,2,1,95,0,0
76003,-40,4,2,1,95,0,0
76502,-66.6666666666667,4,2,1,95,0,0
78663,-40,4,2,1,95,0,0
79161,-66.6666666666667,4,2,1,95,0,0
79992,-66.6666666666667,4,2,1,95,0,0
80657,-50,4,2,1,100,0,0
81322,-33.3333333333333,4,2,1,100,0,0
81820,-50,4,2,1,100,0,0
84480,-200,4,2,1,50,0,0
84979,-200,4,2,1,5,0,0

[Colours]
Combo1 : 250,255,192
Combo2 : 255,220,250
Combo3 : 210,250,200
Combo4 : 180,165,230

[HitObjects]
77,248,880,6,0,P|69:206|59:176,1,60.0000022888184,10|0,0:0|0:0,0:0:0:0:
206,193,1212,2,0,P|197:221|192:251,1,60.0000022888184,8|0,0:0|0:0,0:0:0:0:
136,322,1544,2,0,L|136:182,1,120.000004577637,10|8,0:0|0:0,0:0:0:0:
137,127,2043,1,0,0:0:0:0:
244,36,2209,5,10,0:0:0:0:
248,152,2375,1,0,0:0:0:0:
249,46,2542,1,8,0:0:0:0:
253,162,2708,1,0,0:0:0:0:
340,103,2874,5,10,0:0:0:0:
323,97,3040,1,0,0:0:0:0:
161,111,3206,1,8,0:0:0:0:
178,105,3372,1,0,1:0:0:0:
178,105,3539,6,0,P|172:141|168:186,1,60.0000022888184,10|0,0:0|0:0,0:0:0:0:
129,239,3871,2,0,P|135:275|139:320,1,60.0000022888184,8|0,0:0|0:0,0:0:0:0:
237,366,4204,5,10,0:0:0:0:
231,343,4370,1,0,0:0:0:0:
389,305,4536,1,8,0:0:0:0:
384,337,4702,1,0,0:0:0:0:
384,337,4868,6,0,P|352:332|309:326,1,60.0000022888184,10|0,0:0|0:0,0:0:0:0:
428,260,5201,2,0,P|460:255|503:249,1,60.0000022888184,8|0,0:0|0:0,0:0:0:0:
463,164,5533,1,10,0:0:0:0:
468,144,5699,1,8,0:0:0:0:
298,73,5866,1,0,1:0:0:0:
141,162,6198,5,0,1:0:0:0:
227,201,6364,2,0,L|232:263,1,44.0000013427735,0|0,1:0|1:0,0:0:0:0:
220,122,6530,5,0,1:0:0:0:
306,161,6696,2,0,L|311:223,1,44.0000013427735,0|0,1:0|1:0,0:0:0:0:
298,73,6863,5,0,1:0:0:0:
384,112,7029,2,0,L|389:174,1,44.0000013427735,0|0,1:0|1:0,0:0:0:0:
377,33,7195,5,0,1:0:0:0:
463,72,7361,2,0,L|468:134,1,44.0000013427735,0|0,1:0|1:0,0:0:0:0:
471,301,7528,5,0,1:0:0:0:
402,364,7694,2,0,P|382:333|380:291,1,44.0000013427735,0|0,1:3|1:3,0:3:0:0:
451,291,7860,5,0,1:0:0:0:
389,348,8026,2,0,P|371:320|369:282,1,44.0000013427735,0|0,1:3|1:3,0:3:0:0:
433,283,8193,5,0,1:0:0:0:
377,334,8359,2,0,P|360:308|359:275,1,44.0000013427735,0|0,1:3|1:3,0:3:0:0:
417,276,8525,5,0,1:0:0:0:
367,321,8691,2,0,P|352:298|351:267,1,44.0000013427735,0|0,1:3|1:3,0:3:0:0:
387,155,8857,5,10,0:0:0:0:
171,116,9024,1,8,0:0:0:0:
266,319,9190,1,8,0:0:0:0:
305,194,9356,1,8,0:0:0:0:
161,296,9522,2,0,P|177:344|193:404,1,88.000002685547,0|0,1:0|0:0,0:0:0:0:
177,211,9855,1,0,1:0:0:0:
134,218,9938,1,0,1:0:0:0:
99,245,10021,1,0,1:0:0:0:
80,284,10104,1,0,1:0:0:0:
82,328,10187,6,0,L|91:375,1,44.0000013427735,8|0,0:0|0:0,0:0:0:0:
136,134,10353,1,0,1:0:0:0:
133,90,10436,1,0,1:0:0:0:
130,46,10519,1,0,1:0:0:0:
322,268,10686,6,0,P|326:312|332:348,1,80,8|0,0:0|0:0,0:0:0:0:
326,366,11184,6,0,B|314:329|314:329|322:305|322:305|308:288|308:288|305:201,1,120.000004577637,2|2,1:2|1:2,0:0:0:0:
346,57,11517,6,0,P|409:70|467:180,1,160,14|0,0:0|1:0,0:0:0:0:
273,142,12015,2,0,P|271:101|264:59,1,80,8|0,0:0|0:0,0:0:0:0:
196,7,12348,1,8,0:0:0:0:
47,167,12514,1,2,1:2:0:0:
191,105,12680,1,2,0:0:0:0:
107,65,12846,6,0,B|106:114|106:114|130:158|130:158|123:230,1,160,10|0,0:0|1:0,0:0:0:0:
68,277,13345,1,8,0:0:0:0:
209,358,13511,2,0,B|193:318|193:318|204:266,1,80,2|8,0:0|0:0,0:0:0:0:
379,278,13843,2,0,B|386:314|386:314|370:354,1,80,2|0,1:2|0:0,0:0:0:0:
293,365,14176,6,0,B|314:277|248:297|276:192,1,160,10|0,0:0|1:0,0:0:0:0:
359,14,14675,2,0,L|374:192,1,160,10|8,0:0|0:0,0:0:0:0:
461,44,15173,1,2,1:2:0:0:
265,108,15339,1,2,0:2:0:0:
432,296,15506,6,0,B|446:257|446:257|434:201,1,80,10|0,0:0|0:0,0:0:0:0:
372,173,15838,1,0,1:0:0:0:
512,303,16004,2,0,P|453:314|384:392,1,160,10|8,0:0|0:0,0:0:0:0:
272,272,16503,2,0,L|366:262,1,80,2|0,1:2|0:0,0:0:0:0:
457,70,16835,5,14,0:2:0:0:
288,157,17001,1,0,0:0:0:0:
505,177,17168,1,0,1:0:0:0:
290,56,17334,2,0,P|296:98|304:146,1,80,10|0,0:0|0:0,0:0:0:0:
176,244,17666,1,10,0:0:0:0:
116,176,17832,2,0,B|157:162|157:162|199:164,1,80,0|0,1:0|0:0,0:0:0:0:
402,269,18165,6,0,P|361:281|308:274,1,80,10|0,0:0|0:0,0:0:0:0:
479,213,18497,2,0,P|426:260|415:362,1,160,0|0,1:0|0:0,0:0:0:0:
481,366,18996,1,8,0:0:0:0:
339,366,19162,1,2,1:2:0:0:
327,186,19328,5,0,3:0:0:0:
327,186,19411,1,0,3:0:0:0:
327,186,19494,2,0,B|371:187|371:187|418:216|418:216|480:212,1,160,10|0,0:0|1:0,0:0:0:0:
374,36,19993,2,0,B|284:34|316:91|233:96,1,160,10|10,0:0|0:0,0:0:0:0:
441,117,20492,2,0,P|449:77|464:40,1,80,0|0,1:0|0:0,0:0:0:0:
166,174,20824,6,0,P|182:214|190:259,1,80,10|0,0:0|0:0,0:0:0:0:
291,243,21157,2,0,P|232:255|187:355,1,160,2|0,1:2|0:0,0:0:0:0:
254,368,21655,1,8,0:0:0:0:
86,209,21821,1,2,1:2:0:0:
105,315,21988,1,0,0:0:0:0:
30,271,22154,6,0,L|216:246,1,160,14|0,0:0|1:0,0:0:0:0:
291,243,22652,1,10,0:0:0:0:
170,135,22819,2,0,P|125:126|76:119,1,80,0|8,0:0|0:0,0:0:0:0:
29,321,23151,1,2,1:2:0:0:
188,249,23317,1,0,0:0:0:0:
101,196,23483,6,0,B|90:246|90:246|121:300|121:300|117:369,1,160,10|0,0:0|1:0,0:0:0:0:
197,361,23982,1,10,0:0:0:0:
363,334,24148,2,0,B|371:291|371:291|357:251,1,80,2|8,0:0|0:0,0:0:0:0:
191,171,24481,2,0,B|179:205|179:205|187:248,1,80,2|0,1:2|0:0,0:0:0:0:
187,248,24730,1,2,0:0:0:0:
187,248,24813,6,0,B|98:231|118:298|27:278,1,160,10|0,0:0|1:0,0:0:0:0:
240,324,25312,2,0,P|192:242|234:164,1,160,10|8,0:0|0:0,0:0:0:0:
352,281,25810,2,0,P|342:324|338:376,1,80,2|0,1:2|0:0,0:0:0:0:
483,193,26143,6,0,B|434:192|434:192|388:167|388:167|301:166,1,160,10|0,0:0|1:0,0:0:0:0:
254,146,26641,1,8,0:0:0:0:
381,89,26807,1,2,0:0:0:0:
384,6,26974,1,10,0:0:0:0:
162,130,27140,5,2,1:2:0:0:
254,146,27306,1,0,3:0:0:0:
254,146,27389,1,0,3:0:0:0:
254,146,27472,6,0,P|203:153|128:235,1,160,14|0,0:0|1:0,0:0:0:0:
100,299,27971,1,8,0:0:0:0:
212,267,28137,1,0,0:0:0:0:
73,306,28303,1,8,0:0:0:0:
215,364,28470,2,0,P|261:353|296:340,1,80,2|0,1:2|0:0,0:0:0:0:
473,262,28802,6,0,P|418:244|290:214,1,160,10|0,0:0|1:0,0:0:0:0:
366,147,29301,1,10,0:0:0:0:
248,289,29467,2,0,P|203:303|152:289,1,80,2|8,0:0|0:0,0:0:0:0:
364,350,29799,2,0,P|409:336|460:350,1,80,2|0,1:2|0:0,0:0:0:0:
470,245,30132,5,10,0:0:0:0:
473,165,30298,1,0,0:0:0:0:
476,85,30464,1,0,1:0:0:0:
483,229,30630,5,10,0:0:0:0:
486,149,30796,1,0,0:0:0:0:
489,69,30962,1,8,0:0:0:0:
288,197,31129,1,2,1:2:0:0:
366,198,31295,5,0,3:0:0:0:
355,236,31378,1,0,3:0:0:0:
328,264,31461,1,8,0:0:0:0:
156,360,31627,5,0,1:0:0:0:
147,308,31711,1,0,1:0:0:0:
107,295,31794,5,0,1:0:0:0:
107,295,31877,2,0,P|157:296|198:293,1,80,8|8,0:0|0:0,0:0:0:0:
251,234,32126,5,8,0:0:0:0:
250,193,32209,1,8,0:0:0:0:
250,154,32292,1,8,0:0:0:0:
186,294,32458,5,0,1:0:0:0:
233,316,32541,1,0,1:0:0:0:
285,310,32624,1,0,1:0:0:0:
325,275,32707,1,0,1:0:0:0:
325,275,32791,6,0,B|375:265|375:265|418:289|418:289|504:277,1,160,12|0,0:0|1:0,0:0:0:0:
438,202,33289,1,8,0:0:0:0:
363,353,33456,2,0,P|318:361|261:366,1,80,0|8,0:0|0:0,0:0:0:0:
103,327,33788,1,2,1:2:0:0:
226,223,33954,1,2,0:0:0:0:
143,201,34120,6,0,B|139:287|191:261|180:352,1,160,10|0,0:0|1:0,0:0:0:0:
103,327,34619,1,8,0:0:0:0:
343,298,34785,5,14,0:0:0:0:
53,145,35118,5,14,0:0:0:0:
355,68,35450,6,0,P|437:97|493:184,1,160,14|0,0:0|1:0,0:0:0:0:
339,369,35949,2,0,B|332:335|339:307|339:307|322:282|322:282|333:255|319:194,1,160,10|8,0:0|0:0,0:0:0:0:
401,187,36447,1,2,1:2:0:0:
216,77,36614,1,2,0:0:0:0:
213,96,36697,1,2,0:0:0:0:
197,129,36780,5,10,0:0:0:0:
102,154,36946,1,0,0:0:0:0:
127,251,37112,1,0,1:0:0:0:
224,225,37278,1,8,0:0:0:0:
166,187,37445,5,0,0:0:0:0:
201,298,37611,1,8,0:0:0:0:
364,262,37777,1,2,1:2:0:0:
455,304,37943,1,2,0:0:0:0:
455,304,38026,1,2,0:0:0:0:
455,304,38109,6,0,B|341:278|365:361|246:351,1,200,14|0,0:0|1:0,0:0:0:0:
57,194,38608,2,0,P|135:203|200:321,1,200,10|8,0:0|0:0,0:0:0:0:
361,154,39107,2,0,P|308:150|256:144,1,100,2|0,1:2|0:0,1:0:0:0:
181,109,39356,1,2,0:0:0:0:
181,109,39439,6,0,B|173:160|173:160|207:208|207:208|198:323,1,200,10|0,0:0|1:0,0:0:0:0:
341,342,39938,2,0,B|334:252|334:252|368:204|368:204|360:153,1,200,10|8,0:0|0:0,0:0:0:0:
418,60,40436,1,2,1:2:0:0:
460,134,40602,1,0,0:0:0:0:
291,100,40769,1,8,0:0:0:0:
38,222,40935,5,2,0:0:0:0:
214,183,41101,1,0,1:0:0:0:
41,109,41267,1,8,0:0:0:0:
84,304,41434,2,0,P|77:259|69:221,1,80,2|8,0:0|0:0,0:0:0:0:
264,367,41766,2,0,P|271:322|279:284,1,80,2|0,1:2|0:0,1:0:0:0:
278,288,42015,1,0,0:0:0:0:
278,288,42098,6,0,P|236:294|188:279,1,80,10|0,0:0|0:0,0:0:0:0:
382,133,42431,2,0,P|424:127|472:142,1,80,2|8,1:2|0:0,0:0:0:0:
435,312,42763,1,2,0:0:0:0:
476,222,42929,1,8,0:0:0:0:
235,135,43096,5,2,1:2:0:0:
162,166,43262,1,2,0:2:0:0:
162,166,43345,1,2,0:0:0:0:
162,166,43428,6,0,P|225:172|311:238,1,150,14|0,0:0|0:0,0:0:0:0:
296,218,43760,5,2,1:2:0:0:
493,164,43927,1,8,0:0:0:0:
363,292,44093,1,2,1:2:0:0:
454,244,44259,1,8,0:0:0:0:
278,99,44425,6,0,L|282:151,1,40,2|0,1:2|0:0,0:0:0:0:
372,348,44591,2,0,L|375:308,1,40,2|0,1:2|0:0,0:0:0:0:
153,192,44758,6,0,B|242:175|217:235|310:215,1,150,10|0,0:0|0:0,0:0:0:0:
296,217,45090,1,2,1:2:0:0:
158,306,45256,1,8,0:0:0:0:
383,207,45422,2,0,P|392:161|403:117,1,80,2|0,1:2|0:0,0:0:0:0:
186,102,45755,2,0,P|177:56|166:12,1,80,2|0,1:2|0:0,0:0:0:0:
30,265,46087,6,0,B|81:249|81:249|121:263|121:263|193:247,1,150,14|0,0:0|0:0,0:0:0:0:
173,251,46420,5,0,1:0:0:0:
42,155,46586,1,10,0:0:0:0:
169,23,46752,1,0,1:0:0:0:
186,102,46918,1,8,0:0:0:0:
345,176,47084,5,2,1:2:0:0:
449,183,47251,1,0,1:0:0:0:
449,183,47334,1,0,1:0:0:0:
449,183,47417,6,0,B|314:179|379:264|232:262,1,200,14|0,0:0|1:0,0:0:0:0:
199,215,47916,1,8,0:0:0:0:
320,338,48082,1,0,1:0:0:0:
367,353,48165,1,0,1:0:0:0:
416,345,48248,1,0,1:0:0:0:
456,316,48331,1,0,1:0:0:0:
478,271,48414,5,10,0:0:0:0:
486,283,48497,1,8,0:0:0:0:
491,320,48580,5,10,0:0:0:0:
488,339,48663,1,8,0:0:0:0:
499,355,48747,6,0,P|442:347|413:345,1,83.9999974365235,14|8,0:0|0:0,0:0:0:0:
415,345,49411,6,0,P|437:307|435:250,1,80,0|0,1:0|0:0,0:0:0:0:
446,194,49744,1,2,0:0:0:0:
281,184,49910,5,2,3:0:0:0:
268,204,49993,1,0,3:0:0:0:
234,257,50076,6,0,B|294:260|287:220|348:229,1,120,10|0,0:0|0:0,0:0:0:0:
347,229,50741,6,0,P|343:173|350:94,1,120,2|0,1:2|0:0,0:0:0:0:
335,95,51073,1,2,0:0:0:0:
435,288,51240,1,2,0:0:0:0:
435,288,51323,1,2,0:0:0:0:
435,288,51406,6,0,P|423:329|412:375,1,80,14|0,0:0|0:0,0:0:0:0:
510,337,51738,1,0,1:0:0:0:
347,283,51904,2,0,P|402:265|443:159,1,160,10|0,0:0|0:0,0:0:0:0:
335,95,52403,2,0,L|341:198,1,80,2|0,1:2|0:0,0:0:0:0:
339,174,52652,1,0,0:0:0:0:
339,174,52735,6,0,B|205:161|248:345|17:280|7:205|215:-31|251:383,1,600,14|0,0:0|1:0,0:0:0:0:
162,354,53899,1,0,1:0:0:0:
333,268,54065,6,0,P|382:275|461:309,1,120.000004577637,14|0,0:0|1:0,0:0:0:0:
468,370,54564,2,0,P|475:321|509:242,1,120.000004577637,8|8,0:0|0:0,0:0:0:0:
434,202,55062,2,0,P|429:167|415:131,1,60.0000022888184,2|0,1:2|0:0,0:0:0:0:
497,119,55395,6,0,P|439:123|353:138,1,120.000004577637,10|0,0:0|1:0,0:0:0:0:
322,60,55893,2,0,P|290:69|249:63,1,60.0000022888184,10|0,0:0|0:0,0:0:0:0:
190,199,56226,1,8,0:0:0:0:
149,132,56392,2,0,P|181:123|222:129,1,60.0000022888184,2|0,1:2|0:0,0:0:0:0:
287,198,56724,6,0,P|250:211|202:302,1,120.000004577637,10|0,0:0|1:0,0:0:0:0:
130,334,57223,1,8,0:0:0:0:
130,334,57389,2,0,P|124:293|118:257,1,60.0000022888184,0|8,0:0|0:0,0:0:0:0:
285,347,57722,2,0,P|291:306|297:270,1,60.0000022888184,2|0,1:2|0:0,0:0:0:0:
379,117,58054,5,10,0:0:0:0:
402,246,58220,2,0,P|402:215|410:186,1,60.0000022888184,10|0,0:0|1:0,0:0:0:0:
324,178,58553,2,0,P|380:155|394:91,1,120.000004577637,10|8,0:0|0:0,0:0:0:0:
484,104,59051,2,0,P|489:137|498:186,1,60.0000022888184,0|0,1:2|0:0,0:0:0:0:
487,173,59301,1,0,3:0:0:0:
483,184,59384,6,0,B|475:138|475:138|455:113|455:113|448:48,1,120.000004577637,10|0,0:0|1:0,0:0:0:0:
350,25,59882,2,0,P|355:59|365:101,1,60.0000022888184,8|0,0:0|0:0,0:0:0:0:
281,176,60215,1,8,0:0:0:0:
221,100,60381,2,0,P|250:93|280:89,1,60.0000022888184,2|0,1:2|0:0,0:0:0:0:
439,193,60713,6,0,P|409:186|379:182,1,60.0000022888184,10|0,0:0|0:0,0:0:0:0:
281,176,61046,1,0,1:0:0:0:
438,213,61212,6,0,P|408:206|378:202,1,60.0000022888184,10|0,0:0|0:0,0:0:0:0:
294,197,61544,1,8,0:0:0:0:
421,234,61711,6,0,P|391:227|361:223,1,60.0000022888184,2|0,1:2|0:0,0:0:0:0:
192,293,62043,6,0,B|297:286|264:354|352:359,1,180.000006866455,10|0,0:0|0:0,0:0:0:0:
361,223,62708,2,0,P|351:260|346:297,1,60.0000022888184,0|8,0:0|0:0,0:0:0:0:
205,351,63040,2,0,P|199:321|191:292,1,60.0000022888184,0|0,1:0|0:0,0:0:0:0:
299,152,63373,6,0,L|384:137,1,80,10|0,0:0|0:0,0:0:0:0:
278,133,63705,6,0,L|160:149,1,100,2|0,1:2|0:0,0:0:0:0:
387,217,64037,6,0,L|525:192,1,120.000004577637,10|0,0:0|0:0,0:0:0:0:
187,59,64370,6,0,L|34:80,1,140.000001335144,2|0,1:2|0:0,0:0:0:0:
170,283,64702,6,0,L|361:247,1,160,14|0,0:0|1:0,0:0:0:0:
361,76,65201,2,0,P|293:79|227:162,1,160,8|8,0:0|0:0,0:0:0:0:
328,254,65699,5,2,1:2:0:0:
433,215,65866,1,0,0:0:0:0:
332,226,66032,6,0,B|322:282|322:282|353:314|353:314|335:396,1,160,10|0,0:0|1:0,0:0:0:0:
425,347,66530,1,8,0:0:0:0:
224,288,66697,2,0,L|137:283,1,80,2|8,0:0|0:0,0:0:0:0:
332,226,67029,2,0,L|419:221,1,80,0|0,1:0|0:0,0:0:0:0:
235,36,67361,6,0,B|236:95|200:118|200:118|235:150|239:213,1,160,10|0,0:0|1:0,0:0:0:0:
306,121,67860,1,8,0:0:0:0:
86,231,68026,2,0,P|40:241|-23:219,1,80,2|8,0:0|0:0,0:0:0:0:
251,281,68359,2,0,P|297:271|360:293,1,80,0|0,1:0|0:0,0:0:0:0:
170,308,68691,5,10,0:0:0:0:
171,216,68857,1,8,0:0:0:0:
164,124,69024,1,0,1:0:0:0:
182,230,69190,5,10,0:0:0:0:
106,241,69356,1,0,0:0:0:0:
29,247,69522,1,8,0:0:0:0:
295,205,69688,5,2,1:2:0:0:
384,233,69855,1,0,3:0:0:0:
384,233,69938,1,0,3:0:0:0:
384,233,70021,6,0,B|239:205|284:329|154:305,1,240,14|8,0:0|0:0,0:0:0:0:
353,384,70686,2,0,P|347:333|337:279,1,80,0|0,1:0|0:0,0:0:0:0:
463,258,71018,2,0,P|469:207|479:153,1,80,2|0,0:0|0:0,0:0:0:0:
321,113,71267,1,0,3:0:0:0:
346,104,71350,6,0,B|380:78|386:44|386:44|426:136|368:234,1,240,14|0,0:0|0:0,0:0:0:0:
304,304,72015,2,0,B|349:291|349:291|379:303|379:303|428:294,1,120,2|0,1:2|0:0,0:0:0:0:
427,300,72348,1,2,0:0:0:0:
198,222,72514,1,2,0:0:0:0:
199,237,72597,1,2,0:0:0:0:
216,268,72680,5,14,0:0:0:0:
75,190,72846,1,0,0:0:0:0:
266,117,73012,1,0,1:0:0:0:
112,282,73179,5,10,0:0:0:0:
281,207,73345,1,0,0:0:0:0:
115,102,73511,1,8,0:0:0:0:
257,304,73677,2,0,P|262:258|269:218,1,80,2|0,1:2|0:0,0:0:0:0:
361,312,73927,1,2,0:0:0:0:
357,292,74010,6,0,P|307:298|217:388,1,160,14|0,0:0|1:0,0:0:0:0:
225,366,74675,5,2,1:2:0:0:
165,357,74758,1,0,1:0:0:0:
106,346,74841,1,0,1:0:0:0:
46,336,74924,1,0,1:0:0:0:
80,308,75007,5,10,0:0:0:0:
122,298,75090,1,8,0:0:0:0:
111,286,75173,5,8,0:0:0:0:
97,277,75256,1,8,0:0:0:0:
97,277,75339,6,0,P|94:223|251:129,1,240.000009155274,14|10,0:0|0:0,0:0:0:0:
296,75,76003,5,10,0:0:0:0:
229,124,76170,2,0,P|175:127|106:-15,1,200,10|0,0:0|0:0,0:0:0:0:
319,229,76502,6,0,P|373:232|470:85,1,240.000009155274,14|10,0:0|0:0,0:0:0:0:
340,150,77167,5,10,0:0:0:0:
341,244,77333,2,0,P|395:247|489:90,1,240.000009155274,10|10,0:0|0:0,0:0:0:0:
238,354,77998,6,0,P|241:300|84:206,1,240.000009155274,14|10,0:0|0:0,0:0:0:0:
6,143,78662,5,10,0:0:0:0:
105,201,78829,2,0,P|159:204|246:69,1,200,10|0,0:0|0:0,0:0:0:0:
419,163,79161,6,0,P|365:166|269:-5,1,240.000009155274,14|10,0:0|0:0,0:0:0:0:
437,77,79827,5,10,0:0:0:0:
408,182,79992,2,0,P|354:185|258:14,1,240.000009155274,10|10,0:0|0:0,0:0:0:0:
116,302,80657,6,0,B|200:308|200:308|275:286|275:286|342:318|342:318|435:311,1,320,14|10,0:0|0:0,0:0:0:0:
162,225,81322,5,14,0:0:0:0:
151,326,81489,2,0,B|221:332|221:332|284:308|284:308|343:337|343:337|450:333,1,240.000009155274,10|0,0:0|0:0,0:0:0:0:
433,121,81821,6,0,B|349:115|349:115|274:137|274:137|207:105|207:105|100:112,1,320,14|10,0:0|0:0,0:0:0:0:
390,206,82485,5,10,0:0:0:0:
441,95,82652,2,0,B|357:89|357:89|282:111|282:111|215:79|215:79|122:86,1,320,14|10,0:0|0:0,0:0:0:0:
116,302,83317,6,0,B|200:308|200:308|275:286|275:286|342:318|342:318|433:311,1,320,14|10,0:0|0:0,0:0:0:0:
212,192,83981,5,14,0:0:0:0:
116,302,84148,2,0,B|247:302|201:379|344:365,1,240,10|0,0:0|0:0,0:0:0:0:
70,242,84480,6,0,P|83:298|94:374,1,120,10|0,0:0|0:0,0:0:0:0:
