osu file format v14

[General]
AudioFilename: audio.mp3
AudioLeadIn: 0
PreviewTime: 85991
Countdown: 0
SampleSet: Soft
StackLeniency: 0.7
Mode: 0
LetterboxInBreaks: 0
WidescreenStoryboard: 0

[Editor]
Bookmarks: 6934,25069,36872,48675,60478,72282,87036,110642,123551,143957,155770,167573,179376,205934,229540,231016,242819,254622,260524,267901,279704,303311,315114,338721
DistanceSpacing: 1.5
BeatDivisor: 2
GridSize: 32
TimelineZoom: 3.4

[Metadata]
Title:Moe Ochiru Hokori -Counter raid Another D-
TitleUnicode:燃え落ちる誇り -Counter raid Another D-
Artist:Katakiri Rekka
ArtistUnicode:片霧烈火
Creator:Mir
Version:Shizume
Source:艦隊これくしょん -艦これ-
Tags:yukiyo empire ensemble kyrie kedakaki-sha-tachi no ishibumi comiket 90 c90 帝國交響楽団 気高き者達の碑 シズメシズメ shizume kantai collection kancolle doujin our pride burning
BeatmapID:1715176
BeatmapSetID:817967

[Difficulty]
HPDrainRate:5
CircleSize:4
OverallDifficulty:9
ApproachRate:9.5
SliderMultiplier:1.2
SliderTickRate:0.5

[Events]
//Background and Video events
0,0,"moe ochiruwu.jpg",0,0
//Break Periods
2,123751,143432
2,234156,242284
2,267891,278309
//Storyboard Layer 0 (Background)
//Storyboard Layer 1 (Fail)
//Storyboard Layer 2 (Pass)
//Storyboard Layer 3 (Foreground)
//Storyboard Sound Samples

[TimingPoints]
1023,245.901639344262,6,2,1,40,1,0
12826,-83.3333333333333,6,2,1,40,0,0
23901,307.692307692308,6,2,1,40,1,0
24131,-100,6,2,1,5,0,0
24209,398.671096345515,6,2,1,40,1,0
24508,-100,6,2,1,5,0,0
24608,461.538461538462,6,2,1,50,1,0
25069,245.901639344262,6,2,1,50,1,0
29495,-333.333333333333,6,2,1,50,0,0
30970,-83.3333333333333,6,2,1,50,0,0
36872,-125,6,2,2,30,0,0
37609,-125,6,2,3,30,0,0
38347,-125,6,2,4,30,0,0
39085,-125,6,2,2,30,0,0
39823,-125,6,2,5,30,0,0
40560,-125,6,2,2,30,0,0
41298,-125,6,2,7,30,0,0
41790,-125,6,2,6,30,0,0
42036,-125,6,2,2,30,0,0
42282,-125,6,2,3,30,0,0
42528,-125,6,2,4,30,0,0
42773,-125,6,2,2,30,0,0
43511,-125,6,2,3,30,0,0
44249,-125,6,2,4,30,0,0
44987,-125,6,2,2,30,0,0
45724,-125,6,2,5,30,0,0
46462,-125,6,2,3,30,0,0
47200,-125,6,2,5,30,0,0
47937,-125,6,2,2,30,0,0
48183,-125,6,2,3,30,0,0
48429,-125,6,2,4,30,0,0
48675,-125,6,2,2,30,0,0
49412,-125,6,2,3,40,0,0
49536,-125,6,2,2,40,0,0
50150,-125,6,2,4,40,0,0
50273,-125,6,2,2,40,0,0
50888,-125,6,2,2,40,0,0
51626,-125,6,2,5,40,0,0
51872,-125,6,2,2,40,0,0
52363,-125,6,2,2,40,0,0
53101,-125,6,2,7,40,0,0
53224,-125,6,2,2,40,0,0
53593,-125,6,2,6,40,0,0
53716,-125,6,2,2,40,0,0
53839,-125,6,2,2,40,0,0
54085,-125,6,2,3,40,0,0
54331,-125,6,2,4,40,0,0
54576,-125,6,2,2,40,0,0
55314,-125,6,2,3,40,0,0
55437,-125,6,2,2,40,0,0
56052,-125,6,2,4,40,0,0
56175,-125,6,2,2,40,0,0
56790,-125,6,2,2,40,0,0
57527,-125,6,2,5,40,0,0
57773,-125,6,2,2,40,0,0
58265,-125,6,2,3,40,0,0
58511,-125,6,2,2,40,0,0
59003,-125,6,2,6,40,0,0
59249,-125,6,2,2,40,0,0
59741,-125,6,2,1,40,0,0
60478,-125,6,2,8,40,0,0
71175,-111.111111111111,6,2,1,40,0,0
71421,-111.111111111111,6,2,2,40,0,0
71544,-100,6,2,1,40,0,0
72282,-100,6,2,3,40,0,0
77691,-100,6,2,1,40,0,0
78183,-100,6,2,3,40,0,0
83593,-100,6,2,1,40,0,0
84085,-100,6,2,3,60,0,0
84700,-100,6,2,1,70,0,0
87036,-66.6666666666667,6,2,1,70,0,1
87159,-66.6666666666667,6,2,1,65,0,1
98716,-66.6666666666667,6,2,1,65,0,0
98839,-66.6666666666667,6,2,1,65,0,1
110519,-66.6666666666667,6,2,1,65,0,0
110642,-66.6666666666667,6,2,1,65,0,1
122419,255.31914893617,6,2,1,70,1,0
122801,361.44578313253,6,2,1,70,1,0
123162,389.61038961039,6,2,1,70,1,0
123551,337.078651685393,6,2,1,70,1,0
135685,365.853658536585,6,2,1,60,1,0
137880,337.078651685393,6,2,1,60,1,0
141924,338.791643139469,6,2,1,60,1,0
143957,245.901639344262,6,2,1,50,1,0
143957,-66.6666666666667,6,2,1,50,0,0
144202,-133.333333333333,6,2,1,35,0,0
146661,-66.6666666666667,6,2,1,50,0,0
147152,-133.333333333333,6,2,1,35,0,0
149612,-66.6666666666667,6,2,1,50,0,0
150104,-133.333333333333,6,2,1,35,0,0
152563,-66.6666666666667,6,2,1,50,0,0
153054,-133.333333333333,6,2,1,35,0,0
155514,-66.6666666666667,6,2,10,50,0,0
156005,-133.333333333333,6,2,10,35,0,0
158465,-66.6666666666667,6,2,10,50,0,0
158956,-133.333333333333,6,2,10,35,0,0
161416,-66.6666666666667,6,2,10,50,0,0
161907,-133.333333333333,6,2,10,35,0,0
164366,-66.6666666666667,6,2,10,50,0,0
164857,-133.333333333333,6,2,10,35,0,0
166825,-133.333333333333,6,2,9,50,0,0
167071,-133.333333333333,6,2,1,35,0,0
167317,-83.3333333333333,6,2,9,45,0,0
178629,-83.3333333333333,6,2,1,45,0,0
179735,-83.3333333333333,6,2,9,45,0,0
180842,-83.3333333333333,6,2,1,45,0,0
181211,-83.3333333333333,6,2,9,45,0,0
182317,-83.3333333333333,6,2,1,45,0,0
182686,-83.3333333333333,6,2,9,45,0,0
183793,-83.3333333333333,6,2,1,45,0,0
184162,-83.3333333333333,6,2,9,45,0,0
185268,-83.3333333333333,6,2,1,45,0,0
185637,-83.3333333333333,6,2,9,45,0,0
186743,-83.3333333333333,6,2,1,45,0,0
187112,-83.3333333333333,6,2,9,45,0,0
188219,-83.3333333333333,6,2,1,45,0,0
188588,-83.3333333333333,6,2,9,45,0,0
189694,-83.3333333333333,6,2,1,45,0,0
190063,-83.3333333333333,6,2,9,45,0,0
190432,-83.3333333333333,6,2,1,45,0,0
191170,-83.3333333333333,6,2,1,50,0,0
202973,-71.4285714285714,6,2,1,50,0,0
205678,-100,6,2,1,50,0,0
205924,-66.6666666666667,6,2,1,70,0,1
206047,-66.6666666666667,6,2,1,65,0,1
217604,-66.6666666666667,6,2,1,65,0,0
217727,-66.6666666666667,6,2,1,65,0,1
229530,-66.6666666666667,6,2,1,60,0,0
231006,-100,6,2,1,60,0,0
242809,-125,6,2,1,50,0,0
260514,-100,6,2,1,50,0,0
265678,-83.3333333333333,6,2,1,50,0,0
279694,-66.6666666666667,6,2,99,70,0,1
279817,-66.6666666666667,6,2,1,65,0,1
285596,-66.6666666666667,6,2,99,65,0,1
285719,-66.6666666666667,6,2,1,65,0,1
291375,-66.6666666666667,6,2,1,65,0,0
291497,-66.6666666666667,6,2,99,65,0,1
291620,-66.6666666666667,6,2,1,65,0,1
297399,-66.6666666666667,6,2,99,65,0,1
297522,-66.6666666666667,6,2,1,65,0,1
303178,-66.6666666666667,6,2,1,65,0,0
303301,-66.6666666666667,6,2,1,65,0,1
309079,-66.6666666666667,6,2,1,65,0,0
309202,-66.6666666666667,6,2,1,65,0,1
314981,-66.6666666666667,6,2,1,65,0,0
315104,-66.6666666666667,6,2,1,65,0,1
326784,-66.6666666666667,6,2,1,65,0,0
326907,-66.6666666666667,6,2,1,65,0,1
338588,-66.6666666666667,6,2,1,65,0,0
338711,-66.6666666666667,6,2,1,65,0,1
339448,-66.6666666666667,6,2,1,65,0,0
340186,-66.6666666666667,6,2,1,65,0,1
340924,-66.6666666666667,6,2,1,65,0,0
341661,-66.6666666666667,6,2,1,65,0,1
342399,-66.6666666666667,6,2,1,65,0,0
343137,-66.6666666666667,6,2,1,65,0,1
344489,-66.6666666666667,6,2,1,65,0,0
344612,-66.6666666666667,6,2,1,65,0,1
345965,-66.6666666666667,6,2,1,65,0,0
346088,-66.6666666666667,6,2,1,65,0,1
347440,-66.6666666666667,6,2,1,65,0,0
347563,-66.6666666666667,6,2,1,65,0,1
348301,-66.6666666666667,6,2,1,65,0,0
348916,-66.6666666666667,6,2,1,65,0,0
349038,-66.6666666666667,6,2,1,65,0,1
349653,-66.6666666666667,6,2,1,65,0,0
349776,-66.6666666666667,6,2,1,65,0,1
350391,-66.6666666666667,6,2,1,65,0,0

[Colours]
Combo1 : 157,157,157
Combo2 : 191,222,234
Combo3 : 221,221,221
Combo4 : 242,95,68

[HitObjects]
103,175,6063,21,8,0:0:0:0:
103,175,6125,1,8,0:0:0:0:
103,175,6186,2,0,P|115:123|127:90,1,60,0|0,3:0|0:0,0:0:0:0:
190,11,6432,2,0,P|198:39|204:69,1,60,0|0,3:0|0:0,0:0:0:0:
315,79,6678,2,0,P|300:105|283:130,1,60,0|0,3:0|0:0,0:0:0:0:
151,347,6924,37,0,3:0:0:0:
229,297,7047,2,0,P|273:316|304:330,1,60,0|0,0:0|0:0,0:0:0:0:
464,314,7293,2,0,P|413:329|351:374,1,120,0|0,3:0|0:0,0:0:0:0:
342,199,7662,6,0,P|349:239|344:277,1,60,0|0,3:0|0:0,0:0:0:0:
451,162,7908,2,0,P|444:202|449:240,1,60,0|0,3:0|0:0,0:0:0:0:
370,54,8154,2,0,P|377:94|372:132,1,60,0|0,3:0|0:0,0:0:0:0:
129,175,8400,37,0,3:0:0:0:
194,235,8522,2,0,P|240:236|268:235,1,60,0|0,0:0|0:0,0:0:0:0:
141,371,8768,2,0,P|131:317|98:241,1,120,0|0,3:0|0:0,0:0:0:0:
256,140,9137,6,0,P|219:132|189:113,1,60,0|0,3:0|0:0,0:0:0:0:
60,177,9383,2,0,P|97:169|127:150,1,60,0|0,3:0|0:0,0:0:0:0:
129,10,9629,2,0,L|121:83,1,60,0|0,3:0|0:0,0:0:0:0:
395,110,9875,37,0,3:0:0:0:
313,13,9998,2,0,L|321:86,1,60,0|0,0:0|0:0,0:0:0:0:
489,198,10244,2,0,B|430:177|435:218|349:189,1,120,0|0,3:0|0:0,0:0:0:0:
291,298,10613,5,0,3:0:0:0:
269,205,10736,1,0,0:0:0:0:
307,301,10859,2,0,P|302:343|296:371,1,60,0|0,3:0|0:0,0:0:0:0:
253,209,11104,2,0,P|247:179|244:149,1,60,0|0,3:0|0:0,0:0:0:0:
339,224,11350,37,0,3:0:0:0:
211,284,11473,2,0,L|145:273,1,60,0|0,0:0|0:0,0:0:0:0:
320,305,11719,1,0,3:0:0:0:
355,218,11842,2,0,P|405:218|440:226,1,60,0|0,0:0|0:0,0:0:0:0:
417,37,12088,5,0,3:0:0:0:
393,122,12211,1,0,0:0:0:0:
311,52,12334,37,0,3:0:0:0:
309,140,12457,1,0,0:0:0:0:
222,99,12580,2,0,P|195:135|186:157,1,60,0|0,3:0|0:0,0:0:0:0:
66,280,12826,5,0,3:0:0:0:
211,251,12949,2,0,P|171:289|149:319,1,71.9999978027344,0|0,0:0|0:0,0:0:0:0:
59,161,13195,2,0,P|132:180|196:138,1,143.999995605469,0|0,3:0|0:0,0:0:0:0:
136,14,13563,38,0,L|114:106,1,71.9999978027344,0|0,3:0|0:0,0:0:0:0:
239,0,13809,2,0,L|217:92,1,71.9999978027344,0|0,3:0|0:0,0:0:0:0:
336,0,14055,2,0,L|314:92,1,71.9999978027344,0|0,3:0|0:0,0:0:0:0:
249,259,14301,5,0,3:0:0:0:
282,173,14424,2,0,P|324:172|368:175,1,71.9999978027344,0|0,0:0|0:0,0:0:0:0:
436,313,14670,2,0,L|464:172,1,143.999995605469,0|0,3:0|0:0,0:0:0:0:
351,356,15039,37,0,3:0:0:0:
196,41,15285,1,0,3:0:0:0:
49,348,15531,1,0,3:0:0:0:
286,187,15777,5,0,3:0:0:0:
210,245,15900,2,0,L|112:235,1,71.9999978027344
304,359,16145,2,0,P|298:300|298:198,1,143.999995605469,0|0,3:0|0:0,0:0:0:0:
350,123,16514,38,0,P|405:147|425:165,1,71.9999978027344,0|0,3:0|0:0,0:0:0:0:
273,55,16760,2,0,P|328:33|355:31,1,71.9999978027344,0|0,3:0|0:0,0:0:0:0:
164,71,17006,2,0,P|188:15|206:-3,1,71.9999978027344,0|0,3:0|0:0,0:0:0:0:
200,236,17252,5,0,3:0:0:0:
128,163,17375,2,0,L|32:160,1,71.9999978027344,0|0,0:0|0:0,0:0:0:0:
171,322,17621,2,0,P|229:324|290:240,1,143.999995605469,0|0,3:0|0:0,0:0:0:0:
266,135,17990,37,0,3:0:0:0:
59,341,18236,1,0,3:0:0:0:
444,321,18482,1,0,3:0:0:0:
200,236,18727,5,0,3:0:0:0:
270,299,18850,2,0,P|321:285|353:277,1,71.9999978027344,0|0,0:0|0:0,0:0:0:0:
493,131,19096,1,0,3:0:0:0:
423,194,19219,2,0,P|372:180|340:172,1,71.9999978027344,0|0,0:0|0:0,0:0:0:0:
224,15,19465,37,0,3:0:0:0:
271,81,19588,2,0,L|253:173,1,71.9999978027344,0|0,0:0|0:0,0:0:0:0:
456,57,19834,1,0,3:0:0:0:
409,123,19957,2,0,L|427:215,1,71.9999978027344,0|0,0:0|0:0,0:0:0:0:
264,325,20203,5,0,3:0:0:0:
278,225,20326,2,0,P|320:241|368:334,1,143.999995605469,0|0,3:0|3:0,0:0:0:0:
422,193,20695,2,0,P|462:176|506:167,1,71.9999978027344,0|0,3:0|0:0,0:0:0:0:
185,273,20941,38,0,P|172:229|188:181,1,71.9999978027344,0|0,3:0|0:0,0:0:0:0:
297,95,21187,2,0,P|265:128|215:138,1,71.9999978027344,0|0,3:0|0:0,0:0:0:0:
84,87,21432,2,0,P|128:97|162:135,1,71.9999978027344,0|0,3:0|0:0,0:0:0:0:
422,193,21678,5,0,3:0:0:0:
337,235,21801,2,0,P|329:275|329:336,1,71.9999978027344,0|0,3:0|0:0,0:0:0:0:
297,95,22047,2,0,P|380:99|428:38,1,143.999995605469,0|0,3:0|0:0,0:0:0:0:
230,22,22416,37,0,3:0:0:0:
457,339,22662,1,0,3:0:0:0:
86,273,22908,1,0,3:0:0:0:
308,273,23154,5,0,3:0:0:0:
248,338,23277,2,0,P|192:334|163:322,1,71.9999978027344,0|0,3:0|0:0,0:0:0:0:
170,109,23522,2,0,P|210:178|214:263,1,143.999995605469,0|0,3:0|0:0,0:0:0:0:
62,72,23901,38,0,L|161:86,1,90,2|0,0:3|0:0,0:0:0:0:
170,109,24209,6,0,L|259:96,1,90,4|0,0:3|0:0,0:0:0:0:
287,78,24608,22,0,L|416:96,1,120,8|4,0:3|1:2,0:0:0:0:
87,103,26298,5,0,3:0:0:0:
129,342,26544,1,4,1:2:0:0:
439,208,28019,37,4,3:2:0:0:
151,89,29249,5,0,3:0:0:0:
292,353,29495,6,0,P|297:318|299:278,1,71.9999978027344,4|0,1:2|0:0,0:0:0:0:
434,109,30232,2,0,P|435:144|440:180,1,71.9999978027344,4|0,3:2|0:0,0:0:0:0:
438,338,30970,37,4,3:2:0:0:
355,291,31093,2,0,L|267:306,1,71.9999978027344,0|0,0:0|0:0,0:0:0:0:
158,384,31339,2,0,P|178:319|198:217,1,143.999995605469,0|0,3:0|0:0,0:0:0:0:
73,141,31708,2,0,P|111:168|159:167,1,71.9999978027344,0|0,3:0|0:0,0:0:0:0:
193,244,31954,2,0,P|238:236|272:201,1,71.9999978027344,0|0,3:0|0:0,0:0:0:0:
352,259,32200,2,0,P|379:221|377:172,1,71.9999978027344,0|0,3:0|0:0,0:0:0:0:
293,26,32446,5,4,3:2:0:0:
368,71,32568,2,0,P|338:106|300:117,1,71.9999978027344,0|0,0:0|0:0,0:0:0:0:
150,2,32814,2,0,L|316:29,1,143.999995605469,0|0,3:0|0:0,0:0:0:0:
94,82,33183,2,0,P|58:45|47:12,1,71.9999978027344,0|0,3:0|0:0,0:0:0:0:
126,203,33429,2,0,P|162:166|173:133,1,71.9999978027344,0|0,3:0|0:0,0:0:0:0:
97,337,33675,2,0,P|61:300|50:267,1,71.9999978027344,0|0,3:0|0:0,0:0:0:0:
394,245,33921,37,4,3:2:0:0:
316,293,34044,2,0,L|301:375,1,71.9999978027344,0|0,0:0|0:0,0:0:0:0:
467,192,34290,2,0,P|414:156|327:183,1,143.999995605469,0|0,3:0|0:0,0:0:0:0:
258,220,34659,6,0,P|211:204|191:172,1,71.9999978027344,0|0,3:0|0:0,0:0:0:0:
115,223,34905,2,0,P|93:178|101:141,1,71.9999978027344,0|0,3:0|0:0,0:0:0:0:
5,125,35150,2,0,P|21:78|53:58,1,71.9999978027344,0|0,3:0|0:0,0:0:0:0:
336,127,35396,38,0,L|391:81,1,71.9999978027344,4|0,3:2|0:0,0:0:0:0:
271,293,35642,2,0,L|284:364,1,71.9999978027344,0|2,0:0|3:1,0:0:0:0:
160,154,35888,2,0,L|92:130,1,71.9999978027344,0|0,0:0|0:0,0:0:0:0:
419,253,36134,6,0,L|351:229,1,71.9999978027344,0|0,3:2|0:0,0:0:0:0:
120,303,36380,2,0,L|175:256,1,71.9999978027344,0|0,3:0|0:0,0:0:0:0:
227,19,36626,2,0,L|240:90,1,71.9999978027344,0|0,3:0|0:0,0:0:0:0:
254,190,36872,38,0,L|366:197,1,96,2|0,0:0|0:0,0:0:0:0:
426,137,37241,2,0,P|444:169|439:240,1,96,0|0,0:0|0:0,0:0:0:0:
426,340,37609,2,0,P|389:305|288:310,1,144,2|0,0:0|0:0,0:0:0:0:
219,361,38101,2,0,P|208:334|202:305,1,48,0|0,0:0|0:0,0:0:0:0:
241,229,38347,5,2,0:0:0:0:
241,229,38470,1,0,0:0:0:0:
241,229,38593,2,0,L|145:219,1,96,0|0,0:0|0:0,0:0:0:0:
37,84,39085,2,0,P|48:122|49:193,2,96,8|0|0,0:0|0:0|0:0,0:0:0:0:
273,114,39823,38,0,P|234:96|141:129,2,144,2|0|2,0:0|0:0|0:0,0:0:0:0:
273,114,40806,1,0,0:0:0:0:
215,189,41052,1,0,0:0:0:0:
395,217,41298,5,2,0:0:0:0:
395,217,41421,1,0,0:0:0:0:
395,217,41544,2,0,L|402:277,1,48,0|0,0:0|0:0,0:0:0:0:
459,163,41790,2,0,L|464:115,1,48,2|0,0:0|0:0,0:0:0:0:
402,54,42036,37,2,0:0:0:0:
485,247,42282,1,2,0:0:0:0:
279,203,42528,1,2,0:0:0:0:
396,159,42773,6,0,L|384:268,1,96,2|0,0:0|0:0,0:0:0:0:
428,350,43142,2,0,P|381:359|335:346,1,96,0|0,0:0|0:0,0:0:0:0:
285,270,43511,2,0,P|225:273|174:340,1,144,2|0,0:0|0:0,0:0:0:0:
103,270,44003,2,0,P|83:244|58:230,1,48,0|0,0:0|0:0,0:0:0:0:
173,190,44249,37,2,0:0:0:0:
173,190,44372,1,0,0:0:0:0:
173,190,44495,2,0,L|193:80,1,96,0|0,0:0|0:0,0:0:0:0:
448,123,44987,2,0,P|414:111|334:101,2,96,8|0|0,0:0|0:0|0:0,0:0:0:0:
275,17,45724,6,0,P|277:54|236:118,1,96,2|0,0:0|0:0,0:0:0:0:
168,78,46093,2,0,P|132:66|61:68,1,96,0|0,0:0|0:0,0:0:0:0:
23,130,46462,2,0,L|41:235,2,96,2|0|0,0:0|0:0|0:0,0:0:0:0:
142,202,47200,38,0,B|191:179|249:188|219:222|283:231|344:208,1,192,2|0,0:0|0:0,0:0:0:0:
393,151,47937,5,2,0:0:0:0:
307,124,48183,1,2,0:0:0:0:
326,213,48429,1,2,0:0:0:0:
376,58,48675,38,0,L|481:47,1,96,2|0,1:2|0:1,0:0:0:0:
307,124,49044,2,0,L|202:113,1,96,0|0,1:0|0:0,0:0:0:0:
118,29,49413,2,0,L|127:77,2,48,2|0|0,0:0|1:0|1:0,0:0:0:0:
140,164,49905,1,0,1:0:0:0:
81,324,50150,5,2,0:0:0:0:
81,324,50273,1,0,1:0:0:0:
81,324,50396,2,0,L|150:334,1,48,0|0,1:1|0:0,0:0:0:0:
196,265,50642,2,0,L|243:258,1,48,0|0,1:0|0:0,0:0:0:0:
403,328,50888,2,0,B|363:326|363:326|341:336|341:336|295:332,2,96,8|0|0,0:0|0:0|1:1,0:0:0:0:
483,226,51626,38,0,P|486:190|457:132,1,96,2|0,1:2|0:1,0:0:0:0:
386,93,51995,1,0,0:0:0:0:
386,93,52118,2,0,L|320:88,1,48,0|0,0:0|1:0,0:0:0:0:
270,191,52364,2,0,L|367:183,1,96,2|0,0:0|1:0,0:0:0:0:
201,105,52855,1,0,1:1:0:0:
53,253,53101,6,0,L|61:314,1,48,2|0,0:0|0:0,0:0:0:0:
152,204,53347,2,0,L|144:265,1,48,0|0,1:1|1:0,0:0:0:0:
68,122,53593,2,0,L|76:183,1,48,2|0,0:0|0:0,0:0:0:0:
130,59,53839,37,10,0:2:0:0:
53,253,54085,1,2,0:0:0:0:
253,216,54331,1,2,0:0:0:0:
139,165,54577,6,0,P|175:151|236:122,1,96,2|0,1:2|1:1,0:0:0:0:
247,40,54946,2,0,P|290:60|334:78,1,96,0|0,1:0|0:0,0:0:0:0:
428,74,55314,2,0,P|438:48|447:30,2,48,2|0|0,0:0|1:0|1:1,0:0:0:0:
387,312,55806,1,0,1:0:0:0:
485,228,56052,37,2,0:2:0:0:
485,228,56175,1,0,1:0:0:0:
485,228,56298,2,0,L|422:212,1,48,0|0,1:1|0:0,0:0:0:0:
340,234,56544,2,0,L|293:245,1,48,0|0,1:0|0:0,0:0:0:0:
356,59,56790,6,0,L|382:170,2,96,8|0|0,0:0|0:0|1:1,0:0:0:0:
155,146,57528,38,0,P|199:148|251:106,1,96,2|0,1:2|0:1,0:0:0:0:
86,84,57896,2,0,P|64:117|66:186,1,96,0|0,1:0|0:0,0:0:0:0:
122,233,58265,5,2,0:0:0:0:
174,60,58511,1,0,0:0:0:0:
244,331,58757,1,0,1:1:0:0:
476,122,59003,38,0,L|365:108,1,96,2|0,1:2|0:1,0:0:0:0:
306,161,59372,1,0,1:0:0:0:
306,161,59495,2,0,P|296:199|295:225,1,48,0|0,1:0|1:0,0:0:0:0:
346,273,59741,5,2,0:3:0:0:
282,62,59987,1,4,0:3:0:0:
195,140,60232,1,8,0:3:0:0:
117,89,60478,38,0,L|11:69,1,96,4|0,3:0|0:0,0:0:0:0:
183,30,60847,1,0,3:0:0:0:
183,30,61216,2,0,P|260:39|328:16,1,144,2|0,0:0|0:0,0:0:0:0:
417,11,61708,2,0,P|407:48|402:75,1,48,0|0,3:0|0:0,0:0:0:0:
380,155,61954,6,0,P|416:148|483:169,1,96,0|0,3:0|0:0,0:0:0:0:
481,309,62323,2,0,P|459:267|421:239,1,96,0|0,3:0|0:0,0:0:0:0:
295,321,62691,2,0,P|347:337|401:316,2,96,4|0|0,0:0|3:0|3:0,0:0:0:0:
241,241,63429,38,0,L|231:176,1,48,0|0,3:0|0:0,0:0:0:0:
153,313,63675,2,0,L|163:248,1,48,0|0,0:0|3:0,0:0:0:0:
79,242,63921,2,0,L|69:177,1,48,0|0,0:0|0:0,0:0:0:0:
32,93,64167,2,0,P|94:101|174:59,1,144,2|0,3:2|0:0,0:0:0:0:
247,22,64659,2,0,P|256:48|260:77,1,48,0|0,3:0|0:0,0:0:0:0:
278,161,64905,5,0,3:0:0:0:
279,170,65028,1,0,0:0:0:0:
280,179,65150,1,0,0:0:0:0:
281,189,65273,2,0,L|380:200,1,96,0|0,3:0|0:0,0:0:0:0:
471,178,65642,2,0,B|482:131|482:131|461:78,2,96,4|0|0,3:2|3:0|3:0,0:0:0:0:
223,203,66380,38,0,P|177:185|120:174,1,96,4|0,3:0|0:0,0:0:0:0:
36,69,66749,1,0,3:0:0:0:
36,69,67118,2,0,P|68:87|186:65,1,144,2|0,3:2|0:0,0:0:0:0:
251,39,67609,2,0,L|261:-20,1,48,0|0,3:0|0:0,0:0:0:0:
197,180,67855,6,0,P|263:154|307:162,1,96,0|0,3:0|0:0,0:0:0:0:
344,85,68224,2,0,P|391:86|434:108,1,96,0|0,3:0|0:0,0:0:0:0:
477,194,68593,2,0,L|454:296,2,96,4|0|0,3:2|3:0|3:0,0:0:0:0:
251,257,69331,38,0,L|301:251,1,48,0|0,3:0|0:0,0:0:0:0:
333,179,69577,2,0,L|380:184,1,48,0|0,0:0|3:0,0:0:0:0:
234,69,69823,2,0,L|247:174,2,96,0|2|0,0:0|0:0|3:0,0:0:0:0:
316,28,70468,2,0,L|321:74,1,36,2|0,0:0|0:0,0:0:0:0:
149,112,70806,6,0,P|105:98|46:89,1,96,0|0,3:0|0:0,0:0:0:0:
242,165,71175,2,0,P|251:203|262:288,1,107.999996704102,8|0,0:3|3:0,0:0:0:0:
243,59,71544,38,0,P|287:25|367:-5,1,120,8|2,0:0|0:3,0:0:0:0:
450,32,71913,1,4,0:3:0:0:
481,171,72036,1,8,0:3:0:0:
345,129,72159,1,0,0:0:0:0:
425,113,72282,6,0,P|435:177|414:247,1,120,4|0,3:2|0:0,0:0:0:0:
501,337,72650,2,0,P|462:325|372:314,1,120,0|0,3:0|0:0,0:0:0:0:
317,374,73019,1,8,0:0:0:0:
274,124,73265,2,0,P|280:165|277:197,1,60,0|0,0:0|0:0,0:0:0:0:
336,243,73511,2,0,P|311:276|286:296,1,60,0|0,3:0|0:0,0:0:0:0:
233,353,73757,38,0,L|95:338,1,120,0|0,3:0|0:0,0:0:0:0:
216,255,74126,2,0,L|354:240,1,120,0|0,3:0|0:0,0:0:0:0:
147,190,74495,1,8,0:0:0:0:
355,68,74741,2,0,L|343:145,1,60,0|0,0:0|0:0,0:0:0:0:
241,22,74987,2,0,L|253:99,1,60,0|0,3:0|0:0,0:0:0:0:
259,192,75232,6,0,P|202:208|146:189,1,120,0|0,3:0|0:0,0:0:0:0:
51,4,75601,2,0,P|93:44|105:102,1,120,0|0,3:0|0:0,0:0:0:0:
5,198,75970,2,0,P|18:140|35:121,1,60,8|0,0:0|0:0,0:0:0:0:
129,196,76216,2,0,P|140:223|141:253,1,60,0|0,0:0|0:0,0:0:0:0:
30,348,76462,2,0,P|31:318|42:290,1,60,0|0,3:0|0:0,0:0:0:0:
154,350,76708,38,0,P|213:340|268:316,1,120,0|0,3:0|0:0,0:0:0:0:
416,260,77077,2,0,P|356:250|302:225,1,120,0|0,3:0|0:0,0:0:0:0:
260,152,77446,1,8,0:0:0:0:
459,338,77691,1,4,0:3:0:0:
501,81,77937,1,8,0:3:0:0:
321,252,78183,6,0,P|275:266|185:237,1,120,4|0,3:2|0:0,0:0:0:0:
104,196,78552,2,0,L|124:330,1,120,0|0,3:0|0:0,0:0:0:0:
186,161,78921,2,0,P|169:129|137:108,1,60,8|0,0:0|0:0,0:0:0:0:
268,189,79167,2,0,P|278:154|270:116,1,60,0|0,0:0|0:0,0:0:0:0:
297,272,79413,2,0,P|328:254|349:222,1,60,0|0,3:0|0:0,0:0:0:0:
474,149,79659,38,0,P|396:136|353:168,1,120,4|0,3:2|0:0,0:0:0:0:
210,72,80028,2,0,P|288:85|331:53,1,120,0|0,3:0|0:0,0:0:0:0:
157,5,80396,2,0,P|129:32|120:68,1,60,8|0,0:0|0:0,0:0:0:0:
232,125,80642,2,0,P|222:87|195:61,1,60,0|0,0:0|0:0,0:0:0:0:
86,127,80888,2,0,P|123:137|159:127,1,60,0|0,3:0|0:0,0:0:0:0:
417,62,81134,6,0,B|356:41|362:77|290:48,1,120,4|0,3:2|0:0,0:0:0:0:
167,225,81503,2,0,B|228:204|222:240|294:211,1,120,0|0,3:0|0:0,0:0:0:0:
442,154,81872,2,0,P|413:219|387:387,1,240,8|0,0:0|3:0,0:0:0:0:
298,351,82609,38,0,P|268:334|179:320,1,120,0|0,3:0|0:0,0:0:0:0:
84,248,82978,2,0,L|96:381,1,120,0|0,3:0|0:0,0:0:0:0:
255,228,83347,2,0,P|263:202|257:151,1,60,8|0,0:0|0:0,0:0:0:0:
18,123,83593,2,0,P|17:152|25:181,1,60,4|0,0:3|0:0,0:0:0:0:
174,168,83839,2,0,L|97:157,1,60,8|0,0:3|0:0,0:0:0:0:
437,192,84085,6,0,P|448:151|456:119,1,60,4|0,3:0|0:0,0:0:0:0:
475,274,84331,1,0,3:0:0:0:
342,193,84454,2,0,P|303:202|276:212,1,60,8|0,0:0|0:0,0:0:0:0:
379,280,84700,1,2,0:3:0:0:
369,109,84823,2,0,P|340:99|311:93,1,60,2|0,0:3|0:3,0:0:0:0:
437,192,85068,2,0,P|465:182|494:176,1,60,4|0,0:3|0:3,0:0:0:0:
305,377,85314,37,8,0:3:0:0:
75,165,86790,37,8,0:0:0:0:
77,144,86851,1,8,0:0:0:0:
80,123,86913,1,8,0:0:0:0:
83,102,86974,1,8,0:0:0:0:
86,79,87036,38,0,P|160:65|278:78,1,180.000006866455,6|0,1:2|0:0,0:0:0:0:
446,79,87405,2,0,P|424:138|411:192,1,90.0000034332277,0|0,3:0|0:0,0:0:0:0:
396,353,87650,1,0,0:0:0:0:
313,260,87773,2,0,P|359:255|422:253,1,90.0000034332277,8|0,3:2|0:0,0:0:0:0:
185,341,88019,2,0,P|231:346|294:348,1,90.0000034332277,0|0,3:0|0:0,0:0:0:0:
235,142,88265,2,0,P|220:188|210:246,1,90.0000034332277,0|0,3:0|0:0,0:0:0:0:
465,227,88511,38,0,P|426:270|305:253,1,180.000006866455,0|0,3:0|0:0,0:0:0:0:
146,131,88880,2,0,P|196:133|257:150,1,90.0000034332277,0|0,3:0|0:0,0:0:0:0:
371,183,89126,1,0,0:0:0:0:
421,78,89249,2,0,P|371:80|310:97,1,90.0000034332277,8|0,3:2|0:0,0:0:0:0:
312,259,89495,2,0,L|302:349,1,90.0000034332277,0|0,3:0|0:0,0:0:0:0:
156,220,89741,2,0,L|145:130,1,90.0000034332277,0|0,3:0|0:0,0:0:0:0:
25,339,89987,6,0,B|119:305|97:377|198:327,1,180.000006866455,0|0,3:0|0:0,0:0:0:0:
287,245,90355,1,0,3:0:0:0:
199,142,90478,2,0,P|165:193|151:238,1,90.0000034332277,0|0,0:0|0:0,0:0:0:0:
290,16,90724,2,0,P|229:28|188:49,1,90.0000034332277,8|0,3:2|0:0,0:0:0:0:
423,160,90970,2,0,L|451:49,1,90.0000034332277,0|0,3:0|0:0,0:0:0:0:
324,254,91216,2,0,L|296:143,1,90.0000034332277,0|0,3:0|0:0,0:0:0:0:
512,285,91462,6,0,P|427:357|345:333,1,180.000006866455,0|0,3:0|0:0,0:0:0:0:
268,88,91831,2,0,P|303:140|321:270,1,180.000006866455,0|0,3:0|0:0,0:0:0:0:
30,157,92200,2,0,P|75:149|118:159,1,90.0000034332277,8|0,3:2|0:0,0:0:0:0:
216,324,92446,2,0,P|186:290|171:249,1,90.0000034332277,0|0,3:0|0:0,0:0:0:0:
268,88,92691,2,0,P|255:130|227:165,1,90.0000034332277,0|0,3:0|0:0,0:0:0:0:
75,274,92937,37,4,1:2:0:0:
75,274,93060,1,0,0:0:0:0:
291,243,93183,2,0,P|340:246|398:269,1,90.0000034332277,0|0,0:0|3:0,0:0:0:0:
194,164,93429,2,0,P|149:166|106:179,1,90.0000034332277,0|0,0:0|0:0,0:0:0:0:
394,163,93675,2,0,P|432:84|408:0,1,180.000006866455,8|0,3:2|3:0,0:0:0:0:
294,119,94044,1,0,0:0:0:0:
141,25,94167,2,0,L|230:37,1,90.0000034332277,0|0,3:0|0:0,0:0:0:0:
292,353,94413,38,0,P|290:297|306:239,1,90.0000034332277,0|0,3:0|0:0,0:0:0:0:
317,131,94659,1,0,0:0:0:0:
451,187,94782,2,0,P|465:263|455:371,1,180.000006866455,0|0,3:0|0:0,0:0:0:0:
347,145,95150,2,0,P|383:94|436:82,1,90.0000034332277,8|0,3:2|0:0,0:0:0:0:
242,102,95396,2,0,P|230:144|242:187,1,90.0000034332277,0|0,3:0|0:0,0:0:0:0:
312,22,95642,2,0,P|250:-1|205:10,1,90.0000034332277,0|0,3:0|0:0,0:0:0:0:
314,295,95888,6,0,B|212:253|246:336|108:279,1,180.000006866455,0|0,3:0|0:0,0:0:0:0:
31,136,96257,2,0,P|65:190|75:228,1,90.0000034332277,0|0,3:0|0:0,0:0:0:0:
75,374,96503,1,0,0:0:0:0:
139,290,96626,2,0,P|176:265|234:238,1,90.0000034332277,8|0,3:2|0:0,0:0:0:0:
400,317,96872,2,0,P|357:302|313:294,1,90.0000034332277,0|0,3:0|0:0,0:0:0:0:
264,104,97118,2,0,P|289:140|316:199,1,90.0000034332277,0|0,3:0|0:0,0:0:0:0:
511,339,97364,6,0,L|523:139,1,180.000006866455,4|0,3:2|0:0,0:0:0:0:
309,181,97732,2,0,P|360:171|403:155,1,90.0000034332277,0|0,3:0|0:0,0:0:0:0:
459,53,97978,1,0,0:0:0:0:
189,43,98101,2,0,B|166:81|166:81|184:163,1,90.0000034332277,4|8,3:2|0:3,0:0:0:0:
322,263,98347,2,0,B|331:218|331:218|308:180,1,90.0000034332277,8|8,3:2|0:3,0:0:0:0:
124,321,98593,1,8,3:2:0:0:
202,228,98716,1,8,0:3:0:0:
241,356,98839,37,4,1:2:0:0:
241,356,98962,1,0,0:0:0:0:
90,215,99085,2,0,P|94:170|107:127,1,90.0000034332277,0|0,0:0|3:0,0:0:0:0:
195,29,99331,2,0,P|200:74|214:117,1,90.0000034332277,0|0,0:0|0:0,0:0:0:0:
307,180,99577,2,0,P|330:141|348:99,1,90.0000034332277,8|0,3:2|0:0,0:0:0:0:
127,365,99823,2,0,P|167:345|210:333,1,90.0000034332277,0|0,3:0|0:0,0:0:0:0:
386,323,100068,2,0,P|345:303|302:291,1,90.0000034332277,0|0,3:0|0:0,0:0:0:0:
144,236,100314,37,0,3:0:0:0:
144,236,100437,1,0,0:0:0:0:
387,207,100560,2,0,P|385:150|359:82,1,90.0000034332277,0|0,0:0|3:0,0:0:0:0:
164,0,100806,2,0,P|153:43|153:88,1,90.0000034332277,0|0,0:0|0:0,0:0:0:0:
279,217,101052,2,0,L|153:191,1,90.0000034332277,8|0,3:2|0:0,0:0:0:0:
1,80,101298,2,0,P|19:142|18:182,1,90.0000034332277,0|0,3:0|0:0,0:0:0:0:
102,252,101544,2,0,P|98:296|83:339,1,90.0000034332277,0|0,3:0|0:0,0:0:0:0:
257,93,101790,6,0,P|309:67|434:114,1,180.000006866455,0|0,3:0|0:0,0:0:0:0:
380,304,102159,2,0,P|365:260|364:209,1,90.0000034332277,0|0,3:0|0:0,0:0:0:0:
420,98,102405,1,0,0:0:0:0:
512,180,102528,2,0,P|509:224|495:267,1,90.0000034332277,8|0,3:2|0:0,0:0:0:0:
279,245,102773,2,0,P|318:224|362:216,1,90.0000034332277,0|0,3:0|0:0,0:0:0:0:
352,39,103019,2,0,P|389:63|419:97,1,90.0000034332277,0|0,3:0|0:0,0:0:0:0:
156,91,103265,6,0,P|135:185|131:289,1,180.000006866455,4|0,3:2|0:0,0:0:0:0:
342,308,103634,2,0,P|303:265|262:233,1,90.0000034332277,0|0,3:0|0:0,0:0:0:0:
230,336,103880,1,0,0:0:0:0:
255,147,104003,2,0,P|298:134|343:130,1,90.0000034332277,12|0,3:2|0:0,0:0:0:0:
406,50,104249,2,0,P|372:21|333:0,1,90.0000034332277,0|0,3:0|0:0,0:0:0:0:
512,90,104495,2,0,P|508:46|496:3,1,90.0000034332277,0|0,3:0|0:0,0:0:0:0:
397,334,104741,37,4,3:2:0:0:
397,334,104864,1,0,0:0:0:0:
204,257,104987,2,0,P|272:267|313:285,1,90.0000034332277,0|0,0:0|3:0,0:0:0:0:
88,169,105232,2,0,P|156:159|197:141,1,90.0000034332277,0|0,0:0|0:0,0:0:0:0:
58,308,105478,2,0,P|121:335|156:363,1,90.0000034332277,8|0,3:2|0:0,0:0:0:0:
316,83,105724,2,0,L|299:195,1,90.0000034332277,0|0,3:2|0:0,0:0:0:0:
162,62,105970,2,0,L|179:174,1,90.0000034332277,0|0,3:0|0:0,0:0:0:0:
229,348,106216,37,0,3:0:0:0:
229,348,106339,1,0,0:0:0:0:
499,216,106462,2,0,P|445:212|399:249,1,90.0000034332277,0|0,0:0|3:0,0:0:0:0:
385,364,106708,2,0,P|349:322|290:316,1,90.0000034332277,0|0,0:0|0:0,0:0:0:0:
234,161,106954,2,0,P|269:202|328:208,1,90.0000034332277,8|0,3:2|0:0,0:0:0:0:
459,122,107200,2,0,L|476:12,1,90.0000034332277,0|0,3:0|0:0,0:0:0:0:
319,13,107446,2,0,L|332:101,1,90.0000034332277,0|0,3:0|0:0,0:0:0:0:
54,173,107691,6,0,L|249:159,1,180.000006866455,0|0,3:0|0:0,0:0:0:0:
320,364,108060,2,0,P|302:305|372:199,1,180.000006866455,0|0,3:0|0:0,0:0:0:0:
499,316,108429,2,0,P|431:314|387:285,1,90.0000034332277,8|0,3:2|0:0,0:0:0:0:
388,50,108675,2,0,P|420:109|417:162,1,90.0000034332277,0|0,3:0|0:0,0:0:0:0:
202,264,108921,2,0,P|237:206|284:182,1,90.0000034332277,0|0,3:0|0:0,0:0:0:0:
471,76,109167,38,0,P|403:61|370:32,1,90.0000034332277,4|0,3:2|0:0,0:0:0:0:
117,93,109413,1,8,0:0:0:0:
214,114,109536,2,0,P|282:99|315:70,1,90.0000034332277,8|0,3:2|0:0,0:0:0:0:
86,8,109782,1,8,0:0:0:0:
124,223,109905,6,0,P|182:260|226:263,1,90.0000034332277,12|0,3:2|0:0,0:0:0:0:
408,172,110150,5,8,3:2:0:0:
282,241,110273,1,0,0:0:0:0:
344,360,110396,1,8,3:2:0:0:
344,360,110519,1,0,0:0:0:0:
398,150,110642,37,4,1:2:0:0:
489,274,110765,2,0,P|511:338|512:368,1,90.0000034332277,0|0,0:0|0:0,0:0:0:0:
282,241,111011,2,0,B|224:223|224:223|171:231|171:231|78:199,1,180.000006866455,0|0,3:0|0:0,0:0:0:0:
183,21,111380,2,0,B|196:61|196:61|169:134,1,90.0000034332277,0|0,3:0|0:0,0:0:0:0:
23,258,111626,2,0,B|6:213|6:213|19:173,1,90.0000034332277,0|0,3:0|0:0,0:0:0:0:
76,7,111872,2,0,B|92:51|92:51|79:91,1,90.0000034332277,0|0,3:0|0:0,0:0:0:0:
118,314,112118,37,4,3:2:0:0:
282,241,112241,2,0,P|332:286|354:326,1,90.0000034332277,0|0,0:0|0:0,0:0:0:0:
400,13,112487,2,0,P|380:98|390:211,1,180.000006866455,0|0,3:0|0:0,0:0:0:0:
430,329,112855,2,0,P|363:307|311:304,1,90.0000034332277,0|0,3:0|0:0,0:0:0:0:
195,265,113101,2,0,P|236:248|281:240,1,90.0000034332277,0|0,3:0|0:0,0:0:0:0:
492,139,113347,2,0,L|464:251,1,90.0000034332277,0|0,3:0|0:0,0:0:0:0:
116,121,113593,5,4,3:2:0:0:
290,98,113716,2,0,L|268:10,1,90.0000034332277,0|0,0:0|0:0,0:0:0:0:
98,131,113962,2,0,P|86:205|83:328,1,180.000006866455,0|0,3:0|0:0,0:0:0:0:
291,257,114331,1,0,3:0:0:0:
220,368,114454,1,0,0:0:0:0:
189,217,114577,2,0,P|238:183|283:166,1,90.0000034332277,0|0,3:0|0:0,0:0:0:0:
363,326,114823,2,0,P|326:299|286:280,1,90.0000034332277,0|0,3:0|0:0,0:0:0:0:
82,309,115068,5,4,3:2:0:0:
201,127,115191,2,0,L|184:252,1,90.0000034332277,0|0,0:0|0:0,0:0:0:0:
116,68,115437,1,0,3:0:0:0:
311,165,115560,21,0,0:0:0:0:
280,76,115683,1,0,0:0:0:0:
271,245,115806,21,0,3:0:0:0:
391,130,115929,1,0,0:0:0:0:
206,148,116052,21,0,3:0:0:0:
375,267,116175,1,0,0:0:0:0:
301,172,116298,2,0,P|280:231|274:267,1,90.0000034332277,0|0,3:0|0:0,0:0:0:0:
62,67,116544,5,4,3:2:0:0:
280,52,116667,2,0,P|212:91|187:128,1,90.0000034332277,0|0,0:0|0:0,0:0:0:0:
0,223,116913,2,0,P|88:240|168:318,1,180.000006866455,0|0,3:0|0:0,0:0:0:0:
297,242,117282,2,0,P|225:212|197:212,1,90.0000034332277,0|0,3:0|0:0,0:0:0:0:
419,116,117528,2,0,P|347:146|319:146,1,90.0000034332277,0|0,3:0|0:0,0:0:0:0:
417,369,117773,2,0,P|345:339|317:339,1,90.0000034332277,0|0,3:0|0:0,0:0:0:0:
214,211,118019,37,4,3:2:0:0:
336,146,118142,2,0,P|330:74|309:29,1,90.0000034332277,0|0,0:0|0:0,0:0:0:0:
48,87,118388,2,0,L|255:108,1,180.000006866455,0|0,3:0|0:0,0:0:0:0:
226,298,118757,2,0,P|224:239|194:182,1,90.0000034332277,0|0,3:0|0:0,0:0:0:0:
103,376,119003,2,0,P|116:333|115:288,1,90.0000034332277,0|0,3:0|0:0,0:0:0:0:
14,272,119249,2,0,P|38:234|48:190,1,90.0000034332277,0|0,3:0|0:0,0:0:0:0:
246,32,119495,5,4,3:2:0:0:
146,103,119618,2,0,L|33:88,1,90.0000034332277,0|0,0:0|0:0,0:0:0:0:
329,143,119864,2,0,L|528:116,1,180.000006866455,0|0,3:0|0:0,0:0:0:0:
382,41,120232,1,0,3:0:0:0:
364,235,120355,1,0,0:0:0:0:
232,171,120478,2,0,P|198:223|185:279,1,90.0000034332277,0|0,3:0|0:0,0:0:0:0:
324,372,120724,2,0,P|307:330|281:293,1,90.0000034332277,0|0,3:0|0:0,0:0:0:0:
43,196,120970,5,4,3:2:0:0:
45,361,121093,2,0,P|71:324|87:282,1,90.0000034332277,0|0,0:0|0:0,0:0:0:0:
67,53,121339,2,0,P|131:109|239:112,1,180.000006866455,0|0,3:0|0:0,0:0:0:0:
421,103,121708,21,4,3:2:0:0:
305,53,121831,1,0,0:0:0:0:
316,244,121954,21,0,3:0:0:0:
332,150,122077,1,0,0:0:0:0:
287,248,122200,38,0,P|291:303|307:358,1,90.0000034332277,0|0,3:0|0:0,0:0:0:0:
433,42,122419,6,0,L|406:36,1,15,2|2,0:3|0:3,0:0:0:0:
59,153,122801,22,0,L|73:149,1,15,4|4,0:3|0:3,0:0:0:0:
492,248,123162,22,0,L|477:244,1,15,8|8,0:3|0:3,0:0:0:0:
255,378,123551,37,4,3:2:0:0:
82,135,143957,22,0,L|194:121,1,90.0000034332277,0|0,3:0|0:0,0:0:0:0:
246,176,144202,2,0,L|241:225,3,45.0000017166138,0|0|0|0,0:0|0:0|0:0|0:0,0:0:0:0:
168,253,144694,2,0,L|173:302,3,45.0000017166138,0|0|0|0,0:0|0:0|0:0|0:0,0:0:0:0:
310,271,145186,6,0,L|332:272,3,22.5000008583069,8|8|8|8,0:1|0:1|0:1|0:1,0:0:0:0:
257,334,145432,2,0,L|252:383,1,45.0000017166138,4|0,3:1|0:0,0:0:0:0:
172,297,145678,1,0,0:0:0:0:
172,297,145801,2,0,L|167:252,2,45.0000017166138,4|0|0,0:1|0:0|0:0,0:0:0:0:
89,333,146170,2,0,L|84:377,2,45.0000017166138,0|0|0,0:0|0:0|0:0,0:0:0:0:
21,281,146538,1,0,0:0:0:0:
258,160,146661,38,0,P|202:147|157:147,1,90.0000034332277,0|0,3:0|0:0,0:0:0:0:
4,62,146907,2,0,P|60:49|105:49,1,90.0000034332277,0|0,3:0|0:0,0:0:0:0:
176,101,147153,6,0,L|168:150,3,45.0000017166138,0|0|0|0,0:0|0:0|0:0|0:0,0:0:0:0:
258,160,147645,2,0,L|266:209,3,45.0000017166138,0|0|0|0,0:0|0:0|0:0|0:0,0:0:0:0:
321,89,148137,2,0,L|356:94,3,22.5000008583069,8|8|8|8,0:1|0:1|0:1|0:1,0:0:0:0:
270,18,148383,38,0,P|243:26|208:38,1,45.0000017166138,4|0,3:1|0:0,0:0:0:0:
103,54,148629,1,0,0:0:0:0:
103,54,148752,2,0,P|130:62|165:74,2,45.0000017166138,4|0|0,0:1|0:0|0:0,0:0:0:0:
50,133,149120,2,0,P|23:141|-12:153,2,45.0000017166138,0|0|0,0:0|0:0|0:0,0:0:0:0:
131,180,149489,1,0,0:0:0:0:
49,372,149612,6,0,L|41:273,1,90.0000034332277,0|0,3:0|0:0,0:0:0:0:
377,130,149858,2,0,L|369:219,1,90.0000034332277,0|0,3:0|0:0,0:0:0:0:
322,307,150104,38,0,L|265:313,3,45.0000017166138,0|0|0|0,0:0|0:0|0:0|0:0,0:0:0:0:
275,220,150596,2,0,L|230:215,3,45.0000017166138,0|0|0|0,0:0|0:0|0:0|0:0,0:0:0:0:
274,134,151088,6,0,L|270:101,3,22.5000008583069,8|8|8|8,0:1|0:1|0:1|0:1,0:0:0:0:
203,62,151334,2,0,L|143:57,1,45.0000017166138,4|0,3:1|0:0,0:0:0:0:
286,21,151579,1,0,0:0:0:0:
286,21,151702,2,0,L|346:16,2,45.0000017166138,4|0|0,0:1|0:0|0:0,0:0:0:0:
359,96,152071,2,0,L|403:99,2,45.0000017166138,0|0|0,0:0|0:0|0:0,0:0:0:0:
274,134,152440,1,0,0:0:0:0:
386,334,152563,38,0,L|401:238,1,90.0000034332277,0|0,3:0|0:0,0:0:0:0:
152,123,152809,2,0,L|165:211,1,90.0000034332277,0|0,3:0|0:0,0:0:0:0:
184,307,153055,6,0,P|164:335|147:353,3,45.0000017166138,0|0|0|0,0:0|0:0|0:0|0:0,0:0:0:0:
274,269,153547,2,0,P|279:302|280:327,3,45.0000017166138,0|0|0|0,0:0|0:0|0:0|0:0,0:0:0:0:
385,288,154038,38,0,L|408:294,3,22.5000008583069,8|8|8|8,0:1|0:1|0:1|0:1,0:0:0:0:
352,205,154284,2,0,P|352:175|353:148,1,45.0000017166138,4|0,3:1|0:0,0:0:0:0:
431,72,154530,1,0,0:0:0:0:
431,72,154653,2,0,P|431:94|431:116,2,45.0000017166138,4|0|0,0:1|0:0|0:0,0:0:0:0:
331,47,155022,2,0,P|330:24|331:2,2,45.0000017166138,0|0|0,0:0|0:0|0:0,0:0:0:0:
330,139,155391,1,0,0:0:0:0:
170,145,155514,6,0,P|118:122|83:91,1,90.0000034332277,0|0,3:0|0:0,0:0:0:0:
30,221,155760,2,0,P|103:231|222:279,1,180.000006866455,0|0,3:0|0:0,0:0:0:0:
276,210,156129,38,0,P|271:173|270:109,1,90.0000034332277,2|0,0:2|0:2,0:0:0:0:
336,47,156497,2,0,L|443:60,2,90.0000034332277,2|0|2,0:2|0:2|0:2,0:0:0:0:
201,61,157235,5,2,0:2:0:0:
201,61,157358,1,0,0:2:0:0:
201,61,157481,2,0,P|177:40|156:25,1,45.0000017166138,0|2,0:2|0:2,0:0:0:0:
143,162,157727,2,0,P|140:130|136:104,1,45.0000017166138,0|0,0:2|0:2,0:0:0:0:
24,211,157973,38,0,L|77:203,1,45.0000017166138,2|0,0:2|0:2,0:0:0:0:
114,279,158219,2,0,L|158:285,1,45.0000017166138,2|0,0:2|0:2,0:0:0:0:
448,298,158465,6,0,L|347:317,1,90.0000034332277,0|0,3:2|0:2,0:0:0:0:
267,371,158711,2,0,L|253:170,1,180.000006866455,0|0,3:2|0:2,0:0:0:0:
112,135,159079,38,0,P|157:134|205:107,1,90.0000034332277,2|0,0:2|0:2,0:0:0:0:
270,19,159448,2,0,B|291:60|291:60|286:119,2,90.0000034332277,2|0|2,0:2|0:2|0:2,0:0:0:0:
140,4,160186,5,2,0:2:0:0:
140,4,160309,1,0,0:2:0:0:
140,4,160432,2,0,L|132:63,1,45.0000017166138,0|2,0:2|0:2,0:0:0:0:
31,39,160678,2,0,L|39:98,1,45.0000017166138,0|0,0:2|0:2,0:0:0:0:
198,138,160924,2,0,P|138:139|98:161,1,90.0000034332277,2|2,0:2|0:2,0:0:0:0:
63,293,161416,38,0,L|174:300,1,90.0000034332277,0|0,3:2|0:2,0:0:0:0:
324,202,161661,2,0,P|239:169|154:225,1,180.000006866455,0|0,3:2|0:2,0:0:0:0:
240,365,162030,6,0,P|254:315|243:268,1,90.0000034332277,2|0,0:2|0:2,0:0:0:0:
165,207,162399,2,0,L|315:180,1,135.000005149841,2|0,0:2|0:2,0:0:0:0:
340,99,162891,2,0,P|329:72|328:38,1,45.0000017166138,2|0,0:2|0:2,0:0:0:0:
430,132,163137,37,2,0:2:0:0:
430,132,163260,1,0,0:2:0:0:
430,132,163383,2,0,L|418:190,1,45.0000017166138,0|2,0:2|0:2,0:0:0:0:
491,230,163629,2,0,L|479:288,1,45.0000017166138,0|0,0:2|0:2,0:0:0:0:
358,367,163875,6,0,P|336:359|319:346,1,45.0000017166138,2|0,0:2|0:2,0:0:0:0:
257,273,164120,2,0,P|273:258|294:250,1,45.0000017166138,2|0,0:2|0:2,0:0:0:0:
481,274,164366,38,0,P|420:294|396:287,1,90.0000034332277,0|0,3:2|0:2,0:0:0:0:
335,121,164612,2,0,P|383:191|468:180,1,180.000006866455,0|0,3:2|0:2,0:0:0:0:
497,36,164981,6,0,L|407:44,1,90.0000034332277,2|0,0:2|0:2,0:0:0:0:
235,41,165350,2,0,L|247:13,2,22.5000008583069,2|0|0,0:2|0:2|0:2,0:0:0:0:
326,76,165596,2,0,P|331:106|337:130,1,45.0000017166138,2|0,0:2|0:2,0:0:0:0:
231,140,165842,2,0,P|226:170|220:194,1,45.0000017166138,2|0,0:2|0:2,0:0:0:0:
341,294,166088,38,0,P|318:242|313:198,1,90.0000034332277,2|0,0:2|0:2,0:0:0:0:
222,184,166456,2,0,P|201:223|170:256,1,90.0000034332277,2|0,0:2|0:2,0:0:0:0:
83,233,166825,1,8,0:0:0:0:
83,233,167071,1,4,0:1:0:0:
310,347,167317,2,0,P|305:364|299:381,2,35.9999989013672,8|8|8,3:1|0:1|0:1,0:1:0:0:
497,225,167563,6,0,P|428:247|352:299,1,143.999995605469,0|0,3:0|0:0,0:0:0:0:
263,276,167932,2,0,P|296:211|313:121,1,143.999995605469,0|0,3:0|0:0,0:0:0:0:
384,24,168301,2,0,P|386:72|398:110,1,71.9999978027344,0|0,3:0|0:0,0:0:0:0:
504,250,168547,2,0,P|511:214|512:179,1,71.9999978027344,0|0,3:0|0:0,0:0:0:0:
211,0,168793,2,0,P|211:35|219:70,1,71.9999978027344,0|0,3:0|0:0,0:0:0:0:
221,362,169038,38,0,P|235:302|247:210,1,143.999995605469,0|0,3:0|0:0,0:0:0:0:
17,183,169407,2,0,P|64:216|152:260,1,143.999995605469,0|0,3:0|0:0,0:0:0:0:
181,92,169776,2,0,P|173:144|176:182,1,71.9999978027344,8|0,3:2|0:0,0:0:0:0:
334,243,170022,2,0,P|333:207|326:171,1,71.9999978027344,0|0,3:0|0:0,0:0:0:0:
88,81,170268,2,0,P|70:80|52:81,2,35.9999989013672,8|8|8,3:1|0:1|0:1,0:1:0:0:
494,110,170514,6,0,L|343:87,1,143.999995605469,0|0,3:0|0:0,0:0:0:0:
205,365,170883,2,0,P|220:249|219:213,1,143.999995605469,0|0,3:0|0:0,0:0:0:0:
1,221,171252,2,0,P|52:237|92:228,1,71.9999978027344,0|0,3:0|0:0,0:0:0:0:
132,164,171497,2,0,L|117:66,1,71.9999978027344,0|0,3:0|0:0,0:0:0:0:
410,236,171743,2,0,L|399:307,1,71.9999978027344,0|0,3:0|0:0,0:0:0:0:
231,87,171989,38,0,P|291:85|402:56,1,143.999995605469,0|0,3:0|0:0,0:0:0:0:
205,365,172358,2,0,P|135:348|63:345,1,143.999995605469,0|0,3:0|0:0,0:0:0:0:
262,211,172727,2,0,L|272:297,1,71.9999978027344,0|0,3:0|0:0,0:0:0:0:
374,161,172973,2,0,L|364:247,1,71.9999978027344,0|0,3:0|0:0,0:0:0:0:
30,188,173219,2,0,L|36:235,2,35.9999989013672,8|8|8,3:1|0:1|0:1,0:1:0:0:
165,59,173465,6,0,L|144:235,1,143.999995605469,0|0,3:0|0:0,0:0:0:0:
289,329,173834,2,0,P|338:308|428:295,1,143.999995605469,0|0,3:0|0:0,0:0:0:0:
275,184,174202,2,0,P|253:212|232:267,1,71.9999978027344,0|0,3:0|0:0,0:0:0:0:
180,328,174448,2,0,P|157:299|142:267,1,71.9999978027344,0|0,3:0|0:0,0:0:0:0:
357,141,174694,2,0,P|369:174|373:210,1,71.9999978027344,0|0,3:0|0:0,0:0:0:0:
25,177,174940,38,0,P|113:191|184:153,1,143.999995605469,0|0,3:0|0:0,0:0:0:0:
428,63,175309,2,0,P|360:41|291:57,1,143.999995605469,0|0,3:0|0:0,0:0:0:0:
260,141,175678,2,0,L|277:217,1,71.9999978027344,8|0,3:2|0:0,0:0:0:0:
177,72,175924,2,0,L|194:-4,1,71.9999978027344,0|0,3:0|0:0,0:0:0:0:
356,238,176170,2,0,L|368:281,2,35.9999989013672,8|8|8,0:1|0:1|0:1,0:1:0:0:
54,250,176416,6,0,P|121:237|216:271,1,143.999995605469,0|0,3:0|0:0,0:0:0:0:
329,379,176784,2,0,L|356:238,1,143.999995605469,0|0,3:0|0:0,0:0:0:0:
406,69,177153,2,0,P|383:15|364:-3,1,71.9999978027344,0|0,3:0|0:0,0:0:0:0:
275,60,177399,2,0,P|285:94|306:123,1,71.9999978027344,0|0,3:0|0:0,0:0:0:0:
470,164,177645,2,0,P|494:137|508:104,1,71.9999978027344,0|0,3:0|0:0,0:0:0:0:
233,194,177891,38,0,P|295:226|364:209,1,143.999995605469,0|0,3:0|0:0,0:0:0:0:
322,53,178260,2,0,L|302:143,1,71.9999978027344,0|0,3:0|0:0,0:0:0:0:
449,314,178506,1,0,0:0:0:0:
485,234,178629,2,0,L|469:163,1,71.9999978027344,8|0,0:0|0:0,0:0:0:0:
242,223,178875,1,0,3:0:0:0:
242,223,178997,1,4,0:3:0:0:
347,236,179120,2,0,L|394:243,2,35.9999989013672,8|8|8,3:1|0:1|0:1,0:1:0:0:
51,134,179366,6,0,B|101:143|101:143|139:128|139:128|210:142,1,143.999995605469,4|0,3:2|0:0,0:0:0:0:
286,135,179735,2,0,P|291:65|334:8,1,143.999995605469,0|0,3:0|0:0,0:0:0:0:
451,62,180104,2,0,P|449:97|435:130,1,71.9999978027344,0|0,3:0|0:0,0:0:0:0:
502,200,180350,2,0,P|475:224|442:237,1,71.9999978027344,0|0,3:0|0:0,0:0:0:0:
467,324,180596,2,0,P|434:338|398:339,1,71.9999978027344,0|0,3:0|0:0,0:0:0:0:
286,135,180842,38,0,L|123:121,1,143.999995605469,0|0,3:0|0:0,0:0:0:0:
49,17,181211,2,0,B|64:72|64:72|39:162,1,143.999995605469,0|0,3:0|3:0,0:0:0:0:
101,235,181579,2,0,P|156:217|179:217,1,71.9999978027344,8|0,3:2|0:0,0:0:0:0:
217,116,181825,2,0,P|252:120|285:134,1,71.9999978027344,0|0,3:0|0:0,0:0:0:0:
383,138,182071,2,0,L|391:78,2,35.9999989013672,8|8|8,3:1|0:1|0:1,0:1:0:0:
314,293,182317,6,0,L|323:364,1,71.9999978027344,0|0,3:0|0:0,0:0:0:0:
460,316,182563,2,0,L|451:245,1,71.9999978027344,0|0,0:0|3:0,0:0:0:0:
364,206,182809,2,0,L|373:135,1,71.9999978027344,0|0,0:0|0:0,0:0:0:0:
133,233,183055,2,0,P|195:237|275:176,1,143.999995605469,0|0,3:0|3:0,0:0:0:0:
217,116,183424,1,0,0:0:0:0:
217,116,183547,2,0,L|205:34,1,71.9999978027344,0|0,3:0|0:0,0:0:0:0:
421,170,183793,38,0,P|475:166|496:158,2,71.9999978027344,0|0|0,3:0|0:0|0:0,0:0:0:0:
311,165,184161,2,0,L|285:319,1,143.999995605469,0|0,3:0|0:0,0:0:0:0:
203,362,184530,2,0,P|191:320|190:277,1,71.9999978027344,0|0,3:0|0:0,0:0:0:0:
91,307,184776,2,0,P|94:271|104:236,1,71.9999978027344,0|0,3:0|0:0,0:0:0:0:
286,306,185022,2,0,P|307:335|323:347,2,35.9999989013672,8|8|8,3:1|0:1|0:1,0:1:0:0:
20,238,185268,6,0,P|85:224|140:142,1,143.999995605469,0|0,3:0|0:0,0:0:0:0:
149,77,185637,1,0,3:0:0:0:
329,225,186006,2,0,L|414:217,1,71.9999978027344,0|0,3:0|0:0,0:0:0:0:
231,128,186252,2,0,L|302:134,1,71.9999978027344,0|0,3:0|0:0,0:0:0:0:
182,283,186497,2,0,L|253:276,1,71.9999978027344,0|0,3:0|0:0,0:0:0:0:
2,183,186743,38,0,B|54:178|54:178|92:192|92:192|161:183,1,143.999995605469,0|0,3:0|0:0,0:0:0:0:
24,274,187112,1,0,3:0:0:0:
400,193,187481,2,0,P|346:181|265:103,1,143.999995605469,0|0,3:0|3:0,0:0:0:0:
111,102,187850,1,0,0:0:0:0:
199,79,187973,2,0,P|215:40|223:7,1,71.9999978027344,0|0,3:0|0:0,0:0:0:0:
260,300,188219,6,0,L|249:211,1,71.9999978027344,0|0,3:0|0:0,0:0:0:0:
56,274,188465,2,0,L|67:185,1,71.9999978027344,0|0,0:0|3:0,0:0:0:0:
165,381,188711,2,0,L|154:225,2,143.999995605469,0|0|0,0:0|3:0|3:0,0:0:0:0:
213,163,189448,2,0,P|165:144|124:146,1,71.9999978027344,0|0,3:0|0:0,0:0:0:0:
274,388,189694,38,0,P|331:349|342:279,1,143.999995605469,0|0,3:0|0:0,0:0:0:0:
257,302,190063,1,0,3:0:0:0:
382,161,190309,5,0,3:0:0:0:
427,339,190432,1,8,0:0:0:0:
427,339,190678,22,0,L|507:353,1,71.9999978027344,0|0,3:0|0:0,0:0:0:0:
348,256,190924,2,0,L|428:242,1,71.9999978027344,0|0,3:0|0:0,0:0:0:0:
111,343,191170,6,0,B|100:261|100:261|129:199,1,143.999995605469,4|0,3:2|0:0,0:0:0:0:
239,116,191538,2,0,P|163:122|98:68,1,143.999995605469,0|0,3:0|0:0,0:0:0:0:
287,34,191907,2,0,P|323:71|334:109,1,71.9999978027344,8|0,0:0|0:0,0:0:0:0:
429,112,192153,2,0,P|412:143|385:167,1,71.9999978027344,0|0,3:0|0:0,0:0:0:0:
169,124,192399,2,0,P|203:113|239:116,1,71.9999978027344,0|0,3:0|0:0,0:0:0:0:
307,333,192645,6,0,L|291:162,1,143.999995605469,0|0,3:0|0:0,0:0:0:0:
141,46,193014,2,0,L|127:189,1,143.999995605469,0|0,3:0|0:0,0:0:0:0:
219,267,193383,2,0,P|174:275|125:297,1,71.9999978027344,8|0,0:0|0:0,0:0:0:0:
22,339,193629,2,0,P|67:347|116:369,1,71.9999978027344,0|0,3:0|0:0,0:0:0:0:
40,157,193875,1,0,3:0:0:0:
438,175,194120,38,0,L|275:191,1,143.999995605469,0|0,3:0|0:0,0:0:0:0:
144,73,194489,2,0,P|206:50|254:127,1,143.999995605469,0|0,3:0|0:0,0:0:0:0:
255,284,194858,2,0,P|215:327|176:336,1,71.9999978027344,8|0,0:0|0:0,0:0:0:0:
338,251,195104,2,0,P|340:309|318:343,1,71.9999978027344,0|0,3:0|0:0,0:0:0:0:
369,172,195350,2,0,P|412:211|421:251,1,71.9999978027344,0|0,3:0|0:0,0:0:0:0:
118,186,195596,6,0,L|282:194,1,143.999995605469,0|0,3:0|0:0,0:0:0:0:
439,85,195965,2,0,L|275:93,1,143.999995605469,0|0,3:0|0:0,0:0:0:0:
149,40,196334,1,8,0:0:0:0:
253,298,196579,1,0,3:0:0:0:
385,8,196825,1,0,3:0:0:0:
70,205,197071,37,4,3:2:0:0:
141,146,197194,2,0,P|184:175|214:213,1,71.9999978027344,0|0,0:0|0:0,0:0:0:0:
111,296,197440,2,0,P|154:275|236:325,1,143.999995605469,0|0,3:0|0:0,0:0:0:0:
51,371,197809,1,8,0:0:0:0:
238,204,198055,1,0,3:0:0:0:
411,325,198301,1,0,3:0:0:0:
238,204,198547,6,0,P|236:143|254:42,1,143.999995605469,4|0,3:2|0:0,0:0:0:0:
120,0,198916,2,0,P|131:70|130:142,1,143.999995605469,0|0,3:0|0:0,0:0:0:0:
61,213,199284,1,8,0:0:0:0:
389,225,199530,1,0,3:0:0:0:
248,61,199776,1,0,3:0:0:0:
225,169,199899,1,8,0:2:0:0:
225,169,199961,1,8,0:2:0:0:
225,169,200022,38,0,L|385:128,1,143.999995605469,4|0,3:2|0:0,0:0:0:0:
192,346,200391,2,0,L|32:305,1,143.999995605469,0|0,3:0|0:0,0:0:0:0:
28,208,200760,2,0,P|31:169|42:127,1,71.9999978027344,8|0,0:0|0:0,0:0:0:0:
134,244,201006,2,0,P|131:205|120:163,1,71.9999978027344,0|0,3:0|0:0,0:0:0:0:
101,16,201252,2,0,P|104:54|115:97,1,71.9999978027344,0|0,3:0|0:0,0:0:0:0:
342,124,201497,6,0,B|268:103|280:153|192:128,1,143.999995605469,0|0,3:0|3:0,0:0:0:0:
398,43,201866,2,0,P|438:90|428:177,1,143.999995605469,0|0,3:0|0:0,0:0:0:0:
348,283,202235,2,0,P|346:236|363:206,1,71.9999978027344,8|0,0:0|0:0,0:0:0:0:
436,259,202481,1,0,3:0:0:0:
436,259,202727,1,0,3:0:0:0:
151,328,202973,38,0,L|140:213,1,83.9999974365235,4|8,3:2|0:0,0:0:0:0:
209,75,203219,1,0,0:0:0:0:
81,141,203342,2,0,B|128:130|166:136|148:165|209:170|276:146,1,167.999994873047,8|2,0:0|0:3,0:0:0:0:
443,71,203711,5,4,0:3:0:0:
310,242,203834,1,0,0:0:0:0:
473,196,203956,1,8,3:2:0:0:
367,153,204079,1,8,0:3:0:0:
368,329,204202,37,8,3:2:0:0:
121,96,205678,5,8,0:0:0:0:
121,116,205739,1,8,0:0:0:0:
121,137,205801,1,8,0:0:0:0:
122,157,205862,1,8,0:0:0:0:
123,178,205924,6,0,B|171:167|220:179|192:207|256:212|316:198,1,180.000006866455,14|0,1:2|0:0,0:0:0:0:
474,24,206293,2,0,P|445:90|409:213,1,180.000006866455,0|0,3:0|0:0,0:0:0:0:
362,357,206661,2,0,P|409:350|480:357,1,90.0000034332277,8|0,3:2|0:0,0:0:0:0:
203,244,206907,2,0,P|250:251|321:244,1,90.0000034332277,0|0,3:0|0:0,0:0:0:0:
73,361,207153,2,0,P|120:354|191:361,1,90.0000034332277,0|0,3:0|0:0,0:0:0:0:
282,153,207399,37,0,3:0:0:0:
282,153,207522,1,0,0:0:0:0:
101,176,207645,2,0,L|12:190,1,90.0000034332277,0|0,0:0|3:0,0:0:0:0:
225,50,207891,2,0,L|314:63,1,90.0000034332277,0|0,0:0|0:0,0:0:0:0:
512,153,208137,2,0,L|422:166,1,90.0000034332277,8|0,3:2|0:0,0:0:0:0:
166,267,208383,1,0,3:0:0:0:
166,267,208506,1,0,0:0:0:0:
297,224,208629,2,0,L|323:322,1,90.0000034332277,0|0,3:0|0:0,0:0:0:0:
44,102,208875,6,0,B|108:98|108:98|155:125|155:125|220:121,1,180.000006866455,0|0,3:0|0:0,0:0:0:0:
330,13,209243,2,0,P|309:69|299:117,1,90.0000034332277,0|0,3:0|0:0,0:0:0:0:
354,284,209489,1,0,0:0:0:0:
433,204,209612,2,0,L|311:178,1,90.0000034332277,8|0,3:2|0:0,0:0:0:0:
237,314,209858,2,0,L|148:332,1,90.0000034332277,0|0,3:0|0:0,0:0:0:0:
37,186,210104,2,0,L|125:204,1,90.0000034332277,0|0,3:0|0:0,0:0:0:0:
253,30,210350,6,0,P|243:112|239:232,1,180.000006866455,0|0,3:0|0:0,0:0:0:0:
462,361,210719,2,0,P|458:271|447:181,1,180.000006866455,0|0,3:0|0:0,0:0:0:0:
262,311,211088,2,0,L|364:297,1,90.0000034332277,8|0,3:2|0:0,0:0:0:0:
130,137,211334,2,0,L|28:123,1,90.0000034332277,0|0,3:0|0:0,0:0:0:0:
405,21,211579,2,0,L|507:7,1,90.0000034332277,0|0,3:0|0:0,0:0:0:0:
320,212,211825,37,4,1:2:0:0:
320,212,211948,1,0,0:0:0:0:
144,109,212071,2,0,P|156:42|176:2,1,90.0000034332277,0|0,0:0|3:0,0:0:0:0:
65,206,212317,2,0,P|49:163|44:119,1,90.0000034332277,0|0,0:0|0:0,0:0:0:0:
236,168,212563,2,0,P|308:122|402:106,1,180.000006866455,8|0,3:2|3:0,0:0:0:0:
366,381,212932,1,0,0:0:0:0:
275,334,213055,2,0,P|278:294|297:247,1,90.0000034332277,0|0,3:0|0:0,0:0:0:0:
397,194,213301,37,0,3:0:0:0:
397,194,213424,1,0,0:0:0:0:
192,12,213547,2,0,P|181:79|206:114,1,90.0000034332277,0|0,0:0|3:0,0:0:0:0:
353,99,213793,2,0,P|365:56|350:14,1,90.0000034332277,0|0,0:0|0:0,0:0:0:0:
58,146,214038,2,0,P|134:177|168:171,1,90.0000034332277,8|0,3:2|0:0,0:0:0:0:
279,146,214284,1,0,3:0:0:0:
279,146,214407,1,0,0:0:0:0:
72,279,214530,2,0,P|68:329|78:378,1,90.0000034332277,0|0,3:0|0:0,0:0:0:0:
279,146,214776,6,0,B|357:137|357:137|384:147|384:147|482:138,1,180.000006866455,0|0,3:0|0:0,0:0:0:0:
512,344,215145,2,0,P|489:292|346:269,1,180.000006866455,0|0,3:0|0:0,0:0:0:0:
175,352,215514,2,0,P|238:355|267:329,1,90.0000034332277,8|0,3:2|0:0,0:0:0:0:
272,112,215760,2,0,P|237:165|245:203,1,90.0000034332277,0|0,3:0|0:0,0:0:0:0:
430,321,216006,2,0,P|401:264|364:252,1,90.0000034332277,0|0,3:0|0:0,0:0:0:0:
36,60,216252,38,0,L|167:73,1,90.0000034332277,4|0,3:2|0:0,0:0:0:0:
278,89,216497,1,0,0:0:0:0:
100,212,216620,2,0,P|83:261|71:316,1,90.0000034332277,4|0,3:2|0:0,0:0:0:0:
26,150,216866,1,0,0:0:0:0:
173,284,216989,6,0,L|260:262,1,90.0000034332277,4|0,3:2|0:0,0:0:0:0:
375,57,217235,37,8,3:2:0:0:
415,276,217358,1,4,0:3:0:0:
443,137,217481,1,8,3:2:0:0:
280,178,217604,1,8,0:3:0:0:
375,34,217727,5,4,1:2:0:0:
375,34,217850,1,0,0:0:0:0:
313,283,217973,2,0,P|260:296|201:333,1,90.0000034332277,0|0,0:0|3:0,0:0:0:0:
10,212,218219,2,0,P|63:225|122:262,1,90.0000034332277,0|0,0:0|0:0,0:0:0:0:
225,28,218465,2,0,L|189:222,1,180.000006866455,8|0,3:2|3:0,0:0:0:0:
123,84,218834,1,0,0:0:0:0:
298,152,218956,2,0,P|366:132|409:104,1,90.0000034332277,0|0,3:0|0:0,0:0:0:0:
441,29,219202,5,0,3:0:0:0:
441,29,219325,1,0,0:0:0:0:
477,205,219448,2,0,L|458:315,1,90.0000034332277,0|0,0:0|3:0,0:0:0:0:
214,204,219694,2,0,L|198:115,1,90.0000034332277,0|0,0:0|0:0,0:0:0:0:
357,294,219940,2,0,B|240:283|296:354|150:326,1,180.000006866455,8|0,3:2|3:0,0:0:0:0:
0,198,220309,1,0,0:0:0:0:
93,85,220432,2,0,P|101:149|99:201,1,90.0000034332277,0|0,3:0|0:0,0:0:0:0:
75,311,220678,37,0,3:0:0:0:
75,311,220801,1,0,0:0:0:0:
203,133,220924,2,0,L|316:147,1,90.0000034332277,0|0,0:0|3:0,0:0:0:0:
462,220,221170,2,0,L|349:234,1,90.0000034332277,0|0,0:0|0:0,0:0:0:0:
14,181,221416,2,0,P|72:190|121:209,1,90.0000034332277,8|0,3:2|0:0,0:0:0:0:
292,144,221662,2,0,P|255:189|214:222,1,90.0000034332277,0|0,3:0|0:0,0:0:0:0:
197,384,221908,2,0,P|175:329|167:277,1,90.0000034332277,0|0,3:0|0:0,0:0:0:0:
512,139,222153,38,0,P|476:186|351:205,1,180.000006866455,4|0,3:2|0:0,0:0:0:0:
18,123,222522,2,0,P|56:76|181:57,1,180.000006866455,0|0,3:0|0:0,0:0:0:0:
362,208,222891,2,0,L|338:310,1,90.0000034332277,12|0,3:2|0:0,0:0:0:0:
189,140,223137,2,0,L|168:52,1,90.0000034332277,0|0,3:0|0:0,0:0:0:0:
469,293,223383,2,0,L|445:395,1,90.0000034332277,0|0,3:0|0:0,0:0:0:0:
99,290,223629,5,4,1:2:0:0:
99,290,223752,1,0,0:0:0:0:
286,193,223875,2,0,P|271:248|277:298,1,90.0000034332277,0|0,0:0|3:0,0:0:0:0:
380,116,224120,2,0,P|380:71|366:28,1,90.0000034332277,0|0,0:0|0:0,0:0:0:0:
87,125,224366,2,0,L|193:146,1,90.0000034332277,8|0,3:2|0:0,0:0:0:0:
492,211,224612,2,0,P|428:233|383:267,1,90.0000034332277,0|0,3:0|0:0,0:0:0:0:
286,193,224858,2,0,P|256:253|248:309,1,90.0000034332277,0|0,3:0|0:0,0:0:0:0:
380,374,225104,5,0,3:0:0:0:
380,374,225227,1,0,0:0:0:0:
136,265,225350,2,0,L|21:271,1,90.0000034332277,0|0,0:0|3:0,0:0:0:0:
261,100,225596,2,0,L|376:106,1,90.0000034332277,0|0,0:0|0:0,0:0:0:0:
97,38,225842,2,0,L|111:126,1,90.0000034332277,8|0,3:2|0:0,0:0:0:0:
263,367,226088,2,0,L|277:278,1,90.0000034332277,0|0,3:0|0:0,0:0:0:0:
440,16,226334,2,0,L|454:105,1,90.0000034332277,0|0,3:0|0:0,0:0:0:0:
186,224,226579,38,0,B|80:187|111:260|-20:208,1,180.000006866455,0|0,3:0|0:0,0:0:0:0:
281,11,226948,2,0,L|302:196,1,180.000006866455,0|0,3:0|0:0,0:0:0:0:
128,316,227317,2,0,P|86:328|38:329,1,90.0000034332277,8|0,3:2|0:0,0:0:0:0:
407,224,227563,2,0,P|451:225|495:237,1,90.0000034332277,0|0,3:0|0:0,0:0:0:0:
263,384,227809,2,0,P|267:328|275:278,1,90.0000034332277,0|0,3:0|0:0,0:0:0:0:
207,65,228055,37,12,3:2:0:0:
282,197,228178,1,0,0:0:0:0:
71,107,228301,1,8,0:0:0:0:
299,0,228424,6,0,P|284:95|276:192,1,180.000006866455,0|0,0:0|0:0,0:0:0:0:
356,289,228793,1,4,3:2:0:0:
141,216,228916,1,8,0:0:0:0:
231,384,229038,2,0,P|240:341|239:276,1,90.0000034332277,4|0,0:3|0:0,0:0:0:0:
168,77,229284,1,8,3:2:0:0:
395,171,229407,1,0,0:0:0:0:
258,201,229530,37,0,0:0:0:0:
256,192,229592,12,0,230698,0:0:0:0:
204,152,230821,5,4,0:3:0:0:
202,169,230883,1,8,0:3:0:0:
199,186,230944,1,8,0:3:0:0:
197,203,231006,1,4,1:2:0:0:
256,192,231067,12,0,233956,0:0:0:0:
140,122,242809,22,0,L|146:178,2,48,0|0|0,3:0|0:0|0:0,0:0:0:0:
207,56,243178,2,0,P|260:70|305:94,1,96,0|0,0:0|0:0,0:0:0:0:
399,47,243547,6,0,P|386:92|386:112,1,48
339,158,243793,2,0,P|361:199|375:213,1,48,0|0,0:0|0:0,0:0:0:0:
438,257,244038,2,0,L|483:253,2,24,8|8|8,0:1|0:1|0:1,0:0:0:0:
206,326,244284,37,0,3:0:0:0:
206,326,244407,2,0,P|166:315|143:314,1,48,0|0,0:0|0:0,0:0:0:0:
430,268,244653,2,0,L|411:372,1,96,0|0,3:0|0:0,0:0:0:0:
344,247,245022,6,0,L|333:186,1,48
419,176,245268,2,0,L|429:115,1,48,0|0,0:0|0:0,0:0:0:0:
348,78,245514,2,0,L|306:73,2,24,8|8|8,0:1|0:1|0:1,0:0:0:0:
259,375,245760,37,0,3:0:0:0:
259,375,245883,2,0,P|262:328|259:312,1,48,0|0,0:0|0:0,0:0:0:0:
182,270,246129,2,0,P|217:243|265:227,1,96,0|0,0:0|0:0,0:0:0:0:
332,128,246497,5,0,0:0:0:0:
332,128,246620,1,0,0:0:0:0:
332,128,246743,2,0,L|344:189,1,48,0|0,0:0|0:0,0:0:0:0:
361,361,246989,2,8,L|356:384,2,24,8|8|8,3:1|0:1|0:1,0:1:0:0:
61,181,247235,37,0,3:0:0:0:
61,181,247358,2,0,P|90:202|109:222,1,48,0|0,0:0|0:0,0:0:0:0:
307,295,247604,2,0,B|257:277|258:303|201:280,1,96,0|0,3:0|0:0,0:0:0:0:
183,204,247973,5,0,0:0:0:0:
183,204,248096,1,0,0:0:0:0:
256,142,248219,1,0,0:0:0:0:
256,142,248342,1,0,0:0:0:0:
168,115,248465,2,0,L|162:91,2,24,8|8|8,0:1|0:1|0:1,0:0:0:0:
381,109,248711,37,0,3:0:0:0:
409,352,248834,2,0,P|372:342|349:331,1,48,0|0,0:0|0:0,0:0:0:0:
304,270,249079,2,0,P|270:279|216:317,1,96,0|0,0:0|0:0,0:0:0:0:
161,196,249448,6,0,P|169:232|167:252,1,48
258,143,249694,2,0,P|257:166|250:189,1,48,0|0,0:0|0:0,0:0:0:0:
344,187,249940,2,0,L|371:190,2,24,8|8|8,0:1|0:1|0:1,0:0:0:0:
32,66,250186,37,0,3:0:0:0:
84,172,250309,2,0,P|114:185|145:191,1,48,0|0,0:0|0:0,0:0:0:0:
313,33,250555,2,0,P|267:41|207:64,1,96,0|0,3:0|0:0,0:0:0:0:
124,72,250924,6,0,L|114:9,1,48
170,201,251170,2,0,L|180:138,1,48,0|0,0:0|0:0,0:0:0:0:
97,293,251416,2,0,L|87:230,1,48,0|0,0:0|0:0,0:0:0:0:
306,132,251661,37,0,3:0:0:0:
451,211,251784,2,0,L|386:202,1,48,0|0,0:0|0:0,0:0:0:0:
345,275,252030,2,0,P|298:286|251:288,1,96,0|0,0:0|0:0,0:0:0:0:
194,171,252399,5,0,0:0:0:0:
194,171,252522,1,0,0:0:0:0:
194,171,252645,2,0,P|191:204|194:224,1,48,0|0,0:0|0:0,0:0:0:0:
169,380,252891,2,0,P|170:356|167:332,1,48,0|0,3:0|0:0,0:0:0:0:
18,143,253137,37,0,3:0:0:0:
56,237,253260,2,0,P|89:249|111:250,1,48,0|0,0:0|0:0,0:0:0:0:
214,10,253506,2,0,P|196:41|174:113,1,96,2|0,3:1|0:0,0:0:0:0:
211,184,253875,5,0,0:0:0:0:
211,184,253997,1,0,0:0:0:0:
291,137,254120,1,0,0:0:0:0:
291,137,254242,1,0,0:0:0:0:
369,197,254366,2,0,P|375:221|381:249,1,48,0|0,0:0|0:0,0:0:0:0:
208,91,254612,37,4,0:0:0:0:
32,136,254735,1,0,0:0:0:0:
32,136,254981,2,0,L|133:142,1,96
166,219,255350,5,0,0:0:0:0:
119,293,255596,1,0,0:0:0:0:
127,141,255842,1,0,0:0:0:0:
262,238,256088,37,0,0:0:0:0:
346,122,256211,1,0,0:0:0:0:
346,122,256456,2,0,L|449:138,1,96,0|0,0:0|0:0,0:0:0:0:
406,42,256825,5,0,0:0:0:0:
382,210,257071,1,0,0:0:0:0:
406,42,257317,1,0,0:0:0:0:
382,210,257563,37,0,0:0:0:0:
244,95,257686,1,0,0:0:0:0:
244,95,257932,2,0,P|198:97|142:115,1,96,0|0,0:0|0:0,0:0:0:0:
93,178,258301,5,0,0:0:0:0:
172,23,258547,1,0,0:0:0:0:
328,127,258793,1,0,0:0:0:0:
93,178,259038,37,0,0:0:0:0:
232,295,259161,1,0,0:0:0:0:
232,295,259407,2,0,P|229:241|217:188,1,96,0|0,0:0|0:0,0:0:0:0:
176,123,259776,5,0,0:0:0:0:
340,294,260022,1,0,0:0:0:0:
111,354,260268,1,0,0:0:0:0:
45,293,260391,21,4,0:3:0:0:
45,293,260452,1,8,0:3:0:0:
45,293,260514,5,0,3:0:0:0:
115,230,260637,2,0,L|184:251,1,60,0|0,0:0|0:0,0:0:0:0:
284,272,260883,1,0,3:0:0:0:
214,209,261006,2,0,L|145:230,1,60,0|0,0:0|0:0,0:0:0:0:
113,75,261252,5,0,3:0:0:0:
138,152,261375,2,0,L|159:221,1,60,0|0,0:0|3:0,0:0:0:0:
229,55,261620,1,0,0:0:0:0:
204,132,261743,2,0,L|183:201,1,60,0|0,3:0|0:0,0:0:0:0:
486,184,261989,37,0,3:0:0:0:
412,138,262112,2,0,L|275:162,1,120,0|0,0:0|3:0,0:0:0:0:
215,37,262481,2,0,P|242:76|255:103,1,60,0|0,0:0|0:0,0:0:0:0:
197,229,262727,6,0,L|210:160,1,60,0|0,3:0|0:0,0:0:0:0:
105,115,262973,2,0,L|117:174,1,60,0|0,3:0|0:0,0:0:0:0:
25,267,263219,2,0,L|38:198,1,60,0|0,3:0|0:0,0:0:0:0:
105,115,263465,37,0,3:0:0:0:
197,229,263588,2,0,P|185:272|179:305,1,60,0|0,0:0|0:0,0:0:0:0:
328,161,263834,2,0,P|281:142|197:126,1,120,0|0,3:0|0:0,0:0:0:0:
105,115,264202,37,0,3:0:0:0:
344,40,264448,1,0,3:0:0:0:
377,293,264694,1,0,3:0:0:0:
409,191,264940,22,0,L|470:187,1,60,0|0,3:0|0:0,0:0:0:0:
178,324,265186,2,0,L|152:378,1,60,2|0,0:1|3:0,0:0:0:0:
178,57,265432,2,0,L|144:8,1,60,0|0,0:0|0:0,0:0:0:0:
376,376,265678,38,0,L|335:316,1,71.9999978027344,0|0,3:0|0:0,0:0:0:0:
31,189,265924,2,0,L|103:183,1,71.9999978027344,0|0,3:0|0:0,0:0:0:0:
363,0,266170,2,0,L|333:49,1,71.9999978027344,0|0,3:0|0:0,0:0:0:0:
123,198,278834,5,8,0:0:0:0:
123,198,278895,1,8,0:0:0:0:
123,198,278956,6,0,L|223:182,1,71.9999978027344,2|4,0:3|0:3,0:0:0:0:
208,183,279141,1,4,0:3:0:0:
222,180,279202,1,8,0:3:0:0:
243,89,279325,37,0,3:0:0:0:
330,174,279448,1,0,3:0:0:0:
297,0,279571,1,0,3:0:0:0:
288,266,279694,6,0,P|384:263|426:166,1,180.000006866455,14|0,1:2|0:0,0:0:0:0:
330,174,280063,1,0,3:0:0:0:
191,229,280186,2,0,P|188:294|205:326,1,90.0000034332277,0|0,0:0|0:0,0:0:0:0:
398,109,280432,2,0,P|411:66|404:22,1,90.0000034332277,8|0,3:2|0:0,0:0:0:0:
147,118,280678,2,0,L|265:132,1,90.0000034332277,0|0,3:0|0:0,0:0:0:0:
512,194,280924,2,0,L|422:204,1,90.0000034332277,0|0,3:0|0:0,0:0:0:0:
261,370,281170,6,0,P|288:310|311:187,1,180.000006866455,0|0,3:2|0:0,0:0:0:0:
102,245,281538,2,0,P|181:232|219:216,1,90.0000034332277,0|0,3:0|0:0,0:0:0:0:
236,128,281784,1,0,0:0:0:0:
105,57,281907,2,0,L|126:169,1,90.0000034332277,8|0,3:2|0:0,0:0:0:0:
344,120,282153,2,0,L|360:31,1,90.0000034332277,0|0,3:0|0:0,0:0:0:0:
190,228,282399,2,0,L|206:316,1,90.0000034332277,0|0,3:0|0:0,0:0:0:0:
495,277,282645,38,0,B|400:235|414:314|286:253,1,180.000006866455,0|0,3:2|0:0,0:0:0:0:
69,250,283014,1,0,3:0:0:0:
176,139,283137,2,0,L|194:256,1,90.0000034332277,0|0,0:0|0:0,0:0:0:0:
364,108,283383,2,0,P|350:65|325:28,1,90.0000034332277,8|0,3:2|0:0,0:0:0:0:
416,242,283629,2,0,P|441:204|454:162,1,90.0000034332277,0|0,3:0|0:0,0:0:0:0:
338,384,283875,2,0,P|382:375|421:354,1,90.0000034332277,0|0,3:0|0:0,0:0:0:0:
83,213,284120,37,4,3:2:0:0:
190,315,284243,2,0,P|202:270|216:189,1,90.0000034332277,0|0,0:0|0:0,0:0:0:0:
384,99,284489,2,0,B|314:95|314:95|285:118|285:118|177:114,1,180.000006866455,0|0,3:0|0:0,0:0:0:0:
51,25,284858,2,0,P|92:77|116:137,1,90.0000034332277,12|0,3:2|0:0,0:0:0:0:
359,180,285104,2,0,P|318:232|294:292,1,90.0000034332277,0|0,3:0|0:0,0:0:0:0:
96,343,285350,2,0,P|73:303|44:270,1,90.0000034332277,0|0,3:0|0:0,0:0:0:0:
216,120,285596,5,12,1:2:0:0:
216,120,285719,1,0,0:0:0:0:
396,265,285842,2,0,L|270:248,1,90.0000034332277,0|0,0:0|3:0,0:0:0:0:
96,343,286088,2,0,L|6:355,1,90.0000034332277,0|0,0:0|0:0,0:0:0:0:
177,110,286334,2,0,P|192:194|200:304,1,180.000006866455,8|0,3:2|3:0,0:0:0:0:
91,220,286702,1,0,0:0:0:0:
279,136,286825,2,0,P|334:142|379:158,1,90.0000034332277,0|0,3:0|0:0,0:0:0:0:
87,34,287071,5,0,3:2:0:0:
87,34,287194,1,0,0:0:0:0:
184,206,287317,1,0,0:0:0:0:
263,45,287440,2,0,P|336:23|456:67,1,180.000006866455,0|0,3:0|0:0,0:0:0:0:
304,334,287809,2,0,P|289:289|277:222,1,90.0000034332277,8|0,3:2|0:0,0:0:0:0:
415,132,288055,2,0,P|405:175|391:218,1,90.0000034332277,0|0,3:0|0:0,0:0:0:0:
182,344,288301,1,0,3:0:0:0:
182,344,288424,1,0,0:0:0:0:
310,164,288547,38,0,L|197:140,1,90.0000034332277,0|0,3:2|0:0,0:0:0:0:
97,243,288793,2,0,L|8:261,1,90.0000034332277,0|0,0:0|3:0,0:0:0:0:
79,46,289038,2,0,P|104:109|115:155,1,90.0000034332277,0|0,0:0|0:0,0:0:0:0:
285,354,289284,2,0,P|298:310|315:269,1,90.0000034332277,8|0,3:2|0:0,0:0:0:0:
487,44,289530,2,0,L|364:68,1,90.0000034332277,0|0,3:0|0:0,0:0:0:0:
97,243,289776,2,0,L|220:267,1,90.0000034332277,0|0,3:0|0:0,0:0:0:0:
456,324,290022,38,0,P|451:270|428:205,1,90.0000034332277,4|0,3:2|0:0,0:0:0:0:
116,83,290268,1,0,0:0:0:0:
332,239,290391,2,0,P|343:195|346:150,1,90.0000034332277,4|0,3:2|0:0,0:0:0:0:
229,26,290637,1,0,0:0:0:0:
103,195,290760,6,0,P|106:239|117:283,1,90.0000034332277,4|0,3:2|0:0,0:0:0:0:
346,150,291006,5,8,0:0:0:0:
108,90,291129,1,4,0:3:0:0:
332,58,291252,1,8,0:0:0:0:
218,260,291375,1,8,0:3:0:0:
219,53,291497,37,12,1:2:0:0:
219,53,291620,1,0,0:0:0:0:
318,241,291743,2,0,P|331:297|338:353,1,90.0000034332277,0|0,0:0|3:0,0:0:0:0:
479,110,291989,2,0,P|466:166|459:222,1,90.0000034332277,0|0,0:0|0:0,0:0:0:0:
221,312,292235,1,8,3:2:0:0:
221,312,292358,1,0,0:0:0:0:
80,233,292481,2,0,P|141:213|187:211,1,90.0000034332277,0|0,3:0|0:0,0:0:0:0:
273,94,292727,2,0,P|317:100|359:116,1,90.0000034332277,0|0,3:0|0:0,0:0:0:0:
300,371,292973,37,0,3:2:0:0:
300,371,293096,1,0,0:0:0:0:
182,117,293219,2,0,P|166:74|147:33,1,90.0000034332277,0|0,0:0|3:0,0:0:0:0:
267,271,293465,2,0,P|276:213|280:147,1,90.0000034332277,0|0,0:0|0:0,0:0:0:0:
64,327,293711,2,0,L|178:342,1,90.0000034332277,8|0,3:2|0:0,0:0:0:0:
485,250,293956,2,0,L|371:265,1,90.0000034332277,0|0,3:0|0:0,0:0:0:0:
330,94,294202,1,0,3:0:0:0:
330,94,294325,1,0,0:0:0:0:
277,370,294448,6,0,B|257:310|257:310|293:179,1,180.000006866455,0|0,3:2|0:0,0:0:0:0:
413,68,294817,2,0,P|365:92|316:91,1,90.0000034332277,0|0,3:0|0:0,0:0:0:0:
31,46,295063,1,0,0:0:0:0:
174,6,295186,2,0,L|159:132,1,90.0000034332277,8|0,3:2|0:0,0:0:0:0:
262,266,295432,2,0,L|251:176,1,90.0000034332277,0|0,3:0|0:0,0:0:0:0:
66,274,295678,2,0,L|55:363,1,90.0000034332277,0|0,3:0|0:0,0:0:0:0:
420,172,295924,6,0,B|382:145|331:150|345:188|294:198|249:175,1,180.000006866455,4|0,3:2|0:0,0:0:0:0:
22,26,296293,2,0,P|106:25|223:75,1,180.000006866455,0|0,3:0|0:0,0:0:0:0:
76,241,296661,2,0,L|61:121,1,90.0000034332277,12|0,3:2|0:0,0:0:0:0:
299,7,296907,2,0,L|287:96,1,90.0000034332277,0|0,3:0|0:0,0:0:0:0:
480,252,297153,2,0,L|465:132,1,90.0000034332277,0|0,3:0|0:0,0:0:0:0:
317,361,297399,37,12,1:2:0:0:
317,361,297522,1,0,0:0:0:0:
121,289,297645,2,0,P|181:265|217:252,1,90.0000034332277,0|0,0:0|3:0,0:0:0:0:
379,144,297891,2,0,P|319:120|283:107,1,90.0000034332277,0|0,0:0|0:0,0:0:0:0:
60,148,298137,1,8,3:2:0:0:
60,148,298260,1,0,0:0:0:0:
196,0,298383,2,0,P|214:85|213:118,1,90.0000034332277,0|0,3:0|0:0,0:0:0:0:
379,144,298629,2,0,P|373:188|360:231,1,90.0000034332277,0|0,3:0|0:0,0:0:0:0:
155,369,298875,37,0,3:2:0:0:
155,369,298997,1,0,0:0:0:0:
255,224,299120,2,0,P|213:209|169:214,1,90.0000034332277,0|0,0:0|3:0,0:0:0:0:
365,104,299366,2,0,P|357:60|331:24,1,90.0000034332277,0|0,0:0|0:0,0:0:0:0:
480,279,299612,2,0,P|500:237|507:169,1,90.0000034332277,8|0,3:2|0:0,0:0:0:0:
491,69,299858,1,0,3:0:0:0:
491,69,299981,1,0,0:0:0:0:
138,138,300104,2,0,L|226:123,1,90.0000034332277,0|0,3:0|0:0,0:0:0:0:
396,352,300350,6,0,P|310:364|241:308,1,180.000006866455,0|0,3:2|0:0,0:0:0:0:
316,80,300719,2,0,P|328:154|340:289,1,180.000006866455,0|0,3:0|0:0,0:0:0:0:
125,327,301088,2,0,P|132:244|140:211,1,90.0000034332277,8|0,3:2|0:0,0:0:0:0:
489,126,301334,2,0,P|495:170|497:215,1,90.0000034332277,0|0,3:0|0:0,0:0:0:0:
63,125,301579,2,0,P|64:80|71:35,1,90.0000034332277,0|0,3:0|0:0,0:0:0:0:
282,358,301825,6,0,L|298:233,1,90.0000034332277,4|0,3:2|0:0,0:0:0:0:
375,189,302071,1,0,0:0:0:0:
177,131,302194,2,0,L|188:220,1,90.0000034332277,4|0,3:2|0:0,0:0:0:0:
300,97,302440,1,0,0:0:0:0:
65,100,302563,38,0,L|76:10,1,90.0000034332277,4|0,3:2|0:0,0:0:0:0:
416,57,302809,37,8,3:2:0:0:
232,199,302932,1,4,0:3:0:0:
295,15,303055,1,8,3:2:0:0:
367,261,303178,1,8,0:3:0:0:
184,93,303301,5,4,1:2:0:0:
141,314,303424,2,0,P|200:303|262:281,1,90.0000034332277,0|0,0:0|0:0,0:0:0:0:
402,0,303670,2,0,P|375:47|324:182,1,180.000006866455,0|0,3:0|0:0,0:0:0:0:
351,341,304038,2,0,P|381:298|387:240,1,90.0000034332277,8|0,3:2|0:0,0:0:0:0:
179,120,304284,2,0,P|201:167|248:201,1,90.0000034332277,0|0,3:0|0:0,0:0:0:0:
452,62,304530,2,0,P|399:57|346:81,1,90.0000034332277,0|0,3:0|0:0,0:0:0:0:
162,270,304776,5,4,3:2:0:0:
271,108,304899,1,0,0:0:0:0:
250,348,305022,1,0,0:0:0:0:
85,191,305145,2,0,P|66:120|125:3,1,180.000006866455,0|0,3:0|0:0,0:0:0:0:
265,259,305514,2,0,P|250:344|241:375,1,90.0000034332277,8|0,3:2|0:0,0:0:0:0:
410,200,305760,2,0,P|419:243|425:288,1,90.0000034332277,0|0,3:0|0:0,0:0:0:0:
286,89,306006,2,0,L|404:59,1,90.0000034332277,0|0,3:0|0:0,0:0:0:0:
50,116,306252,37,4,3:2:0:0:
166,0,306375,2,0,P|177:65|177:124,1,90.0000034332277,0|0,0:0|0:0,0:0:0:0:
46,281,306620,2,0,L|249:254,1,180.000006866455,0|0,3:0|0:0,0:0:0:0:
421,167,306989,1,8,3:2:0:0:
289,107,307112,1,0,0:0:0:0:
326,289,307235,2,0,P|338:334|356:384,1,90.0000034332277,0|0,3:0|0:0,0:0:0:0:
437,184,307481,2,0,P|451:141|463:98,1,90.0000034332277,0|0,3:0|0:0,0:0:0:0:
153,256,307727,37,4,3:2:0:0:
307,196,307850,2,0,P|311:140|302:12,1,180.000006866455,0|8,0:0|3:2,0:0:0:0:
84,145,308219,21,0,0:0:0:0:
148,43,308342,1,0,0:0:0:0:
153,256,308465,21,8,3:2:0:0:
178,138,308588,1,0,0:0:0:0:
259,332,308711,21,8,3:2:0:0:
242,212,308834,1,0,0:0:0:0:
357,274,308956,2,0,L|374:180,1,90.0000034332277,8|0,3:2|0:0,0:0:0:0:
60,337,309202,37,4,3:2:0:0:
153,256,309325,2,0,P|149:204|129:134,1,90.0000034332277,0|0,0:0|0:0,0:0:0:0:
418,191,309571,2,0,P|338:240|234:213,1,180.000006866455,0|0,3:0|0:0,0:0:0:0:
103,70,309940,2,0,L|199:50,1,90.0000034332277,8|0,3:2|0:0,0:0:0:0:
98,229,310186,2,0,L|9:210,1,90.0000034332277,0|0,3:0|0:0,0:0:0:0:
190,352,310432,2,0,L|278:333,1,90.0000034332277,0|0,3:0|0:0,0:0:0:0:
314,132,310678,37,4,3:2:0:0:
460,174,310801,2,0,P|465:235|466:287,1,90.0000034332277,0|0,0:0|0:0,0:0:0:0:
200,64,311047,2,0,P|266:16|396:34,1,180.000006866455,0|0,3:0|0:0,0:0:0:0:
108,116,311416,2,0,P|91:52|98:10,1,90.0000034332277,8|0,3:2|0:0,0:0:0:0:
403,204,311661,2,0,P|420:140|413:98,1,90.0000034332277,0|0,3:0|0:0,0:0:0:0:
49,264,311907,2,0,P|32:200|39:158,1,90.0000034332277,0|0,3:0|0:0,0:0:0:0:
275,222,312153,5,4,3:2:0:0:
141,335,312276,2,0,L|270:308,1,90.0000034332277,0|0,0:0|0:0,0:0:0:0:
452,135,312522,2,0,B|390:123|390:123|337:136|337:136|241:114,1,180.000006866455,0|0,3:0|0:0,0:0:0:0:
76,98,312891,1,8,3:2:0:0:
186,41,313014,1,0,0:0:0:0:
139,197,313137,2,0,P|66:215|17:214,1,90.0000034332277,0|0,3:0|0:0,0:0:0:0:
276,122,313383,2,0,P|320:127|363:140,1,90.0000034332277,0|0,3:0|0:0,0:0:0:0:
406,332,313629,5,4,3:2:0:0:
171,298,313752,1,0,0:0:0:0:
449,201,313875,1,8,0:0:0:0:
280,364,313997,2,0,L|298:256,1,90.0000034332277,4|0,3:2|0:0,0:0:0:0:
266,24,314243,21,2,0:3:0:0:
304,190,314366,1,2,3:3:0:0:
362,0,314489,1,6,0:3:0:0:
236,118,314612,1,4,3:3:0:0:
429,73,314735,1,8,0:3:0:0:
266,24,314858,1,4,3:3:0:0:
401,167,314981,1,0,0:3:0:0:
266,24,315104,6,0,B|195:15|195:15|153:40|153:40|57:29,1,180.000006866455,4|0,1:2|0:0,0:0:0:0:
234,285,315473,1,0,3:0:0:0:
384,254,315596,2,0,P|401:192|397:149,1,90.0000034332277,0|0,0:0|0:0,0:0:0:0:
107,169,315842,2,0,L|208:183,1,90.0000034332277,8|0,3:2|0:0,0:0:0:0:
355,74,316088,2,0,L|444:61,1,90.0000034332277,0|0,3:0|0:0,0:0:0:0:
336,348,316334,1,0,3:0:0:0:
336,348,316395,1,0,0:0:0:0:
336,348,316456,1,0,0:0:0:0:
358,214,316579,37,0,3:2:0:0:
455,318,316702,1,0,0:0:0:0:
239,272,316825,2,0,P|179:299|146:317,1,90.0000034332277,0|0,0:0|3:0,0:0:0:0:
414,140,317071,2,0,P|455:157|495:178,1,90.0000034332277,0|0,0:0|0:0,0:0:0:0:
241,25,317317,2,0,L|221:147,1,90.0000034332277,8|0,3:2|0:0,0:0:0:0:
370,304,317563,2,0,L|355:215,1,90.0000034332277,0|0,3:0|0:0,0:0:0:0:
38,163,317809,2,0,P|92:170|147:184,1,90.0000034332277,0|0,3:0|0:0,0:0:0:0:
486,79,318055,6,0,P|410:130|299:92,1,180.000006866455,0|0,3:2|0:0,0:0:0:0:
148,4,318424,2,0,P|199:78|226:197,1,180.000006866455,0|0,3:0|0:0,0:0:0:0:
263,344,318793,2,0,P|203:321|157:306,1,90.0000034332277,8|0,3:2|0:0,0:0:0:0:
364,197,319038,2,0,P|337:138|315:95,1,90.0000034332277,0|0,3:0|0:0,0:0:0:0:
480,324,319284,2,0,P|503:264|518:218,1,90.0000034332277,0|0,3:0|0:0,0:0:0:0:
229,201,319530,5,0,3:2:0:0:
433,43,319653,1,0,0:0:0:0:
377,222,319776,1,0,0:0:0:0:
298,11,319899,2,0,P|255:64|242:100,1,90.0000034332277,0|0,3:0|0:0,0:0:0:0:
229,201,320145,1,0,0:0:0:0:
129,48,320268,2,0,L|34:71,1,90.0000034332277,8|0,3:2|0:0,0:0:0:0:
368,117,320514,2,0,L|463:140,1,90.0000034332277,0|0,3:0|0:0,0:0:0:0:
116,191,320760,2,0,L|21:214,1,90.0000034332277,0|0,3:0|0:0,0:0:0:0:
262,352,321006,38,0,B|270:292|270:292|254:243|254:243|273:146,1,180.000006866455,4|0,3:2|0:0,0:0:0:0:
422,26,321375,2,0,P|348:68|234:71,1,180.000006866455,0|0,3:0|0:0,0:0:0:0:
46,13,321743,2,0,P|66:60|75:123,1,90.0000034332277,8|0,3:2|0:0,0:0:0:0:
187,145,321989,2,0,P|177:188|159:230,1,90.0000034332277,0|0,3:0|0:0,0:0:0:0:
39,379,322235,2,0,L|14:277,1,90.0000034332277,0|0,3:0|0:0,0:0:0:0:
236,293,322481,37,0,3:2:0:0:
69,190,322604,1,0,0:0:0:0:
286,160,322727,2,0,P|335:185|389:219,1,90.0000034332277,0|0,0:0|3:0,0:0:0:0:
192,59,322973,1,0,0:0:0:0:
192,59,323034,1,0,0:0:0:0:
192,59,323096,1,0,0:0:0:0:
173,208,323219,5,8,3:2:0:0:
304,67,323342,1,0,0:0:0:0:
86,88,323465,2,0,P|41:49|16:3,1,90.0000034332277,0|0,3:0|0:0,0:0:0:0:
407,187,323711,2,0,P|452:148|477:102,1,90.0000034332277,0|0,3:0|0:0,0:0:0:0:
241,382,323956,5,0,3:2:0:0:
190,171,324079,1,0,0:0:0:0:
125,303,324202,1,0,0:0:0:0:
316,267,324325,2,0,B|357:267|382:294|382:294|422:286|422:286|448:312|492:315,1,180.000006866455,0|0,3:0|0:0,0:0:0:0:
115,79,324694,38,0,P|82:143|86:192,1,90.0000034332277,8|0,3:2|0:0,0:0:0:0:
233,341,324940,1,0,3:0:0:0:
233,341,325002,1,0,0:0:0:0:
233,341,325063,1,0,0:0:0:0:
275,176,325186,2,0,L|175:149,1,90.0000034332277,0|0,3:0|0:0,0:0:0:0:
482,228,325432,38,0,P|465:141|464:108,1,90.0000034332277,4|0,3:2|0:0,0:0:0:0:
331,319,325678,1,2,0:3:0:0:
100,173,325801,2,0,L|211:146,1,90.0000034332277,12|0,3:2|0:0,0:0:0:0:
384,244,326047,1,2,0:3:0:0:
322,0,326170,6,0,P|316:44|304:88,1,90.0000034332277,12|0,0:2|0:0,0:0:0:0:
205,347,326416,5,8,0:0:0:0:
381,153,326538,1,8,0:0:0:0:
178,132,326661,1,8,0:0:0:0:
265,243,326784,1,0,0:0:0:0:
262,53,326907,38,0,B|202:27|202:27|67:57,1,180.000006866455,4|0,1:2|0:0,0:0:0:0:
52,293,327276,1,0,3:0:0:0:
53,169,327399,2,0,P|111:184|160:206,1,90.0000034332277,0|0,0:0|0:0,0:0:0:0:
437,181,327645,2,0,B|335:201,1,90.0000034332277,8|0,3:2|0:0,0:0:0:0:
155,320,327891,2,0,B|257:340,1,90.0000034332277,0|0,3:0|0:0,0:0:0:0:
331,112,328137,2,0,P|330:77|315:39,2,60.0000022888184,0|0|0,3:0|0:0|0:0,0:0:0:0:
260,229,328383,37,0,3:2:0:0:
179,59,328506,1,0,0:0:0:0:
360,206,328629,1,0,0:0:0:0:
163,161,328752,6,0,P|92:162|10:253,1,180.000006866455,0|0,3:0|0:0,0:0:0:0:
335,384,329120,2,0,L|346:279,1,90.0000034332277,8|0,3:2|0:0,0:0:0:0:
388,111,329366,6,0,P|467:93|477:92,2,60.0000022888184,0|0|0,3:0|0:0|0:0,0:0:0:0:
263,212,329612,37,0,3:0:0:0:
223,194,329694,1,0,0:0:0:0:
199,158,329776,1,0,0:0:0:0:
194,108,329858,38,0,P|99:68|79:68,1,90.0000034332277,0|0,3:2|0:0,0:0:0:0:
39,137,330104,21,0,0:0:0:0:
39,137,330166,1,0,0:0:0:0:
39,137,330227,1,0,3:0:0:0:
289,104,330350,2,0,P|365:125|382:134,2,60.0000022888184,0|0|0,0:0|0:0|0:0,0:0:0:0:
146,224,330596,38,0,P|140:273|138:335,1,90.0000034332277,8|0,3:2|0:0,0:0:0:0:
434,183,330842,1,0,3:0:0:0:
434,183,330903,1,0,0:0:0:0:
434,183,330965,1,0,0:0:0:0:
459,313,331088,2,0,P|401:283|364:270,1,90.0000034332277,0|0,3:0|0:0,0:0:0:0:
15,54,331334,38,0,P|33:135|44:245,1,180.000006866455,0|0,3:2|0:0,0:0:0:0:
260,357,331702,2,0,P|269:267|288:179,1,180.000006866455,0|0,3:0|0:0,0:0:0:0:
491,92,332071,2,0,P|423:103|362:92,1,90.0000034332277,8|0,3:2|0:0,0:0:0:0:
147,27,332317,2,0,P|191:26|235:36,1,90.0000034332277,0|0,3:0|0:0,0:0:0:0:
482,246,332563,2,0,B|447:230|447:230|425:230|425:230|380:213,1,90.0000034332277,0|0,3:0|0:0,0:0:0:0:
24,184,332809,6,0,B|88:160|88:160|216:181,1,180.000006866455,4|0,1:2|0:0,0:0:0:0:
348,310,333178,1,0,3:0:0:0:
335,132,333301,2,0,B|305:168|305:168|306:219,1,90.0000034332277,0|0,0:0|0:0,0:0:0:0:
414,51,333547,2,0,L|293:20,1,90.0000034332277,8|0,3:2|0:0,0:0:0:0:
89,150,333793,5,0,3:0:0:0:
271,91,333916,1,0,0:0:0:0:
157,254,334038,1,0,3:0:0:0:
154,50,334161,1,0,0:0:0:0:
273,217,334284,37,0,3:2:0:0:
376,39,334407,1,0,0:0:0:0:
402,250,334530,2,0,P|403:308|394:348,1,90.0000034332277,0|0,0:0|3:0,0:0:0:0:
157,254,334776,2,0,P|149:209|151:164,1,90.0000034332277,0|0,0:0|0:0,0:0:0:0:
459,120,335022,38,0,P|401:153|363:155,1,90.0000034332277,8|0,3:2|0:0,0:0:0:0:
310,350,335268,2,0,P|245:332|217:306,1,90.0000034332277,0|0,3:0|0:0,0:0:0:0:
42,347,335514,2,0,P|9:289|7:251,1,90.0000034332277,0|0,3:0|0:0,0:0:0:0:
273,0,335760,6,0,B|280:67|280:67|255:107|255:107|272:205,1,180.000006866455,4|0,3:2|0:0,0:0:0:0:
284,367,336129,1,0,3:0:0:0:
419,296,336252,2,0,P|347:272|294:265,1,90.0000034332277,0|0,0:0|0:0,0:0:0:0:
96,331,336497,2,0,L|209:292,1,90.0000034332277,8|0,3:2|0:0,0:0:0:0:
181,142,336743,2,0,L|266:171,1,90.0000034332277,0|0,3:0|0:0,0:0:0:0:
419,296,336989,1,0,3:0:0:0:
419,296,337051,1,0,0:0:0:0:
419,296,337112,1,0,0:0:0:0:
306,344,337235,37,4,3:2:0:0:
496,243,337358,1,0,0:0:0:0:
346,122,337481,1,0,0:0:0:0:
419,296,337604,6,0,L|452:396,1,90.0000034332277,4|0,3:2|0:0,0:0:0:0:
468,137,337850,1,0,0:0:0:0:
245,254,337973,6,0,P|183:228|158:194,1,90.0000034332277,12|0,3:2|0:0,0:0:0:0:
253,0,338219,2,0,P|261:66|244:105,1,90.0000034332277,0|0,3:0|0:0,0:0:0:0:
26,125,338465,2,0,P|79:84|121:79,1,90.0000034332277,0|0,3:0|0:0,0:0:0:0:
421,318,338711,37,4,3:2:0:0:
231,341,338834,2,0,P|230:296|244:253,1,90.0000034332277,0|0,0:0|0:0,0:0:0:0:
415,200,339079,2,0,P|319:179|267:89,1,180.000006866455,0|0,3:0|0:0,0:0:0:0:
272,33,339448,37,8,0:0:0:0:
294,27,339694,1,0,0:0:0:0:
315,24,339940,2,0,L|421:6,1,90.0000034332277,0|0,3:0|0:0,0:0:0:0:
216,354,340186,5,4,3:2:0:0:
180,101,340309,1,0,0:0:0:0:
180,101,340432,1,0,0:0:0:0:
362,211,340555,2,0,P|307:190|178:234,1,180.000006866455,0|0,3:0|0:0,0:0:0:0:
129,299,340924,5,8,0:0:0:0:
123,324,341170,1,0,0:0:0:0:
119,350,341416,2,0,P|64:347|15:325,1,90.0000034332277,0|0,0:0|0:0,0:0:0:0:
399,156,341661,37,4,3:2:0:0:
265,338,341784,1,0,0:0:0:0:
265,338,341907,1,0,0:0:0:0:
282,75,342030,2,0,L|319:279,1,180.000006866455,0|0,3:0|0:0,0:0:0:0:
354,339,342399,37,8,0:0:0:0:
384,348,342645,1,0,0:0:0:0:
209,231,342768,21,0,3:0:0:0:
314,252,342891,2,0,P|341:202|360:144,1,90.0000034332277,0|0,3:0|0:0,0:0:0:0:
63,38,343137,37,4,3:2:0:0:
31,233,343260,2,0,P|80:205|133:183,1,90.0000034332277,0|0,0:0|0:0,0:0:0:0:
256,0,343506,2,0,P|249:86|215:192,1,180.000006866455,0|0,3:0|0:0,0:0:0:0:
446,346,343875,38,0,L|391:232,1,90.0000034332277,8|0,3:2|0:0,0:0:0:0:
65,343,344120,2,0,L|105:262,1,90.0000034332277,0|0,3:0|0:0,0:0:0:0:
256,0,344366,2,0,L|256:128,1,90.0000034332277,0|0,3:0|0:0,0:0:0:0:
254,361,344612,5,4,3:2:0:0:
187,225,344735,2,0,P|150:200|111:179,1,90.0000034332277,0|0,0:0|0:0,0:0:0:0:
255,337,344981,1,0,3:0:0:0:
325,225,345104,2,0,P|362:200|401:179,1,90.0000034332277,0|0,0:0|0:0,0:0:0:0:
405,292,345350,5,12,3:2:0:0:
402,73,345473,2,0,P|363:95|326:121,1,90.0000034332277,0|0,0:0|0:0,0:0:0:0:
110,285,345719,1,0,3:0:0:0:
109,73,345842,2,0,P|148:95|186:121,1,90.0000034332277,0|0,0:0|0:0,0:0:0:0:
256,320,346088,37,4,3:2:0:0:
256,64,346211,1,0,0:0:0:0:
256,64,346334,1,0,0:0:0:0:
256,192,346456,1,0,3:0:0:0:
353,309,346579,2,0,P|406:301|454:300,1,90.0000034332277
125,229,346825,6,0,P|91:258|68:296,1,90.0000034332277,8|0,3:2|0:0,0:0:0:0:
382,124,347071,2,0,P|415:153|438:191,1,90.0000034332277,0|0,3:2|0:0,0:0:0:0:
142,15,347317,2,0,P|108:44|85:82,1,90.0000034332277,0|0,3:2|0:0,0:0:0:0:
345,215,347563,37,4,3:2:0:0:
155,314,347686,2,0,P|82:304|37:276,1,90.0000034332277
264,346,347932,2,0,B|287:251|223:274|257:171,1,180.000006866455,0|0,3:0|0:0,0:0:0:0:
288,85,348301,5,8,0:2:0:0:
298,68,348547,1,0,0:0:0:0:
309,53,348793,2,0,L|197:43,1,90.0000034332277,0|0,3:0|0:0,0:0:0:0:
126,315,349038,21,4,3:3:0:0:
378,197,349161,1,4,0:3:0:0:
144,168,349284,1,8,0:0:0:0:
311,318,349407,2,0,L|411:343,1,90.0000034332277,8|0,3:2|0:0,0:0:0:0:
301,87,349653,1,4,0:3:0:0:
36,267,349776,6,0,L|59:367,1,90.0000034332277,4|0,3:2|0:0,0:0:0:0:
503,132,350022,2,0,L|480:232,1,90.0000034332277,12|0,3:2|0:0,0:0:0:0:
12,17,350268,2,0,L|35:117,1,90.0000034332277,4|0,1:2|0:0,0:0:0:0:
