osu file format v14

[General]
AudioFilename: audio.mp3
AudioLeadIn: 0
PreviewTime: 86145
Countdown: 0
SampleSet: Soft
StackLeniency: 0.3
Mode: 0
LetterboxInBreaks: 0
WidescreenStoryboard: 1

[Editor]
Bookmarks: 91554,95980,100406
DistanceSpacing: 0.6
BeatDivisor: 6
GridSize: 8
TimelineZoom: 3.199999

[Metadata]
Title:Moe Ochiru Hokori -Counter raid Another D-
TitleUnicode:燃え落ちる誇り -Counter raid Another D-
Artist:Katakiri Rekka
ArtistUnicode:片霧烈火
Creator:Altuth
Version:The Abyss
Source:艦隊これくしょん -艦これ-
Tags:Our pride burning down -Counter raid Another D- 気高き者達の碑 シズメシズメ shizume kantai collection kancolle doujin 青砥 雫 (℃iel) 憐歌 (Renka) 茶太 (Chata) kyrie 帝國交響楽団 (Empire Ensemble) C90
BeatmapID:1401281
BeatmapSetID:661933

[Difficulty]
HPDrainRate:6.7
CircleSize:4.8
OverallDifficulty:9.7
ApproachRate:9.7
SliderMultiplier:0.935
SliderTickRate:1

[Events]
//Background and Video events
0,0,"shizume.jpg",0,0
//Break Periods
2,123844,143500
2,255016,259934
//Storyboard Layer 0 (Background)
//Storyboard Layer 1 (Fail)
//Storyboard Layer 2 (Pass)
//Storyboard Layer 3 (Foreground)
//Storyboard Sound Samples

[TimingPoints]
1111,245.901639344262,6,2,1,25,1,0
1111,-95.2380952380952,3,2,1,25,0,0
6151,-95.2380952380952,3,1,1,40,0,0
23918,-100,3,1,1,40,0,0
24164,-100,3,1,1,5,0,0
24287,-133.333333333333,3,1,1,40,0,0
24533,-133.333333333333,3,1,1,5,0,0
24694,245.901639344262,6,1,1,40,1,0
24694,-200,4,1,1,40,0,0
25001,-200,4,1,1,5,0,0
25161,245.901639344262,6,1,1,40,1,0
25161,-133.333333333333,3,1,1,40,0,0
31062,-100,3,1,1,40,0,0
36964,-133.333333333333,3,2,1,25,0,0
48768,-111.111111111111,3,2,1,25,0,0
60570,-111.111111111111,3,2,1,35,0,0
72374,-111.111111111111,3,2,1,45,0,0
87128,-41.6666666666667,4,1,1,70,0,1
109259,-41.6666666666667,4,1,1,70,0,0
110734,-41.6666666666667,4,1,1,70,0,1
122497,-55.5555555555556,4,1,1,70,0,1
122723,-55.5555555555556,4,1,1,5,0,1
122865,-71.4285714286,4,1,1,70,0,1
123092,-71.4285714286,4,1,1,5,0,1
123234,-100,4,1,1,70,0,1
123460,-100,4,1,1,5,0,1
123645,245.901639344262,6,1,1,50,1,0
123645,-133.333333333333,4,1,1,50,0,0
144039,245.901639344262,6,2,1,35,1,0
144039,-133.333333333333,3,2,1,35,0,0
145268,-100,3,2,1,35,0,0
145883,-133.333333333333,3,2,1,35,0,0
146743,-100,3,2,1,35,0,0
146989,-133.333333333333,3,2,1,35,0,0
148219,-100,3,2,1,35,0,0
148834,-133.333333333333,3,2,1,35,0,0
149694,-100,3,2,1,35,0,0
149940,-133.333333333333,3,2,1,35,0,0
151170,-100,3,2,1,35,0,0
151784,-133.333333333333,3,2,1,35,0,0
152645,-100,3,2,1,35,0,0
152891,-133.333333333333,3,2,1,35,0,0
154120,-100,3,2,1,35,0,0
154735,-133.333333333333,3,2,1,35,0,0
155596,-100,3,2,1,35,0,0
155843,-111.111111111111,3,2,1,35,0,0
167645,-111.111111111111,3,1,1,40,0,0
206006,-41.6666666666667,4,1,1,70,0,1
217317,-41.6666666666667,4,1,1,70,0,0
217809,-41.6666666666667,4,1,1,70,0,1
229612,-83.3333333333333,4,2,1,50,0,0
232317,-100,4,1,1,35,0,0
232379,-100,4,1,1,15,0,0
232502,-100,4,1,1,35,0,0
232748,-100,4,1,1,15,0,0
232870,-100,4,1,1,35,0,0
233116,-100,4,1,1,15,0,0
233731,-100,4,1,1,35,0,0
233854,-100,4,1,1,15,0,0
233977,-100,4,1,1,35,0,0
234223,-100,4,1,1,15,0,0
235207,-100,4,1,1,35,0,0
235329,-100,4,1,1,15,0,0
235452,-100,4,1,1,35,0,0
235698,-100,4,1,1,15,0,0
235821,-100,4,1,1,35,0,0
236067,-100,4,1,1,15,0,0
236682,-100,4,1,1,35,0,0
236805,-100,4,1,1,15,0,0
236928,-100,4,1,1,35,0,0
237174,-100,4,1,1,15,0,0
238157,-100,4,1,1,35,0,0
238280,-100,4,1,1,15,0,0
238403,-100,4,1,1,35,0,0
238649,-100,4,1,1,15,0,0
238772,-100,4,1,1,35,0,0
239018,-100,4,1,1,15,0,0
239633,-100,4,1,1,35,0,0
239756,-100,4,1,1,15,0,0
239879,-100,4,1,1,35,0,0
240125,-100,4,1,1,15,0,0
241108,-100,4,1,1,35,0,0
241231,-100,4,1,1,15,0,0
241354,-100,4,1,1,35,0,0
241600,-100,4,1,1,15,0,0
241723,-100,4,1,1,35,0,0
241969,-100,4,1,1,15,0,0
242584,-100,4,1,1,35,0,0
242707,-100,4,1,1,15,0,0
242829,-100,4,1,1,35,0,0
243936,-100,4,1,1,15,0,0
244059,-100,4,1,1,35,0,0
244182,-100,4,1,1,15,0,0
244305,-100,4,1,1,35,0,0
244551,-100,4,1,1,15,0,0
244674,-100,4,1,1,35,0,0
245411,-100,4,1,1,15,0,0
245534,-100,4,1,1,35,0,0
245657,-100,4,1,1,15,0,0
245780,-100,4,1,1,35,0,0
246887,-100,4,1,1,15,0,0
247010,-100,4,1,1,35,0,0
247133,-100,4,1,1,15,0,0
247256,-100,4,1,1,35,0,0
247502,-100,4,1,1,15,0,0
247625,-100,4,1,1,35,0,0
248362,-100,4,1,1,15,0,0
248485,-100,4,1,1,35,0,0
248608,-100,4,1,1,15,0,0
248731,-100,4,1,1,35,0,0
249838,-100,4,1,1,15,0,0
249961,-100,4,1,1,35,0,0
250084,-100,4,1,1,15,0,0
250207,-100,4,1,1,35,0,0
250452,-100,4,1,1,15,0,0
250575,-100,4,1,1,35,0,0
251313,-100,4,1,1,15,0,0
251436,-100,4,1,1,35,0,0
251559,-100,4,1,1,15,0,0
251682,-100,4,1,1,35,0,0
252788,-100,4,1,1,15,0,0
252911,-100,4,1,1,35,0,0
253034,-100,4,1,1,15,0,0
253157,-100,4,1,1,35,0,0
253403,-100,4,1,1,15,0,0
253526,-100,4,1,1,35,0,0
254510,-100,4,1,1,15,0,0
254633,-100,4,1,1,35,0,0
254756,-100,4,1,1,15,0,0
260473,-66.6666666666667,4,2,1,50,0,0
267973,-133.333333333333,4,2,1,35,0,0
278916,-50,4,1,1,50,0,0
279776,-38.461538461,4,1,1,70,0,1
301907,-38.4615384615,4,1,1,70,0,0
303383,-38.4615384615,4,1,1,70,0,1
315186,-50,4,1,1,70,0,0
337809,-66.6666666666667,4,1,1,70,0,0
338793,-41.6666666666667,4,1,1,70,0,1
344695,-35.7142857143,4,1,1,70,0,1
350350,-41.6666666666667,4,1,1,70,0,0

[Colours]
Combo1 : 55,62,121
Combo2 : 171,20,24
Combo3 : 244,130,45
Combo4 : 239,240,241

[HitObjects]
102,352,1111,38,0,P|88:304|101:257,1,98.1749970039369,8|0,0:0|0:0,0:0:0:0:
174,303,1479,2,0,P|223:315|269:302,1,98.1749970039369
340,240,1848,2,0,P|365:241|388:249,1,49.0874985019684
426,384,2094,2,0,P|417:360|416:335,1,49.0874985019684,0|0,0:0|0:0,0:0:0:0:
474,219,2340,2,0,P|482:195|482:170,1,49.0874985019684,2|0,0:0|0:0,0:0:0:0:
333,49,2586,5,8,0:0:0:0:
287,121,2709,2,0,P|287:145|295:169,1,49.0874985019684,0|0,0:0|0:0,0:0:0:0:
340,240,2955,2,0,P|291:252|245:239,1,98.1749970039369,0|0,0:0|0:0,0:0:0:0:
191,155,3324,2,0,P|167:147|143:146,1,49.0874985019684,0|0,0:0|0:0,0:0:0:0:
17,78,3570,2,0,P|9:54|8:30,1,49.0874985019684,0|0,0:0|0:0,0:0:0:0:
162,69,3815,2,0,P|160:93|152:117,1,49.0874985019684,2|0,0:0|0:0,0:0:0:0:
0,288,4061,37,8,0:0:0:0:
74,229,4184,2,0,P|97:237|122:238,1,49.0874985019684,0|0,0:0|0:0,0:0:0:0:
216,196,4430,2,0,P|239:187|264:186,1,49.0874985019684,0|0,0:0|0:0,0:0:0:0:
446,257,4676,1,0,0:0:0:0:
385,194,4799,2,0,P|385:169|395:146,1,49.0874985019684,0|0,0:0|0:0,0:0:0:0:
452,63,5045,2,0,P|451:38|441:15,1,49.0874985019684,0|0,0:0|0:0,0:0:0:0:
268,13,5291,2,0,P|259:36|258:61,1,49.0874985019684,2|0,0:0|0:0,0:0:0:0:
216,196,5537,5,8,0:0:0:0:
280,263,5660,2,0,P|303:270|328:268,1,49.0874985019684,0|0,0:0|0:0,0:0:0:0:
428,216,5906,2,0,P|451:208|476:210,1,49.0874985019684,0|0,0:0|0:0,0:0:0:0:
400,331,6151,1,2,0:0:0:0:
400,331,6213,1,2,0:0:0:0:
400,331,6274,2,0,P|392:307|394:282,1,49.0874985019684,2|0,0:0|0:0,0:0:0:0:
494,122,6520,2,0,P|468:129|445:130,1,49.0874985019684,2|0,0:0|0:0,0:0:0:0:
344,51,6766,2,0,P|318:43|295:42,1,49.0874985019684,2|0,0:0|0:0,0:0:0:0:
181,116,7012,37,2,0:0:0:0:
181,116,7135,2,0,L|131:121,1,49.0874985019684
262,212,7381,2,0,L|213:207,1,49.0874985019684,2|0,0:0|0:0,0:0:0:0:
16,163,7627,1,2,0:0:0:0:
48,286,7750,2,0,P|48:259|53:237,1,49.0874985019684,2|0,0:0|0:0,0:0:0:0:
177,303,7996,2,0,P|182:326|180:351,1,49.0874985019684,2|0,0:0|0:0,0:0:0:0:
136,228,8242,2,0,P|131:203|131:179,1,49.0874985019684,2|0,0:0|0:0,0:0:0:0:
295,170,8488,5,2,0:0:0:0:
295,170,8610,2,0,L|345:173,1,49.0874985019684
246,264,8856,2,0,L|295:261,1,49.0874985019684,2|0,0:0|0:0,0:0:0:0:
428,176,9102,1,2,0:0:0:0:
507,248,9225,2,0,P|480:248|458:243,1,49.0874985019684,2|0,0:0|0:0,0:0:0:0:
450,84,9471,2,0,P|475:78|500:79,1,49.0874985019684,2|0,0:0|0:0,0:0:0:0:
370,123,9717,2,0,P|345:123|321:118,1,49.0874985019684,2|0,0:0|0:0,0:0:0:0:
187,54,9963,37,2,0:0:0:0:
187,54,10086,2,0,L|135:57,1,49.0874985019684,0|0,0:0|0:0,0:0:0:0:
243,139,10332,2,0,L|193:136,1,49.0874985019684,2|0,0:0|0:0,0:0:0:0:
50,155,10578,1,2,0:0:0:0:
86,289,10701,2,0,P|86:264|91:240,1,49.0874985019684,2|0,0:0|0:0,0:0:0:0:
236,210,10947,2,0,P|240:234|239:258,1,49.0874985019684,2|0,0:0|0:0,0:0:0:0:
190,102,11192,2,0,P|185:77|186:53,1,49.0874985019684,2|0,0:0|0:0,0:0:0:0:
382,28,11438,6,0,P|381:52|376:76,1,49.0874985019684,2|0,0:0|0:0,0:0:0:0:
308,293,11807,2,0,P|302:269|302:244,1,49.0874985019684,2|0,0:0|0:0,0:0:0:0:
313,158,12053,1,2,0:0:0:0:
313,158,12176,2,0,P|336:152|361:152,1,49.0874985019684,2|0,0:0|0:0,0:0:0:0:
492,237,12422,2,0,P|467:236|443:231,1,49.0874985019684,2|0,0:0|0:0,0:0:0:0:
407,63,12668,2,0,P|430:57|455:57,1,49.0874985019684,2|0,0:0|0:0,0:0:0:0:
291,359,12914,37,2,0:0:0:0:
232,293,13037,2,0,P|236:268|234:241,1,49.0874985019684,2|0,0:0|0:0,0:0:0:0:
119,103,13283,2,0,P|117:127|121:152,1,49.0874985019684,2|0,0:0|0:0,0:0:0:0:
48,288,13529,1,2,0:0:0:0:
108,238,13651,2,0,L|160:241,1,49.0874985019684,8|0,0:0|0:0,0:0:0:0:
5,170,13897,2,0,L|54:167,1,49.0874985019684,8|0,0:0|0:0,0:0:0:0:
306,45,14143,2,0,L|256:47,1,49.0874985019684,8|0,0:0|0:0,0:0:0:0:
438,96,14389,5,2,0:0:0:0:
479,179,14512,2,0,P|482:205|479:228,1,49.0874985019684,2|0,0:0|0:0,0:0:0:0:
349,254,14758,2,0,P|345:229|348:204,1,49.0874985019684,2|0,0:0|0:0,0:0:0:0:
327,362,15004,1,2,0:0:0:0:
248,324,15127,2,0,L|196:327,1,49.0874985019684,8|0,0:0|0:0,0:0:0:0:
325,236,15373,2,0,L|275:233,1,49.0874985019684,8|0,0:0|0:0,0:0:0:0:
0,296,15619,2,0,L|52:299,1,49.0874985019684,8|0,0:0|0:0,0:0:0:0:
82,199,15865,37,2,0:0:0:0:
35,125,15988,2,0,P|31:100|34:75,1,49.0874985019684,2|0,0:0|0:0,0:0:0:0:
192,8,16233,2,0,P|194:32|190:57,1,49.0874985019684,2|0,0:0|0:0,0:0:0:0:
143,131,16479,1,2,0:0:0:0:
179,216,16602,2,0,L|176:268,1,49.0874985019684,8|0,0:0|0:0,0:0:0:0:
267,141,16848,2,0,L|269:190,1,49.0874985019684,8|0,0:0|0:0,0:0:0:0:
237,383,17094,2,0,L|234:333,1,49.0874985019684,8|0,0:0|0:0,0:0:0:0:
329,300,17340,5,2,0:0:0:0:
403,347,17463,2,0,P|427:349|452:345,1,49.0874985019684,2|0,0:0|0:0,0:0:0:0:
512,178,17709,2,0,P|487:174|462:176,1,49.0874985019684,2|0,0:0|0:0,0:0:0:0:
384,211,17955,1,2,0:0:0:0:
462,91,18078,2,0,L|465:39,1,49.0874985019684,8|0,0:0|0:0,0:0:0:0:
380,181,18324,2,0,L|377:129,1,49.0874985019684,8|0,0:0|0:0,0:0:0:0:
253,0,18570,2,0,L|255:49,1,49.0874985019684,8|0,0:0|0:0,0:0:0:0:
301,128,18815,37,2,0:0:0:0:
301,128,18938,2,0,L|249:137,1,49.0874985019684,2|0,0:0|0:0,0:0:0:0:
244,228,19184,5,2,0:0:0:0:
244,228,19307,2,0,L|295:237,1,49.0874985019684,2|0,0:0|0:0,0:0:0:0:
341,121,19553,37,2,0:0:0:0:
301,128,19676,2,0,L|249:137,1,49.0874985019684,2|0,0:0|0:0,0:0:0:0:
204,221,19922,5,2,0:0:0:0:
244,228,20045,2,0,L|295:237,1,49.0874985019684,2|0,0:0|0:0,0:0:0:0:
420,107,20291,37,2,0:0:0:0:
301,128,20414,2,0,L|249:137,1,49.0874985019684,2|0,0:0|0:0,0:0:0:0:
125,207,20660,5,2,0:0:0:0:
244,228,20783,2,0,L|295:237,1,49.0874985019684,2|0,0:0|0:0,0:0:0:0:
213,271,21029,38,0,L|264:261,1,49.0874985019684,8|0,0:0|0:0,0:0:0:0:
199,322,21274,2,0,L|244:296,1,49.0874985019684,8|0,0:0|0:0,0:0:0:0:
202,375,21520,2,0,L|235:335,1,49.0874985019684,8|0,0:0|0:0,0:0:0:0:
332,326,21766,5,2,0:0:0:0:
332,326,21889,2,0,P|356:330|384:328,1,49.0874985019684,2|0,0:0|0:0,0:0:0:0:
407,205,22135,2,0,P|382:203|357:207,1,49.0874985019684,2|0,0:0|0:0,0:0:0:0:
479,259,22381,1,2,0:0:0:0:
486,133,22504,2,0,L|480:84,1,49.0874985019684,8|0,0:0|0:0,0:0:0:0:
455,111,22750,2,0,L|461:59,1,49.0874985019684,8|0,0:0|0:0,0:0:0:0:
430,80,22996,2,0,L|448:34,1,49.0874985019684,8|0,0:0|0:0,0:0:0:0:
355,36,23242,37,2,0:0:0:0:
248,80,23365,2,0,L|310:83,1,49.0874985019684,2|0,0:0|0:0,0:0:0:0:
351,139,23610,2,0,P|340:191|347:236,1,98.1749970039369,2|2,0:0|0:0,0:0:0:0:
344,326,23918,5,0,0:0:0:0:
344,326,23979,2,0,P|353:276|346:232,1,93.5,10|0,0:0|0:0,0:0:0:0:
367,317,24287,38,0,P|362:269|345:231,1,87.6562533438207,8|0,0:0|0:0,0:0:0:0:
376,295,24694,6,0,P|361:254|338:225,1,70.125,8|0,0:0|0:0,0:0:0:0:
196,143,25161,38,0,B|242:126|288:150|288:150|328:127|381:140|381:140|351:107|300:111,1,280.500010700226,4|0,0:0|0:0,0:0:0:0:
174,75,26390,2,0,P|155:82|139:95,1,35.0625013375283
235,222,26636,6,0,B|252:244|253:277|253:277|194:250|141:280|141:280|124:254|115:215|115:215|62:242|15:216,1,350.625013375283,4|0,0:0|0:0,0:0:0:0:
63,142,28111,38,0,B|69:177|93:203|93:203|86:238|46:252|46:252|62:285|47:320|47:320|81:312|122:322,1,280.500010700226,4|0,0:0|0:0,0:0:0:0:
270,242,29341,2,0,P|252:241|235:245,1,35.0625013375283
147,381,29587,6,0,L|157:234,1,140.250005350113
254,94,30324,2,0,L|249:165,1,70.1250026750566
120,95,30816,1,0,0:0:0:0:
339,219,31062,38,0,L|332:125,1,93.5,14|0,0:0|0:0,0:0:0:0:
329,94,31431,1,8,0:0:0:0:
204,210,31677,1,8,0:0:0:0:
204,210,31800,2,0,P|181:215|156:216,1,46.75,10|0,0:0|0:0,0:0:0:0:
81,128,32046,2,0,P|104:129|127:134,1,46.75,10|0,0:0|0:0,0:0:0:0:
150,300,32292,2,0,P|126:298|103:293,1,46.75,10|0,0:0|0:0,0:0:0:0:
255,137,32538,5,4,0:0:0:0:
310,205,32660,2,0,P|315:228|316:253,1,46.75,10|0,0:0|0:0,0:0:0:0:
227,361,32906,2,0,P|228:337|233:314,1,46.75,10|0,0:0|0:0,0:0:0:0:
415,296,33152,1,8,0:0:0:0:
415,296,33275,2,0,P|419:318|422:342,1,46.75,10|0,0:0|0:0,0:0:0:0:
316,251,33521,2,0,P|311:228|309:204,1,46.75,10|0,0:0|0:0,0:0:0:0:
506,180,33767,2,0,P|504:203|499:226,1,46.75,10|0,0:0|0:0,0:0:0:0:
344,125,34013,37,4,0:0:0:0:
418,80,34136,2,0,P|441:75|466:74,1,46.75,10|0,0:0|0:0,0:0:0:0:
428,209,34382,2,0,P|404:207|381:202,1,46.75,10|0,0:0|0:0,0:0:0:0:
274,39,34628,1,8,0:0:0:0:
274,39,34751,2,0,P|297:40|320:45,1,46.75,10|0,0:0|0:0,0:0:0:0:
252,164,34997,2,0,P|228:162|205:158,1,46.75,10|0,0:0|0:0,0:0:0:0:
136,34,35242,2,0,P|158:29|182:27,1,46.75,10|0,0:0|0:0,0:0:0:0:
297,229,35488,5,4,0:0:0:0:
215,255,35611,2,0,P|191:253|168:248,1,46.75,10|0,0:0|0:0,0:0:0:0:
67,110,35857,1,8,0:0:0:0:
97,192,35980,2,0,P|92:214|90:238,1,46.75,10|0,0:0|0:0,0:0:0:0:
195,360,36226,2,0,P|193:336|188:313,1,46.75,10|0,0:0|0:0,0:0:0:0:
7,257,36472,2,0,P|1:279|0:303,1,46.75,10|0,0:0|0:0,0:0:0:0:
216,224,36718,2,0,P|215:200|208:178,1,46.75,10|0,0:0|0:0,0:0:0:0:
56,360,36964,38,0,B|126:343|195:360,1,140.250005350113,4|0,0:0|0:0,0:0:0:0:
267,195,37701,2,0,P|241:260|268:320,1,140.250005350113,0|0,0:0|0:0,0:0:0:0:
464,257,38439,6,0,B|396:237|324:257,1,140.250005350113
411,217,39177,2,0,B|429:171|429:171|419:81,1,140.250005350113,2|0,0:0|0:0,0:0:0:0:
356,140,39915,38,0,P|421:166|481:139,1,140.250005350113,0|0,0:0|0:0,0:0:0:0:
502,36,40652,2,0,L|360:43,1,140.250005350113,0|0,0:0|0:0,0:0:0:0:
220,85,41390,6,0,L|184:77,2,35.0625013375283,0|0|0,0:0|0:0|0:0,0:0:0:0:
267,164,41759,2,0,L|303:156,2,35.0625013375283,0|0|0,0:0|0:0|0:0,0:0:0:0:
176,178,42128,2,0,P|173:196|176:214,1,35.0625013375283,4|0,0:0|0:0,0:0:0:0:
260,278,42374,2,0,P|262:260|259:243,1,35.0625013375283,0|0,0:0|0:0,0:0:0:0:
158,160,42620,2,0,P|155:177|157:194,1,35.0625013375283,0|0,0:0|0:0,0:0:0:0:
278,296,42865,38,0,P|283:261|278:227,1,70.1250026750566,0|0,0:0|0:0,0:0:0:0:
111,292,43357,1,0,0:0:0:0:
111,292,43603,2,0,P|145:298|182:292,1,70.1250026750566,0|0,0:0|0:0,0:0:0:0:
40,228,44095,1,0,0:0:0:0:
129,316,44341,6,0,P|147:319|165:316,1,35.0625013375283
237,208,44587,2,0,P|219:205|201:208,1,35.0625013375283,0|0,0:0|0:0,0:0:0:0:
111,334,44833,2,0,P|128:337|145:335,1,35.0625013375283,0|0,0:0|0:0,0:0:0:0:
255,190,45079,1,2,0:0:0:0:
93,352,45324,2,0,P|127:358|161:354,1,70.1250026750566,0|0,0:0|0:0,0:0:0:0:
300,290,45816,38,0,P|265:287|231:294,1,70.1250026750566
459,267,46308,1,0,0:0:0:0:
442,347,46431,1,0,0:0:0:0:
366,257,46554,2,0,P|363:239|366:221,1,35.0625013375283,0|0,0:0|0:0,0:0:0:0:
474,149,46800,2,0,P|477:167|474:185,1,35.0625013375283,0|0,0:0|0:0,0:0:0:0:
348,275,47046,2,0,P|345:258|347:241,1,35.0625013375283,0|0,0:0|0:0,0:0:0:0:
396,116,47292,6,0,P|360:121|325:118,1,70.1250026750566,0|0,0:0|0:0,0:0:0:0:
237,51,47783,2,0,P|219:48|202:51,1,35.0625013375283,0|0,0:0|0:0,0:0:0:0:
149,186,48029,2,0,P|154:150|151:115,1,70.1250026750566,4|0,0:0|0:0,0:0:0:0:
101,46,48521,1,0,0:0:0:0:
100,280,48767,38,0,P|96:263|100:247,1,35.0625013375283,2|0,0:0|0:0,0:0:0:0:
157,341,49013,2,0,P|99:365|42:342,1,126.224996147919,0|0,0:0|0:0,0:0:0:0:
27,208,49505,2,0,B|43:173|43:173|32:82,1,126.224996147919
81,158,49997,2,0,P|103:162|123:158,1,42.0749987159729
264,130,50242,5,0,0:0:0:0:
221,60,50365,1,0,0:0:0:0:
226,197,50488,2,0,P|221:218|226:237,1,42.0749987159729
364,275,50734,1,0,0:0:0:0:
337,204,50857,1,0,0:0:0:0:
348,357,50980,1,2,0:0:0:0:
448,217,51226,2,0,P|429:208|408:206,1,42.0749987159729,0|0,0:0|0:0,0:0:0:0:
214,367,51472,2,0,P|232:375|254:377,1,42.0749987159729,0|0,0:0|0:0,0:0:0:0:
187,273,51718,38,0,P|147:289|104:293,1,84.1499974319459,0|0,0:0|0:0,0:0:0:0:
21,174,52087,1,0,0:0:0:0:
79,112,52210,2,0,P|82:90|79:71,1,42.0749987159729,0|0,0:0|0:0,0:0:0:0:
21,174,52456,2,0,P|78:196|135:173,1,126.224996147919,0|0,0:0|0:0,0:0:0:0:
213,245,52947,2,0,P|216:265|213:286,1,42.0749987159729,0|0,0:0|0:0,0:0:0:0:
117,236,53193,6,0,P|113:215|116:194,1,42.0749987159729,0|0,0:0|0:0,0:0:0:0:
214,160,53439,1,0,0:0:0:0:
291,174,53562,1,0,0:0:0:0:
418,83,53685,1,0,0:0:0:0:
341,97,53808,1,0,0:0:0:0:
388,158,53931,2,0,P|387:178|380:198,1,42.0749987159729,4|0,0:0|0:0,0:0:0:0:
260,93,54177,2,0,P|253:73|252:52,1,42.0749987159729,0|0,0:0|0:0,0:0:0:0:
441,18,54423,2,0,P|440:38|433:58,1,42.0749987159729,0|0,0:0|0:0,0:0:0:0:
291,174,54669,38,0,P|288:215|299:256,1,84.1499974319459,0|0,0:0|0:0,0:0:0:0:
476,347,55038,2,0,P|486:306|484:264,1,84.1499974319459,0|0,0:0|0:0,0:0:0:0:
430,158,55406,2,0,P|373:181|315:159,1,126.224996147919,0|0,0:0|0:0,0:0:0:0:
392,250,55898,2,0,P|395:229|392:208,1,42.0749987159729,0|0,0:0|0:0,0:0:0:0:
328,298,56144,5,0,0:0:0:0:
400,344,56267,1,0,0:0:0:0:
476,306,56390,2,0,P|483:286|485:265,1,42.0749987159729,0|0,0:0|0:0,0:0:0:0:
326,168,56636,2,0,P|327:188|335:208,1,42.0749987159729,0|0,0:0|0:0,0:0:0:0:
489,155,56882,1,2,0:0:0:0:
299,93,57128,2,0,P|319:96|340:93,1,42.0749987159729,0|0,0:0|0:0,0:0:0:0:
232,4,57374,2,0,P|211:0|190:3,1,42.0749987159729,0|0,0:0|0:0,0:0:0:0:
180,210,57620,38,0,P|200:213|221:210,1,42.0749987159729,0|0,0:0|0:0,0:0:0:0:
220,96,57865,1,0,0:0:0:0:
141,62,57988,2,0,P|120:58|99:61,1,42.0749987159729,0|0,0:0|0:0,0:0:0:0:
34,280,58234,1,0,0:0:0:0:
93,216,58357,2,0,P|96:195|93:174,1,42.0749987159729,0|0,0:0|0:0,0:0:0:0:
8,73,58603,2,0,P|4:52|7:31,1,42.0749987159729,0|0,0:0|0:0,0:0:0:0:
219,98,58849,2,0,P|222:117|219:138,1,42.0749987159729,0|0,0:0|0:0,0:0:0:0:
266,25,59095,6,0,P|305:17|347:23,1,84.1499974319459,0|0,0:0|0:0,0:0:0:0:
326,275,59587,1,0,0:0:0:0:
336,354,59710,1,0,0:0:0:0:
403,246,59833,2,0,P|407:225|404:204,1,42.0749987159729,12|0,0:0|0:0,0:0:0:0:
270,151,60079,2,0,P|277:171|290:187,1,42.0749987159729,8|0,0:0|0:0,0:0:0:0:
493,186,60324,2,0,P|505:169|512:149,1,42.0749987159729,8|0,0:0|0:0,0:0:0:0:
397,8,60570,38,0,P|407:49|400:92,1,84.1499974319459,8|0,0:0|0:0,0:0:0:0:
226,99,60939,2,0,B|311:94,1,84.1499974319459,8|0,0:0|0:0,0:0:0:0:
182,172,61308,2,0,P|145:127|151:59,1,126.224996147919,2|0,0:0|0:0,0:0:0:0:
157,59,61800,1,2,0:0:0:0:
228,243,62046,6,0,P|186:257|147:250,1,84.1499974319459,8|0,0:0|0:0,0:0:0:0:
84,300,62415,2,0,P|119:325|165:331,1,84.1499974319459,8|0,0:0|0:0,0:0:0:0:
51,222,62783,2,0,P|5:270|4:328,1,126.224996147919,2|0,0:0|0:0,0:0:0:0:
156,221,63275,2,0,P|159:200|156:180,1,42.0749987159729,2|0,0:0|0:0,0:0:0:0:
44,150,63521,38,0,P|40:170|43:191,1,42.0749987159729,8|0,0:0|0:0,0:0:0:0:
276,189,63767,2,0,P|279:168|275:147,1,42.0749987159729,0|8,0:0|0:0,0:0:0:0:
153,37,64013,2,0,P|150:58|154:79,1,42.0749987159729,0|0,0:0|0:0,0:0:0:0:
379,78,64259,2,0,B|383:58|372:25|372:25|362:39|360:57,1,84.1499974319459,2|0,0:0|0:0,0:0:0:0:
358,161,64628,1,0,0:0:0:0:
439,140,64751,1,2,0:0:0:0:
464,59,64874,1,0,0:0:0:0:
449,149,64997,5,8,0:0:0:0:
360,175,65120,1,0,0:0:0:0:
286,134,65242,2,0,P|230:105|170:120,1,126.224996147919,0|0,0:0|0:0,0:0:0:0:
198,223,65734,2,4,P|213:208|221:189,1,42.0749987159729,2|0,0:0|0:0,0:0:0:0:
204,54,65980,2,0,P|189:69|181:88,1,42.0749987159729,0|0,0:0|0:0,0:0:0:0:
206,252,66226,2,0,P|220:236|228:217,1,42.0749987159729,2|0,0:0|0:0,0:0:0:0:
197,25,66472,38,0,P|182:40|174:59,2,42.0749987159729,8|0|0,0:0|0:0|0:0,0:0:0:0:
297,62,66841,2,0,P|333:77|379:72,1,84.1499974319459,8|0,0:0|0:0,0:0:0:0:
479,17,67210,2,0,B|463:56|463:56|472:143,1,126.224996147919,2|0,0:0|0:0,0:0:0:0:
512,233,67701,2,0,L|463:228,1,42.0749987159729,2|0,0:0|0:0,0:0:0:0:
286,149,67947,6,0,L|329:145,1,42.0749987159729,8|0,0:0|0:0,0:0:0:0:
296,296,68193,1,0,0:0:0:0:
248,225,68316,2,0,P|206:221|171:242,1,84.1499974319459,8|0,0:0|0:0,0:0:0:0:
207,372,68685,2,0,P|215:352|215:328,1,42.0749987159729,2|0,0:0|0:0,0:0:0:0:
66,226,68931,2,0,P|66:246|74:266,1,42.0749987159729,0|0,0:0|0:0,0:0:0:0:
308,267,69177,2,0,P|315:247|316:226,1,42.0749987159729,2|0,0:0|0:0,0:0:0:0:
305,103,69423,38,0,P|297:83|297:59,1,42.0749987159729,8|0,0:0|0:0,0:0:0:0:
348,6,69669,1,0,0:0:0:0:
351,175,69792,2,0,P|311:186|270:181,1,84.1499974319459,8|0,0:0|0:0,0:0:0:0:
211,120,70160,2,0,P|186:178|205:235,1,126.224996147919,2|0,0:0|0:0,0:0:0:0:
154,180,70652,2,0,P|135:173|112:172,1,42.0749987159729,2|0,0:0|0:0,0:0:0:0:
16,302,70898,6,0,P|36:300|56:293,1,42.0749987159729,8|0,0:0|0:0,0:0:0:0:
0,198,71144,1,8,0:0:0:0:
0,198,71267,2,0,P|19:205|42:206,1,42.0749987159729,8|0,0:0|0:0,0:0:0:0:
197,96,71513,1,8,0:0:0:0:
197,96,71636,2,0,P|178:89|155:88,1,42.0749987159729,12|0,0:0|0:0,0:0:0:0:
178,255,71882,1,8,0:0:0:0:
178,255,72005,1,8,0:0:0:0:
178,255,72128,2,0,P|198:253|218:246,1,42.0749987159729,8|0,0:0|0:0,0:0:0:0:
314,156,72374,38,0,P|355:137|394:136,1,84.1499974319459,12|0,0:0|0:0,0:0:0:0:
482,269,72742,2,0,P|440:267|402:248,1,84.1499974319459,8|0,0:0|0:0,0:0:0:0:
400,245,73111,1,2,0:0:0:0:
304,32,73357,2,0,P|296:48|292:72,1,42.0749987159729,8|0,0:0|0:0,0:0:0:0:
451,140,73603,2,0,P|447:119|438:100,1,42.0749987159729,2|0,0:0|0:0,0:0:0:0:
179,127,73849,6,0,P|170:145|166:166,1,42.0749987159729,8|0,0:0|0:0,0:0:0:0:
253,172,74095,1,0,0:0:0:0:
206,242,74218,2,0,P|166:251|122:241,1,84.1499974319459,8|0,0:0|0:0,0:0:0:0:
122,238,74587,1,2,0:0:0:0:
322,348,74833,2,0,P|342:344|361:335,1,42.0749987159729,8|0,0:0|0:0,0:0:0:0:
269,240,75079,2,0,P|250:231|229:227,1,42.0749987159729,2|0,0:0|0:0,0:0:0:0:
163,338,75324,38,0,P|207:340|245:329,1,84.1499974319459,8|0,0:0|0:0,0:0:0:0:
354,166,75693,2,0,P|313:154|271:156,1,84.1499974319459,8|0,0:0|0:0,0:0:0:0:
400,238,76062,2,0,P|437:183|430:126,1,126.224996147919,2|0,0:0|0:0,0:0:0:0:
344,51,76554,2,0,P|368:53|391:48,1,42.0749987159729,2|0,0:0|0:0,0:0:0:0:
241,127,76800,6,0,P|225:164|228:209,1,84.1499974319459,8|0,0:0|0:0,0:0:0:0:
224,35,77169,2,0,P|200:33|177:38,1,42.0749987159729,8|0,0:0|0:0,0:0:0:0:
138,139,77415,1,0,0:0:0:0:
138,139,77538,2,0,P|140:115|135:92,1,42.0749987159729,6|0,0:0|0:0,0:0:0:0:
16,165,77783,2,0,P|12:185|14:206,1,42.0749987159729,8|0,0:0|0:0,0:0:0:0:
162,287,78029,2,0,P|164:266|160:245,1,42.0749987159729,2|0,0:0|0:0,0:0:0:0:
283,371,78275,38,0,P|325:383|368:373,1,84.1499974319459,12|0,0:0|0:0,0:0:0:0:
333,178,78644,2,0,P|292:170|252:182,1,84.1499974319459,8|0,0:0|0:0,0:0:0:0:
390,243,79013,2,0,P|417:190|402:128,1,126.224996147919,2|0,0:0|0:0,0:0:0:0:
398,125,79505,1,2,0:0:0:0:
225,197,79751,6,0,P|179:193|140:169,1,84.1499974319459,4|0,0:0|0:0,0:0:0:0:
207,81,80120,2,0,P|243:61|285:58,1,84.1499974319459,8|0,0:0|0:0,0:0:0:0:
467,123,80488,2,0,P|448:131|425:133,1,42.0749987159729,10|0,0:0|0:0,0:0:0:0:
351,19,80734,2,0,P|371:21|391:29,1,42.0749987159729,8|0,0:0|0:0,0:0:0:0:
224,157,80980,2,0,P|203:154|183:146,1,42.0749987159729,2|0,0:0|0:0,0:0:0:0:
398,125,81226,38,0,P|405:166|394:206,1,84.1499974319459,12|0,0:0|0:0,0:0:0:0:
318,270,81595,2,0,B|276:262|276:262|236:270,1,84.1499974319459,8|0,0:0|0:0,0:0:0:0:
399,342,81964,2,0,P|408:322|411:299,1,42.0749987159729,2|0,0:0|0:0,0:0:0:0:
251,149,82210,2,0,P|254:169|263:188,1,42.0749987159729,8|0,0:0|0:0,0:0:0:0:
297,295,82456,2,0,P|293:315|284:334,1,42.0749987159729,2|0,0:0|0:0,0:0:0:0:
37,328,82701,6,0,P|28:308|25:288,1,42.0749987159729,4|0,0:0|0:0,0:0:0:0:
34,162,82947,1,0,0:0:0:0:
34,162,83070,2,0,P|53:170|74:173,1,42.0749987159729,8|0,0:0|0:0,0:0:0:0:
162,18,83316,1,0,0:0:0:0:
162,18,83439,2,0,P|141:21|122:29,1,42.0749987159729,2|0,0:0|0:0,0:0:0:0:
204,215,83685,2,0,P|223:223|243:226,1,42.0749987159729,8|0,0:0|0:0,0:0:0:0:
417,101,83931,2,0,P|436:92|456:89,1,42.0749987159729,2|0,0:0|0:0,0:0:0:0:
439,367,84177,38,0,P|418:363|399:355,1,42.0749987159729,12|0,0:0|0:0,0:0:0:0:
501,196,84423,1,0,0:0:0:0:
501,196,84546,2,0,P|509:215|512:235,1,42.0749987159729,8|0,0:0|0:0,0:0:0:0:
240,371,84792,1,0,0:0:0:0:
240,371,84915,2,0,P|243:350|251:331,1,42.0749987159729,2|0,0:0|0:0,0:0:0:0:
363,168,85160,2,0,P|359:147|351:128,1,42.0749987159729,8|0,0:0|0:0,0:0:0:0:
195,0,85406,5,2,0:0:0:0:
160,293,87128,6,0,B|172:123|172:123|193:175,1,224.399993151856,14|0,0:0|0:0,0:0:0:0:
0,34,87497,2,0,B|123:68|93:12|224:34,1,224.399993151856,10|0,0:0|0:0,0:0:0:0:
273,159,87865,2,0,P|329:186|389:189,1,112.199996575928,10|0,0:0|0:0,0:0:0:0:
398,0,88111,2,0,P|372:54|368:116,1,112.199996575928,10|0,0:0|0:0,0:0:0:0:
421,330,88357,2,0,P|445:280|452:224,1,112.199996575928,10|0,0:0|0:0,0:0:0:0:
116,289,88603,6,0,B|212:272|189:314|281:289,1,168.299994863892,14|0,0:0|0:0,0:0:0:0:
308,276,88849,1,0,0:0:0:0:
70,201,88972,2,0,P|19:292|84:382,1,224.399993151856,10|0,0:0|0:0,0:0:0:0:
264,101,89341,2,0,P|240:151|233:207,1,112.199996575928,10|0,0:0|0:0,0:0:0:0:
458,138,89587,2,0,P|451:82|426:32,1,112.199996575928,10|0,0:0|0:0,0:0:0:0:
103,32,89833,2,0,P|78:82|71:137,1,112.199996575928,10|0,0:0|0:0,0:0:0:0:
308,276,90079,38,0,L|140:287,1,168.299994863892,14|0,0:0|0:0,0:0:0:0:
116,289,90324,1,0,0:0:0:0:
356,190,90447,2,0,P|407:281|342:371,1,224.399993151856,10|0,0:0|0:0,0:0:0:0:
289,112,90816,2,0,P|341:93|397:98,1,112.199996575928,10|0,0:0|0:0,0:0:0:0:
308,276,91062,2,0,P|253:281|200:263,1,112.199996575928,10|0,0:0|0:0,0:0:0:0:
199,16,91308,2,0,P|251:-2|307:2,1,112.199996575928,10|0,0:0|0:0,0:0:0:0:
100,215,91554,6,0,L|93:47,1,168.299994863892,14|0,0:0|0:0,0:0:0:0:
92,20,91800,1,0,0:0:0:0:
289,112,91923,1,2,0:0:0:0:
0,74,92046,1,0,0:0:0:0:
199,16,92169,1,0,0:0:0:0:
8,172,92292,2,0,P|3:227|21:280,1,112.199996575928,10|0,0:0|0:0,0:0:0:0:
171,347,92538,2,0,L|289:354,1,112.199996575928,10|0,0:0|0:0,0:0:0:0:
400,252,92783,2,0,L|512:258,1,112.199996575928,10|0,0:0|0:0,0:0:0:0:
245,104,93029,38,0,L|471:116,1,224.399993151856,14|0,0:0|0:0,0:0:0:0:
199,16,93398,2,0,P|148:107|213:197,1,224.399993151856,10|0,0:0|0:0,0:0:0:0:
458,197,93767,2,0,P|484:147|489:92,1,112.199996575928,10|0,0:0|0:0,0:0:0:0:
307,234,94013,2,0,P|312:289|338:338,1,112.199996575928,10|0,0:0|0:0,0:0:0:0:
303,46,94259,2,0,P|254:20|199:15,1,112.199996575928,10|0,0:0|0:0,0:0:0:0:
18,208,94505,6,0,B|114:191|91:233|183:208,1,168.299994863892,14|0,0:0|0:0,0:0:0:0:
210,195,94751,1,0,0:0:0:0:
56,66,94874,2,0,B|63:291,1,224.399993151856,10|0,0:0|0:0,0:0:0:0:
268,384,95242,2,0,P|241:334|236:279,1,112.199996575928,10|0,0:0|0:0,0:0:0:0:
507,180,95488,2,0,P|501:235|474:284,1,112.199996575928,10|0,0:0|0:0,0:0:0:0:
279,111,95734,2,0,P|252:61|246:6,1,112.199996575928,10|0,0:0|0:0,0:0:0:0:
407,206,95980,38,0,L|238:197,1,168.299994863892,14|0,0:0|0:0,0:0:0:0:
208,194,96226,1,0,0:0:0:0:
416,111,96349,1,2,0:0:0:0:
252,291,96472,1,0,0:0:0:0:
279,111,96595,1,0,0:0:0:0:
249,320,96718,2,0,P|193:315|144:289,1,112.199996575928,10|0,0:0|0:0,0:0:0:0:
141,37,96964,2,0,P|190:10|245:6,1,112.199996575928,10|0,0:0|0:0,0:0:0:0:
511,174,97210,2,0,P|461:200|406:205,1,112.199996575928,10|0,0:0|0:0,0:0:0:0:
56,326,97456,6,0,L|75:153,1,168.299994863892,14|0,0:0|0:0,0:0:0:0:
78,127,97701,1,0,0:0:0:0:
314,70,97824,2,0,L|295:243,1,168.299994863892,10|0,0:0|0:0,0:0:0:0:
292,269,98069,1,0,0:0:0:0:
189,116,98193,2,0,L|202:-7,1,112.199996575928,10|0,0:0|0:0,0:0:0:0:
483,158,98439,37,2,0:0:0:0:
266,185,98562,1,2,0:0:0:0:
512,167,98685,1,2,0:0:0:0:
237,173,98808,1,2,0:0:0:0:
385,0,98931,6,0,B|413:118|359:104|386:221,1,224.399993151856,14|0,0:0|0:0,0:0:0:0:
503,348,99300,2,0,P|389:323|282:342,1,224.399993151856,10|0,0:0|0:0,0:0:0:0:
72,383,99669,2,0,P|100:334|106:279,1,112.199996575928,10|0,0:0|0:0,0:0:0:0:
0,48,99915,2,0,P|6:103|34:151,1,112.199996575928,10|0,0:0|0:0,0:0:0:0:
294,196,100160,2,0,P|245:167|190:160,1,112.199996575928,10|0,0:0|0:0,0:0:0:0:
289,295,100406,38,0,P|376:251|372:135,1,224.399993151856,14|0,0:0|0:0,0:0:0:0:
91,35,100775,2,0,L|316:54,1,224.399993151856,10|0,0:0|0:0,0:0:0:0:
34,151,101144,2,0,L|148:161,1,112.199996575928,10|0,0:0|0:0,0:0:0:0:
225,17,101390,2,0,L|336:26,1,112.199996575928,10|0,0:0|0:0,0:0:0:0:
512,203,101636,2,0,L|400:193,1,112.199996575928,10|0,0:0|0:0,0:0:0:0:
67,294,101882,6,0,B|190:328|160:272|291:294,1,224.399993151856,14|0,0:0|0:0,0:0:0:0:
147,44,102251,2,0,B|135:214|135:214|114:162,1,224.399993151856,10|0,0:0|0:0,0:0:0:0:
247,29,102620,2,0,P|275:78|281:133,1,112.199996575928,10|0,0:0|0:0,0:0:0:0:
175,364,102865,2,0,P|181:308|209:260,1,112.199996575928,10|0,0:0|0:0,0:0:0:0:
469,216,103111,2,0,P|420:244|365:251,1,112.199996575928,10|0,0:0|0:0,0:0:0:0:
177,97,103357,38,0,P|232:104|280:132,1,112.199996575928,14|0,0:0|0:0,0:0:0:0:
94,241,103603,1,0,0:0:0:0:
56,28,103726,1,2,0:0:0:0:
99,269,103849,1,0,0:0:0:0:
0,108,103972,1,0,0:0:0:0:
228,249,104095,2,0,L|216:364,1,112.199996575928,10|0,0:0|0:0,0:0:0:0:
393,384,104341,2,0,L|381:272,1,112.199996575928,10|0,0:0|0:0,0:0:0:0:
270,46,104587,2,0,L|259:158,1,112.199996575928,10|0,0:0|0:0,0:0:0:0:
510,67,104833,6,0,P|461:85|401:84,1,112.199996575928,14|0,0:0|0:0,0:0:0:0:
247,27,105079,1,0,0:0:0:0:
416,160,105201,1,2,0:0:0:0:
223,8,105324,2,0,P|167:6|114:25,1,112.199996575928,10|0,0:0|0:0,0:0:0:0:
13,193,105570,2,0,P|65:211|121:210,1,112.199996575928,10|0,0:0|0:0,0:0:0:0:
256,140,105816,2,0,P|237:192|238:248,1,112.199996575928,10|0,0:0|0:0,0:0:0:0:
441,365,106062,2,0,P|442:309|423:256,1,112.199996575928,10|0,0:0|0:0,0:0:0:0:
170,359,106308,38,0,L|282:362,1,112.199996575928,14|0,0:0|0:0,0:0:0:0:
386,144,106554,1,0,0:0:0:0:
293,342,106677,1,2,0:0:0:0:
398,119,106800,2,0,P|343:106|290:116,1,112.199996575928,10|0,0:0|0:0,0:0:0:0:
179,192,107046,2,0,P|124:205|71:195,1,112.199996575928,10|0,0:0|0:0,0:0:0:0:
272,32,107292,2,0,P|285:87|275:140,1,112.199996575928,10|0,0:0|0:0,0:0:0:0:
216,261,107538,2,0,P|203:316|213:369,1,112.199996575928,10|0,0:0|0:0,0:0:0:0:
415,326,107783,6,0,L|294:319,1,112.199996575928,14|0,0:0|0:0,0:0:0:0:
405,169,108029,1,0,0:0:0:0:
319,295,108152,1,2,0:0:0:0:
420,147,108275,2,0,L|428:32,1,112.199996575928,10|0,0:0|0:0,0:0:0:0:
261,4,108521,2,0,L|269:119,1,112.199996575928,10|0,0:0|0:0,0:0:0:0:
172,226,108767,2,0,L|164:337,1,112.199996575928,10|0,0:0|0:0,0:0:0:0:
11,150,109013,2,0,P|58:131|122:133,1,112.199996575928,10|0,0:0|0:0,0:0:0:0:
263,204,109259,22,0,P|310:223|374:221,1,112.199996575928,14|0,0:0|0:0,0:0:0:0:
52,338,109505,1,0,0:0:0:0:
164,337,109628,2,0,L|172:226,1,112.199996575928,10|0,0:0|0:0,0:0:0:0:
366,3,109874,1,2,0:0:0:0:
261,4,109997,2,0,L|269:119,1,112.199996575928,10|0,0:0|0:0,0:0:0:0:
343,290,110242,1,2,0:0:0:0:
422,81,110365,1,2,0:0:0:0:
332,320,110488,1,2,0:0:0:0:
268,115,110611,1,2,0:0:0:0:
479,359,110734,6,0,B|360:387|375:333|257:360,1,224.399993151856,14|0,0:0|0:0,0:0:0:0:
80,237,111103,2,0,P|123:130|117:23,1,224.399993151856,10|0,0:0|0:0,0:0:0:0:
221,198,111472,2,0,L|332:206,1,112.199996575928,10|0,0:0|0:0,0:0:0:0:
145,368,111718,2,0,L|256:360,1,112.199996575928,10|0,0:0|0:0,0:0:0:0:
512,286,111964,2,0,L|400:278,1,112.199996575928,10|0,0:0|0:0,0:0:0:0:
244,114,112210,5,6,0:0:0:0:
455,41,112333,1,0,0:0:0:0:
217,124,112456,1,2,0:0:0:0:
481,31,112579,2,0,B|488:200|488:200|459:150,1,224.399993151856,10|0,0:0|0:0,0:0:0:0:
342,242,112947,2,0,L|329:354,1,112.199996575928,10|0,0:0|0:0,0:0:0:0:
217,124,113193,2,0,L|230:236,1,112.199996575928,10|0,0:0|0:0,0:0:0:0:
473,263,113439,2,0,L|460:151,1,112.199996575928,10|0,0:0|0:0,0:0:0:0:
340,57,113685,38,0,P|289:36|230:35,1,112.199996575928,14|0,0:0|0:0,0:0:0:0:
88,204,113931,1,2,0:0:0:0:
250,205,114054,2,0,P|299:146|230:34,1,224.399993151856,10|0,0:0|0:0,0:0:0:0:
105,115,114423,2,0,L|216:123,1,112.199996575928,10|0,0:0|0:0,0:0:0:0:
0,291,114669,2,0,L|111:283,1,112.199996575928,10|0,0:0|0:0,0:0:0:0:
361,213,114915,2,0,L|249:205,1,112.199996575928,10|0,0:0|0:0,0:0:0:0:
252,346,115160,6,0,P|273:295|274:236,1,112.199996575928,14|0,0:0|0:0,0:0:0:0:
115,71,115406,1,2,0:0:0:0:
216,123,115529,2,0,P|195:72|194:13,1,112.199996575928,10|0,0:0|0:0,0:0:0:0:
340,99,115775,1,2,0:0:0:0:
84,64,115898,1,0,0:0:0:0:
370,103,116021,1,0,0:0:0:0:
54,60,116144,1,0,0:0:0:0:
398,107,116267,1,2,0:0:0:0:
252,346,116390,2,0,L|140:353,1,112.199996575928,10|0,0:0|0:0,0:0:0:0:
38,176,116636,38,0,L|261:160,1,224.399993151856,14|0,0:0|0:0,0:0:0:0:
216,258,117005,2,0,P|156:168|204:70,1,224.399993151856,10|0,0:0|0:0,0:0:0:0:
373,151,117374,2,0,L|261:158,1,112.199996575928,10|0,0:0|0:0,0:0:0:0:
512,282,117620,2,0,L|400:274,1,112.199996575928,10|0,0:0|0:0,0:0:0:0:
188,350,117865,2,0,L|299:342,1,112.199996575928,10|0,0:0|0:0,0:0:0:0:
149,192,118111,5,6,0:0:0:0:
373,151,118234,1,0,0:0:0:0:
119,197,118357,1,2,0:0:0:0:
471,340,118480,2,0,L|459:114,1,224.399993151856,10|0,0:0|0:0,0:0:0:0:
362,56,118849,2,0,L|349:168,1,112.199996575928,10|0,0:0|0:0,0:0:0:0:
212,0,119095,2,0,L|225:112,1,112.199996575928,10|0,0:0|0:0,0:0:0:0:
261,329,119341,2,0,L|274:217,1,112.199996575928,10|0,0:0|0:0,0:0:0:0:
120,201,119587,37,6,0:0:0:0:
8,313,119710,2,0,P|59:292|118:291,1,112.199996575928,10|0,0:0|0:0,0:0:0:0:
261,329,119956,2,0,B|384:363|354:307|485:329,1,224.399993151856,10|0,0:0|0:0,0:0:0:0:
313,118,120324,2,0,L|326:230,1,112.199996575928,10|0,0:0|0:0,0:0:0:0:
421,0,120570,2,0,L|408:112,1,112.199996575928,10|0,0:0|0:0,0:0:0:0:
482,328,120816,2,0,L|469:216,1,112.199996575928,10|0,0:0|0:0,0:0:0:0:
223,56,121062,6,0,P|225:111|209:165,1,112.199996575928,14|0,0:0|0:0,0:0:0:0:
155,355,121308,1,2,0:0:0:0:
223,275,121431,2,0,P|207:221|209:165,1,112.199996575928,10|0,0:0|0:0,0:0:0:0:
313,118,121677,1,0,0:0:0:0:
100,219,121800,1,2,0:0:0:0:
339,106,121923,1,0,0:0:0:0:
150,43,122046,1,2,0:0:0:0:
93,249,122169,1,0,0:0:0:0:
273,14,122292,1,2,0:0:0:0:
8,279,122497,38,0,P|44:323|148:317,1,168.299994863892,8|0,0:3|2:0,0:0:0:0:
39,347,122865,6,0,P|79:362|148:317,1,130.899996005249,8|0,0:3|2:0,0:0:0:0:
88,371,123234,38,0,P|118:368|148:318,1,93.5,4|0,0:3|2:0,0:0:0:0:
0,108,123644,5,14,0:0:0:0:
89,192,144039,6,0,B|141:176|193:192|193:192|183:172|160:159,1,140.25,8|0,1:0|0:0,0:0:0:0:
405,203,145268,6,0,P|402:179|394:157,1,46.75,8|0,0:0|0:0,0:0:0:0:
307,269,145514,2,0,P|317:222|315:177,1,93.5,8|0,0:0|0:0,0:0:0:0:
206,80,145883,2,0,P|277:99|338:79,1,140.250005350113,2|0,0:0|0:0,0:0:0:0:
107,254,146743,38,0,P|99:231|97:208,1,46.75,8|0,1:0|0:0,0:0:0:0:
177,305,146989,2,0,P|116:341|51:320,1,140.250005350113,8|0,1:0|0:0,0:0:0:0:
70,124,148219,6,0,P|94:121|116:113,1,46.75,8|0,0:0|0:0,0:0:0:0:
4,26,148465,2,0,P|50:35|95:33,1,93.5,8|0,0:0|0:0,0:0:0:0:
216,0,148834,2,0,L|210:142,1,140.250005350113,2|0,0:0|0:0,0:0:0:0:
415,295,149694,38,0,P|393:291|369:292,1,46.75,8|0,1:0|0:0,0:0:0:0:
472,362,149940,2,0,P|500:301|478:235,1,140.25,8|0,1:0|0:0,0:0:0:0:
387,48,151170,6,0,L|340:50,1,46.75,8|0,0:0|0:0,0:0:0:0:
236,121,151416,2,0,L|330:124,1,93.5,8|0,0:0|0:0,0:0:0:0:
425,130,151784,2,0,P|446:193|424:260,1,140.25,2|0,0:0|0:0,0:0:0:0:
230,248,152645,38,0,P|252:244|276:245,1,46.75,8|0,1:0|0:0,0:0:0:0:
173,315,152891,2,0,P|145:254|167:188,1,140.25,8|0,1:0|0:0,0:0:0:0:
78,154,154120,6,0,P|54:157|32:165,1,46.75,8|0,0:0|0:0,0:0:0:0:
144,252,154366,2,0,P|97:242|52:244,1,93.5,8|0,0:0|0:0,0:0:0:0:
161,162,154735,2,0,L|167:20,1,140.25,2|0,0:0|0:0,0:0:0:0:
303,23,155596,2,0,L|304:72,1,46.75,8|0,1:0|0:0,0:0:0:0:
317,164,155842,38,0,P|269:178|225:177,1,93.5,8|0,1:0|0:0,0:0:0:0:
153,128,156211,2,0,P|111:114|72:115,1,84.1499974319459,2|0,0:0|0:0,0:0:0:0:
130,247,156579,2,0,P|136:226|137:202,1,42.0749987159729,2|0,0:0|0:0,0:0:0:0:
50,295,156825,2,0,P|51:315|57:336,1,42.0749987159729,2|0,0:0|0:0,0:0:0:0:
172,381,157071,2,0,P|177:360|179:339,1,42.0749987159729,2|0,0:0|0:0,0:0:0:0:
273,263,157317,5,2,0:0:0:0:
158,317,157440,1,0,0:0:0:0:
298,250,157563,2,0,P|318:255|339:257,1,42.0749987159729,2|0,0:0|0:0,0:0:0:0:
431,206,157809,2,0,P|451:200|472:198,1,42.0749987159729,2|0,0:0|0:0,0:0:0:0:
409,324,158055,2,0,P|414:303|416:282,1,42.0749987159729,2|0,0:0|0:0,0:0:0:0:
359,181,158301,2,0,P|353:160|351:139,1,42.0749987159729,2|0,0:0|0:0,0:0:0:0:
474,19,158547,2,0,P|472:39|466:60,1,42.0749987159729,8|0,1:0|0:0,0:0:0:0:
362,110,158793,38,0,P|316:100|278:105,1,84.1499974319459,8|0,1:0|0:0,0:0:0:0:
190,176,159161,2,0,P|144:185|105:180,1,84.1499974319459,2|0,0:0|0:0,0:0:0:0:
186,33,159530,2,0,P|192:53|194:74,1,42.0749987159729,2|0,0:0|0:0,0:0:0:0:
86,157,159776,2,0,P|87:136|93:114,1,42.0749987159729,2|0,0:0|0:0,0:0:0:0:
267,183,160022,2,0,P|272:203|274:224,1,42.0749987159729,2|0,0:0|0:0,0:0:0:0:
249,321,160268,5,2,0:0:0:0:
368,269,160391,1,0,0:0:0:0:
220,335,160514,1,0,0:0:0:0:
395,257,160637,2,0,P|406:215|402:173,1,84.1499974319459,2|0,0:0|0:0,0:0:0:0:
478,95,161006,2,0,P|457:95|436:89,1,42.0749987159729,2|0,0:0|0:0,0:0:0:0:
322,27,161252,2,0,P|301:27|280:33,1,42.0749987159729,2|0,0:0|0:0,0:0:0:0:
200,136,161498,2,0,P|179:136|158:130,1,42.0749987159729,8|0,1:0|0:0,0:0:0:0:
299,113,161743,38,0,P|299:155|283:198,1,84.1499974319459,8|0,1:0|0:0,0:0:0:0:
252,298,162112,2,0,P|252:341|268:383,1,84.1499974319459,2|0,0:0|0:0,0:0:0:0:
172,321,162481,2,0,P|152:315|125:313,1,42.0749987159729,2|0,0:0|0:0,0:0:0:0:
48,374,162727,2,0,P|28:380|1:382,1,42.0749987159729,2|0,0:0|0:0,0:0:0:0:
51,199,162973,2,0,P|71:201|93:207,1,42.0749987159729,2|0,0:0|0:0,0:0:0:0:
57,279,163219,5,2,0:0:0:0:
178,164,163342,1,0,0:0:0:0:
35,300,163465,1,0,0:0:0:0:
174,249,163588,2,0,P|217:249|259:233,1,84.1499974319459,2|0,0:0|0:0,0:0:0:0:
369,292,163957,2,0,P|350:287|326:288,1,42.0749987159729,2|0,0:0|0:0,0:0:0:0:
207,374,164202,2,0,P|227:374|247:369,1,42.0749987159729,2|0,0:0|0:0,0:0:0:0:
268,202,164448,2,0,P|247:196|226:197,1,42.0749987159729,8|0,1:0|0:0,0:0:0:0:
384,265,164694,38,0,P|398:225|397:183,1,84.1499974319459,8|0,1:0|0:0,0:0:0:0:
326,91,165063,2,0,P|311:51|312:9,1,84.1499974319459,2|0,0:0|0:0,0:0:0:0:
451,107,165432,2,0,P|432:103|408:103,1,42.0749987159729,2|0,0:0|0:0,0:0:0:0:
304,175,165678,2,0,P|285:179|261:179,1,42.0749987159729,2|0,0:0|0:0,0:0:0:0:
159,253,165924,2,0,P|154:273|154:294,1,42.0749987159729,2|0,0:0|0:0,0:0:0:0:
311,343,166170,6,0,P|311:322|306:301,1,42.0749987159729,2|0,0:0|0:0,0:0:0:0:
247,166,166416,1,0,0:0:0:0:
247,166,166538,2,0,P|206:177|165:177,1,84.1499974319459,2|0,0:0|0:0,0:0:0:0:
75,240,166907,2,0,P|74:219|79:198,1,42.0749987159729,2|0,0:0|0:0,0:0:0:0:
141,100,167153,2,0,P|141:80|137:58,1,42.0749987159729,2|0,0:0|0:0,0:0:0:0:
5,101,167399,2,0,P|0:121|0:143,1,42.0749987159729,8|0,1:0|0:0,0:0:0:0:
119,37,167645,38,0,P|160:26|201:26,1,84.1499974319459,8|0,0:0|0:0,0:0:0:0:
315,91,168014,2,0,P|355:100|397:100,1,84.1499974319459,8|0,0:0|0:0,0:0:0:0:
247,177,168383,2,0,P|240:197|242:218,1,42.0749987159729,8|0,0:0|0:0,0:0:0:0:
429,131,168629,2,0,P|429:110|424:89,1,42.0749987159729,8|0,0:0|0:0,0:0:0:0:
301,22,168875,2,0,P|295:42|295:63,1,42.0749987159729,8|0,0:0|0:0,0:0:0:0:
441,230,169120,6,0,P|451:189|451:147,1,84.1499974319459,8|0,0:0|0:0,0:0:0:0:
208,84,169489,2,0,P|208:124|218:166,1,84.1499974319459,8|0,0:0|0:0,0:0:0:0:
136,25,169858,2,0,P|114:24|93:29,1,42.0749987159729,8|0,0:0|0:0,0:0:0:0:
0,162,170104,2,0,P|20:168|41:167,1,42.0749987159729,8|0,0:0|0:0,0:0:0:0:
133,117,170350,2,0,P|152:111|174:113,1,42.0749987159729,8|0,0:0|0:0,0:0:0:0:
424,276,170596,38,0,P|382:275|341:265,1,84.1499974319459,8|0,0:0|0:0,0:0:0:0:
232,195,170965,2,0,P|190:195|149:205,1,84.1499974319459,8|0,0:0|0:0,0:0:0:0:
247,334,171334,2,0,P|246:313|251:292,1,42.0749987159729,8|0,0:0|0:0,0:0:0:0:
330,160,171579,2,0,P|330:139|325:117,1,42.0749987159729,8|0,0:0|0:0,0:0:0:0:
147,136,171825,2,0,P|140:155|141:177,1,42.0749987159729,8|0,0:0|0:0,0:0:0:0:
87,324,172071,6,0,P|86:282|76:241,1,84.1499974319459,8|0,0:0|0:0,0:0:0:0:
0,146,172440,2,0,P|0:103|10:62,1,84.1499974319459,8|0,0:0|0:0,0:0:0:0:
147,136,172809,2,0,P|167:141|188:140,1,42.0749987159729,8|0,0:0|0:0,0:0:0:0:
273,63,173055,2,0,P|293:57|314:58,1,42.0749987159729,8|0,0:0|0:0,0:0:0:0:
285,192,173301,2,0,P|290:171|289:150,1,42.0749987159729,8|0,0:0|0:0,0:0:0:0:
158,21,173547,38,0,P|147:61|147:103,1,84.1499974319459,8|0,0:0|0:0,0:0:0:0:
197,202,173916,2,0,P|208:242|208:284,1,84.1499974319459,8|0,0:0|0:0,0:0:0:0:
301,311,174284,2,0,P|320:305|342:306,1,42.0749987159729,8|0,0:0|0:0,0:0:0:0:
433,374,174530,2,0,P|453:379|474:378,1,42.0749987159729,8|0,0:0|0:0,0:0:0:0:
422,243,174776,2,0,P|416:263|417:284,1,42.0749987159729,8|0,0:0|0:0,0:0:0:0:
512,146,175022,6,0,P|471:155|429:155,1,84.1499974319459,8|0,0:0|0:0,0:0:0:0:
330,94,175391,2,0,P|289:84|247:84,1,84.1499974319459,8|0,0:0|0:0,0:0:0:0:
413,21,175760,2,0,P|418:41|417:62,1,42.0749987159729,8|0,0:0|0:0,0:0:0:0:
345,180,176006,2,0,P|340:200|341:221,1,42.0749987159729,8|0,0:0|0:0,0:0:0:0:
512,277,176252,2,0,P|512:256|507:235,1,42.0749987159729,8|0,0:0|0:0,0:0:0:0:
355,251,176498,38,0,P|313:250|272:240,1,84.1499974319459,8|0,0:0|0:0,0:0:0:0:
160,192,176866,2,0,P|118:192|76:202,1,84.1499974319459,8|0,0:0|0:0,0:0:0:0:
3,130,177235,2,0,P|0:108|0:87,1,42.0749987159729,8|0,0:0|0:0,0:0:0:0:
130,35,177481,2,0,P|130:55|125:77,1,42.0749987159729,8|0,0:0|0:0,0:0:0:0:
60,227,177727,2,0,P|56:247|56:268,1,42.0749987159729,8|0,0:0|0:0,0:0:0:0:
221,334,177973,6,0,P|220:312|217:292,1,42.0749987159729,8|0,0:0|0:0,0:0:0:0:
116,99,178219,1,0,0:0:0:0:
116,99,178342,2,0,P|137:99|158:94,1,42.0749987159729,8|0,0:0|0:0,0:0:0:0:
307,0,178588,1,0,0:0:0:0:
307,0,178711,2,0,P|327:-1|348:3,1,42.0749987159729,8|0,0:0|0:0,0:0:0:0:
289,196,178957,1,0,0:0:0:0:
289,196,179079,1,0,0:0:0:0:
289,196,179202,2,0,P|268:201|247:200,1,42.0749987159729,8|0,0:0|0:0,0:0:0:0:
376,82,179448,38,0,P|384:121|383:165,1,84.1499974319459,12|0,0:0|0:0,0:0:0:0:
320,278,179817,2,0,P|312:317|314:360,1,84.1499974319459,8|0,0:0|0:0,0:0:0:0:
433,246,180186,2,0,P|412:241|391:242,1,42.0749987159729,8|0,0:0|0:0,0:0:0:0:
240,281,180432,2,0,P|219:286|197:285,1,42.0749987159729,8|0,0:0|0:0,0:0:0:0:
200,124,180678,2,0,P|220:122|240:128,1,42.0749987159729,8|0,0:0|0:0,0:0:0:0:
59,235,180924,6,0,P|98:244|141:242,1,84.1499974319459,8|0,0:0|0:0,0:0:0:0:
225,207,181293,2,0,P|264:198|307:200,1,84.1499974319459,8|0,0:0|0:0,0:0:0:0:
126,315,181661,2,0,P|125:294|130:273,1,42.0749987159729,8|0,0:0|0:0,0:0:0:0:
174,150,181907,2,0,P|174:129|169:107,1,42.0749987159729,8|0,0:0|0:0,0:0:0:0:
12,122,182153,2,0,P|7:143|7:164,1,42.0749987159729,8|0,0:0|0:0,0:0:0:0:
45,35,182399,38,0,P|84:44|127:42,1,84.1499974319459,8|0,0:0|0:0,0:0:0:0:
224,7,182768,2,0,P|263:-1|306:0,1,84.1499974319459,8|0,0:0|0:0,0:0:0:0:
413,134,183137,2,0,P|392:134|371:130,1,42.0749987159729,8|0,0:0|0:0,0:0:0:0:
295,82,183383,2,0,P|274:81|253:87,1,42.0749987159729,8|0,0:0|0:0,0:0:0:0:
295,221,183629,2,0,P|315:225|336:225,1,42.0749987159729,8|0,0:0|0:0,0:0:0:0:
193,315,183875,6,0,P|201:276|200:233,1,84.1499974319459,8|0,0:0|0:0,0:0:0:0:
136,154,184243,2,0,P|126:114|129:71,1,84.1499974319459,8|0,0:0|0:0,0:0:0:0:
69,228,184612,2,0,P|89:232|111:232,1,42.0749987159729,8|0,0:0|0:0,0:0:0:0:
215,153,184858,2,0,P|236:148|256:148,1,42.0749987159729,8|0,0:0|0:0,0:0:0:0:
325,295,185104,2,0,P|304:295|283:290,1,42.0749987159729,8|0,0:0|0:0,0:0:0:0:
483,215,185350,38,0,P|444:224|401:222,1,84.1499974319459,8|0,0:0|0:0,0:0:0:0:
298,159,185719,2,0,P|259:150|215:152,1,84.1499974319459,8|0,0:0|0:0,0:0:0:0:
325,295,186088,2,0,P|324:274|329:253,1,42.0749987159729,8|0,0:0|0:0,0:0:0:0:
393,144,186334,2,0,P|393:122|388:101,1,42.0749987159729,8|0,0:0|0:0,0:0:0:0:
197,129,186579,2,0,P|192:148|192:170,1,42.0749987159729,8|0,0:0|0:0,0:0:0:0:
89,58,186825,6,0,P|91:99|82:141,1,84.1499974319459,8|0,0:0|0:0,0:0:0:0:
45,245,187194,2,0,P|42:286|51:327,1,84.1499974319459,8|0,0:0|0:0,0:0:0:0:
183,218,187563,2,0,P|162:222|140:222,1,42.0749987159729,8|0,0:0|0:0,0:0:0:0:
206,40,187809,2,0,P|226:39|247:44,1,42.0749987159729,8|0,0:0|0:0,0:0:0:0:
350,98,188055,2,0,P|370:98|391:93,1,42.0749987159729,8|0,0:0|0:0,0:0:0:0:
366,200,188301,38,0,P|324:202|283:193,1,84.1499974319459,8|0,0:0|0:0,0:0:0:0:
197,129,188670,2,0,P|155:125|113:134,1,84.1499974319459,8|0,0:0|0:0,0:0:0:0:
215,270,189038,2,0,P|211:249|211:228,1,42.0749987159729,8|0,0:0|0:0,0:0:0:0:
262,45,189284,1,8,0:0:0:0:
348,153,189407,1,0,0:0:0:0:
244,22,189530,1,8,0:0:0:0:
395,46,189653,1,0,0:0:0:0:
197,129,189776,6,0,P|176:133|155:133,1,42.0749987159729,8|0,0:0|0:0,0:0:0:0:
60,0,190022,1,0,0:0:0:0:
60,0,190145,2,0,P|80:0|101:3,1,42.0749987159729,8|0,0:0|0:0,0:0:0:0:
66,220,190391,1,0,0:0:0:0:
66,220,190514,2,0,P|45:224|24:224,1,42.0749987159729,8|0,0:0|0:0,0:0:0:0:
160,124,190760,1,0,0:0:0:0:
160,124,190883,1,0,0:0:0:0:
160,124,191006,2,0,P|181:122|201:128,1,42.0749987159729,8|0,0:0|0:0,0:0:0:0:
266,294,191252,38,0,P|260:273|261:252,1,42.0749987159729,8|0,0:0|0:0,0:0:0:0:
396,155,191498,1,0,0:0:0:0:
396,155,191620,2,0,P|399:198|390:239,1,84.1499974319459,8|0,0:0|0:0,0:0:0:0:
297,91,191989,2,0,P|317:84|338:85,1,42.0749987159729,8|0,0:0|0:0,0:0:0:0:
471,129,192235,2,0,P|491:133|512:133,1,42.0749987159729,8|0,0:0|0:0,0:0:0:0:
368,6,192481,2,0,P|347:5|326:10,1,42.0749987159729,8|0,0:0|0:0,0:0:0:0:
214,78,192727,6,0,P|194:78|172:73,1,42.0749987159729,8|0,0:0|0:0,0:0:0:0:
79,0,192973,1,0,0:0:0:0:
79,0,193096,2,0,P|82:41|73:82,1,84.1499974319459,8|0,0:0|0:0,0:0:0:0:
217,229,193465,2,0,P|217:208|212:187,1,42.0749987159729,8|0,0:0|0:0,0:0:0:0:
150,91,193711,2,0,P|149:70|153:49,1,42.0749987159729,8|0,0:0|0:0,0:0:0:0:
290,103,193957,2,0,P|269:103|247:107,1,42.0749987159729,8|0,0:0|0:0,0:0:0:0:
130,171,194202,38,0,P|108:172|87:167,1,42.0749987159729,8|0,0:0|0:0,0:0:0:0:
3,258,194448,1,0,0:0:0:0:
3,258,194571,2,0,P|45:255|86:264,1,84.1499974319459,8|0,0:0|0:0,0:0:0:0:
228,315,194940,2,0,P|208:314|186:319,1,42.0749987159729,8|0,0:0|0:0,0:0:0:0:
76,376,195186,2,0,P|55:376|34:371,1,42.0749987159729,8|0,0:0|0:0,0:0:0:0:
164,234,195432,2,0,P|183:233|204:238,1,42.0749987159729,8|0,0:0|0:0,0:0:0:0:
316,295,195678,6,0,P|336:295|357:290,1,42.0749987159729,8|0,0:0|0:0,0:0:0:0:
400,146,195924,1,0,0:0:0:0:
400,146,196047,2,0,P|379:145|358:150,1,42.0749987159729,8|0,0:0|0:0,0:0:0:0:
291,57,196293,1,0,0:0:0:0:
291,57,196416,2,0,P|291:36|286:15,1,42.0749987159729,8|0,0:0|0:0,0:0:0:0:
228,144,196661,2,0,P|249:144|270:139,1,42.0749987159729,8|0,0:0|0:0,0:0:0:0:
374,66,196907,2,0,P|394:64|415:70,1,42.0749987159729,8|0,0:0|0:0,0:0:0:0:
476,217,197153,38,0,P|455:222|434:221,1,42.0749987159729,8|0,0:0|0:0,0:0:0:0:
358,316,197399,1,0,0:0:0:0:
358,316,197522,2,0,P|361:274|352:233,1,84.1499974319459,8|0,0:0|0:0,0:0:0:0:
208,173,197891,2,0,P|208:193|213:214,1,42.0749987159729,8|0,0:0|0:0,0:0:0:0:
267,332,198137,2,0,P|267:352|262:373,1,42.0749987159729,8|0,0:0|0:0,0:0:0:0:
108,265,198383,2,0,P|106:244|112:223,1,42.0749987159729,8|0,0:0|0:0,0:0:0:0:
274,91,198629,6,0,P|274:70|269:49,1,42.0749987159729,8|0,0:0|0:0,0:0:0:0:
83,26,198875,1,0,0:0:0:0:
83,26,198998,2,0,P|41:29|0:20,1,84.1499974319459,8|0,0:0|0:0,0:0:0:0:
46,161,199366,2,0,P|66:161|87:155,1,42.0749987159729,8|0,0:0|0:0,0:0:0:0:
203,79,199612,2,0,P|224:78|245:83,1,42.0749987159729,8|0,0:0|0:0,0:0:0:0:
353,212,199858,2,0,P|332:212|311:207,1,42.0749987159729,8|0,0:0|0:0,0:0:0:0:
300,36,200104,38,0,P|320:30|341:31,1,42.0749987159729,8|0,0:0|0:0,0:0:0:0:
501,84,200350,1,0,0:0:0:0:
501,84,200473,2,0,P|498:42|507:1,1,84.1499974319459,8|0,0:0|0:0,0:0:0:0:
399,121,200842,2,0,P|398:141|403:162,1,42.0749987159729,8|0,0:0|0:0,0:0:0:0:
458,262,201088,2,0,P|458:282|453:303,1,42.0749987159729,8|0,0:0|0:0,0:0:0:0:
281,345,201334,2,0,P|276:324|277:303,1,42.0749987159729,8|0,0:0|0:0,0:0:0:0:
320,202,201579,6,0,P|325:181|324:160,1,42.0749987159729,8|0,0:0|0:0,0:0:0:0:
150,187,201825,1,0,0:0:0:0:
150,187,201948,2,0,P|149:207|153:228,1,42.0749987159729,8|0,0:0|0:0,0:0:0:0:
367,303,202194,1,0,0:0:0:0:
367,303,202317,2,0,P|372:282|371:261,1,42.0749987159729,8|0,0:0|0:0,0:0:0:0:
289,119,202563,2,0,P|283:99|284:77,1,42.0749987159729,8|0,0:0|0:0,0:0:0:0:
505,133,202809,2,0,P|484:132|463:137,1,42.0749987159729,8|0,0:0|0:0,0:0:0:0:
261,239,203055,38,0,P|240:239|219:234,1,42.0749987159729,8|0,0:0|0:0,0:0:0:0:
101,70,203301,1,0,0:0:0:0:
101,70,203424,2,0,P|120:63|142:65,1,42.0749987159729,8|0,0:0|0:0,0:0:0:0:
254,330,203670,1,0,0:0:0:0:
254,330,203793,2,0,P|233:335|212:334,1,42.0749987159729,8|0,0:0|0:0,0:0:0:0:
0,175,204038,2,0,P|20:174|41:180,1,42.0749987159729,8|0,0:0|0:0,0:0:0:0:
117,384,204284,5,8,0:0:0:0:
205,273,206006,6,0,P|113:324|23:259,1,224.399993151856,14|0,0:0|0:0,0:0:0:0:
128,0,206375,2,0,B|116:224,1,224.399993151856,10|0,0:0|0:0,0:0:0:0:
317,384,206743,2,0,P|343:330|347:268,1,112.199996575928,10|0,0:0|0:0,0:0:0:0:
270,26,206989,2,0,P|246:76|239:132,1,112.199996575928,10|0,0:0|0:0,0:0:0:0:
504,213,207235,2,0,P|448:186|388:183,1,112.199996575928,10|0,0:0|0:0,0:0:0:0:
24,262,207481,6,0,L|195:276,1,168.299994863892,14|0,0:0|0:0,0:0:0:0:
221,279,207727,1,0,0:0:0:0:
270,26,207850,2,0,B|282:196|282:196|303:144,1,224.399993151856,10|0,0:0|0:0,0:0:0:0:
112,36,208219,2,0,P|118:91|143:141,1,112.199996575928,10|0,0:0|0:0,0:0:0:0:
416,177,208465,2,0,P|442:123|446:61,1,112.199996575928,10|0,0:0|0:0,0:0:0:0:
221,279,208711,2,0,P|227:334|252:384,1,112.199996575928,10|0,0:0|0:0,0:0:0:0:
507,227,208957,38,0,L|283:207,1,224.399993151856,14|0,0:0|0:0,0:0:0:0:
62,61,209325,2,0,P|75:177|25:270,1,224.399993151856,10|0,0:0|0:0,0:0:0:0:
168,85,209694,2,0,P|223:85|276:103,1,112.199996575928,10|0,0:0|0:0,0:0:0:0:
216,366,209940,2,0,P|197:313|197:257,1,112.199996575928,10|0,0:0|0:0,0:0:0:0:
488,227,210186,2,0,P|435:244|379:245,1,112.199996575928,10|0,0:0|0:0,0:0:0:0:
331,0,210432,6,0,L|320:171,1,168.299994863892,14|0,0:0|0:0,0:0:0:0:
317,197,210678,1,0,0:0:0:0:
458,127,210801,1,2,0:0:0:0:
168,85,210924,1,0,0:0:0:0:
342,214,211047,1,0,0:0:0:0:
142,68,211170,2,0,P|142:123|160:176,1,112.199996575928,10|0,0:0|0:0,0:0:0:0:
241,384,211416,2,0,P|259:331|259:275,1,112.199996575928,10|0,0:0|0:0,0:0:0:0:
9,282,211661,2,0,P|61:300|117:300,1,112.199996575928,10|0,0:0|0:0,0:0:0:0:
512,127,211907,38,0,B|389:161|419:105|288:127,1,224.399993151856,14|0,0:0|0:0,0:0:0:0:
348,309,212276,2,0,P|396:243|295:238,1,224.399993151856,10|0,0:0|0:0,0:0:0:0:
476,275,212645,2,0,P|471:219|447:168,1,112.199996575928,10|0,0:0|0:0,0:0:0:0:
149,93,212891,2,0,P|125:143|120:199,1,112.199996575928,10|0,0:0|0:0,0:0:0:0:
308,376,213137,2,0,P|303:320|279:269,1,112.199996575928,10|0,0:0|0:0,0:0:0:0:
2,345,213383,6,0,P|76:333|171:339,1,168.299994863892,14|0,0:0|0:0,0:0:0:0:
198,347,213629,1,0,0:0:0:0:
70,172,213752,2,0,B|57:195|56:226|56:226|9:142|59:67,1,224.399993151856,10|0,0:0|0:0,0:0:0:0:
259,200,214120,2,0,P|206:218|150:217,1,112.199996575928,10|0,0:0|0:0,0:0:0:0:
186,2,214366,2,0,P|241:1|294:19,1,112.199996575928,10|0,0:0|0:0,0:0:0:0:
512,116,214612,2,0,P|459:134|403:133,1,112.199996575928,10|0,0:0|0:0,0:0:0:0:
129,109,214858,38,0,L|134:277,1,168.299994863892,14|0,0:0|0:0,0:0:0:0:
135,307,215104,1,0,0:0:0:0:
27,236,215227,1,2,0:0:0:0:
265,275,215350,1,0,0:0:0:0:
0,232,215473,1,0,0:0:0:0:
351,181,215596,2,0,P|299:197|240:195,1,112.199996575928,10|0,0:0|0:0,0:0:0:0:
0,23,215842,2,0,P|52:7|111:9,1,112.199996575928,10|0,0:0|0:0,0:0:0:0:
512,40,216088,2,0,P|460:56|401:54,1,112.199996575928,10|0,0:0|0:0,0:0:0:0:
255,20,216334,6,0,P|271:72|269:130,1,112.199996575928,14|0,0:0|0:0,0:0:0:0:
157,383,216579,1,2,0:0:0:0:
261,319,216702,2,0,P|243:266|243:210,1,112.199996575928,10|0,0:0|0:0,0:0:0:0:
512,40,216948,1,2,0:0:0:0:
475,129,217071,2,0,P|419:129|366:147,1,112.199996575928,10|0,0:0|0:0,0:0:0:0:
405,384,217317,5,2,0:0:0:0:
493,270,217440,1,2,0:0:0:0:
475,129,217563,1,2,0:0:0:0:
379,15,217686,1,2,0:0:0:0:
174,145,217809,38,0,P|271:196|366:146,1,224.399993151856,14|0,0:0|0:0,0:0:0:0:
0,0,218178,2,0,L|14:223,1,224.399993151856,10|0,0:0|0:0,0:0:0:0:
358,296,218547,2,0,P|306:277|250:278,1,112.199996575928,10|0,0:0|0:0,0:0:0:0:
7,372,218793,2,0,P|62:373|115:355,1,112.199996575928,10|0,0:0|0:0,0:0:0:0:
135,23,219038,2,0,P|117:75|118:131,1,112.199996575928,10|0,0:0|0:0,0:0:0:0:
478,122,219284,38,0,L|310:127,1,168.299994863892,14|0,0:0|0:0,0:0:0:0:
279,130,219530,1,0,0:0:0:0:
336,381,219653,2,0,B|344:212|344:212|313:257,1,224.399993151856,10|0,0:0|0:0,0:0:0:0:
512,257,220022,2,0,P|512:201|494:148,1,112.199996575928,10|0,0:0|0:0,0:0:0:0:
114,253,220268,2,0,P|112:308|131:361,1,112.199996575928,10|0,0:0|0:0,0:0:0:0:
279,129,220514,2,0,P|280:74|262:21,1,112.199996575928,10|0,0:0|0:0,0:0:0:0:
199,189,220760,6,0,P|300:226|374:152,1,224.399993151856,14|0,0:0|0:0,0:0:0:0:
107,29,221129,2,0,L|115:254,1,224.399993151856,10|0,0:0|0:0,0:0:0:0:
351,334,221498,2,0,P|298:351|242:351,1,112.199996575928,10|0,0:0|0:0,0:0:0:0:
22,183,221743,2,0,P|4:236|4:291,1,112.199996575928,10|0,0:0|0:0,0:0:0:0:
254,123,221989,2,0,P|255:67|237:14,1,112.199996575928,10|0,0:0|0:0,0:0:0:0:
111,357,222235,38,0,B|228:330|215:386|332:357,1,224.399993151856,14|0,0:0|0:0,0:0:0:0:
107,203,222604,2,0,P|168:269|241:267,1,168.299994863892,10|0,0:0|0:0,0:0:0:0:
268,254,222850,1,0,0:0:0:0:
219,68,222973,2,0,P|201:121|202:177,1,112.199996575928,10|0,0:0|0:0,0:0:0:0:
478,133,223219,2,0,P|422:132|369:150,1,112.199996575928,10|0,0:0|0:0,0:0:0:0:
406,384,223465,2,0,P|406:328|388:275,1,112.199996575928,10|0,0:0|0:0,0:0:0:0:
0,231,223711,6,0,L|224:246,1,224.399993151856,14|0,0:0|0:0,0:0:0:0:
219,68,224079,2,0,P|164:161|224:246,1,224.399993151856,10|0,0:0|0:0,0:0:0:0:
371,173,224448,2,0,P|318:154|262:155,1,112.199996575928,10|0,0:0|0:0,0:0:0:0:
76,338,224694,2,0,P|131:337|184:319,1,112.199996575928,10|0,0:0|0:0,0:0:0:0:
78,48,224940,2,0,P|77:103|96:156,1,112.199996575928,10|0,0:0|0:0,0:0:0:0:
465,140,225186,38,0,L|296:152,1,168.299994863892,14|0,0:0|0:0,0:0:0:0:
262,155,225432,1,0,0:0:0:0:
512,269,225555,2,0,L|288:253,1,224.399993151856,10|0,0:0|0:0,0:0:0:0:
116,383,225924,2,0,P|134:330|133:274,1,112.199996575928,10|0,0:0|0:0,0:0:0:0:
28,122,226170,2,0,P|9:69|10:13,1,112.199996575928,10|0,0:0|0:0,0:0:0:0:
319,8,226416,2,0,P|320:63|301:116,1,112.199996575928,10|0,0:0|0:0,0:0:0:0:
256,361,226661,6,0,P|217:287|245:206,1,168.299994863892,14|0,0:0|0:0,0:0:0:0:
259,181,226907,1,0,0:0:0:0:
512,269,227030,2,0,L|344:278,1,168.299994863892,10|0,0:0|0:0,0:0:0:0:
314,279,227276,1,0,0:0:0:0:
371,0,227399,2,0,L|363:114,1,112.199996575928,10|0,0:0|0:0,0:0:0:0:
177,383,227645,2,0,L|184:271,1,112.199996575928,10|0,0:0|0:0,0:0:0:0:
73,0,227891,2,0,L|65:111,1,112.199996575928,10|0,0:0|0:0,0:0:0:0:
353,139,228137,38,0,P|301:121|245:122,1,112.199996575928,14|0,0:0|0:0,0:0:0:0:
58,203,228383,1,0,0:0:0:0:
363,111,228506,2,0,P|311:93|255:94,1,112.199996575928,10|0,0:0|0:0,0:0:0:0:
32,218,228752,1,0,0:0:0:0:
155,322,228875,2,0,P|136:269|138:213,1,112.199996575928,10|0,0:0|0:0,0:0:0:0:
278,71,229120,1,2,0:0:0:0:
8,233,229243,1,0,0:0:0:0:
303,56,229366,1,0,0:0:0:0:
54,313,230903,37,8,1:0:0:0:
82,319,230965,1,8,1:0:0:0:
110,325,231026,1,8,1:0:0:0:
138,331,231088,1,8,1:0:0:0:
450,60,232317,38,0,P|456:83|456:105,1,46.75
422,180,232563,2,0,P|468:185|512:169,1,93.5,8|0,0:0|0:0,0:0:0:0:
377,87,232932,2,0,P|333:71|287:76,1,93.5,8|0,0:0|0:0,0:0:0:0:
174,52,233793,6,0,P|171:28|173:6,1,46.75
223,110,234038,2,0,P|175:126|134:116,1,93.5,8|0,0:0|0:0,0:0:0:0:
347,309,235268,38,0,P|344:333|346:355,1,46.75
396,251,235514,2,0,P|348:235|307:245,1,93.5,8|0,0:0|0:0,0:0:0:0:
256,326,235883,2,0,P|208:342|167:332,1,93.5,8|0,0:0|0:0,0:0:0:0:
235,198,236743,6,0,P|232:174|234:152,1,46.75
341,133,236989,2,0,L|245:126,1,93.5,8|0,0:0|0:0,0:0:0:0:
108,324,238219,38,0,P|132:327|154:325,1,46.75
83,218,238465,2,0,L|80:315,1,93.5,8|0,0:0|0:0,0:0:0:0:
206,240,238834,2,0,L|203:143,1,93.5,8|0,0:0|0:0,0:0:0:0:
148,85,239694,6,0,P|124:82|101:85,1,46.75
79,194,239940,2,0,L|76:100,1,93.5,8|0,0:0|0:0,0:0:0:0:
305,91,241170,38,0,L|304:140,1,46.75
386,186,241416,2,0,L|387:93,1,93.5,8|0,0:0|0:0,0:0:0:0:
227,37,241784,2,0,L|224:134,1,93.5,8|0,0:0|0:0,0:0:0:0:
369,377,242645,6,0,P|363:350|364:321,1,46.75
429,265,242891,2,0,B|356:223|301:265|301:265|321:187|305:122|305:122|264:149|217:139|217:139|214:165|225:185,1,420.75,12|0,0:0|0:0,0:0:0:0:
302,265,244120,2,0,P|301:288|295:311,1,46.75,0|0,0:0|0:0,0:0:0:0:
190,363,244366,38,0,P|178:317|176:271,1,93.5,12|0,0:0|0:0,0:0:0:0:
192,138,244735,2,0,B|152:191|176:272|176:272|128:259|85:275|85:275|87:247|80:220,1,280.5,12|0,0:0|0:0,0:0:0:0:
89,99,245596,2,0,P|90:122|96:145,1,46.75,0|0,0:0|0:0,0:0:0:0:
176,271,245842,6,0,B|245:237|311:273|311:273|300:220|319:182|319:182|304:171|274:176|274:176|292:132|276:85|276:85|298:98|325:98,1,420.75,12|0,0:0|0:0,0:0:0:0:
365,188,247071,2,0,P|342:181|317:183,1,46.75,0|0,0:0|0:0,0:0:0:0:
176,271,247317,38,0,P|217:257|268:257,1,93.5,12|0,0:0|0:0,0:0:0:0:
357,377,247686,2,0,B|361:335|348:306|348:306|368:311|368:311|354:286|348:268|348:268|384:230|365:182|365:182|339:188|316:182,1,280.5,12|0,0:0|0:0,0:0:0:0:
428,269,248547,2,0,P|405:275|383:273,1,46.75,0|0,0:0|0:0,0:0:0:0:
318,182,248793,6,0,B|403:218|452:191|452:191|429:146|442:98|442:98|418:111|404:124|404:124|389:74|425:39|425:39|405:48|378:44,1,420.75,12|0,0:0|0:0,0:0:0:0:
285,73,250022,2,0,P|307:83|329:86,1,46.75,0|0,0:0|0:0,0:0:0:0:
318,182,250268,38,0,P|267:171|225:180,1,93.5,12|0,0:0|0:0,0:0:0:0:
190,47,250637,2,0,B|228:94|227:179|227:179|251:130|295:119|295:119|293:91|281:60,1,280.5,12|0,0:0|0:0,0:0:0:0:
227,179,251498,2,0,P|226:203|231:227,1,46.75,0|0,0:0|0:0,0:0:0:0:
306,264,251743,6,0,B|250:336|183:295|183:295|172:346|219:373|219:373|172:346|128:354|128:354|105:325|120:266,1,420.75,12|0,0:0|0:0,0:0:0:0:
34,183,252973,2,0,P|31:206|34:234,1,46.75,0|0,0:0|0:0,0:0:0:0:
88,115,253219,38,0,P|46:97|-2:105,1,93.5,12|0,0:0|0:0,0:0:0:0:
34,183,253588,2,0,B|23:214|46:275|46:275|70:272|92:278|92:278|106:256|109:236|109:236|128:245|148:236|148:236|173:247|200:236|200:236|223:248|244:236|244:236|269:249|290:237,1,374,12|0,0:0|0:0,0:0:0:0:
201,316,254694,6,4,P|196:292|199:269,1,46.75
157,347,260473,53,8,0:0:0:0:
186,357,260534,1,8,0:0:0:0:
217,366,260596,2,0,P|185:305|187:236,1,140.250005350113,2|0,0:0|0:0,0:0:0:0:
88,208,260965,2,0,P|54:218|16:217,1,70.1250026750566,10|0,0:0|0:0,0:0:0:0:
182,22,261211,1,8,0:0:0:0:
136,106,261334,2,0,P|170:105|204:115,1,70.1250026750566,10|0,0:0|0:0,0:0:0:0:
291,167,261579,2,0,P|325:167|359:157,1,70.1250026750566,10|0,0:0|0:0,0:0:0:0:
443,104,261825,2,0,P|477:103|511:113,1,70.1250026750566,10|0,0:0|0:0,0:0:0:0:
357,10,262071,38,0,P|389:71|387:140,1,140.250005350113,2|0,0:0|0:0,0:0:0:0:
356,231,262440,2,0,P|355:265|365:299,1,70.1250026750566,10|0,0:0|0:0,0:0:0:0:
126,309,262686,1,8,0:0:0:0:
235,371,262809,2,0,P|244:337|244:302,1,70.1250026750566,10|0,0:0|0:0,0:0:0:0:
213,216,263055,2,0,P|203:182|203:147,1,70.1250026750566,10|0,0:0|0:0,0:0:0:0:
246,69,263301,2,0,P|255:35|255:0,1,70.1250026750566,10|0,0:0|0:0,0:0:0:0:
21,113,263547,6,0,P|82:81|151:83,1,140.250005350113,2|0,0:0|0:0,0:0:0:0:
291,144,263916,2,0,P|352:176|421:174,1,140.250005350113,2|0,0:0|0:0,0:0:0:0:
512,276,264284,2,0,P|477:275|443:285,1,70.1250026750566,10|0,0:0|0:0,0:0:0:0:
356,335,264530,2,0,P|321:335|287:325,1,70.1250026750566,10|0,0:0|0:0,0:0:0:0:
201,286,264776,2,0,P|166:285|132:295,1,70.1250026750566,10|0,0:0|0:0,0:0:0:0:
67,384,265022,38,0,P|99:323|97:254,1,140.250005350113,2|0,0:0|0:0,0:0:0:0:
31,130,265391,2,0,P|-1:69|1:0,1,140.250005350113,2|0,0:0|0:0,0:0:0:0:
116,39,265760,2,0,P|150:38|184:48,1,70.1250026750566,10|0,0:0|0:0,0:0:0:0:
264,224,266006,2,0,P|253:190|253:155,1,70.1250026750566,10|0,0:0|0:0,0:0:0:0:
398,56,266252,2,0,P|364:66|329:65,1,70.1250026750566,10|0,0:0|0:0,0:0:0:0:
416,244,267973,6,0,B|342:261|351:226|278:244,1,140.250005350113,0|0,0:0|0:0,0:0:0:0:
474,308,268711,2,0,P|501:246|478:182,1,140.250005350113,0|0,0:0|0:0,0:0:0:0:
335,114,269448,38,0,L|193:118,1,140.250005350113,0|0,0:0|0:0,0:0:0:0:
132,53,270186,2,0,P|108:117|135:180,1,140.250005350113,0|0,0:0|0:0,0:0:0:0:
254,246,270924,5,0,0:0:0:0:
254,246,271170,2,0,P|218:259|187:260,1,70.1250026750566,0|0,0:0|0:0,0:0:0:0:
97,362,271661,2,0,P|109:329|110:294,2,70.1250026750566,0|0|0,0:0|0:0|0:0,0:0:0:0:
193,345,272399,38,0,P|261:359|332:348,1,140.250005350113
391,264,273137,2,0,P|377:196|388:125,1,140.250005350113
439,177,273875,6,0,B|404:188|380:214|380:214|358:185|323:177|323:177|325:139|303:111|303:111|332:88|343:55|343:55|381:66|414:55,1,350.625013375283
388,127,275350,38,0,B|351:114|319:123|319:123|293:104|281:66|281:66|248:81|212:73|212:73|214:102|239:137|239:137|209:118|174:116,1,350.625013375283
238,0,276825,5,0,0:0:0:0:
239,137,277071,2,0,P|237:171|225:204,1,70.1250026750566
294,329,277563,2,0,P|289:313|289:295,1,35.0625013375283,0|0,0:0|0:0,0:0:0:0:
396,232,277809,2,0,P|380:237|362:237,1,35.0625013375283,0|0,0:0|0:0,0:0:0:0:
206,224,278055,2,0,P|222:219|240:219,1,35.0625013375283,0|0,0:0|0:0,0:0:0:0:
470,314,278301,37,0,0:0:0:0:
12,56,278916,5,2,0:0:0:0:
6,78,278977,1,2,0:0:0:0:
0,100,279038,2,0,P|45:110|93:101,1,93.5,2|0,0:0|0:0,0:0:0:0:
113,92,279223,1,2,0:0:0:0:
134,83,279284,1,2,0:0:0:0:
338,205,279407,1,2,0:0:0:0:
240,0,279530,1,2,0:0:0:0:
124,205,279653,1,2,0:0:0:0:
272,125,279776,6,0,B|398:95|384:156|511:125,1,243.099988871766,14|0,0:0|0:0,0:0:0:0:
335,26,280145,2,0,B|306:106|338:205|338:205|322:176|298:156,1,243.099988871766,10|0,0:0|0:0,0:0:0:0:
443,266,280514,2,0,P|385:286|325:285,1,121.549994435883,10|0,0:0|0:0,0:0:0:0:
181,181,280760,2,0,P|123:160|63:161,1,121.549994435883,10|0,0:0|0:0,0:0:0:0:
123,384,281006,2,0,P|143:326|142:266,1,121.549994435883,10|0,0:0|0:0,0:0:0:0:
48,136,281252,6,0,P|27:78|28:18,1,121.549994435883,14|0,0:0|0:0,0:0:0:0:
353,87,281498,1,0,0:0:0:0:
125,59,281620,1,2,0:0:0:0:
384,90,281743,1,0,0:0:0:0:
181,181,281866,1,0,0:0:0:0:
283,8,281989,2,0,L|405:-1,1,121.549994435883,10|0,0:0|0:0,0:0:0:0:
512,262,282235,2,0,L|390:253,1,121.549994435883,10|0,0:0|0:0,0:0:0:0:
165,206,282481,2,0,L|43:215,1,121.549994435883,10|0,0:0|0:0,0:0:0:0:
212,357,282727,38,0,L|334:366,1,121.549994435883,14|0,0:0|0:0,0:0:0:0:
297,193,282973,1,0,0:0:0:0:
142,300,283096,1,2,0:0:0:0:
327,194,283219,1,0,0:0:0:0:
113,298,283342,1,0,0:0:0:0:
134,75,283465,2,0,P|191:95|251:94,1,121.549994435883,10|0,0:0|0:0,0:0:0:0:
392,20,283711,2,0,P|449:0|509:0,1,121.549994435883,10|0,0:0|0:0,0:0:0:0:
512,202,283957,2,0,P|451:202|394:182,1,121.549994435883,10|0,0:0|0:0,0:0:0:0:
172,272,284202,6,0,P|232:271|289:291,1,121.549994435883,14|0,0:0|0:0,0:0:0:0:
383,344,284448,1,0,0:0:0:0:
373,147,284571,1,2,0:0:0:0:
387,376,284694,1,0,0:0:0:0:
301,201,284817,1,0,0:0:0:0:
503,323,284940,2,0,L|512:201,1,121.549994435883,10|0,0:0|0:0,0:0:0:0:
364,25,285186,2,0,L|373:147,1,121.549994435883,10|0,0:0|0:0,0:0:0:0:
237,238,285432,2,0,L|228:360,1,121.549994435883,10|0,0:0|0:0,0:0:0:0:
61,126,285678,38,0,B|188:157|174:96|300:126,1,243.099988871766,14|0,0:0|0:0,0:0:0:0:
144,384,286047,2,0,P|90:275|124:165,1,243.099988871766,10|0,0:0|0:0,0:0:0:0:
300,126,286416,2,0,P|360:126|417:106,1,121.549994435883,10|0,0:0|0:0,0:0:0:0:
194,16,286661,2,0,P|193:76|213:133,1,121.549994435883,10|0,0:0|0:0,0:0:0:0:
324,241,286907,2,0,P|324:301|304:358,1,121.549994435883,10|0,0:0|0:0,0:0:0:0:
82,353,287153,6,0,P|61:296|62:235,1,121.549994435883,14|0,0:0|0:0,0:0:0:0:
204,223,287399,1,0,0:0:0:0:
13,115,287522,1,2,0:0:0:0:
229,238,287645,1,0,0:0:0:0:
166,32,287768,1,0,0:0:0:0:
29,290,287891,2,0,P|85:310|146:309,1,121.549994435883,10|0,0:0|0:0,0:0:0:0:
301,176,288137,2,0,P|357:155|418:156,1,121.549994435883,10|0,0:0|0:0,0:0:0:0:
512,321,288383,2,0,P|451:321|394:301,1,121.549994435883,10|0,0:0|0:0,0:0:0:0:
376,30,288629,38,0,P|432:9|493:10,1,121.549994435883,14|0,0:0|0:0,0:0:0:0:
373,208,288875,1,0,0:0:0:0:
279,11,288998,1,2,0:0:0:0:
371,239,289120,2,0,L|362:361,1,121.549994435883,10|0,0:0|0:0,0:0:0:0:
151,384,289366,2,0,L|142:262,1,121.549994435883,10|0,0:0|0:0,0:0:0:0:
0,201,289612,2,0,L|9:79,1,121.549994435883,10|0,0:0|0:0,0:0:0:0:
197,8,289858,2,0,L|206:130,1,121.549994435883,10|0,0:0|0:0,0:0:0:0:
292,298,290104,6,0,L|301:176,1,121.549994435883,14|0,0:0|0:0,0:0:0:0:
396,2,290350,1,0,0:0:0:0:
509,96,290473,2,0,P|448:95|391:115,1,121.549994435883,10|0,0:0|0:0,0:0:0:0:
433,377,290719,1,0,0:0:0:0:
320,283,290842,2,0,P|380:283|437:263,1,121.549994435883,10|0,0:0|0:0,0:0:0:0:
368,134,291088,1,2,0:0:0:0:
433,377,291211,1,2,0:0:0:0:
512,183,291334,1,2,0:0:0:0:
191,244,291457,1,2,0:0:0:0:
391,115,291579,38,0,B|405:296|405:296|372:242,1,243.099988871766,14|0,0:0|0:0,0:0:0:0:
180,99,291948,2,0,P|296:71|415:98,1,243.099988871766,10|0,0:0|0:0,0:0:0:0:
222,238,292317,2,0,P|222:178|202:121,1,121.549994435883,10|0,0:0|0:0,0:0:0:0:
28,5,292563,2,0,P|7:62|7:122,1,121.549994435883,10|0,0:0|0:0,0:0:0:0:
102,263,292809,2,0,P|122:320|122:380,1,121.549994435883,10|0,0:0|0:0,0:0:0:0:
180,99,293055,6,0,P|237:78|297:78,1,121.549994435883,14|0,0:0|0:0,0:0:0:0:
338,224,293301,1,0,0:0:0:0:
76,178,293424,1,2,0:0:0:0:
367,229,293547,1,0,0:0:0:0:
225,48,293670,1,0,0:0:0:0:
102,263,293793,2,0,P|159:242|219:242,1,121.549994435883,10|0,0:0|0:0,0:0:0:0:
395,238,294038,2,0,P|455:237|512:217,1,121.549994435883,10|0,0:0|0:0,0:0:0:0:
491,384,294284,2,0,P|434:363|373:363,1,121.549994435883,10|0,0:0|0:0,0:0:0:0:
100,363,294530,38,0,P|157:383|218:384,1,121.549994435883,14|0,0:0|0:0,0:0:0:0:
141,117,294776,1,0,0:0:0:0:
107,335,294899,1,2,0:0:0:0:
146,87,295022,1,0,0:0:0:0:
251,274,295145,1,0,0:0:0:0:
37,78,295268,2,0,P|94:57|154:57,1,121.549994435883,10|0,0:0|0:0,0:0:0:0:
366,149,295514,2,0,P|423:169|483:169,1,121.549994435883,10|0,0:0|0:0,0:0:0:0:
248,0,295760,2,0,P|268:57|268:117,1,121.549994435883,10|0,0:0|0:0,0:0:0:0:
159,369,296006,6,0,P|159:308|180:252,1,121.549994435883,14|0,0:0|0:0,0:0:0:0:
420,297,296252,1,0,0:0:0:0:
188,156,296375,1,2,0:0:0:0:
444,312,296498,1,0,0:0:0:0:
366,149,296620,1,0,0:0:0:0:
180,252,296743,2,0,L|58:243,1,121.549994435883,10|0,0:0|0:0,0:0:0:0:
0,93,296989,2,0,L|122:84,1,121.549994435883,10|0,0:0|0:0,0:0:0:0:
289,15,297235,2,0,L|411:24,1,121.549994435883,10|0,0:0|0:0,0:0:0:0:
454,338,297481,38,0,P|435:219|467:103,1,243.099988871766,14|0,0:0|0:0,0:0:0:0:
170,172,297850,2,0,L|413:161,1,243.099988871766,10|0,0:0|0:0,0:0:0:0:
301,384,298219,2,0,P|280:326|280:266,1,121.549994435883,10|0,0:0|0:0,0:0:0:0:
363,128,298465,2,0,P|383:70|383:10,1,121.549994435883,10|0,0:0|0:0,0:0:0:0:
231,41,298711,2,0,P|170:40|113:20,1,121.549994435883,10|0,0:0|0:0,0:0:0:0:
0,177,298957,6,0,P|60:177|117:197,1,121.549994435883,14|0,0:0|0:0,0:0:0:0:
311,157,299202,1,0,0:0:0:0:
78,285,299325,1,2,0:0:0:0:
338,143,299448,1,0,0:0:0:0:
234,351,299571,1,0,0:0:0:0:
106,175,299694,2,0,L|115:53,1,121.549994435883,10|0,0:0|0:0,0:0:0:0:
312,16,299940,2,0,L|321:138,1,121.549994435883,10|0,0:0|0:0,0:0:0:0:
417,260,300186,2,0,L|408:382,1,121.549994435883,10|0,0:0|0:0,0:0:0:0:
208,337,300432,38,0,L|199:215,1,121.549994435883,14|0,0:0|0:0,0:0:0:0:
68,275,300678,1,0,0:0:0:0:
329,226,300801,1,2,0:0:0:0:
38,281,300924,1,0,0:0:0:0:
186,110,301047,1,0,0:0:0:0:
126,370,301170,2,0,P|186:369|243:349,1,121.549994435883,10|0,0:0|0:0,0:0:0:0:
329,226,301416,2,0,P|389:226|446:246,1,121.549994435883,10|0,0:0|0:0,0:0:0:0:
401,384,301661,2,0,P|401:323|421:266,1,121.549994435883,10|0,0:0|0:0,0:0:0:0:
481,0,301907,38,0,P|502:56|503:117,1,121.549994435883,14|0,0:0|0:0,0:0:0:0:
272,152,302153,1,0,0:0:0:0:
176,39,302276,2,0,L|298:48,1,121.549994435883,10|0,0:0|0:0,0:0:0:0:
96,263,302522,1,2,0:0:0:0:
0,158,302645,2,0,L|122:167,1,121.549994435883,10|0,0:0|0:0,0:0:0:0:
271,317,302891,1,2,0:0:0:0:
325,53,303014,1,2,0:0:0:0:
439,264,303137,1,2,0:0:0:0:
96,263,303260,1,2,0:0:0:0:
272,152,303383,6,0,B|398:122|384:183|511:152,1,243.099988871766,14|0,0:0|0:0,0:0:0:0:
226,64,303752,2,0,P|175:158|259:250,1,243.099988871766,10|0,0:0|0:0,0:0:0:0:
226,64,304120,2,0,L|92:73,1,121.549994435883,10|0,0:0|0:0,0:0:0:0:
393,160,304366,2,0,L|259:150,1,121.549994435883,10|0,0:0|0:0,0:0:0:0:
96,263,304612,2,0,L|229:253,1,121.549994435883,10|0,0:0|0:0,0:0:0:0:
328,379,304858,5,14,0:0:0:0:
393,160,304981,1,0,0:0:0:0:
96,263,305104,1,0,0:0:0:0:
421,150,305227,1,2,0:0:0:0:
202,137,305350,1,0,0:0:0:0:
328,379,305473,1,0,0:0:0:0:
447,140,305596,2,0,L|437:6,1,121.549994435883,10|0,0:0|0:0,0:0:0:0:
317,249,305842,2,0,L|326:115,1,121.549994435883,10|0,0:0|0:0,0:0:0:0:
194,16,306088,2,0,L|203:149,1,121.549994435883,10|0,0:0|0:0,0:0:0:0:
119,369,306334,38,0,P|176:348|237:347,1,121.549994435883,14|0,0:0|0:0,0:0:0:0:
409,147,306579,1,0,0:0:0:0:
434,271,306702,2,0,P|377:250|316:248,1,121.549994435883,10|0,0:0|0:0,0:0:0:0:
148,262,306948,1,0,0:0:0:0:
80,151,307071,2,0,L|201:159,1,121.549994435883,10|0,0:0|0:0,0:0:0:0:
0,276,307317,2,0,L|133:266,1,121.549994435883,10|0,0:0|0:0,0:0:0:0:
357,45,307563,2,0,L|223:54,1,121.549994435883,10|0,0:0|0:0,0:0:0:0:
43,61,307809,6,0,B|40:243|40:243|68:174,1,243.099988871766,14|0,0:0|0:0,0:0:0:0:
205,57,308178,1,2,0:0:0:0:
171,198,308301,1,0,0:0:0:0:
213,27,308424,1,0,0:0:0:0:
329,166,308547,1,2,0:0:0:0:
62,186,308670,1,0,0:0:0:0:
359,169,308793,1,2,0:0:0:0:
124,47,308916,1,0,0:0:0:0:
256,280,309038,2,0,P|316:279|373:258,1,121.549994435883,10|0,0:0|0:0,0:0:0:0:
483,93,309284,38,0,B|486:275|486:275|458:206,1,243.099988871766,14|0,0:0|0:0,0:0:0:0:
124,47,309653,2,0,L|366:32,1,243.099988871766,10|0,0:0|0:0,0:0:0:0:
113,205,310022,2,0,L|122:71,1,121.549994435883,10|0,0:0|0:0,0:0:0:0:
231,356,310268,2,0,L|221:222,1,121.549994435883,10|0,0:0|0:0,0:0:0:0:
305,40,310514,2,0,L|295:173,1,121.549994435883,10|0,0:0|0:0,0:0:0:0:
450,376,310760,6,0,P|430:320|429:259,1,121.549994435883,14|0,0:0|0:0,0:0:0:0:
494,124,311006,1,0,0:0:0:0:
372,166,311129,2,0,P|393:109|394:48,1,121.549994435883,10|0,0:0|0:0,0:0:0:0:
167,260,311375,1,0,0:0:0:0:
105,156,311498,2,0,L|238:165,1,121.549994435883,10|0,0:0|0:0,0:0:0:0:
17,274,311743,2,0,L|150:264,1,121.549994435883,10|0,0:0|0:0,0:0:0:0:
362,373,311989,2,0,L|228:363,1,121.549994435883,10|0,0:0|0:0,0:0:0:0:
278,26,312235,38,0,P|239:129|328:209,1,243.099988871766,14|0,0:0|0:0,0:0:0:0:
43,80,312604,2,0,B|226:93|226:93|166:59,1,243.099988871766,10|0,0:0|0:0,0:0:0:0:
326,208,312973,2,0,L|204:199,1,121.549994435883,10|0,0:0|0:0,0:0:0:0:
456,99,313219,2,0,L|322:108,1,121.549994435883,10|0,0:0|0:0,0:0:0:0:
156,34,313465,2,0,L|289:24,1,121.549994435883,10|0,0:0|0:0,0:0:0:0:
443,228,313711,6,0,P|387:208|326:207,1,121.549994435883,14|0,0:0|0:0,0:0:0:0:
456,99,313957,1,0,0:0:0:0:
512,384,314079,2,0,P|455:363|394:362,1,121.549994435883,10|0,0:0|0:0,0:0:0:0:
262,376,314325,1,2,0:0:0:0:
325,151,314448,1,2,0:0:0:0:
188,238,314571,1,0,0:0:0:0:
456,99,314694,1,2,0:0:0:0:
191,97,314817,1,0,0:0:0:0:
512,236,314940,1,2,0:0:0:0:
390,0,315063,1,0,0:0:0:0:
325,151,315186,22,0,B|226:175|237:127|139:151,1,187,14|0,0:0|0:0,0:0:0:0:
380,78,315555,1,10,0:0:0:0:
276,277,315678,2,0,P|320:260|368:259,1,93.5,0|0,0:0|0:0,0:0:0:0:
304,361,315924,2,0,P|199:316|256:193,1,280.5,10|0,0:0|0:0,0:0:0:0:
456,192,316416,1,2,0:0:0:0:
485,229,316477,1,2,0:0:0:0:
502,273,316538,1,2,0:0:0:0:
505,321,316600,1,2,0:0:0:0:
499,367,316661,38,0,P|477:376|454:378,1,46.75,14|0,0:0|0:0,0:0:0:0:
365,258,316784,2,0,P|388:260|411:270,1,46.75,2|0,0:0|0:0,0:0:0:0:
304,361,316907,2,0,P|257:361|213:376,1,93.5,10|2,0:0|0:0,0:0:0:0:
97,261,317153,2,0,P|52:276|6:276,1,93.5,10|0,0:0|0:0,0:0:0:0:
37,67,317399,2,0,P|83:67|127:83,1,93.5,10|0,0:0|0:0,0:0:0:0:
227,169,317645,2,0,P|273:168|317:152,1,93.5,10|0,0:0|0:0,0:0:0:0:
512,231,317891,2,0,P|468:214|421:213,1,93.5,10|0,0:0|0:0,0:0:0:0:
230,383,318137,6,0,B|206:284|254:295|230:198,1,187,14|0,0:0|0:0,0:0:0:0:
157,244,318506,2,0,P|240:285|309:233,1,187,10|0,0:0|0:0,0:0:0:0:
247,108,318875,2,0,P|230:151|229:198,1,93.5,10|0,0:0|0:0,0:0:0:0:
486,322,319120,2,0,P|484:275|468:231,1,93.5,10|0,0:0|0:0,0:0:0:0:
411,90,319366,2,0,P|412:43|428:-1,1,93.5,10|0,0:0|0:0,0:0:0:0:
481,143,319612,37,14,0:0:0:0:
443,170,319674,1,2,0:0:0:0:
396,175,319735,1,2,0:0:0:0:
354,154,319797,1,2,0:0:0:0:
315,127,319858,2,0,P|270:112|223:110,1,93.5,2|10,0:0|0:0,0:0:0:0:
172,299,320104,2,0,P|195:305|219:306,1,46.75,2|0,0:0|0:0,0:0:0:0:
292,216,320227,2,0,P|269:217|247:223,1,46.75,2|0,0:0|0:0,0:0:0:0:
261,384,320350,2,0,L|354:376,1,93.5,10|0,0:0|0:0,0:0:0:0:
419,259,320596,2,0,L|512:252,1,93.5,10|0,0:0|0:0,0:0:0:0:
411,90,320842,2,0,L|317:84,1,93.5,10|0,0:0|0:0,0:0:0:0:
66,39,321088,6,0,P|24:110|72:193,1,187,14|0,0:0|0:0,0:0:0:0:
245,105,321457,2,0,B|110:114|110:114|154:88,1,187,10|0,0:0|0:0,0:0:0:0:
0,276,321825,2,0,B|144:311|128:239|276:275,1,280.5,10|0,0:0|0:0,0:0:0:0:
71,192,322317,2,0,P|55:148|54:102,1,93.5,10|0,0:0|0:0,0:0:0:0:
164,41,322563,37,14,0:0:0:0:
207,25,322625,1,2,0:0:0:0:
253,18,322686,1,2,0:0:0:0:
298,24,322748,1,2,0:0:0:0:
340,44,322809,2,0,P|347:67|348:89,1,46.75,2|0,0:0|0:0,0:0:0:0:
244,158,322932,2,0,P|244:135|251:113,1,46.75,2|0,0:0|0:0,0:0:0:0:
343,173,323055,5,2,0:0:0:0:
350,194,323116,1,2,0:0:0:0:
352,216,323178,1,2,0:0:0:0:
347,238,323239,1,2,0:0:0:0:
336,258,323301,2,0,P|313:251|291:250,1,46.75,2|0,0:0|0:0,0:0:0:0:
187,348,323424,2,0,P|210:347|232:341,1,46.75,2|0,0:0|0:0,0:0:0:0:
142,224,323547,2,0,P|97:209|50:207,1,93.5,10|0,0:0|0:0,0:0:0:0:
0,65,323793,2,0,P|45:80|92:82,1,93.5,10|0,0:0|0:0,0:0:0:0:
340,44,324038,38,0,P|295:28|249:26,1,93.5,10|0,0:0|0:0,0:0:0:0:
189,101,324284,1,2,0:0:0:0:
447,31,324407,2,0,B|456:166|456:166|430:122,1,187,10|0,0:0|0:0,0:0:0:0:
512,258,324776,2,0,P|465:259|421:274,1,93.5,10|0,0:0|0:0,0:0:0:0:
278,343,325022,1,2,0:0:0:0:
235,362,325084,1,2,0:0:0:0:
189,371,325145,1,2,0:0:0:0:
141,372,325207,1,2,0:0:0:0:
94,369,325268,2,0,P|47:368|3:353,1,93.5,10|0,0:0|0:0,0:0:0:0:
57,144,325514,6,0,P|71:188|72:235,1,93.5,14|0,0:0|0:0,0:0:0:0:
237,0,325760,1,2,0:0:0:0:
343,109,325883,2,0,P|299:94|253:93,1,93.5,10|0,0:0|0:0,0:0:0:0:
291,293,326129,1,0,0:0:0:0:
185,184,326252,2,0,P|230:198|276:199,1,93.5,10|0,0:0|0:0,0:0:0:0:
446,35,326498,1,2,0:0:0:0:
458,238,326620,1,0,0:0:0:0:
475,20,326743,1,2,0:0:0:0:
432,259,326866,1,0,0:0:0:0:
304,143,326989,38,0,B|400:119|390:168|489:144,1,187,14|0,0:0|0:0,0:0:0:0:
261,68,327358,2,0,P|219:139|267:222,1,187,10|0,0:0|0:0,0:0:0:0:
204,104,327727,2,0,P|159:89|113:88,1,93.5,10|0,0:0|0:0,0:0:0:0:
52,358,327973,2,0,P|98:357|142:342,1,93.5,10|0,0:0|0:0,0:0:0:0:
266,221,328219,1,2,0:0:0:0:
300,189,328280,1,2,0:0:0:0:
343,173,328342,1,2,0:0:0:0:
390,175,328403,1,2,0:0:0:0:
434,186,328465,6,0,P|457:188|480:198,1,46.75,14|0,0:0|0:0,0:0:0:0:
492,352,328588,2,0,P|468:349|447:340,1,46.75,2|0,0:0|0:0,0:0:0:0:
363,279,328711,1,2,0:0:0:0:
266,221,328834,2,0,P|219:222|175:237,1,93.5,10|0,0:0|0:0,0:0:0:0:
136,15,329079,1,0,0:0:0:0:
26,102,329202,2,0,P|72:103|116:118,1,93.5,10|0,0:0|0:0,0:0:0:0:
240,316,329448,1,2,0:0:0:0:
221,328,329510,1,2,0:0:0:0:
200,335,329571,1,2,0:0:0:0:
177,335,329633,1,2,0:0:0:0:
154,327,329694,1,2,0:0:0:0:
195,306,329756,1,2,0:0:0:0:
241,301,329817,1,2,0:0:0:0:
284,318,329879,1,2,0:0:0:0:
322,343,329940,38,0,P|337:298|338:252,1,93.5,14|0,0:0|0:0,0:0:0:0:
265,107,330186,1,2,0:0:0:0:
253,126,330248,1,2,0:0:0:0:
246,147,330309,1,2,0:0:0:0:
246,170,330370,1,2,0:0:0:0:
259,189,330432,1,2,0:0:0:0:
277,146,330493,1,2,0:0:0:0:
280,101,330555,1,2,0:0:0:0:
261,58,330616,1,2,0:0:0:0:
223,31,330678,6,0,P|179:16|133:14,1,93.5,10|0,0:0|0:0,0:0:0:0:
129,181,330924,1,2,0:0:0:0:
141,162,330985,1,2,0:0:0:0:
148,141,331047,1,2,0:0:0:0:
148,118,331108,1,2,0:0:0:0:
134,98,331170,2,0,P|118:142|117:188,1,93.5,10|0,0:0|0:0,0:0:0:0:
163,286,331416,38,0,P|178:330|179:376,1,93.5,14|0,0:0|0:0,0:0:0:0:
34,277,331661,1,0,0:0:0:0:
275,289,331784,1,2,0:0:0:0:
71,356,331907,1,0,0:0:0:0:
152,137,332030,1,2,0:0:0:0:
291,314,332153,2,0,P|337:312|381:297,1,93.5,10|0,0:0|0:0,0:0:0:0:
422,147,332399,2,0,P|468:148|512:163,1,93.5,10|0,0:0|0:0,0:0:0:0:
417,0,332645,2,0,P|372:15|326:16,1,93.5,10|0,0:0|0:0,0:0:0:0:
281,177,332891,6,0,B|290:315|290:315|265:269,1,187,14|0,0:0|0:0,0:0:0:0:
477,301,333260,2,0,L|289:314,1,187,10|0,0:0|0:0,0:0:0:0:
28,185,333629,2,0,L|121:191,1,93.5,10|0,0:0|0:0,0:0:0:0:
130,22,333875,1,2,0:0:0:0:
153,194,333998,1,0,0:0:0:0:
106,7,334120,1,2,0:0:0:0:
298,34,334243,1,0,0:0:0:0:
235,271,334366,37,6,0:0:0:0:
255,229,334428,1,2,0:0:0:0:
259,182,334489,1,2,0:0:0:0:
246,137,334551,1,2,0:0:0:0:
220,97,334612,2,0,P|204:52|203:6,1,93.5,10|0,0:0|0:0,0:0:0:0:
370,148,334858,2,0,P|369:194|354:238,1,93.5,10|0,0:0|0:0,0:0:0:0:
470,369,335104,2,0,P|454:324|453:278,1,93.5,10|0,0:0|0:0,0:0:0:0:
484,121,335350,2,0,P|499:76|500:30,1,93.5,10|0,0:0|0:0,0:0:0:0:
202,6,335596,2,0,P|203:52|218:96,1,93.5,10|0,0:0|0:0,0:0:0:0:
476,257,335842,6,0,B|379:280|390:232|290:256,1,187,14|0,0:0|0:0,0:0:0:0:
90,376,336211,2,0,P|43:374|0:359,1,93.5,10|0,0:0|0:0,0:0:0:0:
97,60,336457,1,0,0:0:0:0:
0,170,336579,2,0,P|44:155|90:153,1,93.5,10|0,0:0|0:0,0:0:0:0:
249,210,336825,2,0,P|294:224|341:226,1,93.5,10|0,0:0|0:0,0:0:0:0:
453,29,337071,1,2,0:0:0:0:
435,71,337133,1,2,0:0:0:0:
429,117,337194,1,2,0:0:0:0:
444,160,337256,1,2,0:0:0:0:
462,202,337317,38,0,P|476:246|478:293,1,93.5,14|0,0:0|0:0,0:0:0:0:
314,382,337563,2,0,P|308:359|307:335,1,46.75,2|0,0:0|0:0,0:0:0:0:
391,232,337686,2,0,P|390:255|384:277,1,46.75,6|0,0:0|0:0,0:0:0:0:
271,228,337809,1,2,0:0:0:0:
477,293,337932,1,2,0:0:0:0:
244,219,338055,2,0,P|234:185|232:150,1,70.1250026750566,10|0,0:0|0:0,0:0:0:0:
351,89,338301,2,0,P|349:123|339:157,1,70.1250026750566,10|0,0:0|0:0,0:0:0:0:
176,297,338547,2,0,P|178:331|188:365,1,70.1250026750566,10|0,0:0|0:0,0:0:0:0:
130,89,338793,22,0,B|245:59|233:118|352:89,1,224.399993151856,14|0,0:0|0:0,0:0:0:0:
291,1,339161,2,0,L|276:224,1,224.399993151856,10|0,0:0|0:0,0:0:0:0:
460,155,339530,2,0,P|397:155|351:172,1,112.199996575928,10|0,0:0|0:0,0:0:0:0:
234,309,339776,2,0,P|181:327|125:325,1,112.199996575928,10|0,0:0|0:0,0:0:0:0:
74,26,340022,2,0,P|129:24|182:42,1,112.199996575928,10|0,0:0|0:0,0:0:0:0:
248,181,340268,6,0,P|164:202|119:145,1,168.299994863892,14|0,0:0|0:0,0:0:0:0:
121,117,340514,1,0,0:0:0:0:
497,80,340637,2,0,L|270:93,1,224.399993151856,10|0,0:0|0:0,0:0:0:0:
502,193,341006,2,0,L|390:187,1,112.199996575928,10|0,0:0|0:0,0:0:0:0:
234,282,341252,2,0,L|122:288,1,112.199996575928,10|0,0:0|0:0,0:0:0:0:
40,24,341498,2,0,L|152:30,1,112.199996575928,10|0,0:0|0:0,0:0:0:0:
291,202,341743,38,0,P|274:148|272:92,1,112.199996575928,14|0,0:0|0:0,0:0:0:0:
186,32,341989,1,2,0:0:0:0:
110,115,342112,1,2,0:0:0:0:
107,227,342235,1,2,0:0:0:0:
186,305,342358,1,2,0:0:0:0:
295,330,342481,2,0,L|409:323,1,112.199996575928,10|0,0:0|0:0,0:0:0:0:
512,176,342727,2,0,L|400:169,1,112.199996575928,10|0,0:0|0:0,0:0:0:0:
107,227,342973,2,0,L|218:233,1,112.199996575928,10|0,0:0|0:0,0:0:0:0:
419,6,343219,6,0,P|444:114|360:174,1,224.399993151856,14|0,0:0|0:0,0:0:0:0:
138,75,343588,2,0,P|247:52|356:78,1,224.399993151856,10|0,0:0|0:0,0:0:0:0:
512,279,343957,2,0,P|462:257|405:251,1,112.199996575928,10|0,0:0|0:0,0:0:0:0:
235,384,344202,2,0,P|179:378|128:355,1,112.199996575928,10|0,0:0|0:0,0:0:0:0:
129,68,344448,2,0,P|180:45|235:39,1,112.199996575928,10|0,0:0|0:0,0:0:0:0:
328,384,344694,37,14,0:0:0:0:
328,384,344817,2,0,L|320:253,1,130.899996005249,10|0,0:0|0:0,0:0:0:0:
48,0,345063,1,2,0:0:0:0:
48,0,345186,2,0,L|56:131,1,130.899996005249,10|0,0:0|0:0,0:0:0:0:
164,227,345432,1,2,0:0:0:0:
0,219,345555,2,0,L|130:228,1,130.899996005249,10|0,0:0|0:0,0:0:0:0:
421,146,345801,1,2,0:0:0:0:
301,261,345924,2,0,L|431:252,1,130.899996005249,10|0,0:0|0:0,0:0:0:0:
302,142,346170,5,6,0:0:0:0:
303,296,346293,1,2,0:0:0:0:
302,112,346416,1,2,0:0:0:0:
262,364,346538,1,2,0:0:0:0:
301,88,346661,1,2,0:0:0:0:
424,340,346784,1,2,0:0:0:0:
228,238,346907,2,0,L|97:229,1,130.899996005249,10|0,0:0|0:0,0:0:0:0:
0,384,347153,2,0,L|130:375,1,130.899996005249,10|0,0:0|0:0,0:0:0:0:
382,191,347399,2,0,L|512:200,1,130.899996005249,10|0,0:0|0:0,0:0:0:0:
142,106,347645,38,0,B|275:71|261:139|399:106,1,261.799992010498,14|0,0:0|0:0,0:0:0:0:
108,12,348014,2,0,P|45:116|129:204,1,261.799992010498,10|0,0:0|0:0,0:0:0:0:
417,384,348383,2,0,P|436:321|439:256,1,130.899996005249,10|0,0:0|0:0,0:0:0:0:
271,137,348629,2,0,P|250:74|248:9,1,130.899996005249,10|0,0:0|0:0,0:0:0:0:
512,144,348875,2,0,P|446:146|384:166,1,130.899996005249,10|0,0:0|0:0,0:0:0:0:
168,384,349120,6,0,P|187:321|189:256,1,130.899996005249,14|0,0:0|0:0,0:0:0:0:
36,184,349366,1,2,0:0:0:0:
304,233,349489,1,2,0:0:0:0:
23,154,349612,1,0,0:0:0:0:
318,259,349735,1,2,0:0:0:0:
137,70,349858,38,0,P|199:89|264:91,1,130.899996005249,14|0,0:0|0:0,0:0:0:0:
446,46,350104,1,2,0:0:0:0:
296,384,350227,1,2,0:0:0:0:
298,0,350350,5,6,0:0:0:0:
