osu file format v14

[General]
AudioFilename: audio.mp3
AudioLeadIn: 0
PreviewTime: -1
Countdown: 0
SampleSet: Soft
StackLeniency: 0.2
Mode: 1
LetterboxInBreaks: 0
WidescreenStoryboard: 1

[Editor]
Bookmarks: 25161,36964,60570,87128,110734,122538,144036,155839,167642,179445,206003,229609,242888,254691,267970,279773,303380,315183,338790,350593
DistanceSpacing: 0.7
BeatDivisor: 6
GridSize: 32
TimelineZoom: 1.7

[Metadata]
Title:Moe Ochiru Hokori -Counter raid Another D-
TitleUnicode:燃え落ちる誇り -Counter raid Another D-
Artist:Katakiri Rekka
ArtistUnicode:片霧 烈火
Creator:Alchyr
Version:Sinking Oni
Source:艦隊これくしょん -艦これ-
Tags:Empire Ensemble kyrie Kedakaki-sha-tachi no ishibumi comiket 90 c90 帝國交響楽団 気高き者達の碑 シズメシズメ shizume kantai collection kancolle doujin our pride burning down
BeatmapID:1261004
BeatmapSetID:596336

[Difficulty]
HPDrainRate:7
CircleSize:2
OverallDifficulty:6.5
ApproachRate:10
SliderMultiplier:1.60333333333
SliderTickRate:1

[Events]
//Background and Video events
0,0,"BG.jpg",0,0
//Break Periods
2,123828,143586
//Storyboard Layer 0 (Background)
//Storyboard Layer 1 (Fail)
//Storyboard Layer 2 (Pass)
//Storyboard Layer 3 (Foreground)
//Storyboard Sound Samples

[TimingPoints]
1100,245.901639344262,3,2,0,70,1,0
1100,-129.87012987013,3,2,0,70,0,0
2329,-129.87012987013,3,2,0,70,0,0
2390,-126.582278481013,3,2,0,70,0,0
2452,-123.456790123457,3,2,0,70,0,0
2513,-120.481927710843,3,2,0,70,0,0
2575,-117.647058823529,3,2,0,70,0,0
2698,-117.647058823529,3,2,0,70,0,0
3804,-117.647058823529,3,2,0,70,0,0
3866,-116.279069767442,3,2,0,70,0,0
3927,-114.942528735632,3,2,0,70,0,0
3989,-112.359550561798,3,2,0,70,0,0
4050,-109.89010989011,3,2,0,70,0,0
4173,-109.89010989011,3,2,0,70,0,0
5280,-109.89010989011,3,2,0,70,0,0
5341,-108.695652173913,3,2,0,70,0,0
5403,-107.52688172043,3,2,0,70,0,0
5464,-106.382978723404,3,2,0,70,0,0
5526,-105.263157894737,3,2,0,70,0,0
5649,-105.263157894737,3,2,0,70,0,0
6140,-100,3,1,0,70,0,0
23964,315.789473684211,3,1,0,70,1,0
23964,-76.9230769230769,3,1,0,70,0,0
24279,394.736842105263,3,1,0,70,1,8
24279,-71.4285714285714,3,1,0,70,0,8
24673,487.80487804878,3,1,0,70,1,8
24673,-66.6666666666667,3,1,0,70,0,8
25161,245.901639344262,3,1,0,70,1,0
25161,-181.818181818182,3,1,0,70,0,0
25176,-153.846153846154,3,1,0,70,0,0
26651,-133.333333333333,3,1,0,70,0,0
28127,-117.647058823529,3,1,0,70,0,0
29602,-100,3,1,0,70,0,0
30340,-90.9090909090909,3,1,0,70,0,0
31062,-100,3,1,0,70,0,0
36472,-90.9090909090909,3,1,0,70,0,0
36718,-82.6446280991736,3,1,0,70,0,0
36964,-151.515151515152,3,2,0,40,0,0
58603,-131.578947368421,3,2,0,40,0,0
58849,-113.636363636364,3,2,0,40,0,0
59095,-100,3,2,0,40,0,0
59710,-100,3,3,0,40,0,0
60079,-111.111111111111,3,3,0,40,0,0
60324,-121.951219512195,3,3,0,40,0,0
60570,-133.333333333333,3,1,0,40,0,0
84177,-133.333333333333,3,1,0,40,0,0
84300,-130.666666667,3,1,0,40,0,0
84423,-128.053333334,3,1,0,40,0,0
84546,-125.492266667,3,1,0,40,0,0
84669,-122.982421334,3,1,0,40,0,0
84792,-120.522772907,3,1,0,40,0,0
84915,-118.112317449,3,1,0,40,0,0
85038,-115.7500711,3,1,0,40,0,0
85160,-113.435069678,3,1,0,40,0,0
85283,-111.166368284,3,1,0,40,0,0
85406,-108.943040918,3,1,0,40,0,0
86882,-100,3,1,0,70,0,0
87128,-100,3,1,0,70,0,1
122538,363.636363636364,3,3,0,50,1,0
122538,-67.622950819,3,3,0,50,0,0
122901,-83.0617651923,3,3,0,50,0,0
123265,-98.5005795656,3,3,0,50,0,0
123628,320.855614973262,3,1,0,50,1,0
123628,-151.515151515152,3,1,0,50,0,0
124590,340.909090909091,3,1,0,70,1,0
142999,346.820809248555,3,1,0,70,1,0
144036,245.901639344262,3,1,0,70,1,0
144281,-133.333333333333,3,1,0,70,0,0
145265,-100,3,1,0,70,0,0
145757,-133.333333333333,3,1,0,70,0,0
146740,-100,3,1,0,70,0,0
147232,-133.333333333333,3,1,0,70,0,0
148216,-100,3,1,0,70,0,0
148708,-133.333333333333,3,1,0,70,0,0
149691,-100,3,1,0,70,0,0
150183,-133.333333333333,3,1,0,70,0,0
151167,-100,3,1,0,70,0,0
151658,-133.333333333333,3,1,0,70,0,0
152642,-100,3,1,0,70,0,0
153134,-133.333333333333,3,1,0,70,0,0
154117,-100,3,1,0,70,0,0
154609,-133.333333333333,3,1,0,70,0,0
155593,-100,3,1,0,70,0,0
206003,-100,3,1,0,70,0,1
229609,-100,3,1,0,70,0,0
230900,-166.666666666667,3,2,0,70,0,0
230962,-100,3,2,0,70,0,0
254691,-100,3,1,0,70,0,0
265265,-100,3,1,0,70,0,0
265511,-97,3,1,0,70,0,0
265757,-94.09,3,1,0,70,0,0
266003,-91.2673,3,1,0,70,0,0
266249,-88.529281,3,1,0,70,0,0
266986,-113.636363636364,3,2,0,70,0,0
267970,-133.333333333333,3,2,0,70,0,0
277068,-133.333333333333,3,2,0,70,0,0
277314,-128.205128205128,3,2,0,70,0,0
277560,-123.456790123457,3,2,0,70,0,0
277806,-119.047619047619,3,2,0,70,0,0
278052,-114.942528735632,3,2,0,70,0,0
278298,-111.111111111111,3,2,0,70,0,0
278913,-100,3,1,0,70,0,0
279773,-100,3,1,0,70,0,1
302642,-95.2380952380952,3,1,0,70,0,1
303380,-90.9090909090909,3,1,0,70,0,1
315183,-90.9090909090909,3,1,0,70,0,0
344691,-90.9090909090909,3,1,0,70,0,1
349240,-86.9565217391304,3,1,0,70,0,1
349363,-83.3333333333333,3,1,0,75,0,1
349486,-80,3,1,0,75,0,1
349609,-76.9230769230769,3,1,0,80,0,1
349732,-72.992700729927,3,1,0,80,0,1
349855,-68.9655172413793,3,1,0,90,0,1
349978,-64.5161290322581,3,1,0,90,0,1
350101,-60.6060606060606,3,1,0,90,0,1
350224,-55.5555555555556,3,1,0,90,0,1
350347,-50,3,1,0,90,0,1
350408,-50,3,1,0,90,0,0

[Colours]
Combo1 : 158,174,177
Combo2 : 128,0,0
Combo3 : 58,56,103

[HitObjects]
320,64,1100,5,8,0:0:0:0:
320,64,1222,1,8,0:0:0:0:
320,64,1468,1,8,0:0:0:0:
320,64,1714,1,8,0:0:0:0:
320,64,1837,1,8,0:0:0:0:
320,64,2083,1,8,0:0:0:0:
64,64,2329,1,0,0:0:0:0:
64,64,2390,1,0,0:0:0:0:
64,64,2452,1,0,0:0:0:0:
64,64,2513,1,0,0:0:0:0:
320,64,2575,1,8,0:0:0:0:
320,64,2698,1,8,0:0:0:0:
64,64,2821,1,0,0:0:0:0:
320,64,2944,1,8,0:0:0:0:
64,64,3190,1,0,0:0:0:0:
320,64,3313,1,8,0:0:0:0:
320,64,3559,1,8,0:0:0:0:
64,64,3804,1,0,0:0:0:0:
64,64,3866,1,0,0:0:0:0:
64,64,3927,1,0,0:0:0:0:
64,64,3989,1,0,0:0:0:0:
320,64,4050,1,8,0:0:0:0:
320,64,4173,1,8,0:0:0:0:
320,64,4419,1,8,0:0:0:0:
320,64,4665,1,8,0:0:0:0:
320,64,4788,1,8,0:0:0:0:
320,64,4911,1,8,0:0:0:0:
320,64,5034,1,8,0:0:0:0:
64,64,5280,1,0,0:0:0:0:
64,64,5341,1,0,0:0:0:0:
64,64,5403,1,0,0:0:0:0:
64,64,5464,1,0,0:0:0:0:
320,64,5526,1,8,0:0:0:0:
320,64,5649,1,8,0:0:0:0:
320,64,5895,1,8,0:0:0:0:
64,64,6140,1,0,0:0:0:0:
64,64,6202,1,0,0:0:0:0:
320,64,6263,1,12,0:0:0:0:
64,64,6509,1,4,0:0:0:0:
64,64,6755,1,4,0:0:0:0:
320,64,7001,1,12,0:0:0:0:
64,64,7124,1,4,0:0:0:0:
320,64,7370,1,12,0:0:0:0:
64,64,7616,1,4,0:0:0:0:
320,64,7739,1,12,0:0:0:0:
320,64,7985,1,12,0:0:0:0:
320,64,8231,1,12,0:0:0:0:
320,64,8477,1,12,0:0:0:0:
64,64,8599,1,4,0:0:0:0:
64,64,8845,1,4,0:0:0:0:
64,64,9091,1,4,0:0:0:0:
320,64,9214,1,12,0:0:0:0:
320,64,9460,1,12,0:0:0:0:
320,64,9706,1,12,0:0:0:0:
320,64,9952,1,12,0:0:0:0:
64,64,10075,1,4,0:0:0:0:
320,64,10321,1,12,0:0:0:0:
64,64,10567,1,4,0:0:0:0:
320,64,10690,1,12,0:0:0:0:
320,64,10813,1,12,0:0:0:0:
320,64,10936,1,12,0:0:0:0:
64,64,11181,1,4,0:0:0:0:
320,64,11427,1,12,0:0:0:0:
320,64,11550,1,12,0:0:0:0:
64,64,11796,1,4,0:0:0:0:
320,64,11919,1,12,0:0:0:0:
64,64,12042,1,4,0:0:0:0:
320,64,12165,1,12,0:0:0:0:
320,64,12288,1,12,0:0:0:0:
64,64,12411,1,4,0:0:0:0:
64,64,12534,1,4,0:0:0:0:
320,64,12657,1,12,0:0:0:0:
320,64,12903,1,12,0:0:0:0:
64,64,13026,1,4,0:0:0:0:
320,64,13272,1,12,0:0:0:0:
64,64,13518,1,4,0:0:0:0:
320,64,13640,1,12,0:0:0:0:
64,64,13886,1,4,0:0:0:0:
64,64,14132,1,4,0:0:0:0:
320,64,14378,1,12,0:0:0:0:
64,64,14501,1,4,0:0:0:0:
320,64,14747,1,12,0:0:0:0:
64,64,14993,1,4,0:0:0:0:
320,64,15116,1,12,0:0:0:0:
320,64,15362,1,12,0:0:0:0:
320,64,15608,1,12,0:0:0:0:
320,64,15854,1,12,0:0:0:0:
64,64,15977,1,4,0:0:0:0:
64,64,16222,1,4,0:0:0:0:
64,64,16468,1,4,0:0:0:0:
320,64,16591,1,12,0:0:0:0:
64,64,16837,1,4,0:0:0:0:
64,64,17083,1,4,0:0:0:0:
320,64,17329,1,12,0:0:0:0:
64,64,17452,1,4,0:0:0:0:
320,64,17698,1,12,0:0:0:0:
64,64,17944,1,4,0:0:0:0:
320,64,18067,1,12,0:0:0:0:
320,64,18313,1,12,0:0:0:0:
320,64,18559,1,12,0:0:0:0:
320,64,18804,1,12,0:0:0:0:
64,64,18927,1,4,0:0:0:0:
64,64,19173,1,4,0:0:0:0:
320,64,19296,1,12,0:0:0:0:
64,64,19542,1,4,0:0:0:0:
64,64,19665,1,4,0:0:0:0:
320,64,19911,1,12,0:0:0:0:
320,64,20034,1,12,0:0:0:0:
320,64,20280,1,12,0:0:0:0:
64,64,20403,1,4,0:0:0:0:
64,64,20649,1,4,0:0:0:0:
320,64,20772,1,12,0:0:0:0:
64,64,21018,1,4,0:0:0:0:
64,64,21263,1,4,0:0:0:0:
64,64,21509,1,4,0:0:0:0:
320,64,21755,1,12,0:0:0:0:
64,64,21878,1,4,0:0:0:0:
64,64,22124,1,4,0:0:0:0:
64,64,22370,1,4,0:0:0:0:
320,64,22493,1,12,0:0:0:0:
64,64,22739,1,4,0:0:0:0:
64,64,22985,1,4,0:0:0:0:
320,64,23231,1,12,0:0:0:0:
320,64,23354,1,12,0:0:0:0:
64,64,23599,1,4,0:0:0:0:
64,64,23845,1,4,0:0:0:0:
320,64,23964,1,12,0:0:0:0:
320,64,24279,1,12,0:0:0:0:
320,64,24673,1,12,0:0:0:0:
320,64,25161,1,12,0:0:0:0:
256,192,25176,12,0,26267,0:0:0:0:
64,64,26390,5,0,0:0:0:0:
320,64,26636,1,12,0:0:0:0:
256,192,26651,12,0,27865,0:0:0:0:
64,64,28111,5,4,0:0:0:0:
256,192,28127,12,0,29218,0:0:0:0:
64,64,29341,5,0,0:0:0:0:
320,64,29587,1,12,0:0:0:0:
256,192,29602,12,0,30201,0:0:0:0:
64,64,30324,5,4,0:0:0:0:
256,192,30340,12,0,30939,0:0:0:0:
320,64,31062,5,12,0:0:0:0:
320,64,31185,1,12,0:0:0:0:
320,64,31431,1,12,0:0:0:0:
64,64,31800,1,4,0:0:0:0:
64,64,32046,1,4,0:0:0:0:
64,64,32292,1,4,0:0:0:0:
320,64,32538,1,12,0:0:0:0:
320,64,32661,1,12,0:0:0:0:
320,64,32907,1,12,0:0:0:0:
64,64,33276,1,4,0:0:0:0:
64,64,33522,1,4,0:0:0:0:
64,64,33768,1,4,0:0:0:0:
320,64,34013,1,12,0:0:0:0:
64,64,34136,1,4,0:0:0:0:
320,64,34382,1,12,0:0:0:0:
64,64,34628,1,4,0:0:0:0:
320,64,34751,1,12,0:0:0:0:
320,64,34997,1,12,0:0:0:0:
320,64,35242,1,12,0:0:0:0:
64,64,35488,1,4,0:0:0:0:
64,64,35734,1,4,0:0:0:0:
320,64,35857,1,12,0:0:0:0:
64,64,36103,1,4,0:0:0:0:
320,64,36226,1,12,0:0:0:0:
320,64,36472,1,12,0:0:0:0:
320,64,36718,1,12,0:0:0:0:
320,64,36964,1,8,0:0:0:0:
64,64,37701,1,0,0:0:0:0:
64,64,38439,1,0,0:0:0:0:
64,64,38562,1,0,0:0:0:0:
320,64,38685,1,8,0:0:0:0:
320,64,39177,1,8,0:0:0:0:
64,64,39423,1,0,0:0:0:0:
64,64,39669,1,0,0:0:0:0:
64,64,39915,1,0,0:0:0:0:
64,64,40406,1,0,0:0:0:0:
320,64,40652,1,8,0:0:0:0:
320,64,41144,1,8,0:0:0:0:
64,64,41390,1,0,0:0:0:0:
64,64,41513,1,0,0:0:0:0:
320,64,41636,1,8,0:0:0:0:
64,64,41759,1,0,0:0:0:0:
320,64,41882,1,8,0:0:0:0:
320,64,42005,1,8,0:0:0:0:
64,64,42128,1,0,0:0:0:0:
64,64,42374,1,0,0:0:0:0:
320,64,42620,1,8,0:0:0:0:
64,64,42865,1,0,0:0:0:0:
64,64,43357,1,0,0:0:0:0:
320,64,43603,1,8,0:0:0:0:
320,64,44095,1,8,0:0:0:0:
64,64,44341,1,0,0:0:0:0:
64,64,44464,1,0,0:0:0:0:
320,64,44587,1,8,0:0:0:0:
320,64,44833,1,8,0:0:0:0:
320,64,45079,1,8,0:0:0:0:
64,64,45324,1,0,0:0:0:0:
64,64,45570,1,0,0:0:0:0:
64,64,45816,1,0,0:0:0:0:
320,64,46062,1,8,0:0:0:0:
320,64,46185,1,8,0:0:0:0:
64,64,46431,1,0,0:0:0:0:
320,64,46554,1,8,0:0:0:0:
320,64,46800,1,8,0:0:0:0:
64,64,47046,1,0,0:0:0:0:
320,64,47292,1,8,0:0:0:0:
64,64,48029,1,0,0:0:0:0:
320,64,48767,1,8,0:0:0:0:
64,64,49013,1,0,0:0:0:0:
320,64,49136,1,8,0:0:0:0:
320,64,49505,1,8,0:0:0:0:
64,64,49751,1,0,0:0:0:0:
64,64,49874,1,0,0:0:0:0:
320,64,49997,1,8,0:0:0:0:
320,64,50242,1,8,0:0:0:0:
64,64,50365,1,0,0:0:0:0:
320,64,50488,1,8,0:0:0:0:
320,64,50611,1,8,0:0:0:0:
64,64,50734,1,0,0:0:0:0:
64,64,50857,1,0,0:0:0:0:
320,64,50980,1,8,0:0:0:0:
320,64,51226,1,8,0:0:0:0:
64,64,51349,1,0,0:0:0:0:
64,64,51472,1,0,0:0:0:0:
64,64,51718,1,0,0:0:0:0:
320,64,51964,1,8,0:0:0:0:
64,64,52087,1,0,0:0:0:0:
320,64,52210,1,8,0:0:0:0:
64,64,52456,1,0,0:0:0:0:
64,64,52701,1,0,0:0:0:0:
64,64,52947,1,0,0:0:0:0:
320,64,53193,1,8,0:0:0:0:
320,64,53316,1,8,0:0:0:0:
64,64,53439,1,0,0:0:0:0:
320,64,53562,1,8,0:0:0:0:
64,64,53685,1,0,0:0:0:0:
64,64,53808,1,0,0:0:0:0:
320,64,53931,1,8,0:0:0:0:
320,64,54177,1,8,0:0:0:0:
64,64,54423,1,0,0:0:0:0:
320,64,54669,1,8,0:0:0:0:
320,64,54915,1,8,0:0:0:0:
64,64,55038,1,0,0:0:0:0:
64,64,55283,1,0,0:0:0:0:
320,64,55406,1,8,0:0:0:0:
64,64,55652,1,0,0:0:0:0:
320,64,55898,1,8,0:0:0:0:
320,64,56144,1,8,0:0:0:0:
64,64,56267,1,0,0:0:0:0:
320,64,56390,1,8,0:0:0:0:
64,64,56636,1,0,0:0:0:0:
320,64,56882,1,8,0:0:0:0:
320,64,57128,1,8,0:0:0:0:
320,64,57251,1,8,0:0:0:0:
64,64,57374,1,0,0:0:0:0:
64,64,57620,1,0,0:0:0:0:
64,64,57865,1,0,0:0:0:0:
320,64,57988,1,8,0:0:0:0:
320,64,58357,1,8,0:0:0:0:
64,64,58480,1,0,0:0:0:0:
320,64,58603,1,8,0:0:0:0:
64,64,58726,1,0,0:0:0:0:
320,64,58849,1,8,0:0:0:0:
64,64,58972,1,0,0:0:0:0:
320,64,59095,1,8,0:0:0:0:
64,64,59710,1,0,0:0:0:0:
320,64,59833,1,8,0:0:0:0:
64,64,60079,1,0,0:0:0:0:
64,64,60324,1,0,0:0:0:0:
96,64,60570,1,0,0:0:0:0:
64,64,60939,1,0,0:0:0:0:
320,64,61308,1,8,0:0:0:0:
320,64,61554,1,8,0:0:0:0:
64,64,61800,1,0,0:0:0:0:
64,64,62046,1,0,0:0:0:0:
64,64,62415,1,0,0:0:0:0:
320,64,62783,1,8,0:0:0:0:
64,64,63029,1,0,0:0:0:0:
64,64,63275,1,0,0:0:0:0:
320,64,63521,1,8,0:0:0:0:
320,64,63767,1,8,0:0:0:0:
320,64,64013,1,8,0:0:0:0:
64,64,64259,1,0,0:0:0:0:
64,64,64628,1,0,0:0:0:0:
320,64,64751,1,8,0:0:0:0:
64,64,64874,1,0,0:0:0:0:
320,64,64997,1,8,0:0:0:0:
320,64,65119,1,8,0:0:0:0:
320,64,65242,1,8,0:0:0:0:
64,64,65365,1,0,0:0:0:0:
320,64,65734,1,8,0:0:0:0:
320,64,65980,1,8,0:0:0:0:
64,64,66226,1,0,0:0:0:0:
64,64,66472,1,0,0:0:0:0:
64,64,66841,1,0,0:0:0:0:
320,64,67210,1,8,0:0:0:0:
320,64,67456,1,8,0:0:0:0:
320,64,67701,1,8,0:0:0:0:
64,64,67947,1,0,0:0:0:0:
64,64,68316,1,0,0:0:0:0:
320,64,68685,1,8,0:0:0:0:
320,64,68931,1,8,0:0:0:0:
320,64,68992,1,8,0:0:0:0:
64,64,69177,1,0,0:0:0:0:
64,64,69423,1,0,0:0:0:0:
320,64,69669,1,8,0:0:0:0:
64,64,69792,1,0,0:0:0:0:
320,64,69915,1,8,0:0:0:0:
320,64,70160,1,8,0:0:0:0:
64,64,70406,1,0,0:0:0:0:
320,64,70529,1,8,0:0:0:0:
320,64,70652,1,8,0:0:0:0:
320,64,70775,1,8,0:0:0:0:
64,64,70898,1,0,0:0:0:0:
64,64,71144,1,0,0:0:0:0:
64,64,71267,1,0,0:0:0:0:
64,64,71513,1,0,0:0:0:0:
320,64,71636,1,8,0:0:0:0:
64,64,71882,1,0,0:0:0:0:
64,64,72005,1,0,0:0:0:0:
320,64,72128,1,8,0:0:0:0:
320,64,72251,1,8,0:0:0:0:
64,64,72374,1,0,0:0:0:0:
64,64,72742,1,0,0:0:0:0:
320,64,73111,1,8,0:0:0:0:
320,64,73357,1,8,0:0:0:0:
64,64,73603,1,0,0:0:0:0:
320,64,73849,1,8,0:0:0:0:
64,64,74095,1,0,0:0:0:0:
320,64,74218,1,8,0:0:0:0:
64,64,74587,1,0,0:0:0:0:
320,64,74833,1,8,0:0:0:0:
320,64,75079,1,8,0:0:0:0:
64,64,75324,1,0,0:0:0:0:
64,64,75693,1,0,0:0:0:0:
320,64,76062,1,8,0:0:0:0:
64,64,76308,1,0,0:0:0:0:
64,64,76554,1,0,0:0:0:0:
320,64,76800,1,8,0:0:0:0:
320,64,77046,1,8,0:0:0:0:
64,64,77169,1,0,0:0:0:0:
64,64,77415,1,0,0:0:0:0:
320,64,77538,1,8,0:0:0:0:
64,64,77783,1,0,0:0:0:0:
64,64,78029,1,0,0:0:0:0:
320,64,78275,1,8,0:0:0:0:
320,64,78521,1,8,0:0:0:0:
320,64,78644,1,8,0:0:0:0:
64,64,79013,1,0,0:0:0:0:
64,64,79259,1,0,0:0:0:0:
64,64,79505,1,0,0:0:0:0:
64,64,79751,1,0,0:0:0:0:
320,64,80120,1,8,0:0:0:0:
64,64,80488,1,0,0:0:0:0:
64,64,80734,1,0,0:0:0:0:
320,64,80980,1,8,0:0:0:0:
320,64,81226,1,8,0:0:0:0:
64,64,81595,1,0,0:0:0:0:
320,64,81964,1,8,0:0:0:0:
64,64,82210,1,0,0:0:0:0:
64,64,82456,1,0,0:0:0:0:
64,64,82701,1,0,0:0:0:0:
64,64,83070,1,0,0:0:0:0:
64,64,83316,1,0,0:0:0:0:
320,64,83439,1,8,0:0:0:0:
64,64,83685,1,0,0:0:0:0:
64,64,83931,1,0,0:0:0:0:
320,64,84177,1,8,0:0:0:0:
320,64,84300,1,8,0:0:0:0:
64,64,84423,1,0,0:0:0:0:
320,64,84546,1,8,0:0:0:0:
64,64,84669,1,0,0:0:0:0:
64,64,84792,1,0,0:0:0:0:
320,64,84915,1,8,0:0:0:0:
320,64,85038,1,8,0:0:0:0:
64,64,85160,1,0,0:0:0:0:
320,64,85283,1,8,0:0:0:0:
320,64,85406,1,8,0:0:0:0:
64,64,86882,1,0,0:0:0:0:
64,64,86943,1,0,0:0:0:0:
64,64,87005,1,0,0:0:0:0:
320,64,87128,1,12,0:0:0:0:
64,64,87251,1,0,0:0:0:0:
64,64,87312,1,0,0:0:0:0:
320,64,87374,1,8,0:0:0:0:
320,64,87497,1,8,0:0:0:0:
64,64,87620,1,0,0:0:0:0:
64,64,87681,1,0,0:0:0:0:
64,64,87742,1,0,0:0:0:0:
320,64,87865,1,8,0:0:0:0:
64,64,87988,1,0,0:0:0:0:
64,64,88111,1,0,0:0:0:0:
320,64,88173,1,8,0:0:0:0:
320,64,88234,1,8,0:0:0:0:
64,64,88357,1,0,0:0:0:0:
320,64,88419,1,8,0:0:0:0:
320,64,88480,1,8,0:0:0:0:
64,64,88603,1,4,0:0:0:0:
64,64,88726,1,0,0:0:0:0:
320,64,88849,1,8,0:0:0:0:
320,64,88910,1,8,0:0:0:0:
320,64,88972,1,8,0:0:0:0:
64,64,89095,1,0,0:0:0:0:
64,64,89218,1,0,0:0:0:0:
64,64,89279,1,0,0:0:0:0:
320,64,89341,1,8,0:0:0:0:
64,64,89464,1,0,0:0:0:0:
320,64,89587,1,8,0:0:0:0:
64,64,89648,1,0,0:0:0:0:
64,64,89710,1,0,0:0:0:0:
320,64,89833,1,8,0:0:0:0:
64,64,89894,1,0,0:0:0:0:
64,64,89956,1,0,0:0:0:0:
64,64,90079,1,4,0:0:0:0:
64,64,90201,1,0,0:0:0:0:
320,64,90324,1,8,0:0:0:0:
320,64,90386,1,8,0:0:0:0:
320,64,90447,1,8,0:0:0:0:
64,64,90509,1,0,0:0:0:0:
64,64,90570,1,0,0:0:0:0:
64,64,90693,1,0,0:0:0:0:
320,64,90816,1,8,0:0:0:0:
64,64,90939,1,0,0:0:0:0:
64,64,91001,1,0,0:0:0:0:
320,64,91062,1,8,0:0:0:0:
64,64,91185,1,0,0:0:0:0:
320,64,91308,1,8,0:0:0:0:
320,64,91431,1,8,0:0:0:0:
320,64,91554,1,8,0:0:0:0:
64,64,91677,1,0,0:0:0:0:
64,64,91738,1,0,0:0:0:0:
64,64,91800,1,0,0:0:0:0:
64,64,91923,1,0,0:0:0:0:
320,64,92046,1,8,0:0:0:0:
64,64,92169,1,0,0:0:0:0:
320,64,92292,1,8,0:0:0:0:
320,64,92353,1,8,0:0:0:0:
64,64,92415,1,0,0:0:0:0:
320,64,92538,1,8,0:0:0:0:
64,64,92660,1,0,0:0:0:0:
64,64,92783,1,0,0:0:0:0:
64,64,92906,1,0,0:0:0:0:
64,64,93029,1,4,0:0:0:0:
64,64,93152,1,0,0:0:0:0:
320,64,93275,1,8,0:0:0:0:
64,64,93337,1,0,0:0:0:0:
320,64,93398,1,8,0:0:0:0:
64,64,93521,1,0,0:0:0:0:
320,64,93583,1,8,0:0:0:0:
64,64,93644,1,0,0:0:0:0:
320,64,93767,1,8,0:0:0:0:
320,64,93890,1,8,0:0:0:0:
64,64,94013,1,0,0:0:0:0:
64,64,94074,1,0,0:0:0:0:
64,64,94136,1,0,0:0:0:0:
64,64,94259,1,0,0:0:0:0:
64,64,94320,1,0,0:0:0:0:
64,64,94382,1,0,0:0:0:0:
64,64,94505,1,4,0:0:0:0:
64,64,94628,1,0,0:0:0:0:
320,64,94751,1,8,0:0:0:0:
320,64,94812,1,8,0:0:0:0:
320,64,94874,1,8,0:0:0:0:
64,64,94997,1,0,0:0:0:0:
64,64,95120,1,0,0:0:0:0:
320,64,95242,1,8,0:0:0:0:
64,64,95365,1,0,0:0:0:0:
64,64,95427,1,0,0:0:0:0:
64,64,95488,1,0,0:0:0:0:
64,64,95611,1,0,0:0:0:0:
64,64,95734,1,0,0:0:0:0:
64,64,95857,1,0,0:0:0:0:
320,64,95980,1,12,0:0:0:0:
64,64,96103,1,0,0:0:0:0:
320,64,96226,1,8,0:0:0:0:
320,64,96288,1,8,0:0:0:0:
64,64,96349,1,0,0:0:0:0:
320,64,96472,1,8,0:0:0:0:
64,64,96533,1,0,0:0:0:0:
64,64,96595,1,0,0:0:0:0:
64,64,96656,1,0,0:0:0:0:
320,64,96718,1,8,0:0:0:0:
64,64,96841,1,0,0:0:0:0:
320,64,96964,1,8,0:0:0:0:
320,64,97025,1,8,0:0:0:0:
320,64,97087,1,8,0:0:0:0:
320,64,97210,1,8,0:0:0:0:
64,64,97333,1,0,0:0:0:0:
320,64,97456,1,8,0:0:0:0:
64,64,97579,1,0,0:0:0:0:
64,64,97640,1,0,0:0:0:0:
64,64,97701,1,0,0:0:0:0:
320,64,97824,1,8,0:0:0:0:
64,64,97947,1,0,0:0:0:0:
64,64,98070,1,0,0:0:0:0:
320,64,98193,1,8,0:0:0:0:
320,64,98439,1,8,0:0:0:0:
64,64,98562,1,0,0:0:0:0:
64,64,98685,1,0,0:0:0:0:
64,64,98808,1,0,0:0:0:0:
320,64,98931,1,12,0:0:0:0:
320,64,99054,1,8,0:0:0:0:
64,64,99115,1,0,0:0:0:0:
320,64,99177,1,8,0:0:0:0:
64,64,99300,1,0,0:0:0:0:
320,64,99423,1,8,0:0:0:0:
320,64,99484,1,8,0:0:0:0:
64,64,99546,1,0,0:0:0:0:
64,64,99607,1,0,0:0:0:0:
320,64,99669,1,8,0:0:0:0:
64,64,99792,1,0,0:0:0:0:
320,64,99915,1,8,0:0:0:0:
320,64,100038,1,8,0:0:0:0:
64,64,100160,1,0,0:0:0:0:
64,64,100222,1,0,0:0:0:0:
64,64,100283,1,0,0:0:0:0:
320,64,100406,1,12,0:0:0:0:
64,64,100529,1,0,0:0:0:0:
64,64,100591,1,0,0:0:0:0:
320,64,100652,1,8,0:0:0:0:
320,64,100775,1,8,0:0:0:0:
64,64,100898,1,0,0:0:0:0:
320,64,100960,1,8,0:0:0:0:
64,64,101021,1,0,0:0:0:0:
320,64,101144,1,8,0:0:0:0:
64,64,101267,1,0,0:0:0:0:
64,64,101390,1,0,0:0:0:0:
320,64,101451,1,8,0:0:0:0:
320,64,101513,1,8,0:0:0:0:
320,64,101574,1,8,0:0:0:0:
64,64,101636,1,0,0:0:0:0:
64,64,101759,1,0,0:0:0:0:
64,64,101882,1,4,0:0:0:0:
64,64,102005,1,0,0:0:0:0:
320,64,102128,1,8,0:0:0:0:
64,64,102189,1,0,0:0:0:0:
64,64,102251,1,0,0:0:0:0:
320,64,102374,1,8,0:0:0:0:
64,64,102435,1,0,0:0:0:0:
64,64,102497,1,0,0:0:0:0:
320,64,102620,1,8,0:0:0:0:
320,64,102681,1,8,0:0:0:0:
64,64,102742,1,0,0:0:0:0:
64,64,102804,1,0,0:0:0:0:
320,64,102865,1,8,0:0:0:0:
64,64,102927,1,0,0:0:0:0:
64,64,102988,1,0,0:0:0:0:
64,64,103050,1,0,0:0:0:0:
320,64,103111,1,8,0:0:0:0:
64,64,103234,1,0,0:0:0:0:
320,64,103357,1,12,0:0:0:0:
64,64,103480,1,0,0:0:0:0:
64,64,103542,1,0,0:0:0:0:
320,64,103603,1,8,0:0:0:0:
320,64,103726,1,8,0:0:0:0:
64,64,103849,1,0,0:0:0:0:
64,64,103910,1,0,0:0:0:0:
64,64,103972,1,0,0:0:0:0:
64,64,104095,1,4,0:0:0:0:
64,64,104341,1,4,0:0:0:0:
320,64,104464,1,8,0:0:0:0:
64,64,104587,1,4,0:0:0:0:
320,64,104833,1,12,0:0:0:0:
64,64,104956,1,0,0:0:0:0:
320,64,105079,1,8,0:0:0:0:
320,64,105140,1,8,0:0:0:0:
320,64,105201,1,8,0:0:0:0:
64,64,105324,1,0,0:0:0:0:
64,64,105386,1,0,0:0:0:0:
64,64,105447,1,0,0:0:0:0:
320,64,105570,1,8,0:0:0:0:
320,64,105693,1,8,0:0:0:0:
64,64,105816,1,0,0:0:0:0:
64,64,105878,1,0,0:0:0:0:
64,64,105939,1,0,0:0:0:0:
320,64,106062,1,8,0:0:0:0:
64,64,106185,1,0,0:0:0:0:
320,64,106308,1,8,0:0:0:0:
320,64,106370,1,8,0:0:0:0:
64,64,106431,1,0,0:0:0:0:
320,64,106554,1,8,0:0:0:0:
320,64,106677,1,8,0:0:0:0:
64,64,106800,1,0,0:0:0:0:
64,64,106861,1,0,0:0:0:0:
320,64,106923,1,8,0:0:0:0:
64,64,107046,1,0,0:0:0:0:
64,64,107169,1,0,0:0:0:0:
320,64,107292,1,8,0:0:0:0:
64,64,107415,1,0,0:0:0:0:
64,64,107476,1,0,0:0:0:0:
64,64,107538,1,0,0:0:0:0:
64,64,107660,1,0,0:0:0:0:
64,64,107783,1,4,0:0:0:0:
64,64,107906,1,0,0:0:0:0:
320,64,108029,1,8,0:0:0:0:
320,64,108091,1,8,0:0:0:0:
64,64,108152,1,0,0:0:0:0:
320,64,108275,1,8,0:0:0:0:
64,64,108337,1,0,0:0:0:0:
64,64,108398,1,0,0:0:0:0:
320,64,108521,1,8,0:0:0:0:
64,64,108644,1,0,0:0:0:0:
64,64,108706,1,0,0:0:0:0:
320,64,108767,1,8,0:0:0:0:
64,64,108890,1,0,0:0:0:0:
320,64,108951,1,8,0:0:0:0:
320,64,109013,1,8,0:0:0:0:
64,64,109136,1,0,0:0:0:0:
320,64,109259,1,12,0:0:0:0:
320,64,109382,1,8,0:0:0:0:
64,64,109505,1,0,0:0:0:0:
320,64,109628,1,8,0:0:0:0:
64,64,109874,1,0,0:0:0:0:
320,64,109997,1,12,0:0:0:0:
320,64,110242,1,8,0:0:0:0:
320,64,110365,1,8,0:0:0:0:
320,64,110488,1,8,0:0:0:0:
320,64,110611,1,8,0:0:0:0:
320,64,110734,1,12,0:0:0:0:
320,64,110857,1,12,0:0:0:0:
64,64,110980,1,0,0:0:0:0:
320,64,111103,1,12,0:0:0:0:
64,64,111349,1,4,0:0:0:0:
320,64,111472,1,12,0:0:0:0:
64,64,111595,1,0,0:0:0:0:
320,64,111718,1,12,0:0:0:0:
320,64,111841,1,12,0:0:0:0:
64,64,111964,1,0,0:0:0:0:
64,64,112025,1,0,0:0:0:0:
64,64,112087,1,0,0:0:0:0:
320,64,112210,1,12,0:0:0:0:
320,64,112333,1,12,0:0:0:0:
64,64,112456,1,0,0:0:0:0:
320,64,112579,1,8,0:0:0:0:
320,64,112640,1,8,0:0:0:0:
320,64,112701,1,8,0:0:0:0:
64,64,112824,1,4,0:0:0:0:
320,64,112947,1,12,0:0:0:0:
64,64,113070,1,0,0:0:0:0:
320,64,113193,1,12,0:0:0:0:
64,64,113316,1,0,0:0:0:0:
64,64,113378,1,0,0:0:0:0:
320,64,113439,1,12,0:0:0:0:
64,64,113562,1,0,0:0:0:0:
320,64,113685,1,12,0:0:0:0:
320,64,113808,1,12,0:0:0:0:
64,64,113931,1,0,0:0:0:0:
320,64,114054,1,12,0:0:0:0:
64,64,114177,1,0,0:0:0:0:
64,64,114238,1,0,0:0:0:0:
64,64,114300,1,0,0:0:0:0:
320,64,114423,1,12,0:0:0:0:
64,64,114546,1,0,0:0:0:0:
320,64,114669,1,12,0:0:0:0:
64,64,114792,1,0,0:0:0:0:
320,64,114915,1,12,0:0:0:0:
64,64,115038,1,0,0:0:0:0:
64,64,115099,1,0,0:0:0:0:
320,64,115160,1,12,0:0:0:0:
320,64,115283,1,12,0:0:0:0:
64,64,115406,1,0,0:0:0:0:
64,64,115468,1,0,0:0:0:0:
320,64,115529,1,12,0:0:0:0:
64,64,115652,1,0,0:0:0:0:
320,64,115775,1,12,0:0:0:0:
64,64,115898,1,0,0:0:0:0:
64,64,115960,1,0,0:0:0:0:
64,64,116021,1,0,0:0:0:0:
320,64,116144,1,12,0:0:0:0:
64,64,116267,1,0,0:0:0:0:
64,64,116329,1,0,0:0:0:0:
320,64,116390,1,12,0:0:0:0:
64,64,116513,1,0,0:0:0:0:
320,64,116636,1,12,0:0:0:0:
320,64,116759,1,12,0:0:0:0:
64,64,116882,1,0,0:0:0:0:
320,64,117005,1,12,0:0:0:0:
64,64,117128,1,0,0:0:0:0:
64,64,117251,1,4,0:0:0:0:
320,64,117374,1,12,0:0:0:0:
64,64,117497,1,0,0:0:0:0:
320,64,117620,1,12,0:0:0:0:
64,64,117742,1,0,0:0:0:0:
64,64,117804,1,0,0:0:0:0:
320,64,117865,1,12,0:0:0:0:
64,64,117988,1,0,0:0:0:0:
320,64,118111,1,12,0:0:0:0:
320,64,118234,1,12,0:0:0:0:
64,64,118357,1,0,0:0:0:0:
64,64,118419,1,0,0:0:0:0:
320,64,118480,1,12,0:0:0:0:
64,64,118603,1,0,0:0:0:0:
64,64,118726,1,4,0:0:0:0:
320,64,118849,1,12,0:0:0:0:
64,64,118972,1,0,0:0:0:0:
320,64,119095,1,12,0:0:0:0:
64,64,119218,1,0,0:0:0:0:
64,64,119279,1,0,0:0:0:0:
320,64,119341,1,12,0:0:0:0:
64,64,119464,1,0,0:0:0:0:
320,64,119587,1,12,0:0:0:0:
64,64,119710,1,4,0:0:0:0:
64,64,119833,1,0,0:0:0:0:
320,64,119956,1,12,0:0:0:0:
64,64,120079,1,0,0:0:0:0:
320,64,120201,1,12,0:0:0:0:
64,64,120324,1,0,0:0:0:0:
64,64,120386,1,0,0:0:0:0:
64,64,120447,1,0,0:0:0:0:
320,64,120570,1,12,0:0:0:0:
64,64,120693,1,0,0:0:0:0:
64,64,120755,1,0,0:0:0:0:
320,64,120816,1,12,0:0:0:0:
64,64,120939,1,0,0:0:0:0:
320,64,121062,1,12,0:0:0:0:
320,64,121185,1,12,0:0:0:0:
64,64,121308,1,0,0:0:0:0:
64,64,121370,1,0,0:0:0:0:
320,64,121431,1,12,0:0:0:0:
320,64,121554,1,12,0:0:0:0:
64,64,121677,1,4,0:0:0:0:
320,64,121800,1,12,0:0:0:0:
64,64,121923,1,4,0:0:0:0:
320,64,122046,1,12,0:0:0:0:
320,64,122169,5,12,0:0:0:0:
320,64,122292,1,12,0:0:0:0:
320,64,122538,1,8,0:0:0:0:
320,64,122583,1,8,0:0:0:0:
320,64,122901,1,8,0:0:0:0:
64,64,122947,1,0,0:0:0:0:
64,64,123265,1,0,0:0:0:0:
64,64,123310,1,0,0:0:0:0:
320,64,123628,1,12,0:0:0:0:
64,64,144036,5,4,0:0:0:0:
64,64,144281,1,0,0:0:0:0:
320,64,144404,1,8,0:0:0:0:
64,64,144527,1,0,0:0:0:0:
64,64,144650,1,0,0:0:0:0:
64,64,144773,1,0,0:0:0:0:
320,64,144896,1,8,0:0:0:0:
64,64,145019,1,0,0:0:0:0:
320,64,145142,1,8,0:0:0:0:
64,64,145265,1,0,0:0:0:0:
64,64,145326,1,0,0:0:0:0:
64,64,145388,1,0,0:0:0:0:
64,64,145449,1,0,0:0:0:0:
320,64,145511,1,8,0:0:0:0:
64,64,145757,1,0,0:0:0:0:
320,64,145880,1,8,0:0:0:0:
64,64,146003,1,0,0:0:0:0:
320,64,146126,1,8,0:0:0:0:
64,64,146249,1,0,0:0:0:0:
64,64,146372,1,0,0:0:0:0:
64,64,146495,1,0,0:0:0:0:
320,64,146617,1,8,0:0:0:0:
64,64,146740,1,0,0:0:0:0:
64,64,146802,1,0,0:0:0:0:
64,64,146863,1,0,0:0:0:0:
64,64,146925,1,0,0:0:0:0:
320,64,146986,1,8,0:0:0:0:
320,64,147232,1,8,0:0:0:0:
320,64,147355,1,8,0:0:0:0:
64,64,147478,1,0,0:0:0:0:
320,64,147601,1,8,0:0:0:0:
64,64,147724,1,0,0:0:0:0:
64,64,147847,1,0,0:0:0:0:
64,64,147970,1,0,0:0:0:0:
320,64,148093,1,8,0:0:0:0:
64,64,148216,1,0,0:0:0:0:
64,64,148277,1,0,0:0:0:0:
64,64,148339,1,0,0:0:0:0:
64,64,148400,1,0,0:0:0:0:
320,64,148462,1,8,0:0:0:0:
64,64,148708,1,0,0:0:0:0:
320,64,148831,1,8,0:0:0:0:
64,64,148954,1,0,0:0:0:0:
320,64,149076,1,8,0:0:0:0:
64,64,149199,1,0,0:0:0:0:
64,64,149322,1,0,0:0:0:0:
64,64,149445,1,0,0:0:0:0:
320,64,149568,1,8,0:0:0:0:
64,64,149691,1,0,0:0:0:0:
64,64,149753,1,0,0:0:0:0:
64,64,149814,1,0,0:0:0:0:
64,64,149876,1,0,0:0:0:0:
320,64,149937,1,8,0:0:0:0:
320,64,150183,1,8,0:0:0:0:
320,64,150306,1,8,0:0:0:0:
64,64,150429,1,0,0:0:0:0:
320,64,150552,1,8,0:0:0:0:
64,64,150675,1,0,0:0:0:0:
64,64,150798,1,0,0:0:0:0:
64,64,150921,1,0,0:0:0:0:
320,64,151044,1,8,0:0:0:0:
64,64,151167,1,0,0:0:0:0:
64,64,151228,1,0,0:0:0:0:
64,64,151290,1,0,0:0:0:0:
64,64,151351,1,0,0:0:0:0:
320,64,151413,1,8,0:0:0:0:
320,64,151658,1,8,0:0:0:0:
64,64,151781,1,0,0:0:0:0:
320,64,151904,1,8,0:0:0:0:
320,64,152027,1,8,0:0:0:0:
64,64,152150,1,0,0:0:0:0:
320,64,152273,1,8,0:0:0:0:
64,64,152396,1,0,0:0:0:0:
320,64,152519,1,8,0:0:0:0:
64,64,152642,1,0,0:0:0:0:
64,64,152724,1,0,0:0:0:0:
64,64,152806,1,0,0:0:0:0:
320,64,152888,1,8,0:0:0:0:
64,64,153134,1,0,0:0:0:0:
320,64,153257,1,8,0:0:0:0:
64,64,153380,1,0,0:0:0:0:
64,64,153503,1,0,0:0:0:0:
64,64,153626,1,0,0:0:0:0:
320,64,153749,1,8,0:0:0:0:
64,64,153872,1,0,0:0:0:0:
320,64,153995,1,8,0:0:0:0:
64,64,154117,1,0,0:0:0:0:
64,64,154179,1,0,0:0:0:0:
64,64,154240,1,0,0:0:0:0:
64,64,154302,1,0,0:0:0:0:
320,64,154363,1,8,0:0:0:0:
64,64,154609,1,0,0:0:0:0:
320,64,154732,1,8,0:0:0:0:
64,64,154855,1,0,0:0:0:0:
320,64,154978,1,8,0:0:0:0:
64,64,155101,1,0,0:0:0:0:
64,64,155224,1,0,0:0:0:0:
64,64,155347,1,0,0:0:0:0:
320,64,155470,1,8,0:0:0:0:
64,64,155593,1,0,0:0:0:0:
64,64,155654,1,0,0:0:0:0:
64,64,155716,1,0,0:0:0:0:
64,64,155777,1,0,0:0:0:0:
320,64,155839,1,8,0:0:0:0:
320,64,156085,1,8,0:0:0:0:
64,64,156208,1,0,0:0:0:0:
320,64,156576,1,8,0:0:0:0:
64,64,156822,1,0,0:0:0:0:
64,64,156945,1,0,0:0:0:0:
320,64,157068,1,8,0:0:0:0:
320,64,157314,1,8,0:0:0:0:
64,64,157437,1,0,0:0:0:0:
64,64,157499,5,0,0:0:0:0:
320,64,157560,1,8,0:0:0:0:
64,64,157806,1,0,0:0:0:0:
320,64,158052,1,8,0:0:0:0:
320,64,158175,1,8,0:0:0:0:
64,64,158298,1,0,0:0:0:0:
320,64,158421,1,8,0:0:0:0:
64,64,158544,1,0,0:0:0:0:
64,64,158605,1,0,0:0:0:0:
64,64,158667,1,0,0:0:0:0:
64,64,158728,1,0,0:0:0:0:
320,64,158790,1,8,0:0:0:0:
320,64,159035,1,8,0:0:0:0:
64,64,159158,1,0,0:0:0:0:
64,64,159404,1,0,0:0:0:0:
64,64,159466,1,0,0:0:0:0:
320,64,159527,1,8,0:0:0:0:
64,64,159650,1,0,0:0:0:0:
320,64,159773,1,8,0:0:0:0:
320,64,159896,1,8,0:0:0:0:
64,64,160019,1,0,0:0:0:0:
320,64,160142,1,8,0:0:0:0:
64,64,160265,1,0,0:0:0:0:
64,64,160326,1,0,0:0:0:0:
320,64,160388,1,8,0:0:0:0:
320,64,160511,1,8,0:0:0:0:
64,64,160634,1,0,0:0:0:0:
320,64,160757,1,8,0:0:0:0:
64,64,160880,1,0,0:0:0:0:
64,64,160941,1,0,0:0:0:0:
320,64,161003,1,8,0:0:0:0:
64,64,161249,1,0,0:0:0:0:
64,64,161495,1,0,0:0:0:0:
64,64,161556,1,0,0:0:0:0:
64,64,161617,1,0,0:0:0:0:
64,64,161679,1,0,0:0:0:0:
320,64,161740,1,8,0:0:0:0:
320,64,161986,1,8,0:0:0:0:
64,64,162109,1,0,0:0:0:0:
320,64,162478,1,8,0:0:0:0:
64,64,162724,1,0,0:0:0:0:
64,64,162847,1,0,0:0:0:0:
320,64,162970,1,8,0:0:0:0:
64,64,163093,1,0,0:0:0:0:
64,64,163216,1,0,0:0:0:0:
64,64,163277,1,0,0:0:0:0:
64,64,163339,1,0,0:0:0:0:
320,64,163462,1,8,0:0:0:0:
64,64,163585,1,0,0:0:0:0:
320,64,163708,1,8,0:0:0:0:
64,64,163831,1,0,0:0:0:0:
320,64,163954,1,8,0:0:0:0:
64,64,164199,1,0,0:0:0:0:
64,64,164445,1,0,0:0:0:0:
64,64,164507,1,0,0:0:0:0:
64,64,164568,1,0,0:0:0:0:
64,64,164630,1,0,0:0:0:0:
320,64,164691,1,8,0:0:0:0:
64,64,164937,1,0,0:0:0:0:
320,64,165060,1,8,0:0:0:0:
64,64,165306,1,0,0:0:0:0:
320,64,165429,1,8,0:0:0:0:
64,64,165490,1,0,0:0:0:0:
64,64,165552,1,0,0:0:0:0:
64,64,165613,1,0,0:0:0:0:
320,64,165675,1,8,0:0:0:0:
64,64,165798,1,0,0:0:0:0:
320,64,165921,1,8,0:0:0:0:
320,64,166044,1,8,0:0:0:0:
64,64,166167,1,0,0:0:0:0:
64,64,166413,1,0,0:0:0:0:
320,64,166535,1,8,0:0:0:0:
320,64,166904,1,8,0:0:0:0:
64,64,167150,1,0,0:0:0:0:
64,64,167212,1,0,0:0:0:0:
64,64,167273,1,0,0:0:0:0:
64,64,167335,1,0,0:0:0:0:
320,64,167396,1,8,0:0:0:0:
64,64,167642,1,0,0:0:0:0:
320,64,167888,1,8,0:0:0:0:
64,64,168011,1,0,0:0:0:0:
320,64,168257,1,8,0:0:0:0:
64,64,168380,1,0,0:0:0:0:
64,64,168626,1,0,0:0:0:0:
64,64,168872,1,0,0:0:0:0:
320,64,168995,1,8,0:0:0:0:
64,64,169117,1,0,0:0:0:0:
320,64,169240,1,8,0:0:0:0:
320,64,169363,1,8,0:0:0:0:
64,64,169486,1,0,0:0:0:0:
320,64,169609,1,8,0:0:0:0:
320,64,169732,1,8,0:0:0:0:
64,64,169855,1,0,0:0:0:0:
320,64,169978,1,8,0:0:0:0:
64,64,170101,1,0,0:0:0:0:
320,64,170224,1,8,0:0:0:0:
64,64,170347,1,0,0:0:0:0:
320,64,170470,1,8,0:0:0:0:
320,64,170531,1,8,0:0:0:0:
64,64,170593,1,0,0:0:0:0:
320,64,170839,1,8,0:0:0:0:
64,64,170962,1,0,0:0:0:0:
320,64,171208,1,8,0:0:0:0:
64,64,171331,1,0,0:0:0:0:
320,64,171454,1,8,0:0:0:0:
64,64,171576,1,0,0:0:0:0:
64,64,171822,1,0,0:0:0:0:
320,64,171945,1,8,0:0:0:0:
64,64,172068,1,0,0:0:0:0:
320,64,172191,1,8,0:0:0:0:
320,64,172253,1,8,0:0:0:0:
320,64,172314,1,8,0:0:0:0:
64,64,172437,1,0,0:0:0:0:
320,64,172560,1,8,0:0:0:0:
320,64,172683,1,8,0:0:0:0:
64,64,172806,1,0,0:0:0:0:
64,64,173052,1,0,0:0:0:0:
320,64,173175,1,8,0:0:0:0:
64,64,173298,1,0,0:0:0:0:
320,64,173421,1,8,0:0:0:0:
320,64,173482,1,8,0:0:0:0:
64,64,173544,1,0,0:0:0:0:
320,64,173790,1,8,0:0:0:0:
64,64,173913,1,0,0:0:0:0:
320,64,174159,1,8,0:0:0:0:
64,64,174282,1,0,0:0:0:0:
64,64,174528,1,0,0:0:0:0:
320,64,174650,1,8,0:0:0:0:
320,64,174712,1,8,0:0:0:0:
64,64,174774,1,0,0:0:0:0:
320,64,174897,1,8,0:0:0:0:
64,64,175019,1,0,0:0:0:0:
320,64,175142,1,8,0:0:0:0:
320,64,175265,1,8,0:0:0:0:
64,64,175388,1,0,0:0:0:0:
320,64,175511,1,8,0:0:0:0:
64,64,175757,1,0,0:0:0:0:
320,64,175880,1,8,0:0:0:0:
64,64,176003,1,0,0:0:0:0:
320,64,176126,1,8,0:0:0:0:
64,64,176249,1,0,0:0:0:0:
320,64,176372,1,8,0:0:0:0:
320,64,176433,1,8,0:0:0:0:
64,64,176495,1,0,0:0:0:0:
320,64,176741,1,8,0:0:0:0:
64,64,176864,1,0,0:0:0:0:
320,64,176986,1,8,0:0:0:0:
320,64,177110,1,8,0:0:0:0:
64,64,177233,1,0,0:0:0:0:
320,64,177478,1,8,0:0:0:0:
320,64,177724,1,8,0:0:0:0:
320,64,177970,1,8,0:0:0:0:
64,64,178093,1,0,0:0:0:0:
64,64,178154,1,0,0:0:0:0:
64,64,178216,1,0,0:0:0:0:
320,64,178339,1,8,0:0:0:0:
64,64,178462,1,0,0:0:0:0:
64,64,178585,1,0,0:0:0:0:
64,64,178708,1,4,0:0:0:0:
64,64,178954,1,0,0:0:0:0:
320,64,179076,1,8,0:0:0:0:
64,64,179199,1,0,0:0:0:0:
64,64,179445,1,4,0:0:0:0:
64,64,179814,1,0,0:0:0:0:
320,64,180183,1,8,0:0:0:0:
320,64,180429,1,8,0:0:0:0:
64,64,180675,1,0,0:0:0:0:
64,64,180798,1,0,0:0:0:0:
64,64,180921,1,0,0:0:0:0:
64,64,181290,1,0,0:0:0:0:
320,64,181658,1,8,0:0:0:0:
64,64,181904,1,0,0:0:0:0:
64,64,182150,1,0,0:0:0:0:
320,64,182396,1,8,0:0:0:0:
320,64,182642,1,8,0:0:0:0:
320,64,182888,1,8,0:0:0:0:
64,64,183134,1,0,0:0:0:0:
64,64,183503,1,0,0:0:0:0:
320,64,183626,1,8,0:0:0:0:
64,64,183749,1,0,0:0:0:0:
320,64,183872,1,8,0:0:0:0:
320,64,183994,1,8,0:0:0:0:
320,64,184117,1,8,0:0:0:0:
64,64,184240,1,0,0:0:0:0:
64,64,184486,1,0,0:0:0:0:
320,64,184609,1,8,0:0:0:0:
320,64,184855,1,8,0:0:0:0:
64,64,185101,1,0,0:0:0:0:
64,64,185183,1,0,0:0:0:0:
64,64,185265,1,0,0:0:0:0:
64,64,185347,1,0,0:0:0:0:
64,64,185716,1,0,0:0:0:0:
320,64,186085,1,8,0:0:0:0:
320,64,186331,1,8,0:0:0:0:
320,64,186576,1,8,0:0:0:0:
64,64,186822,1,0,0:0:0:0:
64,64,187191,1,0,0:0:0:0:
320,64,187560,1,8,0:0:0:0:
320,64,187806,1,8,0:0:0:0:
320,64,187867,1,8,0:0:0:0:
64,64,188052,1,0,0:0:0:0:
64,64,188298,1,0,0:0:0:0:
320,64,188544,1,8,0:0:0:0:
64,64,188667,1,0,0:0:0:0:
320,64,188790,1,8,0:0:0:0:
320,64,189035,1,8,0:0:0:0:
64,64,189281,1,0,0:0:0:0:
320,64,189404,1,8,0:0:0:0:
320,64,189527,1,8,0:0:0:0:
320,64,189650,1,8,0:0:0:0:
64,64,189773,1,0,0:0:0:0:
64,64,190019,1,0,0:0:0:0:
64,64,190142,1,0,0:0:0:0:
64,64,190388,1,0,0:0:0:0:
320,64,190511,1,8,0:0:0:0:
64,64,190757,1,0,0:0:0:0:
64,64,190880,1,0,0:0:0:0:
320,64,191003,1,8,0:0:0:0:
320,64,191126,1,8,0:0:0:0:
64,64,191249,1,0,0:0:0:0:
64,64,191617,1,0,0:0:0:0:
320,64,191986,1,8,0:0:0:0:
320,64,192232,1,8,0:0:0:0:
64,64,192478,1,0,0:0:0:0:
320,64,192724,1,8,0:0:0:0:
64,64,192970,1,0,0:0:0:0:
64,64,193031,1,0,0:0:0:0:
320,64,193093,1,8,0:0:0:0:
64,64,193462,1,0,0:0:0:0:
320,64,193708,1,8,0:0:0:0:
320,64,193954,1,8,0:0:0:0:
64,64,194199,1,0,0:0:0:0:
64,64,194568,1,0,0:0:0:0:
320,64,194937,1,8,0:0:0:0:
64,64,195183,1,0,0:0:0:0:
64,64,195306,1,0,0:0:0:0:
64,64,195429,1,0,0:0:0:0:
320,64,195675,1,8,0:0:0:0:
320,64,195921,1,8,0:0:0:0:
64,64,196044,1,0,0:0:0:0:
64,64,196290,1,0,0:0:0:0:
320,64,196413,1,8,0:0:0:0:
64,64,196658,1,0,0:0:0:0:
64,64,196904,1,0,0:0:0:0:
320,64,197150,1,8,0:0:0:0:
320,64,197396,1,8,0:0:0:0:
64,64,197458,1,0,0:0:0:0:
64,64,197519,1,0,0:0:0:0:
64,64,197888,1,0,0:0:0:0:
64,64,198134,1,0,0:0:0:0:
64,64,198380,1,0,0:0:0:0:
320,64,198626,1,8,0:0:0:0:
320,64,198872,1,8,0:0:0:0:
320,64,198933,1,8,0:0:0:0:
64,64,198995,1,0,0:0:0:0:
64,64,199240,1,0,0:0:0:0:
64,64,199363,1,0,0:0:0:0:
64,64,199609,1,0,0:0:0:0:
320,64,199855,1,8,0:0:0:0:
320,64,200101,1,8,0:0:0:0:
64,64,200470,1,0,0:0:0:0:
64,64,200716,1,0,0:0:0:0:
64,64,200777,1,0,0:0:0:0:
320,64,200839,1,8,0:0:0:0:
64,64,201085,1,0,0:0:0:0:
64,64,201331,1,0,0:0:0:0:
64,64,201576,1,0,0:0:0:0:
64,64,201945,1,0,0:0:0:0:
64,64,202191,1,0,0:0:0:0:
320,64,202253,1,8,0:0:0:0:
320,64,202314,1,8,0:0:0:0:
64,64,202560,1,0,0:0:0:0:
64,64,202806,1,0,0:0:0:0:
320,64,203052,1,8,0:0:0:0:
320,64,203175,1,8,0:0:0:0:
64,64,203298,1,0,0:0:0:0:
320,64,203421,1,8,0:0:0:0:
64,64,203544,1,0,0:0:0:0:
64,64,203605,1,0,0:0:0:0:
64,64,203667,1,0,0:0:0:0:
320,64,203790,1,8,0:0:0:0:
320,64,203913,1,8,0:0:0:0:
64,64,204035,1,0,0:0:0:0:
64,64,204097,1,0,0:0:0:0:
320,64,204158,1,8,0:0:0:0:
320,64,204220,1,8,0:0:0:0:
64,64,204281,1,0,0:0:0:0:
64,64,205757,5,0,0:0:0:0:
64,64,205818,1,0,0:0:0:0:
64,64,205880,1,0,0:0:0:0:
64,64,205941,1,0,0:0:0:0:
320,64,206003,1,12,0:0:0:0:
64,64,206126,1,0,0:0:0:0:
320,64,206249,1,8,0:0:0:0:
320,64,206310,1,8,0:0:0:0:
320,64,206372,1,8,0:0:0:0:
64,64,206495,1,0,0:0:0:0:
64,64,206556,1,0,0:0:0:0:
64,64,206617,1,0,0:0:0:0:
320,64,206740,1,8,0:0:0:0:
64,64,206863,1,0,0:0:0:0:
64,64,206925,1,0,0:0:0:0:
320,64,206986,1,8,0:0:0:0:
64,64,207109,1,0,0:0:0:0:
320,64,207232,1,8,0:0:0:0:
64,64,207294,1,0,0:0:0:0:
64,64,207355,1,0,0:0:0:0:
64,64,207478,1,4,0:0:0:0:
64,64,207601,1,0,0:0:0:0:
64,64,207663,1,0,0:0:0:0:
320,64,207724,1,8,0:0:0:0:
64,64,207847,1,0,0:0:0:0:
320,64,207970,1,8,0:0:0:0:
320,64,208093,1,8,0:0:0:0:
64,64,208216,1,0,0:0:0:0:
64,64,208277,1,0,0:0:0:0:
64,64,208339,1,0,0:0:0:0:
320,64,208400,1,8,0:0:0:0:
320,64,208462,1,8,0:0:0:0:
64,64,208585,1,0,0:0:0:0:
320,64,208708,1,8,0:0:0:0:
64,64,208831,1,0,0:0:0:0:
320,64,208954,1,12,0:0:0:0:
64,64,209076,1,0,0:0:0:0:
320,64,209199,1,8,0:0:0:0:
320,64,209261,1,8,0:0:0:0:
320,64,209322,1,8,0:0:0:0:
64,64,209445,1,0,0:0:0:0:
64,64,209568,1,0,0:0:0:0:
320,64,209691,1,8,0:0:0:0:
64,64,209814,1,0,0:0:0:0:
64,64,209876,1,0,0:0:0:0:
320,64,209937,1,8,0:0:0:0:
64,64,210060,1,0,0:0:0:0:
64,64,210122,1,0,0:0:0:0:
320,64,210183,1,8,0:0:0:0:
320,64,210245,1,8,0:0:0:0:
320,64,210306,1,8,0:0:0:0:
64,64,210429,1,4,0:0:0:0:
320,64,210552,1,8,0:0:0:0:
320,64,210675,1,8,0:0:0:0:
64,64,210798,1,4,0:0:0:0:
320,64,210921,1,8,0:0:0:0:
320,64,210982,1,8,0:0:0:0:
320,64,211044,1,8,0:0:0:0:
64,64,211167,1,4,0:0:0:0:
320,64,211290,1,8,0:0:0:0:
64,64,211413,1,4,0:0:0:0:
320,64,211535,1,8,0:0:0:0:
320,64,211597,1,8,0:0:0:0:
64,64,211658,1,4,0:0:0:0:
320,64,211781,1,8,0:0:0:0:
64,64,211904,1,4,0:0:0:0:
64,64,212027,1,0,0:0:0:0:
320,64,212150,1,8,0:0:0:0:
64,64,212212,1,0,0:0:0:0:
320,64,212273,1,8,0:0:0:0:
64,64,212396,1,0,0:0:0:0:
64,64,212519,1,0,0:0:0:0:
320,64,212642,1,8,0:0:0:0:
320,64,212704,1,8,0:0:0:0:
320,64,212765,1,8,0:0:0:0:
64,64,212888,1,0,0:0:0:0:
64,64,212949,1,0,0:0:0:0:
64,64,213011,1,0,0:0:0:0:
320,64,213134,1,8,0:0:0:0:
64,64,213257,1,0,0:0:0:0:
320,64,213380,1,12,0:0:0:0:
64,64,213503,1,0,0:0:0:0:
64,64,213564,1,0,0:0:0:0:
320,64,213626,1,8,0:0:0:0:
320,64,213749,1,8,0:0:0:0:
64,64,213872,1,0,0:0:0:0:
320,64,213933,1,8,0:0:0:0:
64,64,213995,1,0,0:0:0:0:
320,64,214117,1,8,0:0:0:0:
320,64,214179,1,8,0:0:0:0:
64,64,214240,1,0,0:0:0:0:
320,64,214363,1,8,0:0:0:0:
64,64,214425,1,0,0:0:0:0:
64,64,214486,1,0,0:0:0:0:
64,64,214548,1,0,0:0:0:0:
320,64,214609,1,8,0:0:0:0:
320,64,214732,1,8,0:0:0:0:
64,64,214855,1,4,0:0:0:0:
64,64,214978,1,0,0:0:0:0:
320,64,215101,1,8,0:0:0:0:
64,64,215163,1,0,0:0:0:0:
64,64,215224,1,0,0:0:0:0:
320,64,215347,1,8,0:0:0:0:
64,64,215408,1,0,0:0:0:0:
64,64,215470,1,0,0:0:0:0:
320,64,215593,1,8,0:0:0:0:
64,64,215716,1,0,0:0:0:0:
64,64,215777,1,0,0:0:0:0:
320,64,215839,1,8,0:0:0:0:
64,64,215962,1,0,0:0:0:0:
64,64,216023,1,0,0:0:0:0:
320,64,216085,1,8,0:0:0:0:
64,64,216208,1,0,0:0:0:0:
320,64,216331,1,12,0:0:0:0:
64,64,216454,1,4,0:0:0:0:
64,64,216699,1,4,0:0:0:0:
320,64,216822,1,8,0:0:0:0:
64,64,216945,1,4,0:0:0:0:
320,64,217068,1,12,0:0:0:0:
64,64,217191,1,0,0:0:0:0:
64,64,217253,1,0,0:0:0:0:
320,64,217314,1,12,0:0:0:0:
64,64,217437,1,0,0:0:0:0:
64,64,217499,1,0,0:0:0:0:
320,64,217560,1,12,0:0:0:0:
64,64,217683,1,0,0:0:0:0:
320,64,217806,1,12,0:0:0:0:
64,64,217929,1,0,0:0:0:0:
64,64,217990,1,0,0:0:0:0:
320,64,218052,1,8,0:0:0:0:
320,64,218113,1,8,0:0:0:0:
64,64,218175,1,0,0:0:0:0:
320,64,218298,1,8,0:0:0:0:
320,64,218359,1,8,0:0:0:0:
64,64,218421,1,0,0:0:0:0:
320,64,218544,1,8,0:0:0:0:
64,64,218605,1,0,0:0:0:0:
64,64,218667,1,0,0:0:0:0:
320,64,218790,1,8,0:0:0:0:
64,64,218913,1,0,0:0:0:0:
64,64,218974,1,0,0:0:0:0:
320,64,219035,1,8,0:0:0:0:
64,64,219158,1,0,0:0:0:0:
320,64,219281,1,12,0:0:0:0:
64,64,219404,1,0,0:0:0:0:
320,64,219527,1,8,0:0:0:0:
320,64,219589,1,8,0:0:0:0:
64,64,219650,1,0,0:0:0:0:
320,64,219773,1,8,0:0:0:0:
64,64,219896,1,0,0:0:0:0:
64,64,219958,1,0,0:0:0:0:
320,64,220019,1,8,0:0:0:0:
64,64,220142,1,0,0:0:0:0:
320,64,220265,1,8,0:0:0:0:
320,64,220326,1,8,0:0:0:0:
64,64,220388,1,0,0:0:0:0:
64,64,220449,1,0,0:0:0:0:
64,64,220511,1,0,0:0:0:0:
64,64,220634,1,0,0:0:0:0:
64,64,220757,1,4,0:0:0:0:
64,64,220880,1,0,0:0:0:0:
320,64,221003,1,8,0:0:0:0:
320,64,221126,1,8,0:0:0:0:
64,64,221249,1,0,0:0:0:0:
64,64,221310,1,0,0:0:0:0:
64,64,221372,1,0,0:0:0:0:
320,64,221495,1,8,0:0:0:0:
64,64,221617,1,0,0:0:0:0:
64,64,221679,1,0,0:0:0:0:
320,64,221740,1,8,0:0:0:0:
64,64,221863,1,0,0:0:0:0:
320,64,221925,1,8,0:0:0:0:
320,64,221986,1,8,0:0:0:0:
64,64,222109,1,0,0:0:0:0:
320,64,222232,1,12,0:0:0:0:
64,64,222355,1,0,0:0:0:0:
64,64,222478,1,0,0:0:0:0:
320,64,222601,1,8,0:0:0:0:
320,64,222663,1,8,0:0:0:0:
64,64,222724,1,0,0:0:0:0:
64,64,222847,1,0,0:0:0:0:
320,64,222970,1,8,0:0:0:0:
320,64,223031,1,8,0:0:0:0:
64,64,223093,1,0,0:0:0:0:
64,64,223154,1,0,0:0:0:0:
320,64,223216,1,8,0:0:0:0:
320,64,223277,1,8,0:0:0:0:
320,64,223339,1,8,0:0:0:0:
64,64,223400,1,0,0:0:0:0:
320,64,223462,1,8,0:0:0:0:
64,64,223585,1,0,0:0:0:0:
64,64,223708,1,4,0:0:0:0:
64,64,223831,1,0,0:0:0:0:
320,64,223954,1,8,0:0:0:0:
320,64,224015,1,8,0:0:0:0:
320,64,224076,1,8,0:0:0:0:
64,64,224199,1,0,0:0:0:0:
320,64,224261,1,8,0:0:0:0:
64,64,224322,1,0,0:0:0:0:
320,64,224445,1,8,0:0:0:0:
320,64,224507,1,8,0:0:0:0:
64,64,224568,1,0,0:0:0:0:
320,64,224691,1,8,0:0:0:0:
64,64,224814,1,0,0:0:0:0:
320,64,224937,1,8,0:0:0:0:
320,64,224999,1,8,0:0:0:0:
320,64,225060,1,8,0:0:0:0:
64,64,225183,1,4,0:0:0:0:
64,64,225306,1,0,0:0:0:0:
320,64,225429,1,8,0:0:0:0:
64,64,225490,1,0,0:0:0:0:
320,64,225552,1,8,0:0:0:0:
64,64,225675,1,0,0:0:0:0:
320,64,225736,1,8,0:0:0:0:
320,64,225798,1,8,0:0:0:0:
64,64,225921,1,0,0:0:0:0:
64,64,225982,1,0,0:0:0:0:
64,64,226044,1,0,0:0:0:0:
320,64,226167,1,8,0:0:0:0:
320,64,226228,1,8,0:0:0:0:
64,64,226290,1,0,0:0:0:0:
64,64,226351,1,0,0:0:0:0:
64,64,226413,1,0,0:0:0:0:
64,64,226535,1,0,0:0:0:0:
320,64,226658,1,12,0:0:0:0:
64,64,226781,1,0,0:0:0:0:
320,64,226904,1,8,0:0:0:0:
64,64,226966,1,0,0:0:0:0:
64,64,227027,1,0,0:0:0:0:
320,64,227150,1,8,0:0:0:0:
64,64,227212,1,0,0:0:0:0:
64,64,227273,1,0,0:0:0:0:
320,64,227396,1,8,0:0:0:0:
64,64,227519,1,0,0:0:0:0:
320,64,227642,1,8,0:0:0:0:
64,64,227765,1,0,0:0:0:0:
320,64,227888,1,8,0:0:0:0:
320,64,228011,1,8,0:0:0:0:
64,64,228134,1,4,0:0:0:0:
64,64,228257,1,0,0:0:0:0:
64,64,228503,1,0,0:0:0:0:
64,64,228749,1,0,0:0:0:0:
64,64,228872,1,4,0:0:0:0:
64,64,229117,1,0,0:0:0:0:
64,64,229240,1,0,0:0:0:0:
64,64,229363,1,0,0:0:0:0:
64,64,229486,1,0,0:0:0:0:
352,64,229609,1,8,0:0:0:0:
64,64,230900,5,0,0:0:0:0:
64,64,230962,5,0,0:0:0:0:
64,64,231023,1,0,0:0:0:0:
64,64,231085,1,0,0:0:0:0:
64,64,232314,1,0,0:0:0:0:
64,64,232376,1,0,0:0:0:0:
64,64,232437,1,0,0:0:0:0:
64,64,232499,1,0,0:0:0:0:
64,64,232560,1,0,0:0:0:0:
64,64,232929,1,0,0:0:0:0:
64,64,233790,1,0,0:0:0:0:
64,64,233872,1,0,0:0:0:0:
64,64,233954,1,0,0:0:0:0:
64,64,234035,1,0,0:0:0:0:
64,64,235265,1,0,0:0:0:0:
64,64,235326,1,0,0:0:0:0:
64,64,235388,1,0,0:0:0:0:
64,64,235449,1,0,0:0:0:0:
64,64,235511,1,0,0:0:0:0:
64,64,235880,1,0,0:0:0:0:
64,64,236740,1,0,0:0:0:0:
64,64,236822,1,0,0:0:0:0:
64,64,236904,1,0,0:0:0:0:
64,64,236986,1,0,0:0:0:0:
64,64,238216,1,0,0:0:0:0:
64,64,238277,1,0,0:0:0:0:
64,64,238339,1,0,0:0:0:0:
64,64,238400,1,0,0:0:0:0:
64,64,238462,1,0,0:0:0:0:
64,64,238831,1,0,0:0:0:0:
64,64,239691,1,0,0:0:0:0:
64,64,239773,1,0,0:0:0:0:
64,64,239855,1,0,0:0:0:0:
64,64,239937,1,0,0:0:0:0:
64,64,241167,1,0,0:0:0:0:
64,64,241228,1,0,0:0:0:0:
64,64,241290,1,0,0:0:0:0:
64,64,241351,1,0,0:0:0:0:
64,64,241413,1,0,0:0:0:0:
64,64,241781,1,0,0:0:0:0:
64,64,242642,1,0,0:0:0:0:
64,64,242704,1,0,0:0:0:0:
64,64,242765,1,0,0:0:0:0:
64,64,242826,1,0,0:0:0:0:
320,64,242888,1,8,0:0:0:0:
320,64,243011,1,8,0:0:0:0:
320,64,243257,1,8,0:0:0:0:
320,64,243503,1,8,0:0:0:0:
320,64,243626,1,8,0:0:0:0:
320,64,243872,1,8,0:0:0:0:
320,64,244117,1,8,0:0:0:0:
64,64,244179,1,0,0:0:0:0:
64,64,244240,1,0,0:0:0:0:
64,64,244302,1,0,0:0:0:0:
320,64,244363,1,8,0:0:0:0:
320,64,244486,1,8,0:0:0:0:
320,64,244732,1,8,0:0:0:0:
320,64,244978,1,8,0:0:0:0:
320,64,245101,1,8,0:0:0:0:
320,64,245347,1,8,0:0:0:0:
320,64,245593,1,8,0:0:0:0:
64,64,245654,1,0,0:0:0:0:
64,64,245716,1,0,0:0:0:0:
64,64,245777,1,0,0:0:0:0:
320,64,245839,1,8,0:0:0:0:
320,64,245962,1,8,0:0:0:0:
320,64,246208,1,8,0:0:0:0:
320,64,246454,1,8,0:0:0:0:
320,64,246576,1,8,0:0:0:0:
320,64,246699,1,8,0:0:0:0:
320,64,246822,1,8,0:0:0:0:
320,64,247068,1,8,0:0:0:0:
64,64,247130,1,0,0:0:0:0:
64,64,247191,1,0,0:0:0:0:
64,64,247253,1,0,0:0:0:0:
320,64,247314,1,8,0:0:0:0:
320,64,247437,1,8,0:0:0:0:
320,64,247683,1,8,0:0:0:0:
320,64,247805,1,8,0:0:0:0:
320,64,247929,1,8,0:0:0:0:
320,64,248052,1,8,0:0:0:0:
64,64,248175,1,0,0:0:0:0:
320,64,248297,1,8,0:0:0:0:
320,64,248420,1,8,0:0:0:0:
320,64,248544,1,8,0:0:0:0:
64,64,248605,1,0,0:0:0:0:
64,64,248667,1,0,0:0:0:0:
64,64,248728,1,0,0:0:0:0:
320,64,248790,1,8,0:0:0:0:
64,64,248913,1,0,0:0:0:0:
320,64,249158,1,8,0:0:0:0:
64,64,249404,1,0,0:0:0:0:
320,64,249527,1,8,0:0:0:0:
320,64,249773,1,8,0:0:0:0:
320,64,250019,1,8,0:0:0:0:
64,64,250081,1,0,0:0:0:0:
64,64,250142,1,0,0:0:0:0:
64,64,250204,1,0,0:0:0:0:
320,64,250265,1,8,0:0:0:0:
320,64,250388,1,8,0:0:0:0:
320,64,250634,1,8,0:0:0:0:
64,64,250880,1,0,0:0:0:0:
320,64,251003,1,8,0:0:0:0:
320,64,251249,5,8,0:0:0:0:
320,64,251495,1,8,0:0:0:0:
64,64,251556,1,0,0:0:0:0:
64,64,251617,1,0,0:0:0:0:
64,64,251679,1,0,0:0:0:0:
320,64,251740,1,8,0:0:0:0:
64,64,251863,1,0,0:0:0:0:
320,64,252109,1,8,0:0:0:0:
64,64,252355,1,0,0:0:0:0:
320,64,252478,1,8,0:0:0:0:
64,64,252601,1,0,0:0:0:0:
320,64,252724,1,8,0:0:0:0:
320,64,252970,1,8,0:0:0:0:
64,64,253031,1,0,0:0:0:0:
64,64,253093,1,0,0:0:0:0:
64,64,253154,1,0,0:0:0:0:
320,64,253216,1,8,0:0:0:0:
320,64,253339,1,8,0:0:0:0:
320,64,253585,1,8,0:0:0:0:
64,64,253646,1,0,0:0:0:0:
64,64,253708,1,0,0:0:0:0:
320,64,253831,1,8,0:0:0:0:
64,64,253954,1,0,0:0:0:0:
320,64,254076,1,8,0:0:0:0:
320,64,254199,1,8,0:0:0:0:
64,64,254322,1,0,0:0:0:0:
320,64,254445,1,8,0:0:0:0:
320,64,254691,1,12,0:0:0:0:
320,64,254814,1,8,0:0:0:0:
320,64,255060,1,8,0:0:0:0:
320,64,255429,1,8,0:0:0:0:
320,64,255675,1,8,0:0:0:0:
320,64,255921,1,8,0:0:0:0:
320,64,256167,1,8,0:0:0:0:
320,64,256290,1,8,0:0:0:0:
320,64,256535,1,8,0:0:0:0:
320,64,256904,1,8,0:0:0:0:
320,64,257150,1,8,0:0:0:0:
320,64,257396,1,8,0:0:0:0:
320,64,257642,1,8,0:0:0:0:
320,64,257765,1,8,0:0:0:0:
320,64,258011,1,8,0:0:0:0:
320,64,258380,1,8,0:0:0:0:
320,64,258626,1,8,0:0:0:0:
320,64,258872,1,8,0:0:0:0:
320,64,259117,1,8,0:0:0:0:
320,64,259240,1,8,0:0:0:0:
320,64,259486,1,8,0:0:0:0:
320,64,259855,1,8,0:0:0:0:
320,64,260101,1,8,0:0:0:0:
320,64,260347,1,8,0:0:0:0:
64,64,260470,1,0,0:0:0:0:
64,64,260531,1,0,0:0:0:0:
320,64,260593,1,12,0:0:0:0:
64,64,260716,1,4,0:0:0:0:
64,64,260962,1,4,0:0:0:0:
320,64,261085,1,12,0:0:0:0:
64,64,261208,1,0,0:0:0:0:
64,64,261331,1,4,0:0:0:0:
64,64,261454,1,4,0:0:0:0:
64,64,261576,1,0,0:0:0:0:
320,64,261699,1,12,0:0:0:0:
320,64,261822,1,12,0:0:0:0:
64,64,261945,1,0,0:0:0:0:
320,64,262068,1,12,0:0:0:0:
64,64,262191,1,4,0:0:0:0:
64,64,262437,1,4,0:0:0:0:
320,64,262560,1,12,0:0:0:0:
64,64,262683,1,0,0:0:0:0:
320,64,262806,1,12,0:0:0:0:
64,64,262929,1,0,0:0:0:0:
320,64,263052,1,12,0:0:0:0:
320,64,263298,1,12,0:0:0:0:
64,64,263544,1,4,0:0:0:0:
64,64,263667,1,4,0:0:0:0:
64,64,263913,1,4,0:0:0:0:
64,64,264158,1,0,0:0:0:0:
320,64,264281,1,12,0:0:0:0:
64,64,264404,1,0,0:0:0:0:
320,64,264527,1,12,0:0:0:0:
320,64,264773,1,12,0:0:0:0:
64,64,264896,1,0,0:0:0:0:
320,64,265019,1,12,0:0:0:0:
64,64,265265,1,4,0:0:0:0:
64,64,265511,1,4,0:0:0:0:
320,64,265757,1,12,0:0:0:0:
320,64,266003,1,12,0:0:0:0:
320,64,266249,1,12,0:0:0:0:
320,64,267970,1,8,0:0:0:0:
64,64,268216,1,0,0:0:0:0:
64,64,268462,1,0,0:0:0:0:
64,64,268708,1,0,0:0:0:0:
320,64,268954,1,8,0:0:0:0:
64,64,269199,1,0,0:0:0:0:
320,64,269445,1,8,0:0:0:0:
64,64,269691,1,0,0:0:0:0:
64,64,269937,1,0,0:0:0:0:
320,64,270183,1,8,0:0:0:0:
64,64,270429,1,0,0:0:0:0:
64,64,270675,1,0,0:0:0:0:
64,64,270921,1,0,0:0:0:0:
320,64,271167,1,8,0:0:0:0:
64,64,271413,1,0,0:0:0:0:
320,64,271658,1,8,0:0:0:0:
320,64,271904,1,8,0:0:0:0:
320,64,272150,1,8,0:0:0:0:
320,64,272396,1,8,0:0:0:0:
320,64,273134,1,8,0:0:0:0:
64,64,273872,1,0,0:0:0:0:
320,64,274117,1,8,0:0:0:0:
64,64,274363,1,0,0:0:0:0:
320,64,274609,1,8,0:0:0:0:
64,64,274855,1,0,0:0:0:0:
64,64,275101,1,0,0:0:0:0:
64,64,275347,1,0,0:0:0:0:
320,64,275593,1,8,0:0:0:0:
320,64,275839,1,8,0:0:0:0:
64,64,276085,1,0,0:0:0:0:
64,64,276331,1,0,0:0:0:0:
64,64,276576,1,0,0:0:0:0:
320,64,276822,1,8,0:0:0:0:
320,64,277068,1,8,0:0:0:0:
320,64,277314,1,8,0:0:0:0:
64,64,277560,1,0,0:0:0:0:
64,64,277806,1,0,0:0:0:0:
64,64,278052,1,0,0:0:0:0:
320,64,278298,1,8,0:0:0:0:
64,64,278913,1,0,0:0:0:0:
64,64,278974,1,0,0:0:0:0:
320,64,279035,1,8,0:0:0:0:
64,64,279158,1,0,0:0:0:0:
320,64,279281,1,8,0:0:0:0:
320,64,279343,1,8,0:0:0:0:
64,64,279404,1,0,0:0:0:0:
64,64,279466,1,0,0:0:0:0:
320,64,279527,1,8,0:0:0:0:
64,64,279650,1,0,0:0:0:0:
64,64,279712,1,0,0:0:0:0:
320,64,279773,1,12,0:0:0:0:
64,64,279896,1,0,0:0:0:0:
320,64,280019,1,8,0:0:0:0:
320,64,280081,1,8,0:0:0:0:
320,64,280142,1,8,0:0:0:0:
64,64,280265,1,0,0:0:0:0:
64,64,280326,1,0,0:0:0:0:
64,64,280388,1,0,0:0:0:0:
320,64,280511,1,8,0:0:0:0:
64,64,280634,1,0,0:0:0:0:
64,64,280695,1,0,0:0:0:0:
320,64,280757,1,8,0:0:0:0:
64,64,280880,1,0,0:0:0:0:
320,64,281003,1,8,0:0:0:0:
320,64,281064,1,8,0:0:0:0:
64,64,281126,1,0,0:0:0:0:
320,64,281249,1,12,0:0:0:0:
64,64,281372,1,0,0:0:0:0:
320,64,281433,1,8,0:0:0:0:
64,64,281495,1,0,0:0:0:0:
320,64,281617,1,8,0:0:0:0:
320,64,281679,1,8,0:0:0:0:
64,64,281740,1,0,0:0:0:0:
64,64,281863,1,0,0:0:0:0:
320,64,281986,1,8,0:0:0:0:
64,64,282109,1,0,0:0:0:0:
64,64,282171,1,0,0:0:0:0:
320,64,282232,1,8,0:0:0:0:
64,64,282355,1,0,0:0:0:0:
320,64,282478,1,8,0:0:0:0:
320,64,282540,1,8,0:0:0:0:
320,64,282601,1,8,0:0:0:0:
64,64,282724,1,4,0:0:0:0:
64,64,282847,1,0,0:0:0:0:
64,64,282908,1,0,0:0:0:0:
320,64,282970,1,8,0:0:0:0:
320,64,283031,1,8,0:0:0:0:
320,64,283093,1,8,0:0:0:0:
64,64,283216,1,0,0:0:0:0:
64,64,283277,1,0,0:0:0:0:
64,64,283339,1,0,0:0:0:0:
320,64,283462,1,8,0:0:0:0:
64,64,283585,1,0,0:0:0:0:
64,64,283646,1,0,0:0:0:0:
320,64,283708,1,8,0:0:0:0:
64,64,283831,1,0,0:0:0:0:
320,64,283954,1,8,0:0:0:0:
320,64,284015,1,8,0:0:0:0:
320,64,284076,1,8,0:0:0:0:
320,64,284199,1,12,0:0:0:0:
64,64,284322,1,0,0:0:0:0:
64,64,284384,1,0,0:0:0:0:
320,64,284445,1,8,0:0:0:0:
64,64,284568,1,0,0:0:0:0:
320,64,284691,1,8,0:0:0:0:
320,64,284753,1,8,0:0:0:0:
64,64,284814,1,0,0:0:0:0:
320,64,284937,1,8,0:0:0:0:
64,64,285060,1,0,0:0:0:0:
64,64,285122,1,0,0:0:0:0:
320,64,285183,1,8,0:0:0:0:
320,64,285245,1,8,0:0:0:0:
64,64,285306,1,0,0:0:0:0:
64,64,285367,1,0,0:0:0:0:
320,64,285429,1,8,0:0:0:0:
64,64,285490,1,0,0:0:0:0:
64,64,285552,1,0,0:0:0:0:
64,64,285613,1,0,0:0:0:0:
320,64,285675,1,12,0:0:0:0:
64,64,285798,1,0,0:0:0:0:
320,64,285921,1,8,0:0:0:0:
320,64,285982,1,8,0:0:0:0:
320,64,286044,1,8,0:0:0:0:
64,64,286167,1,0,0:0:0:0:
64,64,286228,1,0,0:0:0:0:
64,64,286290,1,0,0:0:0:0:
320,64,286413,1,8,0:0:0:0:
64,64,286474,1,0,0:0:0:0:
320,64,286535,1,8,0:0:0:0:
64,64,286658,1,0,0:0:0:0:
64,64,286720,1,0,0:0:0:0:
320,64,286781,1,8,0:0:0:0:
64,64,286843,1,0,0:0:0:0:
320,64,286904,1,8,0:0:0:0:
320,64,286966,1,8,0:0:0:0:
64,64,287027,1,0,0:0:0:0:
64,64,287150,1,4,0:0:0:0:
64,64,287273,1,0,0:0:0:0:
64,64,287335,1,0,0:0:0:0:
320,64,287396,1,8,0:0:0:0:
64,64,287519,1,0,0:0:0:0:
320,64,287642,1,8,0:0:0:0:
64,64,287704,1,0,0:0:0:0:
64,64,287765,1,0,0:0:0:0:
64,64,287888,1,0,0:0:0:0:
64,64,288011,1,0,0:0:0:0:
64,64,288072,1,0,0:0:0:0:
320,64,288134,1,8,0:0:0:0:
64,64,288257,1,0,0:0:0:0:
320,64,288380,1,8,0:0:0:0:
320,64,288441,1,8,0:0:0:0:
64,64,288503,1,0,0:0:0:0:
320,64,288626,1,12,0:0:0:0:
64,64,288749,1,0,0:0:0:0:
320,64,288872,1,8,0:0:0:0:
320,64,288933,1,8,0:0:0:0:
320,64,288995,1,8,0:0:0:0:
64,64,289117,1,0,0:0:0:0:
320,64,289179,1,8,0:0:0:0:
64,64,289240,1,0,0:0:0:0:
320,64,289363,1,8,0:0:0:0:
320,64,289425,1,8,0:0:0:0:
64,64,289486,1,0,0:0:0:0:
320,64,289609,1,8,0:0:0:0:
64,64,289732,1,0,0:0:0:0:
64,64,289794,1,0,0:0:0:0:
320,64,289855,1,8,0:0:0:0:
64,64,289978,1,0,0:0:0:0:
320,64,290101,1,12,0:0:0:0:
64,64,290224,1,0,0:0:0:0:
320,64,290347,1,8,0:0:0:0:
320,64,290408,1,8,0:0:0:0:
64,64,290470,1,0,0:0:0:0:
64,64,290531,1,0,0:0:0:0:
64,64,290593,1,0,0:0:0:0:
64,64,290716,1,0,0:0:0:0:
320,64,290839,1,12,0:0:0:0:
64,64,290962,1,0,0:0:0:0:
64,64,291023,1,0,0:0:0:0:
320,64,291085,1,8,0:0:0:0:
320,64,291208,1,8,0:0:0:0:
64,64,291331,1,0,0:0:0:0:
64,64,291392,1,0,0:0:0:0:
64,64,291454,1,0,0:0:0:0:
320,64,291576,1,12,0:0:0:0:
64,64,291699,1,0,0:0:0:0:
320,64,291822,1,8,0:0:0:0:
64,64,291884,1,0,0:0:0:0:
320,64,291945,1,8,0:0:0:0:
64,64,292068,1,0,0:0:0:0:
64,64,292130,1,0,0:0:0:0:
64,64,292191,1,0,0:0:0:0:
320,64,292314,1,8,0:0:0:0:
64,64,292437,1,0,0:0:0:0:
64,64,292499,1,0,0:0:0:0:
320,64,292560,1,8,0:0:0:0:
64,64,292683,1,0,0:0:0:0:
64,64,292745,1,0,0:0:0:0:
320,64,292806,1,8,0:0:0:0:
320,64,292867,1,8,0:0:0:0:
64,64,292929,1,0,0:0:0:0:
320,64,293052,1,12,0:0:0:0:
64,64,293175,1,0,0:0:0:0:
320,64,293298,1,8,0:0:0:0:
320,64,293359,1,8,0:0:0:0:
320,64,293421,1,8,0:0:0:0:
64,64,293544,1,0,0:0:0:0:
64,64,293605,1,0,0:0:0:0:
64,64,293667,1,0,0:0:0:0:
320,64,293790,1,8,0:0:0:0:
64,64,293913,1,0,0:0:0:0:
64,64,293974,1,0,0:0:0:0:
320,64,294035,1,8,0:0:0:0:
64,64,294158,1,0,0:0:0:0:
64,64,294220,1,0,0:0:0:0:
320,64,294281,1,8,0:0:0:0:
64,64,294404,1,0,0:0:0:0:
64,64,294527,1,4,0:0:0:0:
64,64,294650,1,0,0:0:0:0:
320,64,294773,1,8,0:0:0:0:
320,64,294835,1,8,0:0:0:0:
64,64,294896,1,0,0:0:0:0:
320,64,295019,1,8,0:0:0:0:
64,64,295142,1,0,0:0:0:0:
64,64,295204,1,0,0:0:0:0:
320,64,295265,1,8,0:0:0:0:
64,64,295326,1,0,0:0:0:0:
64,64,295388,1,0,0:0:0:0:
320,64,295511,1,8,0:0:0:0:
64,64,295572,1,0,0:0:0:0:
64,64,295634,1,0,0:0:0:0:
320,64,295757,1,8,0:0:0:0:
64,64,295818,1,0,0:0:0:0:
64,64,295880,1,0,0:0:0:0:
320,64,296003,1,12,0:0:0:0:
64,64,296126,1,0,0:0:0:0:
64,64,296187,1,0,0:0:0:0:
64,64,296249,1,0,0:0:0:0:
64,64,296372,1,0,0:0:0:0:
320,64,296495,1,8,0:0:0:0:
64,64,296617,1,0,0:0:0:0:
320,64,296740,1,12,0:0:0:0:
64,64,296863,1,0,0:0:0:0:
320,64,296986,1,8,0:0:0:0:
320,64,297048,1,8,0:0:0:0:
64,64,297109,1,0,0:0:0:0:
64,64,297171,1,0,0:0:0:0:
320,64,297232,1,8,0:0:0:0:
320,64,297355,1,8,0:0:0:0:
64,64,297478,1,4,0:0:0:0:
64,64,297601,1,0,0:0:0:0:
320,64,297724,1,8,0:0:0:0:
320,64,297785,1,8,0:0:0:0:
320,64,297847,1,8,0:0:0:0:
64,64,297970,1,0,0:0:0:0:
320,64,298031,1,8,0:0:0:0:
64,64,298093,1,0,0:0:0:0:
320,64,298216,1,8,0:0:0:0:
64,64,298339,1,0,0:0:0:0:
64,64,298400,1,0,0:0:0:0:
320,64,298462,1,8,0:0:0:0:
320,64,298523,1,8,0:0:0:0:
64,64,298585,1,0,0:0:0:0:
320,64,298708,1,8,0:0:0:0:
64,64,298769,1,0,0:0:0:0:
64,64,298831,1,0,0:0:0:0:
64,64,298954,1,4,0:0:0:0:
64,64,299076,1,0,0:0:0:0:
320,64,299199,1,8,0:0:0:0:
64,64,299261,1,0,0:0:0:0:
320,64,299322,1,8,0:0:0:0:
64,64,299445,1,0,0:0:0:0:
320,64,299507,1,8,0:0:0:0:
320,64,299568,1,8,0:0:0:0:
64,64,299691,1,0,0:0:0:0:
64,64,299814,1,0,0:0:0:0:
320,64,299937,1,8,0:0:0:0:
320,64,299999,1,8,0:0:0:0:
64,64,300060,1,0,0:0:0:0:
64,64,300122,1,0,0:0:0:0:
320,64,300183,1,8,0:0:0:0:
64,64,300306,1,0,0:0:0:0:
320,64,300429,1,12,0:0:0:0:
64,64,300552,1,0,0:0:0:0:
320,64,300675,1,8,0:0:0:0:
320,64,300736,1,8,0:0:0:0:
320,64,300798,1,8,0:0:0:0:
64,64,300921,1,0,0:0:0:0:
64,64,300982,1,0,0:0:0:0:
64,64,301044,1,0,0:0:0:0:
320,64,301167,1,8,0:0:0:0:
64,64,301290,1,0,0:0:0:0:
64,64,301351,1,0,0:0:0:0:
320,64,301413,1,8,0:0:0:0:
64,64,301535,1,0,0:0:0:0:
64,64,301597,1,0,0:0:0:0:
320,64,301658,1,8,0:0:0:0:
64,64,301781,1,0,0:0:0:0:
320,64,301904,1,12,0:0:0:0:
64,64,302027,1,0,0:0:0:0:
64,64,302089,1,0,0:0:0:0:
64,64,302150,1,0,0:0:0:0:
320,64,302273,1,8,0:0:0:0:
320,64,302335,1,8,0:0:0:0:
64,64,302396,1,0,0:0:0:0:
64,64,302519,1,0,0:0:0:0:
320,64,302642,1,12,0:0:0:0:
64,64,302765,1,0,0:0:0:0:
64,64,302826,1,0,0:0:0:0:
320,64,302888,1,8,0:0:0:0:
64,64,302949,1,0,0:0:0:0:
320,64,303011,1,8,0:0:0:0:
320,64,303134,1,8,0:0:0:0:
64,64,303195,1,0,0:0:0:0:
64,64,303257,1,0,0:0:0:0:
320,64,303380,1,12,0:0:0:0:
320,64,303503,1,12,0:0:0:0:
64,64,303626,1,0,0:0:0:0:
320,64,303749,1,12,0:0:0:0:
64,64,303995,1,4,0:0:0:0:
320,64,304118,1,12,0:0:0:0:
64,64,304241,1,0,0:0:0:0:
320,64,304364,1,12,0:0:0:0:
320,64,304487,1,12,0:0:0:0:
64,64,304610,1,0,0:0:0:0:
64,64,304671,1,0,0:0:0:0:
64,64,304733,1,0,0:0:0:0:
320,64,304856,1,12,0:0:0:0:
320,64,304979,1,12,0:0:0:0:
64,64,305102,1,0,0:0:0:0:
320,64,305225,1,8,0:0:0:0:
320,64,305286,1,8,0:0:0:0:
320,64,305347,1,8,0:0:0:0:
64,64,305470,1,4,0:0:0:0:
320,64,305593,1,12,0:0:0:0:
64,64,305716,1,0,0:0:0:0:
320,64,305839,1,12,0:0:0:0:
64,64,305962,1,0,0:0:0:0:
64,64,306024,1,0,0:0:0:0:
320,64,306085,1,12,0:0:0:0:
64,64,306208,1,0,0:0:0:0:
320,64,306331,1,12,0:0:0:0:
320,64,306454,1,12,0:0:0:0:
64,64,306577,1,0,0:0:0:0:
320,64,306700,1,12,0:0:0:0:
64,64,306823,1,0,0:0:0:0:
64,64,306884,1,0,0:0:0:0:
64,64,306946,1,0,0:0:0:0:
320,64,307069,1,12,0:0:0:0:
64,64,307192,1,0,0:0:0:0:
320,64,307315,1,12,0:0:0:0:
64,64,307438,1,0,0:0:0:0:
320,64,307561,1,12,0:0:0:0:
64,64,307684,1,0,0:0:0:0:
64,64,307745,1,0,0:0:0:0:
320,64,307806,1,12,0:0:0:0:
320,64,307929,1,12,0:0:0:0:
64,64,308052,1,0,0:0:0:0:
64,64,308114,1,0,0:0:0:0:
320,64,308175,1,12,0:0:0:0:
64,64,308298,1,0,0:0:0:0:
320,64,308421,1,12,0:0:0:0:
64,64,308544,1,0,0:0:0:0:
64,64,308606,1,0,0:0:0:0:
64,64,308667,1,0,0:0:0:0:
320,64,308790,1,12,0:0:0:0:
64,64,308913,1,4,0:0:0:0:
320,64,309036,1,12,0:0:0:0:
64,64,309159,1,0,0:0:0:0:
320,64,309282,1,12,0:0:0:0:
320,64,309405,1,12,0:0:0:0:
64,64,309528,1,0,0:0:0:0:
320,64,309651,1,12,0:0:0:0:
64,64,309774,1,0,0:0:0:0:
64,64,309897,1,4,0:0:0:0:
320,64,310020,1,12,0:0:0:0:
64,64,310143,1,0,0:0:0:0:
320,64,310266,1,12,0:0:0:0:
64,64,310388,1,0,0:0:0:0:
64,64,310450,1,0,0:0:0:0:
320,64,310511,1,12,0:0:0:0:
64,64,310634,1,0,0:0:0:0:
320,64,310757,1,12,0:0:0:0:
320,64,310880,1,12,0:0:0:0:
64,64,311003,1,0,0:0:0:0:
64,64,311065,1,0,0:0:0:0:
320,64,311126,1,12,0:0:0:0:
64,64,311249,1,0,0:0:0:0:
64,64,311372,1,4,0:0:0:0:
320,64,311495,1,12,0:0:0:0:
64,64,311618,1,0,0:0:0:0:
320,64,311741,1,12,0:0:0:0:
64,64,311864,1,0,0:0:0:0:
64,64,311925,1,0,0:0:0:0:
320,64,311987,1,12,0:0:0:0:
64,64,312110,1,0,0:0:0:0:
64,64,312233,1,4,0:0:0:0:
64,64,312356,1,4,0:0:0:0:
64,64,312479,1,0,0:0:0:0:
320,64,312602,1,12,0:0:0:0:
64,64,312725,1,0,0:0:0:0:
320,64,312847,1,12,0:0:0:0:
64,64,312970,1,0,0:0:0:0:
64,64,313032,1,0,0:0:0:0:
64,64,313093,1,0,0:0:0:0:
320,64,313216,1,12,0:0:0:0:
64,64,313339,1,0,0:0:0:0:
64,64,313401,1,0,0:0:0:0:
320,64,313462,1,12,0:0:0:0:
64,64,313585,1,0,0:0:0:0:
320,64,313708,1,12,0:0:0:0:
320,64,313831,1,12,0:0:0:0:
64,64,313954,1,0,0:0:0:0:
64,64,314016,1,0,0:0:0:0:
320,64,314077,1,12,0:0:0:0:
320,64,314200,1,12,0:0:0:0:
64,64,314323,1,4,0:0:0:0:
320,64,314446,1,12,0:0:0:0:
64,64,314569,1,4,0:0:0:0:
320,64,314692,1,12,0:0:0:0:
320,64,314815,1,12,0:0:0:0:
320,64,314938,1,12,0:0:0:0:
320,64,315183,1,12,0:0:0:0:
64,64,315429,1,0,0:0:0:0:
320,64,315552,1,8,0:0:0:0:
64,64,315675,1,0,0:0:0:0:
64,64,315798,1,0,0:0:0:0:
320,64,315921,1,8,0:0:0:0:
64,64,316167,1,0,0:0:0:0:
64,64,316290,1,0,0:0:0:0:
320,64,316413,1,8,0:0:0:0:
320,64,316495,1,8,0:0:0:0:
320,64,316576,1,8,0:0:0:0:
64,64,316658,1,0,0:0:0:0:
64,64,316781,1,0,0:0:0:0:
64,64,316843,1,0,0:0:0:0:
320,64,316904,1,8,0:0:0:0:
64,64,317027,1,0,0:0:0:0:
320,64,317150,1,8,0:0:0:0:
64,64,317273,1,0,0:0:0:0:
64,64,317335,1,0,0:0:0:0:
320,64,317396,1,8,0:0:0:0:
64,64,317642,1,0,0:0:0:0:
320,64,317888,1,8,0:0:0:0:
320,64,317949,1,8,0:0:0:0:
320,64,318011,1,8,0:0:0:0:
64,64,318134,1,0,0:0:0:0:
64,64,318380,1,0,0:0:0:0:
320,64,318503,1,8,0:0:0:0:
64,64,318626,1,0,0:0:0:0:
64,64,318749,1,0,0:0:0:0:
64,64,318810,1,0,0:0:0:0:
320,64,318872,1,8,0:0:0:0:
64,64,319117,1,0,0:0:0:0:
64,64,319363,1,0,0:0:0:0:
320,64,319609,1,8,0:0:0:0:
320,64,319732,1,8,0:0:0:0:
320,64,319855,1,8,0:0:0:0:
64,64,319978,1,0,0:0:0:0:
320,64,320101,1,8,0:0:0:0:
320,64,320163,1,8,0:0:0:0:
64,64,320224,1,0,0:0:0:0:
64,64,320285,1,0,0:0:0:0:
320,64,320347,1,8,0:0:0:0:
64,64,320470,1,0,0:0:0:0:
64,64,320531,1,0,0:0:0:0:
320,64,320593,1,8,0:0:0:0:
64,64,320716,1,0,0:0:0:0:
320,64,320839,1,8,0:0:0:0:
320,64,321085,1,12,0:0:0:0:
64,64,321331,1,0,0:0:0:0:
320,64,321454,1,8,0:0:0:0:
64,64,321699,1,0,0:0:0:0:
320,64,321822,1,8,0:0:0:0:
320,64,321884,1,8,0:0:0:0:
320,64,321945,1,8,0:0:0:0:
64,64,322068,1,0,0:0:0:0:
64,64,322314,1,0,0:0:0:0:
320,64,322560,1,8,0:0:0:0:
64,64,322683,1,0,0:0:0:0:
320,64,322806,1,8,0:0:0:0:
64,64,323052,1,0,0:0:0:0:
320,64,323134,1,8,0:0:0:0:
320,64,323216,1,8,0:0:0:0:
64,64,323298,1,0,0:0:0:0:
320,64,323380,1,8,0:0:0:0:
320,64,323462,1,8,0:0:0:0:
64,64,323544,1,0,0:0:0:0:
64,64,323790,1,0,0:0:0:0:
64,64,324035,1,0,0:0:0:0:
320,64,324158,1,8,0:0:0:0:
64,64,324281,1,0,0:0:0:0:
320,64,324404,1,8,0:0:0:0:
64,64,324650,1,0,0:0:0:0:
320,64,324773,1,8,0:0:0:0:
64,64,325019,1,0,0:0:0:0:
320,64,325101,1,8,0:0:0:0:
320,64,325183,1,8,0:0:0:0:
64,64,325265,1,0,0:0:0:0:
320,64,325511,1,12,0:0:0:0:
64,64,325634,1,0,0:0:0:0:
64,64,325757,1,0,0:0:0:0:
320,64,325880,1,12,0:0:0:0:
64,64,326126,1,0,0:0:0:0:
320,64,326249,1,12,0:0:0:0:
64,64,326495,1,0,0:0:0:0:
64,64,326556,1,0,0:0:0:0:
320,64,326617,1,8,0:0:0:0:
64,64,326740,1,0,0:0:0:0:
64,64,326863,1,0,0:0:0:0:
320,64,326986,1,12,0:0:0:0:
64,64,327232,1,0,0:0:0:0:
320,64,327355,1,8,0:0:0:0:
64,64,327478,1,0,0:0:0:0:
64,64,327601,1,0,0:0:0:0:
320,64,327724,1,8,0:0:0:0:
64,64,327970,1,0,0:0:0:0:
64,64,328216,1,0,0:0:0:0:
320,64,328298,1,8,0:0:0:0:
320,64,328380,1,8,0:0:0:0:
64,64,328462,1,0,0:0:0:0:
320,64,328585,1,8,0:0:0:0:
64,64,328708,1,0,0:0:0:0:
64,64,328831,1,0,0:0:0:0:
64,64,328954,1,0,0:0:0:0:
320,64,329199,1,8,0:0:0:0:
64,64,329445,1,0,0:0:0:0:
320,64,329527,1,8,0:0:0:0:
64,64,329609,1,0,0:0:0:0:
64,64,329691,1,0,0:0:0:0:
320,64,329773,1,8,0:0:0:0:
64,64,329855,1,0,0:0:0:0:
64,64,329937,1,0,0:0:0:0:
320,64,330183,1,8,0:0:0:0:
320,64,330265,1,8,0:0:0:0:
64,64,330347,1,0,0:0:0:0:
320,64,330429,1,8,0:0:0:0:
320,64,330511,1,8,0:0:0:0:
64,64,330593,1,0,0:0:0:0:
320,64,330675,1,8,0:0:0:0:
64,64,330921,1,0,0:0:0:0:
64,64,331044,1,0,0:0:0:0:
320,64,331167,1,8,0:0:0:0:
320,64,331413,1,8,0:0:0:0:
64,64,331535,1,0,0:0:0:0:
64,64,331658,1,0,0:0:0:0:
64,64,331720,1,0,0:0:0:0:
320,64,331781,1,8,0:0:0:0:
64,64,332027,1,0,0:0:0:0:
320,64,332150,1,8,0:0:0:0:
64,64,332396,1,0,0:0:0:0:
64,64,332458,1,0,0:0:0:0:
64,64,332519,1,0,0:0:0:0:
64,64,332642,1,0,0:0:0:0:
64,64,332765,1,0,0:0:0:0:
320,64,332888,1,8,0:0:0:0:
64,64,333134,1,0,0:0:0:0:
320,64,333257,1,8,0:0:0:0:
64,64,333380,1,0,0:0:0:0:
320,64,333441,1,8,0:0:0:0:
64,64,333503,1,0,0:0:0:0:
64,64,333564,1,0,0:0:0:0:
320,64,333626,1,8,0:0:0:0:
64,64,333872,1,0,0:0:0:0:
64,64,333995,1,0,0:0:0:0:
320,64,334117,1,8,0:0:0:0:
320,64,334179,1,8,0:0:0:0:
64,64,334240,1,0,0:0:0:0:
64,64,334302,1,0,0:0:0:0:
320,64,334363,1,8,0:0:0:0:
320,64,334486,1,8,0:0:0:0:
320,64,334609,1,8,0:0:0:0:
64,64,334732,1,0,0:0:0:0:
320,64,334855,1,8,0:0:0:0:
64,64,334978,1,0,0:0:0:0:
320,64,335101,1,8,0:0:0:0:
320,64,335347,1,8,0:0:0:0:
64,64,335593,1,0,0:0:0:0:
320,64,335839,1,12,0:0:0:0:
64,64,336085,1,0,0:0:0:0:
64,64,336146,1,0,0:0:0:0:
64,64,336208,1,0,0:0:0:0:
320,64,336331,1,8,0:0:0:0:
64,64,336454,1,0,0:0:0:0:
320,64,336576,1,8,0:0:0:0:
64,64,336822,1,0,0:0:0:0:
64,64,336945,1,0,0:0:0:0:
320,64,337068,1,8,0:0:0:0:
64,64,337130,1,0,0:0:0:0:
320,64,337191,1,8,0:0:0:0:
320,64,337314,1,12,0:0:0:0:
64,64,337437,1,0,0:0:0:0:
64,64,337499,1,0,0:0:0:0:
320,64,337560,1,8,0:0:0:0:
64,64,337683,1,4,0:0:0:0:
320,64,337806,1,8,0:0:0:0:
320,64,337867,1,8,0:0:0:0:
64,64,337929,1,0,0:0:0:0:
64,64,338052,1,4,0:0:0:0:
64,64,338298,1,4,0:0:0:0:
320,64,338544,1,12,0:0:0:0:
320,64,338790,5,12,0:0:0:0:
320,64,338913,1,12,0:0:0:0:
320,64,339158,1,12,0:0:0:0:
320,64,339527,1,12,0:0:0:0:
64,64,340019,1,4,0:0:0:0:
320,64,340265,1,12,0:0:0:0:
64,64,340388,1,4,0:0:0:0:
64,64,340634,1,4,0:0:0:0:
320,64,341003,1,12,0:0:0:0:
64,64,341495,1,4,0:0:0:0:
320,64,341740,1,12,0:0:0:0:
64,64,341863,1,4,0:0:0:0:
320,64,342109,1,12,0:0:0:0:
64,64,342355,1,4,0:0:0:0:
320,64,342478,1,12,0:0:0:0:
64,64,342847,1,4,0:0:0:0:
64,64,342970,1,4,0:0:0:0:
320,64,343216,1,12,0:0:0:0:
64,64,343339,1,4,0:0:0:0:
64,64,343585,1,4,0:0:0:0:
320,64,343954,1,12,0:0:0:0:
320,64,344199,1,12,0:0:0:0:
320,64,344445,1,12,0:0:0:0:
320,64,344691,1,12,0:0:0:0:
320,64,344814,1,12,0:0:0:0:
64,64,344937,1,0,0:0:0:0:
64,64,344999,1,0,0:0:0:0:
320,64,345060,1,12,0:0:0:0:
320,64,345183,1,12,0:0:0:0:
64,64,345306,1,0,0:0:0:0:
320,64,345429,1,12,0:0:0:0:
320,64,345552,1,12,0:0:0:0:
64,64,345675,1,0,0:0:0:0:
64,64,345736,1,0,0:0:0:0:
320,64,345798,1,12,0:0:0:0:
320,64,345921,1,12,0:0:0:0:
64,64,346044,1,0,0:0:0:0:
64,64,346105,1,0,0:0:0:0:
320,64,346167,1,12,0:0:0:0:
64,64,346290,1,0,0:0:0:0:
64,64,346351,1,0,0:0:0:0:
64,64,346413,1,0,0:0:0:0:
320,64,346535,1,12,0:0:0:0:
320,64,346658,1,12,0:0:0:0:
64,64,346781,1,0,0:0:0:0:
64,64,346843,1,0,0:0:0:0:
320,64,346904,1,12,0:0:0:0:
64,64,347027,1,0,0:0:0:0:
64,64,347089,1,0,0:0:0:0:
320,64,347150,1,12,0:0:0:0:
64,64,347273,1,0,0:0:0:0:
64,64,347335,1,0,0:0:0:0:
320,64,347396,1,12,0:0:0:0:
64,64,347519,1,0,0:0:0:0:
320,64,347642,1,12,0:0:0:0:
320,64,347765,1,12,0:0:0:0:
64,64,347888,1,0,0:0:0:0:
64,64,347949,1,0,0:0:0:0:
320,64,348011,1,12,0:0:0:0:
64,64,348134,1,0,0:0:0:0:
64,64,348195,1,0,0:0:0:0:
64,64,348257,1,0,0:0:0:0:
320,64,348380,1,12,0:0:0:0:
64,64,348503,1,0,0:0:0:0:
320,64,348626,1,12,0:0:0:0:
64,64,348749,1,0,0:0:0:0:
64,64,348810,1,0,0:0:0:0:
320,64,348872,1,12,0:0:0:0:
64,64,348995,1,0,0:0:0:0:
320,64,349117,1,12,0:0:0:0:
64,64,349363,1,4,0:0:0:0:
64,64,349609,1,4,0:0:0:0:
320,64,349855,1,12,0:0:0:0:
320,64,350101,1,12,0:0:0:0:
320,64,350347,1,12,0:0:0:0:
