osu file format v14

[General]
AudioFilename: audio.mp3
AudioLeadIn: 0
PreviewTime: 278945
Countdown: 0
SampleSet: Normal
StackLeniency: 0.3
Mode: 0
LetterboxInBreaks: 0
WidescreenStoryboard: 0

[Editor]
DistanceSpacing: 0.1
BeatDivisor: 4
GridSize: 16
TimelineZoom: 4.000005

[Metadata]
Title:Moe Ochiru Hokori -Counter raid Another D-
TitleUnicode:燃え落ちる誇り -Counter raid Another D-
Artist:Katakiri Rekka
ArtistUnicode:片霧 烈火
Creator:[ Sharuresu ]
Version:Final Retribution
Source:艦隊これくしょん -艦これ-
Tags:Empire Ensemble kyrie Kedakaki-sha-tachi no ishibumi comiket 90 c90 帝國交響楽団 気高き者達の碑 シズメシズメ shizume kantai collection kancolle doujin our pride burning down
BeatmapID:1087337
BeatmapSetID:511505

[Difficulty]
HPDrainRate:6
CircleSize:3.8
OverallDifficulty:8.8
ApproachRate:9.3
SliderMultiplier:2.2
SliderTickRate:1

[Events]
//Background and Video events
0,0,"prideburningdown.jpg",0,0
//Break Periods
2,123750,143392
2,234145,242244
2,267880,278269
//Storyboard Layer 0 (Background)
//Storyboard Layer 1 (Fail)
//Storyboard Layer 2 (Pass)
//Storyboard Layer 3 (Foreground)
//Storyboard Sound Samples

[TimingPoints]
1021,245.901639344262,3,1,1,20,1,0
1021,-200,3,1,1,20,0,0
6184,-142.857142857143,3,1,1,30,0,0
6922,-100,3,1,1,50,0,0
23889,315.789473684211,3,1,1,50,1,0
24204,384.615384615385,3,1,1,40,1,0
24588,480,3,1,1,30,1,0
25068,245.901639344262,3,1,2,40,1,0
30969,-100,3,1,1,50,0,0
34658,-90.9090909090909,3,1,1,60,0,0
36133,-83.3333333333333,3,1,1,70,0,0
36871,-200,3,2,1,40,0,0
48674,-153.846153846153,3,2,1,40,0,0
60477,-200,3,1,1,30,0,0
87035,-100,3,1,2,60,0,1
122445,352.941176470588,3,1,2,60,1,0
123150,400,3,1,1,50,1,0
123550,566.57223796034,3,1,1,40,1,0
143946,245.901639344262,3,2,1,50,1,0
143946,-200,3,2,1,50,0,0
155749,-166.666666666667,3,1,1,40,0,0
179355,-200,3,1,1,40,0,0
205913,-100,3,1,2,60,0,1
229519,-200,3,1,1,60,0,0
242798,-200,3,2,1,40,0,0
248700,-117.647058823529,3,1,1,40,0,0
254601,-200,3,1,1,40,0,0
260503,-142.857142857143,3,1,1,40,0,0
265667,-83.3333333333333,3,1,1,60,0,0
278823,-200,3,1,1,60,0,0
278945,-166.666666666667,3,1,1,60,0,0
279683,-100,3,1,2,60,0,1
315093,-100,3,1,1,60,0,0
338700,-100,3,1,2,70,0,0
349765,-83.3333333333333,3,1,1,80,0,0

[Colours]
Combo1 : 251,183,4
Combo2 : 255,128,0
Combo3 : 254,77,1
Combo4 : 227,29,23

[HitObjects]
287,128,1021,54,0,B|227:117|227:117|187:131|187:131|119:119,2,165,0|0|0,0:3|0:0|0:0,2:0:0:0:
402,188,2004,1,0,0:0:0:0:
407,171,2250,2,0,P|410:131|405:104,1,55,2|2,3:0|0:0,0:0:0:0:
314,244,2496,6,0,P|385:282|472:270,2,165,8|0|0,0:0|0:0|0:0,2:0:0:0:
192,123,3480,1,2,0:0:0:0:
216,303,3725,5,2,3:0:0:0:
314,244,3848,1,8,0:0:0:0:
196,300,3971,2,0,P|156:258|144:191,1,110,8|0,0:0|0:0,0:0:0:0:
192,123,4340,2,0,P|186:84|174:53,2,55
287,128,4709,2,0,P|271:175|254:198,1,55,2|0,0:0|0:0,0:0:0:0:
118,291,4955,1,2,0:0:0:0:
141,296,5201,38,2,P|197:300|217:299,1,55
388,234,5447,2,0,P|408:293|389:358,1,110,6|0,0:0|0:0,0:0:0:0:
295,359,5816,2,0,P|272:323|270:288,1,55,2|0,0:0|0:0,0:0:0:0:
365,58,6061,5,8,0:0:0:0:
349,61,6123,1,8,0:0:0:0:
335,68,6184,2,0,P|289:117|280:150,1,76.9999976501466,8|0,0:0|0:0,0:0:0:0:
388,234,6430,2,0,P|384:167|368:137,1,76.9999976501466,8|0,0:0|0:0,0:0:0:0:
180,217,6676,2,0,P|242:241|276:238,1,76.9999976501466,8|0,0:0|0:0,0:0:0:0:
200,111,6922,6,0,P|87:160|86:266,1,220,4|2,0:0|0:0,0:0:0:0:
221,312,7291,2,0,P|212:254|139:199,1,110.000004196167,8|0,0:0|0:0,0:0:0:0:
117,318,7537,1,0,0:0:0:0:
283,374,7660,2,0,P|305:309|297:245,1,110.000004196167,2|0,0:0|0:0,0:0:0:0:
200,111,7906,2,0,P|178:176|186:240,1,110.000004196167,2|0,0:0|0:0,0:0:0:0:
396,181,8152,2,0,P|395:126|375:75,1,110.000004196167,2|0,0:0|0:0,0:0:0:0:
495,262,8398,38,0,P|401:312|304:269,1,220.000008392334,4|2,0:0|0:0,0:0:0:0:
290,161,8766,2,0,B|355:162|355:162|396:181,1,110.000004196167,8|0,0:0|0:0,0:0:0:0:
304,269,9012,1,0,0:0:0:0:
265,65,9135,2,0,B|374:75,1,110,2|0,0:0|0:0,0:0:0:0:
111,130,9381,2,0,B|2:120,1,110,2|0,0:0|0:0,0:0:0:0:
179,75,9627,2,0,P|196:128|175:189,1,110,2|0,0:0|0:0,0:0:0:0:
84,261,9873,38,0,B|323:269,1,220,4|2,0:0|0:0,0:0:0:0:
396,181,10242,2,0,B|355:162|355:162|290:161,1,110.000004196167,8|0,0:0|0:0,0:0:0:0:
400,288,10488,1,0,0:0:0:0:
483,245,10611,1,0,0:0:0:0:
501,153,10734,1,0,0:0:0:0:
439,82,10857,1,4,0:0:0:0:
439,82,11102,1,4,0:0:0:0:
439,82,11348,6,0,P|364:93|334:133,2,110.000004196167,2|2|2,0:0|0:0|0:0,0:0:0:0:
389,282,11717,2,0,B|348:295|313:288|313:288|275:265,1,110.000004196167,2|0,0:0|0:0,0:0:0:0:
267,181,11963,1,2,0:0:0:0:
444,211,12086,2,0,P|476:257|461:334,1,110,6|2,0:0|0:0,0:0:0:0:
304,373,12332,2,0,P|279:320|297:248,1,110.000004196167,6|2,0:0|0:0,0:0:0:0:
323,93,12578,2,0,P|306:147|244:189,1,110,6|0,0:0|0:0,0:0:0:0:
39,141,12824,22,0,P|95:59|224:107,1,220,6|0,0:0|0:0,0:0:0:0:
285,271,13193,2,0,B|154:215|154:215|131:116,1,220,6|0,0:0|0:0,0:0:0:0:
323,93,13561,2,0,P|306:147|244:189,1,110,6|0,0:0|0:0,0:0:0:0:
39,141,13807,2,0,P|68:84|122:56,1,110,6|0,0:0|0:0,0:0:0:0:
280,6,14053,2,0,P|243:58|185:78,1,110,6|0,0:0|0:0,0:0:0:0:
381,13,14299,6,0,B|405:83|405:83|384:235,1,220,6|0,0:0|0:0,0:0:0:0:
185,347,14668,2,0,P|177:248|301:182,1,220,6|0,0:0|0:0,0:0:0:0:
450,282,15037,2,0,P|449:338|402:396,1,110,6|0,0:0|0:0,0:0:0:0:
267,285,15283,2,0,P|251:232|279:163,1,110,6|0,0:0|0:0,0:0:0:0:
448,144,15529,2,0,P|426:196|360:232,1,110,6|0,0:0|0:0,0:0:0:0:
56,202,15775,6,0,P|65:84|187:65,1,220,6|0,0:0|0:0,0:0:0:0:
267,285,16143,2,0,P|175:250|138:111,1,220,6|0,0:0|0:0,0:0:0:0:
268,5,16512,2,0,P|273:59|253:111,1,110,6|0,0:0|0:0,0:0:0:0:
42,51,16758,2,0,P|96:39|150:53,1,110,6|0,0:0|0:0,0:0:0:0:
309,211,17004,2,0,P|255:224|201:213,1,110,6|0,0:0|0:0,0:0:0:0:
435,43,17250,6,0,P|459:99|450:160,2,110,6|0|0,0:0|0:0|0:0,0:0:0:0:
272,34,17619,2,0,P|189:131|211:227,1,220,6|0,0:0|0:0,0:0:0:0:
332,314,17988,2,0,B|334:257|334:257|293:184,1,110,6|0,0:0|0:0,0:0:0:0:
133,272,18234,2,0,P|176:302|241:297,1,110,6|0,0:0|0:0,0:0:0:0:
406,239,18480,2,0,P|363:209|298:214,1,110,6|0,0:0|0:0,0:0:0:0:
320,99,18725,5,4,0:0:0:0:
332,314,18848,1,4,0:0:0:0:
337,335,19094,5,4,0:0:0:0:
221,70,19217,1,4,0:0:0:0:
224,48,19463,5,4,0:0:0:0:
231,300,19586,1,4,0:0:0:0:
237,320,19832,5,4,0:0:0:0:
114,75,19955,1,4,0:0:0:0:
119,53,20201,5,4,0:0:0:0:
91,294,20325,2,0,B|113:313|156:328|156:328|222:322|305:261,1,220,4|0,0:0|0:0,0:0:0:0:
309,165,20693,2,0,L|183:180,1,110.000004196167,4|0,0:0|0:0,0:0:0:0:
391,238,20939,2,0,P|420:161|414:121,1,110.000004196167,6|0,0:0|0:0,0:0:0:0:
227,75,21184,2,0,P|198:152|204:192,1,110.000004196167,6|0,0:0|0:0,0:0:0:0:
290,273,21430,2,0,L|316:131,1,110.000004196167,6|0,0:0|0:0,0:0:0:0:
111,305,21676,6,0,B|182:357|182:357|340:369,1,220.000008392334,4|0,0:0|0:0,0:0:0:0:
391,238,22045,2,0,P|343:180|292:275,1,220.000008392334,4|0,0:0|0:0,0:0:0:0:
474,347,22414,2,0,P|514:298|523:231,1,110.000004196167,6|0,0:0|0:0,0:0:0:0:
393,101,22660,2,0,P|445:136|473:197,1,110.000004196167,6|0,0:0|0:0,0:0:0:0:
290,272,22906,2,0,L|159:254,1,110.000004196167,6|0,0:0|0:0,0:0:0:0:
17,142,23152,6,0,L|272:160,1,220,4|0,0:0|0:0,0:0:0:0:
387,222,23520,2,0,B|288:273|288:273|168:255,1,220.000008392334,4|0,0:0|0:0,0:0:0:0:
231,73,23889,6,2,P|282:86|317:139,1,110,6|0,0:0|0:0,0:0:0:0:
103,83,24204,6,2,P|116:32|169:-3,1,110,6|0,0:0|0:0,0:0:0:0:
100,199,24588,6,2,P|49:186|14:133,1,110,6|0,0:0|0:0,0:0:0:0:
256,192,25068,37,4,0:0:0:0:
256,192,25129,12,0,26297,0:0:0:0:
256,192,26543,5,4,0:0:0:0:
256,192,26604,12,0,27772,2:0:0:0:
256,192,28018,5,4,0:0:0:0:
256,192,28080,12,0,29248,0:0:0:0:
380,257,29494,5,4,0:0:0:0:
166,101,30231,1,4,0:0:0:0:
166,101,30723,1,0,0:0:0:0:
254,128,30969,22,0,P|296:237|220:315,1,220,4|0,0:0|0:0,0:0:0:0:
40,274,31338,2,0,B|54:221|54:221|136:158|210:216,1,220,4|0,0:0|0:0,0:0:0:0:
157,378,31707,6,0,P|129:326|150:252,1,110,2|0,0:0|0:0,0:0:0:0:
234,22,31953,2,0,B|256:71|256:71|252:134,1,110,2|0,0:0|0:0,0:0:0:0:
66,134,32199,2,0,P|115:101|191:111,1,110,2|0,0:0|0:0,0:0:0:0:
407,212,32445,38,0,P|316:224|259:97,1,220,4|0,0:0|0:0,0:0:0:0:
448,90,32813,2,0,B|502:162|486:248|486:248|436:314,1,220,4|0,0:0|0:0,0:0:0:0:
355,124,33182,6,0,P|351:64|398:3,1,110,2|0,0:0|0:0,0:0:0:0:
308,232,33428,2,0,B|315:285|315:285|294:344,1,110,2|0,0:0|0:0,0:0:0:0:
197,199,33674,2,0,P|164:149|174:73,1,110,2|0,0:0|0:0,0:0:0:0:
25,29,33920,38,0,B|15:105|15:105|40:161|40:161|22:262,1,220,4|0,0:0|0:0,0:0:0:0:
160,311,34289,2,0,B|186:178|186:178|259:121,1,220,4|0,0:0|0:0,0:0:0:0:
415,275,34658,6,0,B|355:269|355:269|282:211,1,121.000003692627,2|0,0:0|0:0,0:0:0:0:
285,31,34904,2,0,B|333:67|333:67|366:154,1,121.000003692627,2|0,0:0|0:0,0:0:0:0:
255,303,35149,2,0,P|222:262|239:178,1,121.000003692627,2|0,0:0|0:0,0:0:0:0:
455,118,35395,38,0,B|485:207|485:207|445:383,1,242.000007385254,4|0,0:0|0:0,0:0:0:0:
307,231,35764,1,0,0:0:0:0:
354,123,35887,2,0,P|390:173|372:262,1,121.000003692627
50,216,36133,6,2,P|90:164|152:147,1,131.99999597168
255,303,36379,2,2,P|190:293|144:247,1,131.99999597168
228,82,36625,2,2,P|251:142|235:205,1,131.99999597168
145,248,36871,22,0,P|225:228|307:231,1,165,6|0,0:0|0:0,0:0:0:0:
417,304,37608,2,0,P|336:315|255:303,1,165,2|0,0:0|0:0,0:0:0:0:
306,230,38100,1,0,0:0:0:0:
403,123,38346,5,2,0:0:0:0:
403,123,38469,1,0,0:0:0:0:
403,123,38592,2,0,L|312:136,1,55.0000020980836,2|0,0:0|0:0,0:0:0:0:
219,45,38838,2,0,L|310:58,1,55.0000020980836,2|0,0:0|0:0,0:0:0:0:
382,30,39084,37,10,2:1:0:0:
403,123,39330,1,0,0:0:0:0:
360,212,39576,1,0,0:0:0:0:
213,255,39822,2,0,P|290:281|315:341,2,110.000004196167,2|2|0,0:0|0:0|0:0,0:0:0:0:
57,339,40559,2,0,B|112:353|112:353|233:343,1,165.000006294251,2|0,0:0|0:0,0:0:0:0:
304,301,41051,1,0,0:0:0:0:
135,198,41297,5,2,0:0:0:0:
135,198,41420,1,0,0:0:0:0:
135,198,41543,2,0,L|30:215,1,55.0000020980836,2|0,0:0|0:0,0:0:0:0:
213,255,41789,2,0,L|318:272,1,55.0000020980836,2|0,0:0|0:0,0:0:0:0:
57,339,42035,37,10,2:1:0:0:
148,377,42281,1,0,2:0:0:0:
246,368,42527,1,0,2:0:0:0:
336,328,42772,2,0,P|427:295|456:298,2,110.000004196167,2|0|0,0:0|0:0|0:0,0:0:0:0:
387,107,43510,2,0,P|375:197|289:248,1,165.000006294251,2|0,0:0|0:0,0:0:0:0:
294,144,44002,1,0,0:0:0:0:
129,253,44248,5,2,0:0:0:0:
129,253,44371,1,0,0:0:0:0:
129,253,44494,2,0,L|221:263,1,55.0000020980836,2|0,0:0|0:0,0:0:0:0:
294,144,44740,2,0,L|202:134,1,55.0000020980836,2|0,0:0|0:0,0:0:0:0:
320,241,44986,37,10,2:1:0:0:
389,171,45231,1,0,0:0:0:0:
384,70,45477,1,0,0:0:0:0:
294,144,45723,2,0,P|234:139|188:85,1,110.000004196167,2|2,0:0|0:0,0:0:0:0:
167,35,46092,1,2,0:0:0:0:
384,70,46461,2,0,P|398:120|384:196,1,110,2|2,0:0|0:0,0:0:0:0:
282,271,46953,1,2,0:0:0:0:
128,186,47199,6,0,B|238:223|235:145|349:195,1,220,2|0,0:0|0:0,0:0:0:0:
282,271,47936,1,2,2:0:0:0:
427,94,48674,6,0,B|368:112|368:112|259:92,1,142.99999345398,2|0,0:0|0:0,0:0:0:0:
207,29,49043,2,0,P|228:132|196:170,1,142.99999345398,2|0,0:0|0:0,0:0:0:0:
116,263,49412,2,0,P|50:183|79:84,1,214.49999018097,2|0,0:0|0:0,0:0:0:0:
210,157,49904,1,2,0:0:0:0:
302,312,50149,37,2,0:0:0:0:
378,268,50272,1,0,0:0:0:0:
427,195,50395,2,0,P|438:153|438:103,1,71.4999967269899,2|0,0:0|0:0,0:0:0:0:
310,51,50641,2,0,P|299:93|297:142,1,71.4999967269899,2|0,0:0|0:0,0:0:0:0:
345,189,50887,5,10,2:1:0:0:
378,268,51133,1,0,0:0:0:0:
375,353,51379,1,0,0:0:0:0:
191,292,51625,38,0,P|97:332|-16:260,1,214.49999018097,2|2,0:0|0:0,0:0:0:0:
100,224,52117,1,2,0:0:0:0:
330,264,52363,2,0,B|347:117|347:117|309:49,1,214.49999018097,2|0,0:0|0:0,0:0:0:0:
185,155,52854,2,0,P|225:156|273:172,1,71.4999967269899,2|0,0:0|0:0,0:0:0:0:
417,203,53100,2,0,P|452:216|492:216,1,71.4999967269899,2|0,0:0|0:0,0:0:0:0:
330,264,53346,2,0,L|349:105,1,142.99999345398,2|2,0:0|0:0,0:0:0:0:
431,11,53838,5,10,2:1:0:0:
496,68,54084,1,0,0:0:0:0:
505,155,54330,1,0,0:0:0:0:
417,203,54576,38,0,P|340:180|249:168,1,142.99999345398,2|0,0:0|0:0,0:0:0:0:
257,300,54945,2,0,P|180:323|89:335,1,142.99999345398,2|0,0:0|0:0,0:0:0:0:
92,229,55313,1,2,0:0:0:0:
92,229,55805,6,0,L|182:253,1,71.4999967269899,2|0,0:0|0:0,0:0:0:0:
278,170,56051,1,2,0:0:0:0:
355,206,56174,1,0,0:0:0:0:
325,286,56297,2,0,P|291:298|256:299,1,71.4999967269899,2|0,0:0|0:0,0:0:0:0:
192,163,56543,2,0,P|202:128|223:100,1,71.4999967269899,2|0,0:0|0:0,0:0:0:0:
308,65,56789,37,10,2:1:0:0:
421,80,57035,1,0,0:0:0:0:
490,170,57281,1,0,0:0:0:0:
457,279,57527,6,0,P|400:328|376:331,1,71.4999967269899,2|0,0:0|0:0,0:0:0:0:
310,347,57772,1,0,0:0:0:0:
236,237,57895,2,0,P|168:311|178:370,1,142.99999345398,2|0,0:0|0:0,0:0:0:0:
39,328,58264,2,0,P|60:296|93:257,1,71.4999967269899,2|0,0:0|0:0,0:0:0:0:
11,194,58510,2,0,P|41:178|81:165,1,71.4999967269899,2|0,0:0|0:0,0:0:0:0:
52,65,58756,2,0,P|107:68|137:82,1,71.4999967269899,2|0,0:0|0:0,0:0:0:0:
313,42,59002,38,0,B|363:95|348:173|348:173|283:138|210:169|210:169|233:204|240:265,1,357.49998363495,10|0,2:1|0:0,0:0:0:0:
253,352,59740,5,6,0:0:0:0:
364,327,59986,1,2,0:0:0:0:
436,238,60231,1,0,0:0:0:0:
371,96,60477,22,0,P|289:120|257:150,1,110,4|0,0:0|0:0,0:0:0:0:
223,277,60969,1,0,0:0:0:0:
103,367,61215,2,0,P|45:316|75:177,1,220,2|0,0:0|0:0,0:0:0:0:
146,263,61953,2,0,B|255:312|255:225|370:284,1,220,6|0,0:0|0:0,0:0:0:0:
475,216,62690,2,0,B|505:142|473:61|473:61|442:90|432:140,1,220.000008392334,10|0,0:0|0:0,0:0:0:0:
291,156,63428,5,2,0:0:0:0:
342,35,63674,1,2,0:0:0:0:
385,205,63920,1,2,0:0:0:0:
186,204,64166,2,0,P|187:125|249:59,1,165.000006294251,2|0,0:0|0:0,0:0:0:0:
291,156,64658,6,0,P|299:193|297:219,1,55.0000020980836,2|0,0:0|0:0,0:0:0:0:
244,294,64904,1,2,0:0:0:0:
204,313,65027,1,2,0:0:0:0:
159,312,65149,2,0,P|109:291|74:230,1,110.000004196167,2|0,0:0|0:0,0:0:0:0:
107,128,65641,1,2,2:0:0:0:
186,204,65887,1,2,0:0:0:0:
298,209,66133,1,2,0:0:0:0:
393,284,66379,22,0,P|416:199|366:107,1,165.000006294251,4|0,0:0|0:0,0:0:0:0:
105,160,67117,2,0,P|168:216|309:200,1,220.000008392334,2|0,0:0|0:0,0:0:0:0:
216,100,67854,2,0,B|185:241|185:241|206:316,1,220.000008392334,6|0,0:0|0:0,0:0:0:0:
365,378,68592,2,0,P|376:267|279:206,1,220.000008392334,10|0,0:0|0:0,0:0:0:0:
426,181,69330,5,2,0:0:0:0:
301,306,69576,1,2,0:0:0:0:
249,91,69822,2,0,P|278:87|322:95,1,55.0000020980836,2|2,0:0|0:0,0:0:0:0:
426,181,70067,2,0,P|391:208|304:210,1,110.000004196167,2|0,0:0|0:0,0:0:0:0:
231,189,70436,1,2,0:0:0:0:
231,189,70559,1,0,0:0:0:0:
301,306,70805,6,0,P|227:305|176:293,1,110.000004196167,2|0,0:0|0:0,0:0:0:0:
122,369,71174,2,0,P|57:330|20:295,1,110.000004196167,2|0,0:0|0:0,0:0:0:0:
0,212,71543,1,10,0:0:0:0:
174,181,71789,2,0,P|168:207|154:239,2,55,2|0|2,0:0|0:0|0:0,0:0:0:0:
81,21,72281,22,0,P|36:103|102:191,1,165.000006294251,6|0,0:0|0:0,0:0:0:0:
60,164,73018,1,10,0:0:0:0:
158,234,73264,2,0,L|245:256,1,55.0000020980836,2|0,0:0|0:0,0:0:0:0:
316,307,73510,2,0,L|262:320,1,55.0000020980836,2|0,0:0|0:0,0:0:0:0:
318,187,73756,2,0,P|405:213|433:265,1,110.000004196167,2|0,0:0|0:0,0:0:0:0:
211,247,74125,2,0,L|220:110,1,110.000004196167,2|0,0:0|0:0,0:0:0:0:
172,49,74494,1,10,0:0:0:0:
370,44,74740,6,0,P|360:120|357:128,1,55.0000020980836,2|0,0:0|0:0,0:0:0:0:
318,187,74986,2,0,P|271:247|264:253,1,55.0000020980836,2|0,0:0|0:0,0:0:0:0:
146,216,75231,2,0,P|174:167|239:130,1,110,2|0,0:0|0:0,0:0:0:0:
201,304,75600,2,0,P|146:317|74:296,1,110,2|0,0:0|0:0,0:0:0:0:
286,231,75969,6,0,B|404:263|394:195|505:235,1,220,2|0,0:0|0:0,0:0:0:0:
501,233,76707,1,2,0:0:0:0:
354,321,76953,1,2,0:0:0:0:
354,321,77076,1,0,0:0:0:0:
341,156,77322,1,2,0:0:0:0:
341,156,77445,2,0,P|261:138|209:173,2,110.000004196167,2|2|2,0:0|0:0|0:0,0:0:0:0:
236,59,78182,22,0,P|134:77|101:59,1,110.000004196167,4|0,0:0|0:0,0:0:0:0:
70,168,78551,2,0,P|81:245|136:289,1,110.000004196167
206,297,78920,2,0,P|195:220|140:176,1,110.000004196167
121,365,79412,1,2,0:0:0:0:
315,327,79658,2,0,L|466:297,1,110.000004196167,2|0,0:0|0:0,0:0:0:0:
496,221,80027,2,0,L|345:191,1,110.000004196167
331,105,80395,2,0,P|361:94|408:95,1,55.0000020980836,2|0,0:0|0:0,0:0:0:0:
494,96,80641,1,2,0:0:0:0:
422,305,80887,1,2,0:0:0:0:
100,293,81133,6,0,P|155:322|216:333,1,110.000004196167,6|0,0:0|0:0,0:0:0:0:
304,211,81502,2,0,P|248:240|188:251,1,110.000004196167,2|0,0:0|0:0,0:0:0:0:
112,123,81871,2,0,P|167:152|228:163,1,110.000004196167,2|2,0:0|0:0,0:0:0:0:
66,32,82363,1,2,0:0:0:0:
66,32,82608,2,0,P|17:94|41:203,1,165.000006294251,4|0,0:0|0:0,0:0:0:0:
134,326,83346,6,0,P|163:269|225:247,2,110.000004196167,6|4|0,0:0|0:0|0:0,0:0:0:0:
127,154,84084,2,0,P|178:129|244:137,1,110,6|0,0:0|0:0,0:0:0:0:
335,236,84453,2,0,P|312:252|279:261,1,55,2|2,0:0|0:0,0:0:0:0:
316,113,84699,1,10,0:0:0:0:
340,105,84822,2,8,P|387:108|413:116,1,55,10|10,0:0|0:0,0:0:0:0:
439,253,85067,1,10,0:0:0:0:
384,262,85190,1,10,0:0:0:0:
335,236,85313,1,10,0:0:0:0:
319,87,86789,22,0,P|292:121|253:137,1,82.5,10|0,0:0|2:0,0:0:0:0:
163,106,87035,38,0,P|183:209|315:214,1,220,14|0,0:0|0:0,0:0:0:0:
257,137,87404,1,8,0:0:0:0:
345,317,87527,2,0,P|383:265|374:188,1,110.000004196167,2|0,0:0|0:0,0:0:0:0:
237,145,87772,2,0,P|192:202|190:261,1,110,10|0,0:0|0:0,0:0:0:0:
355,108,88018,1,8,0:0:0:0:
284,233,88141,1,0,0:0:0:0:
108,167,88264,2,0,L|-34:177,1,110.000004196167,8|0,0:0|0:0,0:0:0:0:
144,44,88510,38,0,L|365:111,1,220,10|0,0:0|0:0,0:0:0:0:
464,113,88879,1,8,0:0:0:0:
284,233,89002,2,0,P|239:198|222:124,1,110.000004196167,2|0,0:0|0:0,0:0:0:0:
386,221,89248,2,0,P|437:248|542:222,1,110.000004196167,10|0,0:0|0:0,0:0:0:0:
354,107,89494,1,8,0:0:0:0:
464,113,89617,1,0,0:0:0:0:
284,233,89740,2,0,L|157:229,1,110.000004196167,8|0,0:0|0:0,0:0:0:0:
386,221,89986,38,0,L|139:210,1,220.000008392334,10|0,0:0|0:0,0:0:0:0:
58,239,90354,1,8,0:0:0:0:
193,93,90477,2,0,L|351:106,1,110.000004196167,2|0,0:0|0:0,0:0:0:0:
152,6,90723,2,0,P|112:44|98:104,1,110,10|0,0:0|0:0,0:0:0:0:
166,211,90969,1,8,0:0:0:0:
193,93,91092,1,0,0:0:0:0:
58,239,91215,2,0,P|87:296|179:315,1,110.000004196167,8|0,0:0|0:0,0:0:0:0:
345,291,91461,38,0,B|307:224|230:194|230:194|148:216,1,220.000008392334,10|0,0:0|0:0,0:0:0:0:
125,317,91830,2,0,L|263:326,1,110.000004196167,10|0,0:0|0:0,0:0:0:0:
395,208,92076,1,2,0:0:0:0:
297,200,92199,2,0,P|371:298|390:298,1,110.000004196167,10|0,0:0|0:0,0:0:0:0:
504,195,92445,2,0,L|377:210,1,110.000004196167,8|0,0:0|0:0,0:0:0:0:
256,96,92690,2,0,L|383:111,1,110.000004196167,8|0,0:0|0:0,0:0:0:0:
143,211,92936,38,0,P|54:141|66:42,1,220,14|0,0:0|0:0,0:0:0:0:
256,96,93305,2,0,L|239:220,1,110,8|0,0:0|0:0,0:0:0:0:
153,104,93551,1,2,0:0:0:0:
351,212,93674,2,0,L|335:337,1,110.000004196167,10|0,0:0|0:0,0:0:0:0:
394,106,93920,2,0,P|437:139|457:190,1,110.000004196167,8|0,0:0|0:0,0:0:0:0:
242,205,94166,2,0,P|267:147|325:117,1,110.000004196167,8|0,0:0|0:0,0:0:0:0:
337,321,94412,38,0,B|201:316|201:316|113:284,1,220.000008392334,10|0,0:0|0:0,0:0:0:0:
242,205,94781,2,0,L|386:215,1,110.000004196167,8|0,0:0|0:0,0:0:0:0:
337,321,95027,1,2,0:0:0:0:
304,122,95149,2,0,L|448:132,1,110.000004196167,10|0,0:0|0:0,0:0:0:0:
264,35,95395,2,0,P|205:118|206:143,1,110.000004196167,8|0,0:0|0:0,0:0:0:0:
351,212,95641,2,0,P|414:135|412:106,1,110.000004196167,8|0,0:0|0:0,0:0:0:0:
242,205,95887,38,0,P|324:311|444:271,1,220.000008392334,10|0,0:0|0:0,0:0:0:0:
351,212,96256,2,0,B|345:66,2,110.000004196167,8|0|2,0:0|0:0|0:0,0:0:0:0:
244,122,96625,2,0,P|288:19|320:8,1,110.000004196167,10|0,0:0|0:0,0:0:0:0:
468,73,96871,2,0,P|435:180|404:194,1,110.000004196167,8|0,0:0|0:0,0:0:0:0:
204,121,97117,2,0,P|248:18|280:7,1,110.000004196167,10|0,0:0|0:0,0:0:0:0:
350,212,97363,6,0,L|222:230,1,110.000004196167,8|0,0:0|0:0,0:0:0:0:
347,103,97608,1,2,0:0:0:0:
313,298,97731,2,0,P|343:340|430:361,1,110.000004196167,8|0,0:0|0:0,0:0:0:0:
443,173,97977,1,2,0:0:0:0:
242,227,98100,2,0,P|236:176|283:107,1,110,8|0,0:0|0:0,0:0:0:0:
440,81,98346,1,8,0:0:0:0:
351,212,98469,1,8,0:0:0:0:
159,128,98592,2,0,L|47:128,1,110,8|0,0:0|0:0,0:0:0:0:
234,360,98838,6,0,P|325:321|344:192,1,220,14|0,0:0|0:0,0:0:0:0:
154,248,99207,1,8,0:0:0:0:
261,125,99330,1,2,0:0:0:0:
234,360,99453,1,2,0:0:0:0:
159,128,99576,2,0,B|195:108|195:108|229:109|271:130,1,110.000004196167,10|0,0:0|0:0,0:0:0:0:
453,186,99822,2,0,P|397:212|321:201,1,110,8|0,0:0|0:0,0:0:0:0:
356,10,100067,2,0,L|387:142,1,110.000004196167,8|0,0:0|0:0,0:0:0:0:
426,340,100313,38,0,B|358:383|273:371|273:371|207:319,1,220,10|0,0:0|0:0,0:0:0:0:
349,211,100682,1,8,0:0:0:0:
218,303,100805,1,2,0:0:0:0:
260,124,100928,1,2,0:0:0:0:
447,232,101051,2,0,P|436:176|392:113,1,110,10|0,0:0|0:0,0:0:0:0:
222,22,101297,2,0,P|233:78|277:141,1,110,8|0,0:0|0:0,0:0:0:0:
435,30,101543,2,0,P|383:34|315:81,1,110.000004196167,8|0,0:0|0:0,0:0:0:0:
253,216,101789,38,0,P|324:304|432:255,1,220,10|0,0:0|0:0,0:0:0:0:
493,131,102158,1,8,0:0:0:0:
349,211,102281,1,2,0:0:0:0:
332,61,102404,1,2,0:0:0:0:
175,147,102527,2,0,P|273:218|305:213,1,110,10|0,0:0|0:0,0:0:0:0:
410,131,102772,2,0,P|379:82|316:61,1,110,8|0,0:0|0:0,0:0:0:0:
415,257,103018,2,0,P|473:243|516:194,1,110,8|0,0:0|0:0,0:0:0:0:
254,217,103264,38,0,B|137:247|137:247|69:350,1,220,10|0,0:0|0:0,0:0:0:0:
295,303,103633,2,0,P|335:256|349:187,1,110,8|0,0:0|0:0,0:0:0:0:
332,61,103879,1,2,0:0:0:0:
169,111,104002,2,0,P|229:133|287:124,1,110,8|0,0:0|0:0,0:0:0:0:
225,20,104248,1,2,0:0:0:0:
254,217,104371,1,2,0:0:0:0:
389,149,104494,2,0,B|375:103|375:103|356:64|291:45,1,110,8|0,0:0|0:0,0:0:0:0:
80,152,104740,38,0,B|85:234|154:300|154:300|231:304,1,220,14|0,0:0|0:0,0:0:0:0:
353,266,105108,2,0,L|232:206,1,110.000004196167,8|0,0:0|0:0,0:0:0:0:
205,304,105354,1,2,0:0:0:0:
386,168,105477,2,0,P|403:87|375:16,1,110.000004196167,10|0,0:0|0:0,0:0:0:0:
225,20,105723,2,0,P|249:99|308:147,1,110.000004196167,8|0,0:0|0:0,0:0:0:0:
295,316,105969,2,0,P|271:237|212:189,1,110.000004196167,8|0,0:0|0:0,0:0:0:0:
29,198,106215,38,0,P|132:295|252:292,1,220.000008392334,10|0,0:0|0:0,0:0:0:0:
265,118,106584,2,0,L|130:161,1,110.000004196167,8|0,0:0|0:0,0:0:0:0:
254,217,106830,1,2,0:0:0:0:
113,33,106953,2,0,P|58:66|35:140,1,110.000004196167,10|0,0:0|0:0,0:0:0:0:
126,256,107199,2,0,L|168:126,1,110.000004196167,8|0,0:0|0:0,0:0:0:0:
328,100,107445,2,0,L|286:230,1,110.000004196167,8|0,0:0|0:0,0:0:0:0:
271,46,107690,38,0,B|353:78|353:78|412:51|412:51|486:79,1,220,10|0,0:0|0:0,0:0:0:0:
403,217,108059,2,0,L|281:203,1,110.000004196167,8|0,0:0|0:0,0:0:0:0:
235,113,108305,1,2,0:0:0:0:
387,310,108428,2,0,P|487:265|495:242,1,110.000004196167,10|0,0:0|0:0,0:0:0:0:
475,75,108674,2,0,L|335:96,1,110.000004196167,8|0,0:0|0:0,0:0:0:0:
184,188,108920,2,0,L|324:209,1,110.000004196167,8|0,0:0|0:0,0:0:0:0:
107,327,109166,6,0,L|-33:306,1,110.000004196167,10|0,0:0|0:0,0:0:0:0:
70,226,109412,1,2,0:0:0:0:
261,305,109535,2,0,P|289:257|292:203,1,110.000004196167,8|0,0:0|0:0,0:0:0:0:
184,188,109781,1,2,0:0:0:0:
363,316,109904,2,0,L|523:327,1,110.000004196167,8|0,0:0|0:0,0:0:0:0:
423,130,110149,1,8,0:0:0:0:
292,203,110272,1,8,0:0:0:0:
506,191,110395,2,0,P|521:117|503:66,1,110.000004196167,8|0,0:0|0:0,0:0:0:0:
304,12,110641,6,0,P|252:97|326:224,1,220.000008392334,14|0,0:0|0:0,0:0:0:0:
470,225,111010,2,0,P|445:153|404:118,1,110.000004196167,8|0,0:0|0:0,0:0:0:0:
363,316,111256,1,2,0:0:0:0:
190,197,111379,2,0,L|27:217,1,110.000004196167,10|0,0:0|0:0,0:0:0:0:
240,112,111625,2,0,P|285:161|281:238,1,110.000004196167,8|0,0:0|0:0,0:0:0:0:
130,127,111871,2,0,P|131:72|162:28,1,110.000004196167,8|0,0:0|0:0,0:0:0:0:
405,24,112117,38,0,P|425:74|421:128,2,110.000004196167,10|0|0,0:0|0:0|0:0,0:0:0:0:
291,201,112486,2,0,L|396:232,1,110.000004196167,8|0,0:0|0:0,0:0:0:0:
345,107,112731,1,2,0:0:0:0:
274,298,112854,2,0,L|168:329,1,110.000004196167,10|0,0:0|0:0,0:0:0:0:
240,112,113100,2,0,P|315:97|363:120,1,110.000004196167,8|0,0:0|0:0,0:0:0:0:
501,228,113346,2,0,P|425:242|377:219,1,110.000004196167,8|0,0:0|0:0,0:0:0:0:
121,149,113592,6,0,P|97:256|192:332,1,220,14|0,0:0|0:0,0:0:0:0:
328,306,113961,2,0,P|378:278|391:201,1,110,8|0,0:0|0:0,0:0:0:0:
291,201,114207,1,2,0:0:0:0:
468,333,114330,2,0,L|511:194,1,110,10|0,0:0|0:0,0:0:0:0:
344,107,114576,2,0,P|291:95|240:112,1,110.000004196167,8|0,0:0|0:0,0:0:0:0:
223,295,114822,2,0,P|273:314|327:305,1,110.000004196167,8|0,0:0|0:0,0:0:0:0:
137,141,115067,38,0,P|144:235|170:263,2,110.000004196167,10|0|0,0:0|0:0|0:0,0:0:0:0:
291,201,115436,2,0,L|445:230,1,110.000004196167,8|0,0:0|0:0,0:0:0:0:
223,295,115682,1,2,0:0:0:0:
344,107,115805,1,8,0:0:0:0:
327,305,115928,1,2,0:0:0:0:
333,94,116051,2,0,P|265:74|198:95,1,110.000004196167,8|0,0:0|0:0,0:0:0:0:
150,244,116297,2,0,P|220:244|287:197,1,110.000004196167,8|8,0:0|0:0,0:0:0:0:
457,89,116543,6,0,B|502:153|499:238|499:238|446:305,1,220.000008392334,14|0,0:0|0:0,0:0:0:0:
255,227,116912,2,0,P|232:139|342:98,1,220.000008392334,8|2,0:0|0:0,0:0:0:0:
327,305,117281,2,0,P|265:330|187:308,1,110.000004196167,10|0,0:0|0:0,0:0:0:0:
43,192,117527,2,0,P|97:189|146:213,1,110.000004196167,8|0,0:0|0:0,0:0:0:0:
333,94,117772,2,0,P|278:91|229:115,1,110.000004196167,8|0,0:0|0:0,0:0:0:0:
396,223,118018,38,0,L|506:178,2,110.000004196167,10|0|0,0:0|0:0|0:0,0:0:0:0:
229,115,118387,2,0,P|313:51|414:100,1,220,8|2,0:0|0:0,0:0:0:0:
256,227,118756,2,0,L|140:213,1,110.000004196167,8|0,0:0|0:0,0:0:0:0:
325,146,119002,2,0,P|380:188|400:262,1,110.000004196167,8|0,0:0|0:0,0:0:0:0:
273,351,119248,2,0,P|218:346|172:317,1,110.000004196167,8|0,0:0|0:0,0:0:0:0:
124,76,119494,6,0,B|212:77|212:77|353:163,1,220.000008392334,14|0,0:0|0:0,0:0:0:0:
146,213,119863,2,0,P|18:174|9:39,1,220.000008392334,8|2,0:0|0:0,0:0:0:0:
229,189,120231,2,0,P|226:246|162:300,1,110.000004196167,8|0,0:0|0:0,0:0:0:0:
124,76,120477,2,0,P|171:50|226:55,1,110,8|0,0:0|0:0,0:0:0:0:
146,213,120723,2,0,P|103:253|21:257,1,110.000004196167,8|0,0:0|0:0,0:0:0:0:
239,84,120969,38,0,P|294:106|329:156,1,110,10|0,0:0|0:0,0:0:0:0:
229,189,121215,1,2,0:0:0:0:
340,38,121338,2,0,L|496:47,1,110.000004196167,8|0,0:0|0:0,0:0:0:0:
376,230,121584,1,8,0:0:0:0:
324,144,121707,2,0,P|382:130|438:150,1,110,10|0,0:0|0:0,0:0:0:0:
429,343,121953,1,8,0:0:0:0:
480,209,122076,1,2,0:0:0:0:
351,326,122199,2,0,P|295:293|277:239,1,110.000004196167,8|0,0:0|0:0,0:0:0:0:
239,84,122445,21,8,0:1:0:0:
172,338,122797,5,8,0:1:0:0:
376,230,123150,5,4,0:0:0:0:
96,218,123550,5,4,0:0:0:0:
21,117,143946,6,0,L|53:181,1,55,4|0,1:2|0:0,0:0:0:0:
66,307,144191,2,0,L|98:243,1,55
200,197,144437,1,0,0:0:0:0:
232,200,144560,1,0,0:0:0:0:
264,189,144683,1,0,0:0:0:0:
294,166,144806,6,0,L|285:109,2,55
402,96,145175,6,0,P|441:105|492:143,1,55,2|0,1:2|0:0,0:0:0:0:
503,229,145421,2,0,P|448:222|388:201,1,110,2|0,1:2|0:0,0:0:0:0:
288,220,145790,2,0,P|287:192|294:165,2,55,2|0|0,0:0|0:0|0:0,0:0:0:0:
229,357,146159,21,0,0:0:0:0:
195,361,146282,1,0,0:0:0:0:
162,354,146405,1,0,0:0:0:0:
132,339,146527,1,0,0:0:0:0:
106,317,146650,6,0,P|96:273|101:229,1,55,4|0,1:2|0:0,0:0:0:0:
190,161,146896,2,0,P|184:203|164:247,1,55,4|0,1:2|0:0,0:0:0:0:
57,78,147142,37,0,0:0:0:0:
74,50,147265,1,0,0:0:0:0:
100,30,147388,1,0,0:0:0:0:
132,19,147511,1,0,0:0:0:0:
164,16,147634,1,0,0:0:0:0:
201,23,147757,6,0,L|186:91,2,55
292,95,148126,6,0,L|277:163,1,55,2|0,1:2|0:0,0:0:0:0:
379,167,148372,2,0,L|380:37,1,110,2|0,1:2|0:0,0:0:0:0:
275,246,148741,2,0,P|302:243|328:234,2,55,2|0|0,0:0|0:0|0:0,0:0:0:0:
123,299,149109,21,0,0:0:0:0:
107,270,149232,1,0,0:0:0:0:
97,238,149355,1,0,0:0:0:0:
94,205,149478,1,0,0:0:0:0:
98,172,149601,6,0,P|107:132|130:86,1,55,4|0,1:2|0:0,0:0:0:0:
251,187,149847,2,0,P|278:156|320:127,1,55,4|0,1:2|0:0,0:0:0:0:
486,146,150093,21,0,0:0:0:0:
477,102,150216,1,0,0:0:0:0:
453,64,150339,1,0,0:0:0:0:
416,38,150462,1,0,0:0:0:0:
373,26,150585,1,0,0:0:0:0:
338,53,150708,22,0,L|326:-15,2,55
288,147,151077,6,0,P|292:176|287:216,1,55,2|0,1:2|0:0,0:0:0:0:
172,307,151323,2,0,P|168:278|180:184,1,110,2|0,1:2|0:0,0:0:0:0:
162,98,151691,2,0,P|136:105|112:119,2,55,2|0|0,0:0|0:0|0:0,0:0:0:0:
274,62,152060,5,0,0:0:0:0:
288,103,152183,1,0,0:0:0:0:
288,147,152306,1,0,0:0:0:0:
277,189,152429,1,0,0:0:0:0:
270,232,152552,22,0,P|269:276|284:326,1,55,4|0,1:2|0:0,0:0:0:0:
447,252,152798,2,0,P|420:215|379:183,1,55,4|0,1:2|0:0,0:0:0:0:
271,286,153044,37,0,0:0:0:0:
243,303,153167,1,0,0:0:0:0:
211,313,153290,1,0,0:0:0:0:
177,312,153413,1,0,0:0:0:0:
145,302,153536,1,0,0:0:0:0:
119,281,153659,6,0,L|109:211,2,55
109,127,154027,6,0,P|117:53|115:39,1,55,2|0,1:2|0:0,0:0:0:0:
233,76,154273,2,0,P|225:133|230:186,1,110,2|0,1:2|0:0,0:0:0:0:
317,315,154642,2,0,P|292:302|271:286,2,55,2|0|0,0:0|0:0|0:0,0:0:0:0:
468,283,155011,21,0,0:0:0:0:
486,255,155134,1,0,0:0:0:0:
497,223,155257,1,0,0:0:0:0:
502,190,155380,1,0,0:0:0:0:
499,157,155503,6,0,P|494:127|470:84,1,55,4|0,0:0|0:0,0:0:0:0:
314,78,155749,6,0,P|299:157|329:222,1,131.99999597168,4|0,0:0|0:0,0:0:0:0:
426,225,156118,2,0,P|391:288|313:316,1,131.99999597168
203,275,156486,2,0,P|218:196|185:133,1,131.99999597168
34,314,156978,1,2,0:0:0:0:
34,314,157224,37,2,0:0:0:0:
15,294,157347,1,2,0:0:0:0:
10,269,157470,2,0,P|73:219|144:220,1,131.99999597168,0|2,0:0|0:0,0:0:0:0:
339,313,157962,1,2,0:0:0:0:
314,78,158208,1,0,0:0:0:0:
472,152,158454,2,0,P|436:162|387:162,1,65.9999979858399,4|0,0:0|0:0,0:0:0:0:
507,159,158700,6,0,P|452:185|360:179,1,131.99999597168,6|0,0:0|0:0,0:0:0:0:
234,140,159068,2,0,P|273:191|268:277,1,131.99999597168,2|0,0:0|0:0,0:0:0:0:
143,343,159437,2,0,P|150:280|192:215,1,131.99999597168,2|0,0:0|0:0,0:0:0:0:
381,186,159929,1,2,0:0:0:0:
234,140,160175,37,2,0:0:0:0:
207,135,160298,1,0,0:0:0:0:
182,124,160421,2,0,P|214:70|279:28,1,131.99999597168,2|2,0:0|0:0,0:0:0:0:
84,134,160913,1,2,0:0:0:0:
315,188,161159,1,2,0:0:0:0:
219,308,161405,2,0,P|191:279|178:233,1,65.9999979858399,4|0,0:0|0:0,0:0:0:0:
227,342,161650,6,0,P|169:286|148:211,1,131.99999597168,6|0,0:0|0:0,0:0:0:0:
325,274,162019,2,0,P|392:294|473:261,1,131.99999597168,2|0,0:0|0:0,0:0:0:0:
509,120,162388,2,0,B|349:123,1,131.99999597168,2|0,0:0|0:0,0:0:0:0:
476,39,162880,1,2,0:0:0:0:
273,210,163126,37,2,0:0:0:0:
249,224,163249,1,0,0:0:0:0:
222,233,163372,2,0,P|208:171|233:100,1,131.99999597168,2|2,0:0|0:0,0:0:0:0:
113,285,163864,1,2,0:0:0:0:
325,186,164109,1,0,0:0:0:0:
50,195,164355,2,0,P|68:161|103:140,1,65.9999979858399,4|0,0:0|0:0,0:0:0:0:
14,205,164601,6,0,P|41:144|112:112,1,131.99999597168,6|2,0:0|0:0,0:0:0:0:
229,108,164970,2,0,P|289:130|324:185,1,131.99999597168,2|2,0:0|0:0,0:0:0:0:
227,206,165339,1,2,0:0:0:0:
369,53,165585,1,0,0:0:0:0:
400,288,165831,1,0,0:0:0:0:
213,303,166077,38,0,P|150:266|129:199,1,131.99999597168
227,206,166445,1,0,0:0:0:0:
185,134,166568,2,0,P|151:116|116:114,1,65.9999979858399,8|0,0:0|0:0,0:0:0:0:
280,145,166814,2,0,P|314:134|350:137,1,65.9999979858399,8|0,0:0|0:0,0:0:0:0:
237,74,167060,2,0,L|245:-16,1,65.9999979858399,8|0,0:0|0:0,0:0:0:0:
391,81,167306,2,0,L|385:15,1,65.9999979858399,4|0,0:0|0:0,0:0:0:0:
426,145,167552,6,0,L|414:-12,1,131.99999597168,4|0,0:0|0:0,0:0:0:0:
501,96,167921,1,4,0:0:0:0:
505,108,168167,1,0,0:0:0:0:
510,239,168290,2,0,P|504:286|485:325,1,65.9999979858399,8|0,0:0|0:0,0:0:0:0:
394,279,168536,2,0,P|372:322|341:351,1,65.9999979858399
267,284,168782,2,0,P|232:317|192:334,1,65.9999979858399,4|0,0:0|0:0,0:0:0:0:
273,210,169027,38,0,P|229:268|170:301,1,131.99999597168,4|0,0:0|0:0,0:0:0:0:
100,326,169396,1,4,0:0:0:0:
104,337,169642,1,0,0:0:0:0:
55,214,169765,2,0,L|61:121,1,65.9999979858399,8|0,0:0|0:0,0:0:0:0:
158,197,170011,2,0,L|212:124,1,65.9999979858399
273,210,170257,2,0,L|364:190,1,65.9999979858399,4|0,0:0|0:0,0:0:0:0:
227,262,170503,6,0,L|385:231,1,131.99999597168,4|0,0:0|0:0,0:0:0:0:
474,246,170872,1,4,0:0:0:0:
469,258,171118,1,0,0:0:0:0:
464,119,171241,2,0,P|424:127|370:128,1,65.9999979858399,8|0,0:0|0:0,0:0:0:0:
373,20,171486,2,0,P|348:52|309:85,1,65.9999979858399
225,36,171732,2,0,P|239:74|245:122,1,65.9999979858399,4|0,0:0|0:0,0:0:0:0:
161,1,171978,38,0,P|193:83|199:142,1,131.99999597168,4|0,0:0|0:0,0:0:0:0:
185,242,172347,1,4,0:0:0:0:
172,240,172593,1,0,0:0:0:0:
89,349,172716,2,0,P|48:290|48:273,1,65.9999979858399,8|0,0:0|0:0,0:0:0:0:
64,189,172962,2,0,P|55:137|67:105,1,65.9999979858399
138,57,173208,2,0,P|165:2|188:-13,1,65.9999979858399,4|0,0:0|0:0,0:0:0:0:
249,87,173454,6,0,P|199:159|136:172,1,131.99999597168,4|0,0:0|0:0,0:0:0:0:
57,125,173823,2,0,P|64:231|101:266,1,131.99999597168,4|0,0:0|0:0,0:0:0:0:
175,349,174191,2,0,P|231:354|262:342,1,65.9999979858399,8|0,0:0|0:0,0:0:0:0:
323,281,174437,2,0,P|376:249|395:225,1,65.9999979858399
402,142,174683,2,0,P|419:86|419:50,1,65.9999979858399,4|0,0:0|0:0,0:0:0:0:
283,172,174929,38,0,P|320:230|390:246,1,131.99999597168,4|0,0:0|0:0,0:0:0:0:
323,96,175298,2,0,P|264:88|242:99,1,65.9999979858399,4|0,0:0|0:0,0:0:0:0:
283,172,175544,1,0,0:0:0:0:
265,2,175667,2,0,P|207:28|190:52,1,65.9999979858399,8|0,0:0|0:0,0:0:0:0:
160,133,175913,2,0,P|129:169|120:207,1,65.9999979858399
156,297,176159,2,0,P|154:364|162:388,1,65.9999979858399,4|0,0:0|0:0,0:0:0:0:
322,292,176405,6,0,P|314:218|259:154,1,131.99999597168,4|0,0:0|0:0,0:0:0:0:
122,185,176773,2,0,P|182:150|207:76,1,131.99999597168,4|0,0:0|0:0,0:0:0:0:
64,50,177142,2,0,P|95:90|135:105,1,65.9999979858399,10|0,0:0|0:0,0:0:0:0:
122,185,177388,2,0,P|167:208|205:205,1,65.9999979858399,2|0,0:0|0:0,0:0:0:0:
289,237,177634,2,0,L|280:159,1,65.9999979858399,6|0,0:0|0:0,0:0:0:0:
206,94,177880,38,0,P|293:68|347:88,1,131.99999597168,6|0,0:0|0:0,0:0:0:0:
281,171,178249,1,4,0:0:0:0:
287,182,178495,1,0,0:0:0:0:
122,185,178618,2,0,P|118:227|128:280,1,65.9999979858399,2|0,0:0|0:0,0:0:0:0:
212,357,178864,1,0,0:0:0:0:
212,357,178986,1,0,0:0:0:0:
212,357,179109,1,0,0:0:0:0:
287,182,179355,38,0,P|315:262|398:295,1,165,4|0,0:0|0:0,0:0:0:0:
463,117,180093,2,2,B|392:137|380:230,1,110
493,224,180585,1,0,0:0:0:0:
391,301,180831,2,2,B|313:268|312:328|232:291,1,165,6|2,0:0|0:0,0:0:0:0:
229,167,181568,6,2,B|288:184|288:184|336:175|336:175|403:196,1,165
391,301,182060,2,2,P|363:320|335:326,1,55
231,290,182306,2,2,P|259:271|287:265,1,55,6|2,0:0|0:0,0:0:0:0:
277,191,182552,2,2,P|249:172|221:166,1,55
118,196,182798,2,2,P|146:215|174:221,1,55
154,105,183044,38,2,P|49:125|21:203,1,165
118,196,183536,1,2,0:0:0:0:
150,202,183659,1,2,0:0:0:0:
182,198,183782,1,2,0:0:0:0:
214,192,183905,2,0,P|275:202|293:209,1,55,2|2,0:0|0:0,0:0:0:0:
289,307,184150,2,0,P|367:241|370:208,1,110
404,109,184519,1,2,0:0:0:0:
266,99,184765,1,0,0:0:0:0:
457,207,185011,1,0,0:0:0:0:
211,185,185257,6,0,P|160:109|185:34,1,165,4|0,0:0|0:0,0:0:0:0:
344,157,185995,2,2,P|331:237|294:281,1,110
208,337,186486,1,0,0:0:0:0:
47,187,186732,2,2,L|247:185,1,165,6|2,0:0|0:0,0:0:0:0:
344,157,187470,1,2,0:0:0:0:
231,292,187716,1,2,0:0:0:0:
180,100,187962,2,2,P|209:96|253:104,1,55
344,157,188208,6,2,P|333:209|274:264,1,110,6|2,0:0|0:0,0:0:0:0:
211,185,188577,1,0,0:0:0:0:
204,200,188945,1,2,0:0:0:0:
389,79,189191,2,0,L|441:150,1,55,2|2,0:0|0:0,0:0:0:0:
511,187,189437,1,2,0:0:0:0:
488,224,189560,1,2,0:0:0:0:
449,245,189683,38,0,P|407:251|362:244,1,55,6|0,0:0|0:0,0:0:0:0:
292,170,189929,1,2,0:0:0:0:
292,170,190052,2,0,P|250:164|205:171,1,55,2|0,0:0|0:0,0:0:0:0:
82,261,190298,1,2,0:0:0:0:
121,282,190421,2,0,P|163:288|208:281,1,55,2|0,0:0|0:0,0:0:0:0:
261,285,190667,37,2,0:0:0:0:
133,162,190913,1,6,0:0:0:0:
365,257,191159,6,2,P|403:182|368:89,1,165,6|2,0:0|0:0,0:0:0:0:
292,170,191896,1,8,0:0:0:0:
451,345,192142,1,2,0:0:0:0:
490,219,192388,1,2,0:0:0:0:
315,313,192634,2,2,L|181:303,1,110,6|2,0:0|0:0,0:0:0:0:
154,219,193003,2,2,P|110:268|120:343,1,110
205,304,193372,1,8,0:0:0:0:
140,70,193618,1,2,0:0:0:0:
58,173,193864,1,2,0:0:0:0:
277,165,194109,38,2,P|313:86|293:20,1,110,6|2,0:0|0:0,0:0:0:0:
375,156,194478,2,2,P|425:226|492:242,1,110
333,245,194847,2,2,P|246:253|199:303,1,110
298,331,195339,1,8,0:0:0:0:
102,301,195585,2,0,L|110:187,1,110,6|0,0:0|0:0,0:0:0:0:
214,62,195954,2,0,L|221:171,1,110,2|0,0:0|0:0,0:0:0:0:
229,264,196323,5,10,0:0:0:0:
298,331,196568,1,0,0:0:0:0:
394,307,196814,1,0,0:0:0:0:
458,173,197060,6,2,P|390:188|312:177,1,110,6|2,0:0|0:0,0:0:0:0:
276,164,197429,1,10,0:0:0:0:
276,164,197798,37,2,0:0:0:0:
204,304,198044,2,2,P|139:287|125:279,1,55
28,243,198290,2,2,P|93:226|107:218,1,55
276,164,198536,6,2,P|179:171|158:162,1,110,6|2,0:0|0:0,0:0:0:0:
96,96,198905,1,2,0:0:0:0:
276,164,199273,38,2,P|313:169|364:153,1,55,10|2,0:0|0:0,0:0:0:0:
464,116,199519,2,2,P|434:139|382:151,1,55
253,143,199765,2,2,P|290:148|341:132,1,55
468,91,200011,38,2,P|492:186|425:264,1,165,6|2,0:0|0:0,0:0:0:0:
307,145,200749,2,2,P|260:173|226:243,1,110
353,270,201241,1,2,0:0:0:0:
232,86,201486,2,0,P|156:53|74:56,1,165,6|0,0:0|0:0,0:0:0:0:
177,208,202224,6,2,P|236:219|262:218,1,55,6|2,0:0|0:0,0:0:0:0:
299,164,202470,2,2,P|358:159|406:61,1,165,4|2,0:0|0:0,0:0:0:0:
239,30,202962,2,2,B|218:63|218:63|222:165,1,110,6|2,0:0|0:0,0:0:0:0:
177,208,203331,2,2,L|194:282,1,55
318,332,203577,1,10,0:0:0:0:
329,308,203700,2,10,P|329:245|320:225,1,55
221,133,203945,1,10,0:0:0:0:
256,158,204068,1,10,0:0:0:0:
299,164,204191,1,10,0:0:0:0:
158,325,205667,38,0,P|188:307|215:253,1,82.5,10|0,0:0|2:0,0:0:0:0:
146,184,205913,38,0,P|273:252|343:191,1,220,14|0,0:0|0:0,0:0:0:0:
274,51,206282,2,0,L|245:165,1,110,8|0,0:0|0:0,0:0:0:0:
371,110,206527,1,2,0:0:0:0:
163,84,206650,2,0,P|84:102|40:162,1,110,10|0,0:0|0:0,0:0:0:0:
246,157,206896,1,8,0:0:0:0:
146,184,207019,1,0,0:0:0:0:
274,51,207142,2,0,L|416:64,1,110,8|0,0:0|0:0,0:0:0:0:
494,209,207388,38,0,B|421:236|336:220|336:220|258:162,1,220,10|0,0:0|0:0,0:0:0:0:
146,184,207757,2,0,L|257:263,1,110,8|0,0:0|0:0,0:0:0:0:
128,277,208003,1,2,0:0:0:0:
289,185,208126,2,0,P|298:131|284:76,1,110,10|0,0:0|0:0,0:0:0:0:
146,184,208372,1,8,0:0:0:0:
235,247,208495,1,0,0:0:0:0:
120,84,208618,2,0,P|62:127|42:200,1,110,8|0,0:0|0:0,0:0:0:0:
179,364,208864,38,0,P|321:329|362:228,1,220,10|0,0:0|0:0,0:0:0:0:
266,141,209232,2,0,L|226:274,1,110,8|0,0:0|0:0,0:0:0:0:
355,272,209478,1,2,0:0:0:0:
146,184,209601,2,0,P|94:229|81:268,1,110,10|0,0:0|0:0,0:0:0:0:
234,246,209847,1,8,0:0:0:0:
179,363,209970,1,0,0:0:0:0:
146,184,210093,2,0,L|185:67,1,110,8|0,0:0|0:0,0:0:0:0:
364,62,210339,38,0,B|392:142|392:142|345:303,1,220,10|0,0:0|0:0,0:0:0:0:
234,246,210708,2,0,P|268:184|317:159,1,110,8|0,0:0|0:0,0:0:0:0:
487,187,210954,1,2,0:0:0:0:
468,76,211077,2,0,P|393:54|329:82,1,110,8|0,0:0|0:0,0:0:0:0:
354,271,211323,2,0,P|431:278|489:238,1,110,8|0,0:0|0:0,0:0:0:0:
405,158,211568,2,0,P|328:151|270:191,1,110,8|0,0:0|0:0,0:0:0:0:
152,350,211814,38,0,P|53:317|34:213,1,220,14|0,0:0|0:0,0:0:0:0:
234,245,212183,2,0,L|124:256,1,110,8|0,0:0|0:0,0:0:0:0:
153,351,212429,1,2,0:0:0:0:
126,154,212552,2,0,L|22:223,1,110,10|0,0:0|0:0,0:0:0:0:
225,155,212798,2,0,P|212:97|146:48,1,110,8|0,0:0|0:0,0:0:0:0:
234,245,213044,2,0,P|292:232|341:166,1,110,8|0,0:0|0:0,0:0:0:0:
439,6,213290,38,0,B|464:81|464:81|445:242,1,220,10|0,0:0|0:0,0:0:0:0:
298,304,213659,2,0,L|337:160,1,110,8|0,0:0|0:0,0:0:0:0:
447,220,213905,1,2,0:0:0:0:
299,82,214027,2,0,P|245:114|222:184,1,110,10|0,0:0|0:0,0:0:0:0:
418,113,214273,2,0,L|442:-11,1,110,8|0,0:0|0:0,0:0:0:0:
326,197,214519,2,0,P|367:225|455:224,1,110,8|0,0:0|0:0,0:0:0:0:
304,21,214765,38,0,P|216:76|168:208,1,220,10|0,0:0|0:0,0:0:0:0:
326,197,215134,2,0,L|419:128,1,110,8|0,0:0|0:0,0:0:0:0:
270,134,215380,1,2,0:0:0:0:
425,232,215503,2,0,P|377:291|321:309,1,110,10|0,0:0|0:0,0:0:0:0:
152,283,215749,2,0,P|154:206|188:158,1,110,8|0,0:0|0:0,0:0:0:0:
344,92,215995,2,0,P|341:168|307:216,1,110,8|0,0:0|0:0,0:0:0:0:
131,87,216241,6,0,L|258:80,1,110,8|0,0:0|0:0,0:0:0:0:
169,178,216486,1,8,0:0:0:0:
292,0,216609,2,0,P|333:46|335:134,1,110,8|0,0:0|0:0,0:0:0:0:
325,196,216855,1,8,0:0:0:0:
121,107,216978,2,0,P|81:74|58:22,1,110,8|0,0:0|0:0,0:0:0:0:
240,80,217224,1,8,0:0:0:0:
169,178,217347,1,8,0:0:0:0:
312,304,217470,2,0,P|325:246|315:150,1,110,8|0,0:0|0:0,0:0:0:0:
240,80,217716,6,0,P|277:179|267:300,1,220,14|0,0:0|0:0,0:0:0:0:
104,293,218085,1,8,0:0:0:0:
169,178,218208,1,2,0:0:0:0:
185,358,218331,1,2,0:0:0:0:
63,198,218454,2,0,P|125:176|182:180,1,110,10|0,0:0|0:0,0:0:0:0:
345,97,218700,2,0,P|294:78|204:92,1,110,8|0,0:0|0:0,0:0:0:0:
269,291,218945,2,0,B|282:225|282:225|276:145,1,110,8|0,0:0|0:0,0:0:0:0:
185,357,219191,38,0,B|265:373|265:373|339:362|339:362|446:372,1,220,10|0,0:0|0:0,0:0:0:0:
377,195,219560,1,8,0:0:0:0:
269,291,219683,1,2,0:0:0:0:
456,280,219806,1,2,0:0:0:0:
278,182,219929,2,0,L|143:194,1,110,10|0,0:0|0:0,0:0:0:0:
346,289,220175,2,0,L|481:277,1,110,8|0,0:0|0:0,0:0:0:0:
510,110,220421,2,0,L|375:98,1,110,8|0,0:0|0:0,0:0:0:0:
168,191,220667,38,0,B|246:220|246:220|411:184,1,220,10|0,0:0|0:0,0:0:0:0:
346,19,221036,1,8,0:0:0:0:
254,142,221159,1,2,0:0:0:0:
400,100,221282,1,2,0:0:0:0:
212,35,221405,2,0,P|164:68|144:139,1,110,10|0,0:0|0:0,0:0:0:0:
311,270,221650,2,0,P|359:237|379:166,1,110,8|0,0:0|0:0,0:0:0:0:
168,191,221896,2,0,L|223:336,1,110,8|0,0:0|0:0,0:0:0:0:
440,272,222142,38,0,P|466:152|385:97,1,220,10|0,0:0|0:0,0:0:0:0:
212,35,222511,2,0,P|216:98|261:158,1,110,8|0,0:0|0:0,0:0:0:0:
378,190,222757,1,2,0:0:0:0:
207,293,222880,2,0,B|164:180,1,110,8|0,0:0|0:0,0:0:0:0:
348,295,223126,1,2,0:0:0:0:
238,137,223249,1,2,0:0:0:0:
378,190,223372,2,0,B|344:211|299:219|299:219|234:203,1,110,8|0,0:0|0:0,0:0:0:0:
32,114,223618,38,0,P|-10:219|73:340,1,220,14|0,0:0|0:0,0:0:0:0:
207,293,223986,2,0,P|173:250|97:234,1,110,8|0,0:0|0:0,0:0:0:0:
120,332,224232,1,2,0:0:0:0:
348,295,224355,2,0,L|475:297,1,110,10|0,0:0|0:0,0:0:0:0:
360,140,224601,2,0,P|300:141|247:127,1,110,8|0,0:0|0:0,0:0:0:0:
104,29,224847,2,0,P|164:28|217:42,1,110,8|0,0:0|0:0,0:0:0:0:
240,264,225093,38,0,P|178:218|268:133,1,220,10|0,0:0|0:0,0:0:0:0:
432,224,225462,2,0,L|328:310,1,110,8|0,0:0|0:0,0:0:0:0:
360,140,225708,1,2,0:0:0:0:
409,352,225831,2,0,P|348:374|288:358,1,110,10|0,0:0|0:0,0:0:0:0:
135,278,226077,2,0,B|203:284|203:284|264:251,1,110,8|0,0:0|0:0,0:0:0:0:
71,208,226323,2,0,P|38:273|49:322,1,110,8|0,0:0|0:0,0:0:0:0:
251,128,226568,38,0,B|165:128|165:128|113:102|113:102|9:101,1,220,10|0,0:0|0:0,0:0:0:0:
71,208,226937,2,0,L|205:212,1,110,8|0,0:0|0:0,0:0:0:0:
42,307,227183,1,2,0:0:0:0:
37,101,227306,2,0,L|151:108,1,110,10|0,0:0|0:0,0:0:0:0:
379,100,227552,2,0,L|265:107,1,110,8|0,0:0|0:0,0:0:0:0:
14,80,227798,2,0,L|128:87,1,110,8|0,0:0|0:0,0:0:0:0:
402,76,228044,6,0,L|288:83,1,110,10|0,0:0|0:0,0:0:0:0:
364,0,228290,1,8,0:0:0:0:
287,206,228413,2,0,P|221:220|164:202,1,110,8|0,0:0|0:0,0:0:0:0:
123,86,228659,1,8,0:0:0:0:
42,307,228782,2,0,L|181:330,1,110,10|0,0:0|0:0,0:0:0:0:
287,206,229027,1,8,0:0:0:0:
180,210,229150,1,10,0:0:0:0:
344,319,229273,2,0,P|386:283|422:201,1,110,8|0,0:0|0:0,0:0:0:0:
251,28,229519,22,4,B|231:87|174:109|174:109|140:164|183:264|183:264|263:261|310:325|310:325|378:290|401:225,1,550,6|0,0:0|0:0,0:0:0:0:
294,190,230810,2,0,L|316:141,2,27.5
217,356,230995,1,4,0:0:0:0:
256,192,231056,12,0,233945,0:0:0:0:
112,197,242798,54,0,L|186:202,1,55,4|0,1:2|0:0,0:0:0:0:
211,204,243044,1,0,0:0:0:0:
158,315,243167,2,0,L|284:322,1,110
292,342,243536,2,0,P|352:326|361:317,1,55,2|0,0:0|0:0,0:0:0:0:
421,286,243782,2,0,P|440:227|438:214,1,55,2|0,0:0|0:0,0:0:0:0:
444,147,244027,2,0,P|419:90|408:82,1,55,2|0,1:2|0:0,0:0:0:0:
293,109,244273,6,0,L|311:58,2,55,4|0|0,1:2|0:0|0:0,0:0:0:0:
211,204,244642,2,0,L|189:78,1,110,4|0,1:2|0:0,0:0:0:0:
203,64,245011,2,0,P|181:49|150:44,1,55,2|0,0:0|0:0,0:0:0:0:
65,31,245257,2,0,P|50:53|45:83,1,55,2|0,0:0|0:0,0:0:0:0:
28,167,245503,2,0,P|50:182|80:186,1,55,2|0,1:2|0:0,0:0:0:0:
20,284,245749,38,0,L|178:288,1,110,4|0,1:2|0:0,0:0:0:0:
170,365,246118,2,0,L|244:340,1,55,0|0,0:0|0:0,0:0:0:0:
260,256,246364,1,2,0:0:0:0:
289,241,246486,1,2,0:0:0:0:
321,238,246609,1,2,0:0:0:0:
353,244,246732,1,2,0:0:0:0:
482,269,246978,6,2,L|482:351,1,55,2|0,1:2|0:0,0:0:0:0:
353,244,247224,2,0,L|354:96,1,110,4|0,1:2|0:0,0:0:0:0:
391,54,247593,2,0,P|323:97|279:88,1,110,4|0,0:0|0:0,0:0:0:0:
259,117,247962,2,0,P|224:118|178:110,1,55,2|2,0:0|0:0,0:0:0:0:
134,50,248208,1,2,0:0:0:0:
111,87,248331,1,2,0:0:0:0:
106,130,248454,2,0,P|108:164|120:208,1,55,2|0,1:2|0:0,0:0:0:0:
272,276,248700,6,0,P|308:205|253:114,1,187.000003566742,4|0,0:0|0:0,0:0:0:0:
56,259,249068,2,0,B|107:293|170:271|170:271|177:233|215:197,1,187.000003566742
259,117,249437,2,0,P|213:102|143:113,1,93.500001783371,2|0,0:0|0:0,0:0:0:0:
200,211,249683,2,0,P|246:226|316:215,1,93.500001783371,2|0,0:0|0:0,0:0:0:0:
424,149,249929,2,0,L|410:253,1,93.500001783371,2|0,0:0|0:0,0:0:0:0:
486,364,250175,38,0,P|414:291|324:341,1,187.000003566742,4|0,0:0|0:0,0:0:0:0:
201,212,250544,2,0,B|234:274|234:274|362:321,1,187.000003566742,4|0,0:0|0:0,0:0:0:0:
424,149,250913,2,0,L|336:114,1,93.500001783371,2|0,0:0|0:0,0:0:0:0:
324,207,251159,2,0,L|411:241,1,93.500001783371,2|0,0:0|0:0,0:0:0:0:
437,61,251405,2,0,L|349:26,1,93.500001783371,2|0,0:0|0:0,0:0:0:0:
136,14,251650,6,0,P|91:120|110:186,1,187.000003566742,4|0,0:0|0:0,0:0:0:0:
148,323,252019,2,0,B|204:221|204:221|171:123,1,187.000003566742,4|0,0:0|0:0,0:0:0:0:
22,194,252388,2,0,P|42:240|97:276,1,93.500001783371,2|2,0:0|0:0,0:0:0:0:
261,148,252634,1,2,0:0:0:0:
276,155,252880,2,2,P|323:164|389:153,1,93.500001783371,0|0,0:0|0:0,0:0:0:0:
181,154,253126,38,0,P|273:191|395:188,1,187.000003566742,6|2,0:0|0:0,0:0:0:0:
429,41,253495,2,0,P|375:55|315:52,1,93.500001783371,2|0,0:0|0:0,0:0:0:0:
189,27,253741,1,2,0:0:0:0:
89,139,253864,2,0,P|143:153|203:150,1,93.500001783371,2|2,0:0|0:0,0:0:0:0:
325,239,254109,1,2,0:0:0:0:
275,135,254232,1,2,0:0:0:0:
234,270,254355,2,0,P|180:284|120:281,1,93.500001783371,2|2,0:0|0:0,0:0:0:0:
55,210,254601,38,0,P|59:265|49:324,1,110,2|0,0:0|0:0,0:0:0:0:
234,270,254970,2,0,P|220:327|191:375,1,110,2|0,0:0|0:0,0:0:0:0:
142,284,255339,1,2,0:0:0:0:
316,232,255585,1,0,0:0:0:0:
140,139,255831,1,0,0:0:0:0:
341,49,256077,6,0,P|400:69|467:75,1,110,2|0,0:0|0:0,0:0:0:0:
421,203,256445,2,0,P|362:223|286:233,1,110,2|0,0:0|0:0,0:0:0:0:
354,139,256814,1,2,0:0:0:0:
264,290,257060,1,0,0:0:0:0:
140,139,257306,1,0,0:0:0:0:
39,333,257552,38,0,P|46:247|33:203,1,110,2|0,0:0|0:0,0:0:0:0:
184,237,257921,2,0,P|153:156|123:121,1,110,2|0,0:0|0:0,0:0:0:0:
40,138,258290,1,2,0:0:0:0:
125,290,258536,1,0,0:0:0:0:
249,135,258782,1,0,0:0:0:0:
375,315,259027,6,0,L|461:326,2,55,2|0|2,0:0|0:0|0:0,0:0:0:0:
438,223,259396,2,0,P|362:210|294:216,1,110,2|0,0:0|0:0,0:0:0:0:
255,277,259765,1,2,0:0:0:0:
429,321,260011,1,0,0:0:0:0:
381,128,260257,1,2,0:0:0:0:
139,138,260503,6,0,L|33:145,2,76.9999976501466,4|2|0,0:0|0:0|0:0,0:0:0:0:
256,209,260872,2,0,L|364:215,2,76.9999976501466,4|2|0,0:0|0:0|0:0,0:0:0:0:
157,298,261241,2,0,L|44:305,2,76.9999976501466,4|2|0,0:0|0:0|0:0,0:0:0:0:
275,298,261609,1,4,0:0:0:0:
109,219,261732,2,0,P|35:225|9:243,1,76.9999976501466,6|0,0:0|0:0,0:0:0:0:
156,377,261978,38,0,P|230:358|278:280,1,153.999995300293,6|0,0:0|0:0,0:0:0:0:
289,144,262347,2,0,P|253:219|250:232,1,76.9999976501466,2|0,0:0|0:0,0:0:0:0:
214,113,262593,1,0,0:0:0:0:
342,210,262716,2,0,P|423:211|447:206,1,76.9999976501466,6|0,0:0|0:0,0:0:0:0:
367,89,262962,2,0,P|294:52|267:49,1,76.9999976501466,6|0,0:0|0:0,0:0:0:0:
164,55,263208,2,0,P|186:90|238:125,1,76.9999976501466,6|0,0:0|0:0,0:0:0:0:
342,210,263454,6,0,P|269:199|204:255,1,153.999995300293,6|0,0:0|0:0,0:0:0:0:
306,355,263823,2,0,L|288:264,1,76.9999976501466,2|0,0:0|0:0,0:0:0:0:
376,307,264068,1,0,0:0:0:0:
216,333,264191,2,0,P|171:324|132:292,1,76.9999976501466,6|0,0:0|0:0,0:0:0:0:
36,348,264437,2,0,P|44:307|78:261,1,76.9999976501466,6|0,0:0|0:0,0:0:0:0:
22,168,264683,2,0,P|63:176|109:209,1,76.9999976501466,6|0,0:0|0:0,0:0:0:0:
200,146,264929,38,0,P|192:192|159:235,2,76.9999976501466,6|0|2,0:0|0:0|0:0,0:0:0:0:
93,193,265298,1,0,0:0:0:0:
279,209,265421,2,0,P|358:183|376:167,1,76.9999976501466,2|0,0:0|0:0,0:0:0:0:
153,25,265667,22,2,B|164:94|164:94|209:159,1,131.99999597168
351,187,265913,2,2,B|324:129|324:129|249:82,1,131.99999597168
93,193,266159,2,2,B|146:240|146:240|222:262,1,131.99999597168
123,177,278823,21,0,0:0:0:0:
123,177,278884,1,0,0:0:0:0:
123,177,278945,6,2,B|178:162|211:137|211:137|240:162|267:215|267:215|306:202|324:161|324:161|387:187|427:185,1,362.99998892212,14|2,0:0|0:0,0:0:0:0:
412,81,279683,6,0,P|501:136|490:254,1,220,14|0,0:0|0:0,0:0:0:0:
352,340,280052,1,8,0:0:0:0:
409,185,280175,1,2,0:0:0:0:
499,335,280298,1,2,0:0:0:0:
337,252,280421,2,0,P|310:188|334:122,1,110,10|0,0:0|0:0,0:0:0:0:
498,241,280667,2,0,B|488:279|464:305|464:305|395:326,1,110,8|0,0:0|0:0,0:0:0:0:
224,350,280913,2,0,P|208:290|216:193,1,110,8|0,0:0|0:0,0:0:0:0:
244,40,281159,38,0,P|221:144|99:162,1,220,10|0,0:0|0:0,0:0:0:0:
39,19,281527,1,8,0:0:0:0:
151,75,281650,1,2,0:0:0:0:
1,170,281773,1,2,0:0:0:0:
134,46,281896,2,0,P|191:39|277:41,1,110,10|0,0:0|0:0,0:0:0:0:
360,173,282142,2,0,L|212:167,1,110,8|0,0:0|0:0,0:0:0:0:
384,54,282388,2,0,P|459:87|481:143,1,110,8|0,0:0|0:0,0:0:0:0:
396,303,282634,38,0,B|330:295|330:295|257:243|246:144,1,220,10|0,0:0|0:0,0:0:0:0:
360,173,283003,1,8,0:0:0:0:
279,354,283126,1,2,0:0:0:0:
430,225,283249,1,2,0:0:0:0:
215,276,283372,2,0,P|160:281|74:262,1,110,10|0,0:0|0:0,0:0:0:0:
249,168,283618,2,0,P|307:206|325:271,1,110,8|0,0:0|0:0,0:0:0:0:
135,172,283864,2,0,B|117:131|117:131|118:89|139:49,1,110,8|0,0:0|0:0,0:0:0:0:
349,39,284109,38,0,P|330:158|237:162,1,220,10|0,0:0|0:0,0:0:0:0:
131,68,284478,2,0,B|205:57|205:57|269:74,1,110,8|0,0:0|0:0,0:0:0:0:
135,172,284724,1,2,0:0:0:0:
322,241,284847,2,0,L|463:225,1,110,10|0,0:0|0:0,0:0:0:0:
248,167,285093,2,0,P|221:236|235:297,1,110,8|0,0:0|0:0,0:0:0:0:
375,143,285339,2,0,B|381:105|373:72|373:72|332:8,1,110,8|0,0:0|0:0,0:0:0:0:
131,67,285585,38,0,P|178:183|254:161,1,220,14|0,0:0|0:0,0:0:0:0:
315,331,285954,2,0,L|197:252,1,110,8|0,0:0|0:0,0:0:0:0:
322,241,286200,1,2,0:0:0:0:
198,357,286323,2,0,P|157:333|131:270,1,110,10|0,0:0|0:0,0:0:0:0:
322,241,286568,2,0,B|359:263|359:263|398:273|455:266,1,110,8|0,0:0|0:0,0:0:0:0:
334,110,286814,2,0,P|256:150|242:176,1,110,8|0,0:0|0:0,0:0:0:0:
425,177,287060,38,0,P|422:37|346:0,1,220,10|0,0:0|0:0,0:0:0:0:
256,38,287429,2,0,P|284:82|357:112,1,110,8|0,0:0|0:0,0:0:0:0:
365,2,287675,1,2,0:0:0:0:
246,166,287798,2,0,B|230:190|204:215|204:215|126:241,1,110,10|0,0:0|0:0,0:0:0:0:
20,310,288044,2,0,P|12:243|54:174,1,110,8|0,0:0|0:0,0:0:0:0:
109,18,288290,2,0,P|146:77|137:158,1,110,8|0,0:0|0:0,0:0:0:0:
141,316,288536,38,0,P|159:201|256:167,1,220,10|0,0:0|0:0,0:0:0:0:
369,292,288905,2,0,L|256:388,1,110,8|0,0:0|0:0,0:0:0:0:
249,281,289150,1,2,0:0:0:0:
461,339,289273,2,0,P|470:277|439:214,1,110,10|0,0:0|0:0,0:0:0:0:
331,104,289519,2,0,P|322:166|353:229,1,110,8|0,0:0|0:0,0:0:0:0:
505,155,289765,2,0,P|521:103|511:49,1,110,8|0,0:0|0:0,0:0:0:0:
337,209,290011,6,0,L|209:227,1,110,10|0,0:0|0:0,0:0:0:0:
331,104,290257,1,8,0:0:0:0:
369,292,290380,2,0,P|399:334|486:355,1,110,10|0,0:0|0:0,0:0:0:0:
454,233,290626,1,8,0:0:0:0:
270,308,290749,2,0,P|218:314|143:266,1,110,8|0,0:0|0:0,0:0:0:0:
337,209,290995,1,8,0:0:0:0:
228,224,291118,1,8,0:0:0:0:
331,104,291241,2,0,P|397:124|444:173,1,110,8|0,0:0|0:0,0:0:0:0:
210,208,291486,6,0,P|169:132|209:9,1,220,14|0,0:0|0:0,0:0:0:0:
396,22,291855,1,8,0:0:0:0:
337,209,291978,1,2,0:0:0:0:
279,49,292101,1,2,0:0:0:0:
427,149,292224,2,0,P|429:264|410:294,1,110,10|0,0:0|0:0,0:0:0:0:
262,302,292470,2,0,P|229:264|209:195,1,110,8|0,0:0|0:0,0:0:0:0:
279,49,292716,2,0,P|274:163|262:184,1,110,8|0,0:0|0:0,0:0:0:0:
125,217,292962,38,0,P|171:132|293:199,1,220,10|0,0:0|0:0,0:0:0:0:
344,336,293331,1,8,0:0:0:0:
210,208,293454,1,2,0:0:0:0:
195,383,293577,1,2,0:0:0:0:
337,246,293700,2,0,P|399:266|432:315,1,110,10|0,0:0|0:0,0:0:0:0:
231,313,293945,2,0,B|232:266|232:266|202:189,1,110,8|0,0:0|0:0,0:0:0:0:
96,42,294191,2,0,P|90:106|134:174,1,110,8|0,0:0|0:0,0:0:0:0:
337,246,294437,38,0,P|339:162|226:75,1,220,10|0,0:0|0:0,0:0:0:0:
96,42,294806,1,8,0:0:0:0:
209,207,294929,1,2,0:0:0:0:
178,18,295052,1,2,0:0:0:0:
111,220,295175,2,0,P|141:277|227:304,1,110,10|0,0:0|0:0,0:0:0:0:
353,349,295421,2,0,P|356:284|296:217,1,110,8|0,0:0|0:0,0:0:0:0:
197,97,295667,2,0,L|209:208,1,110,8|0,0:0|0:0,0:0:0:0:
22,325,295913,38,0,P|86:205|118:226,1,220,10|0,0:0|0:0,0:0:0:0:
178,299,296282,2,0,P|243:297|298:242,1,110,8|0,0:0|0:0,0:0:0:0:
110,219,296527,1,2,0:0:0:0:
197,97,296650,2,0,P|262:95|317:40,1,110,10|0,0:0|0:0,0:0:0:0:
127,14,296896,2,0,L|88:161,1,110,8|0,0:0|0:0,0:0:0:0:
178,299,297142,2,0,L|217:152,1,110,8|0,0:0|0:0,0:0:0:0:
55,353,297388,38,0,B|176:381|176:381|315:358,1,220,14|0,0:0|0:0,0:0:0:0:
206,192,297757,1,8,0:0:0:0:
178,299,297880,1,2,0:0:0:0:
327,169,298003,1,2,0:0:0:0:
137,120,298126,2,0,P|105:169|118:233,1,110,10|0,0:0|0:0,0:0:0:0:
302,266,298372,2,0,P|356:263|403:233,1,110,8|0,0:0|0:0,0:0:0:0:
206,192,298618,2,0,L|170:324,1,110,8|0,0:0|0:0,0:0:0:0:
170,48,298864,38,0,P|297:98|328:189,1,220,10|0,0:0|0:0,0:0:0:0:
270,365,299232,1,8,0:0:0:0:
206,192,299355,1,2,0:0:0:0:
370,301,299478,1,2,0:0:0:0:
177,298,299601,2,0,P|127:270|93:205,1,110,10|0,0:0|0:0,0:0:0:0:
247,18,299847,2,0,P|266:74|239:148,1,110,8|0,0:0|0:0,0:0:0:0:
20,118,300093,2,0,P|71:87|149:98,1,110,10|0,0:0|0:0,0:0:0:0:
270,241,300339,38,0,P|357:181|353:76,1,220,10|0,0:0|0:0,0:0:0:0:
247,18,300708,1,8,0:0:0:0:
161,184,300831,1,2,0:0:0:0:
121,87,300954,1,2,0:0:0:0:
273,205,301077,2,0,P|324:177|344:123,1,110,10|0,0:0|0:0,0:0:0:0:
161,184,301323,2,0,B|125:212|118:247|118:247|143:312,1,110,8|0,0:0|0:0,0:0:0:0:
311,308,301568,2,0,L|264:182,1,110,8|0,0:0|0:0,0:0:0:0:
453,186,301814,6,0,L|432:26,1,110,10|0,0:0|0:0,0:0:0:0:
343,131,302060,1,8,0:0:0:0:
407,285,302183,2,0,P|471:293|538:249,1,110,8|0,0:0|0:0,0:0:0:0:
453,186,302429,1,8,0:0:0:0:
311,308,302552,2,0,P|255:316|189:275,1,110,10|0,0:0|0:0,0:0:0:0:
133,169,302798,1,8,0:0:0:0:
272,204,302921,1,8,0:0:0:0:
58,225,303044,2,0,P|41:161|78:92,1,110,8|0,0:0|0:0,0:0:0:0:
281,40,303290,6,0,P|187:163|116:166,1,220,14|0,0:0|0:0,0:0:0:0:
35,19,303659,2,0,P|109:30|148:164,1,220,10|2,0:0|0:0,0:0:0:0:
58,225,304027,2,0,P|40:173|53:120,1,110,8|0,0:0|0:0,0:0:0:0:
281,40,304273,1,8,0:0:0:0:
152,154,304396,1,2,0:0:0:0:
335,153,304519,2,0,P|387:104|410:35,1,110,8|0,0:0|0:0,0:0:0:0:
234,124,304765,38,0,P|237:184|291:259,2,110,10|0|2,0:0|0:0|0:0,0:0:0:0:
147,277,305134,2,0,P|195:327|272:347,1,110,8|0,0:0|0:0,0:0:0:0:
342,340,305380,1,2,0:0:0:0:
436,194,305503,2,0,L|312:143,1,110,10|0,0:0|0:0,0:0:0:0:
157,186,305749,2,0,L|281:237,1,110,8|0,0:0|0:0,0:0:0:0:
423,292,305995,2,0,P|490:279|534:216,1,110,8|0,0:0|0:0,0:0:0:0:
496,47,306241,6,0,B|414:54|414:54|360:34|360:34|270:40,1,220,14|0,0:0|0:0,0:0:0:0:
79,135,306609,2,0,P|238:231|291:216,1,220,10|2,0:0|0:0,0:0:0:0:
436,194,306978,2,0,L|311:142,1,110,10|0,0:0|0:0,0:0:0:0:
258,227,307224,1,8,0:0:0:0:
377,282,307347,1,2,0:0:0:0:
250,129,307470,2,0,P|163:191|154:222,1,110,8|0,0:0|0:0,0:0:0:0:
377,282,307716,38,0,P|418:242|437:165,2,110,10|0|0,0:0|0:0|0:0,0:0:0:0:
398,103,308085,2,0,P|475:103|521:137,1,110,8|0,0:0|0:0,0:0:0:0:
488,295,308331,1,2,0:0:0:0:
305,204,308454,1,8,0:0:0:0:
436,193,308577,1,2,0:0:0:0:
284,320,308700,1,8,0:0:0:0:
250,129,308823,1,2,0:0:0:0:
269,335,308945,2,0,P|305:340|398:323,1,110,8|0,0:0|0:0,0:0:0:0:
212,203,309191,6,0,P|116:299|124:382,1,220,14|0,0:0|0:0,0:0:0:0:
71,205,309560,2,0,P|37:262|29:321,1,110,10|0,0:0|0:0,0:0:0:0:
8,150,309806,1,2,0:0:0:0:
166,293,309929,2,0,P|202:298|295:281,1,110,10|0,0:0|0:0,0:0:0:0:
261,113,310175,2,0,P|225:108|132:125,1,110,8|0,0:0|0:0,0:0:0:0:
305,204,310421,2,0,P|353:145|356:89,1,110,8|0,0:0|0:0,0:0:0:0:
269,335,310667,38,0,P|305:340|398:323,2,110,10|0|0,0:0|0:0|0:0,0:0:0:0:
443,163,311036,2,0,P|501:289|472:358,1,220,8|2,0:0|0:0,0:0:0:0:
305,204,311405,2,0,P|328:140|380:105,1,110,10|0,0:0|0:0,0:0:0:0:
383,266,311650,2,0,L|275:289,1,110,8|0,0:0|0:0,0:0:0:0:
109,178,311896,2,0,L|216:154,1,110,8|0,0:0|0:0,0:0:0:0:
0,151,312142,6,0,P|-4:257|88:306,1,220,14|0,0:0|0:0,0:0:0:0:
305,204,312511,2,0,B|288:153|217:154|217:154|109:178,1,220,10|2,0:0|0:0,0:0:0:0:
275,288,312880,2,0,P|331:289|388:228,1,110,10|0,0:0|0:0,0:0:0:0:
422,87,313126,2,0,P|359:96|299:133,1,110,8|0,0:0|0:0,0:0:0:0:
492,214,313372,2,0,L|521:59,1,110,8|0,0:0|0:0,0:0:0:0:
373,258,313618,38,0,P|408:318|480:335,2,110,10|0|8,0:0|0:0|0:0,0:0:0:0:
174,255,313986,2,0,P|181:328|209:374,1,110,8|0,0:0|0:0,0:0:0:0:
275,288,314232,1,8,0:0:0:0:
108,178,314355,1,8,0:0:0:0:
85,335,314478,1,2,0:0:0:0:
221,191,314601,1,8,0:0:0:0:
32,251,314724,1,2,0:0:0:0:
275,288,314847,2,0,P|314:239|327:162,1,110,8|0,0:0|0:0,0:0:0:0:
132,27,315093,6,10,B|148:57|132:112|132:112|160:128|187:125|187:125|202:187|244:207,1,220,14|8,0:0|0:0,0:0:0:0:
401,276,315462,2,2,P|432:195|406:127,1,110,2|0,0:0|0:0,0:0:0:0:
327,194,315708,1,0,0:0:0:0:
489,80,315831,2,2,B|455:90|424:89|424:89|360:73,1,110,2|0,0:0|0:0,0:0:0:0:
220,191,316077,2,2,P|240:133|311:91,1,110,0|0,0:0|0:0,0:0:0:0:
275,287,316323,2,2,P|216:304|140:272,1,110
401,276,316568,38,2,B|414:318|410:347|410:347|381:407,2,110,10|10|10,0:0|0:0|0:0,0:0:0:0:
221,191,316937,2,2,L|275:287,1,110,0|0,0:0|0:0,0:0:0:0:
336,201,317183,1,2,0:0:0:0:
169,293,317306,2,2,B|136:311|94:316|94:316|26:291,1,110,2|0,0:0|0:0,0:0:0:0:
70,124,317552,2,2,P|181:98|204:111,1,110,2|0,0:0|0:0,0:0:0:0:
336,201,317798,2,2,P|262:291|233:296,1,110,2|0,0:0|0:0,0:0:0:0:
377,89,318044,38,10,B|459:95|481:173|481:173|492:174|513:172|513:172|508:192|516:243,1,220,10|8,0:0|0:0,0:0:0:0:
372,298,318413,2,2,B|345:272|345:272|335:238|335:174,1,110,2|0,0:0|0:0,0:0:0:0:
469,285,318659,1,2,0:0:0:0:
274,286,318782,2,2,B|219:285|219:285|135:256,1,110,0|0,0:0|0:0,0:0:0:0:
197,76,319027,2,2,P|246:102|276:186,1,110,0|0,0:0|0:0,0:0:0:0:
85,217,319273,2,2,P|78:161|129:88,1,110,2|0,0:0|0:0,0:0:0:0:
352,73,319519,6,10,P|383:167|364:206,2,110
193,160,319888,2,2,L|167:266,1,110,2|0,0:0|0:0,0:0:0:0:
274,286,320134,1,2,0:0:0:0:
72,202,320257,2,2,B|60:163|66:133|66:133|95:81,1,110,2|0,0:0|0:0,0:0:0:0:
261,43,320503,2,2,B|280:77|280:77|286:107|270:154,1,110,0|0,0:0|0:0,0:0:0:0:
200,365,320749,2,2,P|167:315|175:243,1,110,0|0,0:0|0:0,0:0:0:0:
454,221,320995,6,10,P|383:351|320:343,1,220,14|8,0:0|0:0,0:0:0:0:
272,146,321364,1,2,0:0:0:0:
353,246,321486,1,0,0:0:0:0:
256,309,321609,1,0,0:0:0:0:
355,112,321732,2,2,B|398:106|398:106|482:110,1,110,2|0,0:0|0:0,0:0:0:0:
353,246,321978,2,2,P|287:228|255:192,1,110,0|0,0:0|0:0,0:0:0:0:
174,354,322224,2,2,P|167:285|189:243,1,110,2|0,0:0|0:0,0:0:0:0:
268,91,322470,38,10,B|217:86|187:89|187:89|135:145,2,110
183,249,322839,1,0,0:0:0:0:
353,246,322962,1,2,0:0:0:0:
177,134,323085,1,2,0:0:0:0:
332,348,323208,2,2,B|354:316|354:316|362:277|347:217,1,110,2|0,0:0|0:0,0:0:0:0:
268,91,323454,2,2,P|253:151|270:226,1,110,2|0,0:0|0:0,0:0:0:0:
448,139,323700,2,2,P|453:84|438:31,1,110,2|0,0:0|0:0,0:0:0:0:
352,245,323945,38,2,P|410:277|479:277,1,110,2|0,0:0|0:0,0:0:0:0:
332,347,324191,1,2,0:0:0:0:
448,139,324314,2,2,L|307:136,1,110,2|0,0:0|0:0,0:0:0:0:
352,245,324560,1,0,0:0:0:0:
365,61,324683,2,2,P|316:57|251:129,1,110,10|0,0:0|0:0,0:0:0:0:
249,222,324929,2,2,P|297:247|351:245,1,110,10|0,0:0|0:0,0:0:0:0:
183,136,325175,2,2,P|149:185|138:263,1,110,10|0,0:0|0:0,0:0:0:0:
279,327,325421,6,2,L|362:232,1,110,2|0,0:0|0:0,0:0:0:0:
249,221,325667,1,8,0:0:0:0:
454,294,325790,2,2,P|462:219|439:171,1,110,0|0,0:0|0:0,0:0:0:0:
268,91,326036,1,8,0:0:0:0:
374,62,326159,2,2,P|378:111|340:186,1,110,0|0,0:0|0:0,0:0:0:0:
249,221,326405,1,8,0:0:0:0:
268,91,326527,1,8,0:0:0:0:
351,244,326650,1,8,0:0:0:0:
146,200,326773,1,8,0:0:0:0:
188,27,326896,6,14,P|294:-2|378:72,1,220,14|8,0:0|0:0,0:0:0:0:
351,244,327265,1,10,0:0:0:0:
268,91,327388,1,10,0:0:0:0:
453,160,327511,1,10,0:0:0:0:
249,221,327634,2,2,B|206:226|170:220|170:220|113:174,1,110,10|0,0:0|0:0,0:0:0:0:
268,91,327880,2,2,P|343:145|354:185,1,110,0|0,0:0|0:0,0:0:0:0:
378,320,328126,2,2,L|238:308,1,110,2|0,0:0|0:0,0:0:0:0:
37,256,328372,38,10,P|10:152|91:71,1,220
215,211,328741,1,10,0:0:0:0:
115,179,328864,1,0,0:0:0:0:
268,91,328986,1,0,0:0:0:0:
268,310,329109,2,2,P|216:313|143:292,1,110,2|0,0:0|0:0,0:0:0:0:
308,202,329355,2,2,P|350:225|383:301,1,110,2|0,0:0|0:0,0:0:0:0:
215,211,329601,2,2,L|183:93,1,110,2|0,0:0|0:0,0:0:0:0:
393,29,329847,38,2,B|405:93|368:181|368:181|286:210,1,220,2|10,0:0|0:0,0:0:0:0:
186,105,330216,1,10,0:0:0:0:
309,12,330339,1,10,0:0:0:0:
214,210,330462,1,10,0:0:0:0:
112,41,330585,2,2,P|164:12|231:21,1,110,10|2,0:0|0:0,0:0:0:0:
115,179,330831,2,2,P|174:182|225:227,1,110,2|0,0:0|0:0,0:0:0:0:
42,288,331077,2,2,P|89:323|108:388,1,110,2|0,0:0|0:0,0:0:0:0:
307,337,331323,6,2,P|203:303|217:207,1,220,2|0,0:0|0:0,0:0:0:0:
387,241,331691,2,2,P|422:285|422:371,1,110,0|0,0:0|0:0,0:0:0:0:
275,264,331937,1,2,0:0:0:0:
389,121,332060,2,2,P|438:137|484:219,1,110,0|0,0:0|0:0,0:0:0:0:
292,189,332306,2,2,P|242:172|209:88,1,110,0|0,0:0|0:0,0:0:0:0:
341,8,332552,2,2,B|342:50|327:82|327:82|279:119,1,110,2|0,0:0|0:0,0:0:0:0:
121,234,332798,6,2,P|66:125|108:35,1,220,14|0,0:0|0:0,0:0:0:0:
256,30,333167,1,10,0:0:0:0:
274,263,333290,1,10,0:0:0:0:
210,126,333413,1,10,0:0:0:0:
190,329,333536,38,2,B|273:365|355:344|355:344|403:269,1,220,10|10,0:0|0:0,0:0:0:0:
429,176,333905,1,10,0:0:0:0:
284,154,334027,2,10,L|272:292,1,110
388,102,334273,38,10,P|347:59|290:39,2,110
211,127,334642,2,2,L|189:-32,1,110,0|2,0:0|0:0,0:0:0:0:
300,40,334888,1,2,0:0:0:0:
104,141,335011,2,2,P|120:189|200:227,1,110,2|0,0:0|0:0,0:0:0:0:
364,217,335257,2,2,P|336:174|249:158,1,110,2|0,0:0|0:0,0:0:0:0:
190,329,335503,2,2,P|233:361|287:363,1,110,2|0,0:0|0:0,0:0:0:0:
473,252,335749,22,10,B|488:157|439:78|439:78|397:135,1,220,14|8,0:0|0:0,0:0:0:0:
364,217,336118,1,10,0:0:0:0:
463,334,336241,1,10,0:0:0:0:
381,187,336364,1,10,0:0:0:0:
287,362,336486,2,2,B|241:368|208:352|208:352|172:306,1,110,10|0,0:0|0:0,0:0:0:0:
43,365,336732,2,2,B|41:326|53:284|53:284|90:236,1,110,2|0,0:0|0:0,0:0:0:0:
246,166,336978,1,2,0:0:0:0:
190,329,337101,1,2,0:0:0:0:
129,121,337224,38,10,P|198:54|239:54,2,110
292,271,337593,2,2,P|345:212|353:161,1,110,0|2,0:0|0:0,0:0:0:0:
314,57,337839,1,8,0:0:0:0:
170,229,337962,2,2,B|159:277|168:309|168:309|225:360,1,110,10|0,0:0|0:0,0:0:0:0:
405,278,338208,2,2,P|386:229|315:154,1,110,2|0,0:0|0:0,0:0:0:0:
207,53,338454,2,2,P|227:123|268:159,1,110,2|0,0:0|0:0,0:0:0:0:
314,57,338700,21,12,0:0:0:0:
189,328,338823,2,8,B|242:361|242:361|354:354|408:269,1,220,8|0,0:0|0:0,0:0:0:0:
132,191,339437,1,10,0:0:0:0:
132,191,339929,6,0,L|256:213,1,110,8|0,0:0|0:0,0:0:0:0:
89,81,340175,2,8,P|7:190|46:280,1,220,8|0,0:0|0:0,0:0:0:0:
259,288,340544,2,0,P|299:260|311:179,1,110,8|0,0:0|0:0,0:0:0:0:
89,81,340790,1,8,0:0:0:0:
130,316,340913,1,10,0:0:0:0:
130,316,341405,6,0,P|173:254|221:237,1,110,8|0,0:0|0:0,0:0:0:0:
96,348,341650,2,8,P|164:232|291:218,1,220,8|0,0:0|0:0,0:0:0:0:
229,353,342019,1,8,0:0:0:0:
339,112,342142,1,8,0:0:0:0:
132,191,342265,1,8,0:0:0:0:
411,191,342388,1,10,0:0:0:0:
418,182,342757,5,8,0:0:0:0:
424,173,342880,2,0,B|410:146|381:121|381:121|314:107,1,110,8|0,0:0|0:0,0:0:0:0:
275,34,343126,2,8,P|242:120|318:213,1,220,8|0,0:0|0:0,0:0:0:0:
439,75,343495,2,0,P|418:38|324:13,1,110,8|0,0:0|0:0,0:0:0:0:
258,127,343741,1,8,0:0:0:0:
150,56,343864,2,0,L|24:74,1,110,2|0,0:2|0:0,0:0:0:0:
2,199,344109,2,0,L|128:217,1,110,2|0,0:2|0:0,0:0:0:0:
150,341,344355,2,0,L|24:359,1,110,2|0,0:2|0:0,0:0:0:0:
233,250,344601,38,0,P|281:311|282:369,2,110,8|8|0,0:0|0:0|0:0,0:0:0:0:
150,341,344970,1,8,0:0:0:0:
370,345,345093,2,0,L|518:304,1,110,8|0,0:0|0:0,0:0:0:0:
322,185,345339,2,0,L|227:254,2,110,8|8|0,0:0|0:0|0:0,0:0:0:0:
285,341,345708,1,8,0:0:0:0:
241,125,345831,2,0,P|312:84|378:102,1,110,8|0,0:0|0:0,0:0:0:0:
423,226,346077,38,0,L|294:173,2,110,8|8|0,0:0|0:0|0:0,0:0:0:0:
476,316,346445,1,8,0:0:0:0:
285,341,346568,2,0,P|240:288|234:228,1,110,8|0,0:0|0:0,0:0:0:0:
406,121,346814,2,0,P|429:186|413:244,1,110,8|0,0:0|0:0,0:0:0:0:
434,23,347060,2,0,P|489:65|507:122,1,110,8|0,0:0|0:0,0:0:0:0:
321,184,347306,2,0,P|265:141|247:84,1,110,8|0,0:0|0:0,0:0:0:0:
63,90,347552,6,8,P|58:145|80:195,2,110
232,249,347921,2,8,P|215:309|157:350,1,110
146,260,348167,1,8,0:0:0:0:
435,231,348290,1,10,0:0:0:0:
435,231,348782,6,0,L|307:180,1,110,8|0,0:0|0:0,0:0:0:0:
189,121,349027,1,10,0:0:0:0:
392,104,349150,1,10,0:0:0:0:
198,209,349273,1,10,0:0:0:0:
330,34,349396,1,10,0:0:0:0:
279,248,349519,2,8,P|215:297|157:290,1,110,10|10,0:0|0:0,0:0:0:0:
78,66,349765,6,2,P|145:76|197:147,1,131.99999597168
121,365,350011,2,2,P|96:301|132:220,1,131.99999597168
381,180,350257,2,2,P|338:233|250:242,1,131.99999597168
