osu file format v14

[General]
AudioFilename: audio.mp3
AudioLeadIn: 0
PreviewTime: -1
Countdown: 1
SampleSet: Soft
StackLeniency: 0.7
Mode: 0
LetterboxInBreaks: 0
WidescreenStoryboard: 0

[Editor]
Bookmarks: 30501,41287
DistanceSpacing: 0.2
BeatDivisor: 4
GridSize: 4
TimelineZoom: 1

[Metadata]
Title:KOISURU*HIYOKO
TitleUnicode:恋する☆ひよこ
Artist:Katakiri Rekka
ArtistUnicode:片霧烈火
Creator:bronco2p
Version:Extra
Source:おくさまが生徒会長!
Tags:
BeatmapID:2061228
BeatmapSetID:985160

[Difficulty]
HPDrainRate:5
CircleSize:3.9
OverallDifficulty:9
ApproachRate:9
SliderMultiplier:1.4
SliderTickRate:1

[Events]
//Background and Video events
0,0,"anime clouds.jpg",0,0
//Break Periods
//Storyboard Layer 0 (Background)
//Storyboard Layer 1 (Fail)
//Storyboard Layer 2 (Pass)
//Storyboard Layer 3 (Foreground)
//Storyboard Sound Samples

[TimingPoints]
-510,337.078651685393,4,2,0,100,1,0
501,-83.3333333333333,4,2,0,100,0,0
5725,-100,4,2,0,100,0,0
6063,-66.6666666666667,4,2,0,100,0,0
11287,-83.3333333333333,4,2,0,100,0,0
11624,-66.6666666666667,4,2,0,100,0,0
24770,-83.3333333333333,4,2,0,100,0,0
25107,-66.6666666666667,4,2,0,100,0,0
26287,-83.3333333333333,4,2,0,100,0,0
26961,-133.333333333333,4,2,0,100,0,0
27804,-83.3333333333333,4,2,0,100,0,0
30501,-83.3333333333333,4,2,0,100,0,1
49377,-83.3333333333333,4,2,0,100,0,0

[HitObjects]
60,90,501,6,0,L|104:124,3,41.9999987182618
93,115,838,5,0,0:0:0:0:
156,336,1006,1,0,0:0:0:0:
318,160,1175,1,0,0:0:0:0:
144,87,1343,5,0,0:0:0:0:
80,289,1511,1,0,0:0:0:0:
320,201,1680,1,0,0:0:0:0:
83,83,1849,5,0,0:0:0:0:
157,314,2018,1,0,0:0:0:0:
285,107,2186,1,0,0:0:0:0:
103,250,2355,2,0,P|68:275|18:298,1,83.9999974365235
142,41,2692,1,0,0:0:0:0:
283,169,2860,2,0,P|323:232|320:274,1,83.9999974365235
109,122,3197,2,0,P|85:48|103:11,1,83.9999974365235
332,70,3534,5,0,0:0:0:0:
109,202,3703,1,0,0:0:0:0:
341,298,3872,1,0,0:0:0:0:
172,102,4040,5,0,0:0:0:0:
106,339,4209,1,0,0:0:0:0:
346,190,4377,1,0,0:0:0:0:
71,115,4546,5,0,0:0:0:0:
168,355,4714,1,0,0:0:0:0:
308,77,5051,5,0,0:0:0:0:
180,270,5220,1,0,0:0:0:0:
71,79,5557,5,0,0:0:0:0:
71,79,5725,2,0,P|121:71|152:82,1,70
53,199,6063,6,0,B|169:197|93:249|272:254,1,210.000008010865
490,206,6568,2,0,P|470:152|409:126,1,105.000004005432
222,139,6905,1,0,0:0:0:0:
306,341,7074,1,0,0:0:0:0:
427,109,7242,1,0,0:0:0:0:
427,109,7411,6,0,B|271:107|370:142|217:138,1,210.000008010865
65,73,7916,1,0,0:0:0:0:
232,255,8085,1,0,0:0:0:0:
21,232,8254,1,0,0:0:0:0:
256,148,8422,1,0,0:0:0:0:
108,340,8591,1,0,0:0:0:0:
108,340,8759,6,0,P|206:312|318:357,1,210.000008010865
203,220,9265,2,0,P|210:136|250:97,1,105.000004005432
343,38,9602,1,0,0:0:0:0:
436,258,9770,1,0,0:0:0:0:
142,85,9939,1,0,0:0:0:0:
142,85,10107,6,0,P|120:190|170:306,1,210.000008010865
376,328,10613,1,0,0:0:0:0:
204,172,10782,1,0,0:0:0:0:
461,117,10950,1,0,0:0:0:0:
293,349,11119,1,0,0:0:0:0:
378,143,11287,2,0,P|401:104|434:68,1,83.9999974365235
102,56,11624,6,0,B|239:56|176:89|311:91,1,210.000008010865
430,47,12130,1,0,0:0:0:0:
198,228,12298,1,0,0:0:0:0:
284,29,12467,1,0,0:0:0:0:
377,287,12636,1,0,0:0:0:0:
377,287,12804,6,0,B|236:283|303:326|157:313,1,210.000008010865
27,244,13310,2,0,P|83:214|148:212,1,105.000004005432
306,278,13647,1,0,0:0:0:0:
171,83,13815,1,0,0:0:0:0:
410,74,13984,1,0,0:0:0:0:
197,197,14152,1,0,0:0:0:0:
352,36,14321,5,0,0:0:0:0:
279,298,14489,1,0,0:0:0:0:
197,48,14658,5,0,0:0:0:0:
227,337,14827,1,0,0:0:0:0:
325,64,14995,5,0,0:0:0:0:
289,353,15164,1,0,0:0:0:0:
172,38,15332,5,0,0:0:0:0:
172,38,15501,2,0,P|113:89|42:91,1,105.000004005432
21,32,15838,5,0,0:0:0:0:
92,243,16006,1,0,0:0:0:0:
280,79,16343,5,0,0:0:0:0:
73,160,16512,1,0,0:0:0:0:
303,342,16849,6,0,P|332:252|315:118,1,210.000008010865
90,193,17355,2,0,P|147:219|226:219,1,105.000004005432
398,57,17692,1,0,0:0:0:0:
166,154,17860,1,0,0:0:0:0:
448,236,18029,1,0,0:0:0:0:
448,236,18197,6,0,B|328:232|393:291|245:274,1,210.000008010865
350,148,18703,2,0,P|445:126|479:145,1,105.000004005432
339,321,19040,1,0,0:0:0:0:
211,82,19209,1,0,0:0:0:0:
33,226,19377,1,0,0:0:0:0:
33,226,19546,6,0,B|155:220|99:269|238:269,1,210.000008010865
470,210,20051,2,0,P|408:182|350:186,1,105.000004005432
197,323,20388,1,0,0:0:0:0:
404,261,20557,1,0,0:0:0:0:
194,82,20725,1,0,0:0:0:0:
194,82,20894,6,0,P|259:22|286:106,1,210.000008010865
151,220,21400,1,0,0:0:0:0:
380,185,21568,1,0,0:0:0:0:
96,102,21737,1,0,0:0:0:0:
250,347,21905,1,0,0:0:0:0:
393,77,22074,1,0,0:0:0:0:
393,77,22242,6,0,B|248:57|324:120|169:91,1,210.000008010865
36,126,22748,2,0,P|27:56|56:5,1,105.000004005432
241,40,23085,1,0,0:0:0:0:
206,282,23254,1,0,0:0:0:0:
98,99,23422,1,0,0:0:0:0:
98,99,23591,6,0,P|66:173|100:303,1,210.000008010865
326,241,24096,2,0,P|258:223|203:229,1,105.000004005432
321,347,24433,1,0,0:0:0:0:
430,86,24602,1,0,0:0:0:0:
430,86,24770,2,0,L|384:192,1,83.9999974365235
256,309,25107,5,0,0:0:0:0:
192,104,25276,1,0,0:0:0:0:
382,53,25613,5,0,0:0:0:0:
63,213,25950,5,0,0:0:0:0:
63,213,26287,6,0,P|131:194|198:216,1,105.000004005432
303,298,26624,1,0,0:0:0:0:
132,325,26793,1,0,0:0:0:0:
132,325,26961,2,0,P|81:301|54:248,2,105.000004005432
114,150,27804,5,0,0:0:0:0:
190,357,27973,1,0,0:0:0:0:
213,88,28141,5,0,0:0:0:0:
223,326,28310,1,0,0:0:0:0:
284,66,28478,5,0,0:0:0:0:
174,273,28647,1,0,0:0:0:0:
121,23,28815,5,0,0:0:0:0:
241,301,28984,1,0,0:0:0:0:
303,33,29152,5,0,0:0:0:0:
206,364,29321,1,0,0:0:0:0:
163,39,29489,5,0,0:0:0:0:
288,352,29658,1,0,0:0:0:0:
421,98,29827,6,0,L|463:72,7,41.9999987182618
456,75,30501,5,0,0:0:0:0:
373,282,30669,1,0,0:0:0:0:
317,40,30838,5,0,0:0:0:0:
389,230,31006,1,0,0:0:0:0:
258,56,31175,6,0,P|212:37|150:47,1,83.9999974365235
28,140,31512,2,0,P|91:155|144:134,1,83.9999974365235
286,83,31849,5,0,0:0:0:0:
57,229,32018,1,0,0:0:0:0:
359,217,32186,5,0,0:0:0:0:
121,133,32355,1,0,0:0:0:0:
396,69,32523,5,0,0:0:0:0:
136,225,32692,1,0,0:0:0:0:
445,261,32860,5,0,0:0:0:0:
256,84,33029,1,0,0:0:0:0:
188,338,33197,5,0,0:0:0:0:
326,122,33366,1,0,0:0:0:0:
259,322,33534,5,0,0:0:0:0:
212,42,33703,1,0,0:0:0:0:
58,234,33872,6,0,P|115:246|168:218,1,83.9999974365235
348,157,34209,2,0,P|286:151|230:163,1,83.9999974365235
55,220,34546,5,0,0:0:0:0:
278,264,34714,1,0,0:0:0:0:
156,124,34883,5,0,0:0:0:0:
160,358,35051,1,0,0:0:0:0:
248,48,35220,5,0,0:0:0:0:
113,235,35388,1,0,0:0:0:0:
411,185,35557,5,0,0:0:0:0:
87,103,35725,1,0,0:0:0:0:
244,354,35894,6,0,P|282:301|279:262,1,83.9999974365235
215,76,36231,2,0,P|189:134|197:177,1,83.9999974365235
426,197,36568,2,0,P|376:159|321:158,1,83.9999974365235
128,227,36905,2,0,P|188:237|221:227,1,83.9999974365235
291,58,37242,5,0,0:0:0:0:
222,297,37411,1,0,0:0:0:0:
174,79,37579,5,0,0:0:0:0:
230,358,37748,1,0,0:0:0:0:
362,154,37916,5,0,0:0:0:0:
102,211,38085,1,0,0:0:0:0:
387,238,38254,5,0,0:0:0:0:
131,78,38422,1,0,0:0:0:0:
155,341,38591,5,0,0:0:0:0:
240,73,38759,1,0,0:0:0:0:
316,355,38928,5,0,0:0:0:0:
255,47,39096,1,0,0:0:0:0:
53,170,39265,6,0,P|110:188|164:186,1,83.9999974365235
378,162,39602,2,0,P|319:152|269:161,1,83.9999974365235
108,250,39939,5,0,0:0:0:0:
229,34,40107,1,0,0:0:0:0:
262,302,40276,6,0,P|279:237|275:188,1,83.9999974365235
148,63,40613,2,0,P|147:134|165:176,1,83.9999974365235
247,288,40950,6,0,L|260:242,3,41.9999987182618
258,247,41287,5,0,0:0:0:0:
469,256,41456,1,0,0:0:0:0:
155,116,41624,5,0,0:0:0:0:
386,226,41793,1,0,0:0:0:0:
93,232,41961,5,0,0:0:0:0:
368,125,42130,1,0,0:0:0:0:
74,105,42298,5,0,0:0:0:0:
246,334,42467,1,0,0:0:0:0:
250,49,42636,5,0,0:0:0:0:
168,297,42804,1,0,0:0:0:0:
130,22,42973,5,0,0:0:0:0:
189,231,43141,1,0,0:0:0:0:
264,26,43310,5,0,0:0:0:0:
131,180,43478,1,0,0:0:0:0:
382,168,43647,5,0,0:0:0:0:
156,86,43815,1,0,0:0:0:0:
449,62,43984,5,0,0:0:0:0:
228,160,44152,1,0,0:0:0:0:
462,264,44321,5,0,0:0:0:0:
331,42,44489,1,0,0:0:0:0:
341,315,44658,5,0,0:0:0:0:
425,112,44827,1,0,0:0:0:0:
177,156,44995,5,0,0:0:0:0:
429,232,45164,1,0,0:0:0:0:
198,285,45332,2,0,P|126:284|92:258,1,83.9999974365235
346,93,45669,2,0,P|396:98|430:124,1,83.9999974365235
146,198,46006,2,0,P|130:118|138:82,1,83.9999974365235
400,190,46343,2,0,P|401:234|387:273,1,83.9999974365235
115,331,46681,5,0,0:0:0:0:
321,197,46849,1,0,0:0:0:0:
86,216,47018,5,0,0:0:0:0:
262,353,47186,1,0,0:0:0:0:
193,112,47355,5,0,0:0:0:0:
110,323,47523,1,0,0:0:0:0:
111,48,47692,5,0,0:0:0:0:
193,277,47860,1,0,0:0:0:0:
255,37,48029,5,0,0:0:0:0:
138,274,48197,1,0,0:0:0:0:
66,67,48366,5,0,0:0:0:0:
321,146,48534,1,0,0:0:0:0:
63,204,48703,5,0,0:0:0:0:
274,49,48872,1,0,0:0:0:0:
176,301,49040,5,0,0:0:0:0:
115,37,49209,1,0,0:0:0:0:
335,155,49377,5,0,0:0:0:0:
72,201,49546,1,0,0:0:0:0:
373,279,49883,5,0,0:0:0:0:
105,269,50220,5,0,0:0:0:0:
201,139,50388,1,0,0:0:0:0:
201,139,50557,2,0,P|220:193|210:246,1,83.9999974365235
139,332,50894,1,0,0:0:0:0:
70,145,51063,1,0,0:0:0:0:
394,49,51400,6,0,L|451:33,3,41.9999987182618
434,37,51737,5,0,0:0:0:0:
389,246,51905,1,0,0:0:0:0:
288,41,52074,6,0,P|254:84|249:128,1,83.9999974365235
250,128,52411,5,0,0:0:0:0:
249,161,52748,5,0,0:0:0:0:
250,194,53085,5,0,0:0:0:0:
474,354,53254,1,0,0:0:0:0:
