osu file format v14

[General]
AudioFilename: Answer.mp3
AudioLeadIn: 2000
PreviewTime: 62437
Countdown: 0
SampleSet: Normal
StackLeniency: 0.7
Mode: 0
LetterboxInBreaks: 1
WidescreenStoryboard: 1

[Editor]
Bookmarks: 8866,26009,41009,107437,154580,171723,188866,210295
DistanceSpacing: 1
BeatDivisor: 4
GridSize: 4
TimelineZoom: 1.6

[Metadata]
Title:Answer
TitleUnicode:Answer
Artist:Katakiri Rekka
ArtistUnicode:片霧烈火
Creator:deetz
Version:Normal
Source:G線上の魔王
Tags:G-Senjou no Maou G Senjou opening full devil on g string g-string RLC xlni
BeatmapID:948010
BeatmapSetID:440266

[Difficulty]
HPDrainRate:3
CircleSize:2.5
OverallDifficulty:3
ApproachRate:3
SliderMultiplier:0.899999999999999
SliderTickRate:2

[Events]
//Background and Video events
0,0,"bg2.jpg",0,0
//Break Periods
2,26209,33140
2,84066,90462
2,146208,153140
//Storyboard Layer 0 (Background)
//Storyboard Layer 1 (Fail)
//Storyboard Layer 2 (Pass)
//Storyboard Layer 3 (Foreground)
//Storyboard Sound Samples

[TimingPoints]
295,267.857142857143,4,1,1,75,1,0
13152,-100,4,1,2,75,0,0
15295,-100,4,1,1,75,0,0
21723,-100,4,1,2,75,0,0
23866,-100,4,1,1,75,0,0
26009,-100,4,2,1,75,0,0
34580,-100,4,2,2,75,0,0
41009,-100,4,1,1,75,0,0
47437,-100,4,3,1,75,0,0
49580,-100,4,1,1,75,0,0
58152,-100,4,2,1,75,0,0
60027,-100,4,3,1,75,0,0
62437,-100,4,1,1,75,0,1
74491,-100,4,1,2,75,0,1
75295,-100,4,1,2,75,0,0
83866,-100,4,2,2,75,0,0
91902,-100,4,1,1,75,0,0
92437,-100,4,1,1,40,0,0
106634,-100,4,1,1,75,0,0
113866,-100,4,3,1,75,0,0
116009,-100,4,1,1,75,0,0
124580,-100,4,2,1,75,0,0
126455,-100,4,3,1,75,0,0
128866,-100,4,1,1,75,0,1
140920,-100,4,1,2,75,0,0
141723,-100,4,1,2,75,0,0
146009,-100,4,1,1,75,0,0
146277,-100,4,2,1,5,0,0
154580,-100,4,1,1,75,0,0
188866,-100,4,1,1,75,0,1
200920,-100,4,1,2,75,0,1
201723,-100,4,1,2,75,0,0
211098,-100,4,2,1,75,0,0
212036,-100,4,1,1,30,0,0
212437,-100,4,1,1,75,0,0
213241,-100,4,2,1,75,0,0
214312,-100,4,1,1,75,0,0
215384,-100,4,2,1,75,0,0
216455,-100,4,1,1,75,0,0

[Colours]
Combo1 : 17,254,176
Combo2 : 173,255,95
Combo3 : 255,88,100
Combo4 : 255,94,55

[HitObjects]
24,276,7795,6,0,P|32:240|224:232,1,270,0|8,0:0|0:0,0:0:0:0:
276,295,8866,6,0,B|377:262|352:327|467:282,2,180,6|0|0,0:2|0:0|0:0,0:0:0:0:
195,336,10205,2,0,P|187:305|146:251,1,89.9999999999999,8|0,0:0|0:0,0:0:0:0:
66,236,10741,1,8,0:0:0:0:
127,170,11009,6,0,B|228:137|203:202|318:157,2,180,2|0|0,0:2|0:0|0:0,0:0:0:0:
46,130,12348,2,0,P|39:174|40:219,1,89.9999999999999,8|0,0:0|0:0,0:0:0:0:
19,307,12884,1,8,0:0:0:0:
104,336,13152,6,0,B|190:309|190:309|284:340,1,180,6|2,0:1|0:1,0:0:0:0:
404,209,14223,2,0,B|318:182|318:182|224:213,1,180,2|2,0:1|0:1,0:0:0:0:
52,213,15295,6,0,B|80:255|80:255|74:288|74:288|98:335,4,135,12|12|12|12|12,0:0|0:0|0:0|0:0|0:0,0:0:0:0:
66,119,17170,1,12,0:0:0:0:
141,167,17437,6,0,P|178:182|306:133,2,180,2|0|0,0:2|0:0|0:0,0:0:0:0:
133,257,18777,2,0,P|155:281|178:337,1,89.9999999999999,8|0,0:0|0:0,0:0:0:0:
265,351,19312,1,8,0:0:0:0:
336,296,19580,6,0,P|373:311|501:262,2,180,2|0|0,0:2|0:0|0:0,0:0:0:0:
274,229,20920,2,0,P|265:186|268:120,1,89.9999999999999,8|0,0:0|0:0,0:0:0:0:
329,77,21455,1,8,0:0:0:0:
242,51,21723,6,0,B|178:42|178:42|135:66|135:66|65:56,1,180,6|2,0:1|0:1,0:0:0:0:
4,224,22795,2,0,B|69:214|69:214|112:238|112:238|176:229,1,180,2|2,0:1|0:1,0:0:0:0:
313,346,23866,5,0,2:0:0:0:
313,346,24937,6,0,B|364:277|324:233|324:233|301:206|327:181|327:181|365:142|311:53,1,315,8|4,0:0|0:3,0:0:0:0:
273,39,26009,5,4,0:1:0:0:
322,352,34580,6,0,P|343:332|487:312,2,180,2|8|2,0:0|0:0|0:0,0:0:0:0:
310,172,36187,1,8,0:0:0:0:
164,277,36723,6,0,P|143:257|-1:237,1,180,2|8,0:0|0:0,0:0:0:0:
127,363,37795,1,2,0:0:0:0:
259,241,38330,6,0,P|347:246|422:200,1,180,8|2,0:0|0:0,0:0:0:0:
303,63,39402,1,8,0:0:0:0:
123,70,39937,2,0,L|138:249,1,180,2|0,0:0|0:0,0:0:0:0:
221,285,40741,1,0,0:0:0:0:
298,334,41009,6,0,P|350:345|436:340,2,135,2|2|4,0:2|0:2|0:2,0:0:0:0:
298,334,42884,1,4,0:0:0:0:
342,255,43152,6,0,P|395:251|477:224,2,135,2|2|4,0:2|0:2|0:2,0:0:0:0:
342,255,45027,1,4,0:3:0:0:
324,166,45295,6,0,P|290:167|235:175,1,89.9999999999999,0|8,0:0|0:0,0:0:0:0:
165,117,45830,2,0,P|197:150|136:256,1,180,0|0,0:0|0:0,0:0:0:0:
56,250,46634,2,0,P|54:289|61:348,1,89.9999999999999,8|0,0:0|0:0,0:0:0:0:
149,348,47170,1,8,0:0:0:0:
238,337,47437,6,0,P|294:340|375:330,4,135,4|4|8|4|4,3:3|3:3|3:3|3:3|3:3,0:0:0:0:
221,248,49312,1,8,3:3:0:0:
142,292,49580,6,0,P|134:260|106:202,1,89.9999999999999,4|8,0:0|0:0,0:0:0:0:
23,181,50116,2,0,P|34:137|54:97,1,89.9999999999999,0|0,0:0|0:0,0:0:0:0:
140,70,50652,2,0,P|181:88|314:70,1,180,0|0,0:0|0:0,0:0:0:0:
401,70,51455,1,8,0:0:0:0:
394,162,51723,6,0,B|289:149|324:196|198:183,3,180
126,29,53866,6,0,P|30:117|31:250,1,270,0|8,0:0|0:0,0:0:0:0:
89,317,54937,2,0,L|277:303,1,180,0|0,0:0|0:0,0:0:0:0:
349,142,56009,6,0,P|444:230|444:363,1,270,0|8,0:0|0:0,0:0:0:0:
355,374,57080,2,0,L|167:360,1,180,0|0,0:0|0:0,0:0:0:0:
54,226,58152,5,0,0:0:0:0:
54,226,60027,6,0,P|92:205|350:330,1,360,4|8,0:0|0:0,0:0:0:0:
426,279,61366,6,0,B|412:212|412:212|435:135,2,135,8|8|4,0:0|0:0|0:0,0:0:0:0:
347,323,62437,6,0,P|309:313|250:313,1,89.9999999999999,4|8,0:0|0:0,0:0:0:0:
253,221,62973,2,0,P|215:231|163:260,1,89.9999999999999,2|8,0:2|0:0,0:0:0:0:
124,255,63375,2,0,P|77:227|133:95,1,225,2|2,0:2|0:2,0:0:0:0:
200,45,64312,1,8,0:0:0:0:
271,99,64580,6,0,B|385:86|336:128|451:108,1,180,0|2,0:0|0:2,0:0:0:0:
490,283,65652,2,0,B|376:270|425:312|310:292,1,180,0|0,0:0|0:0,0:0:0:0:
136,329,66723,6,0,P|121:288|122:237,1,89.9999999999999,4|8,0:0|0:0,0:0:0:0:
207,214,67259,2,0,P|222:171|222:127,1,89.9999999999999,0|8,0:0|0:0,0:0:0:0:
197,88,67661,2,0,P|288:91|341:71,1,135,2|8,0:2|0:0,0:0:0:0:
417,62,68330,2,0,L|418:157,1,89.9999999999999,2|8,0:2|0:0,0:0:0:0:
421,242,68866,6,0,B|374:231|374:231|336:241|336:241|276:227,4,135,12|12|12|12|12,0:0|0:0|0:0|0:0|0:0,0:0:0:0:
450,327,70741,1,12,0:0:0:0:
361,336,71009,6,0,P|317:327|261:331,1,89.9999999999999,4|8,0:0|0:0,0:0:0:0:
196,279,71545,2,0,P|194:234|203:190,1,89.9999999999999,2|8,0:2|0:0,0:0:0:0:
209,145,71946,2,0,P|180:127|69:116,1,135,2|8,0:2|0:0,0:0:0:0:
32,189,72616,2,0,L|51:285,1,89.9999999999999,2|8,0:2|0:0,0:0:0:0:
133,241,73152,6,0,P|171:232|277:241,4,135,4|4|8|8|10,0:0|0:0|0:0|0:0|0:0,0:0:0:0:
57,291,75027,1,10,0:0:0:0:
32,204,75295,6,0,P|66:157|52:37,1,180,4|10,0:0|0:0,0:0:0:0:
228,88,76366,2,0,P|208:173|250:251,1,180,0|10,0:0|0:0,0:0:0:0:
405,342,77437,6,0,L|221:358,1,180,0|10,0:0|0:0,0:0:0:0:
81,246,78509,2,0,L|260:261,1,180,0|10,0:0|0:0,0:0:0:0:
409,161,79580,6,0,P|427:194|419:333,1,180,0|10,0:0|0:0,0:0:0:0:
330,334,80384,1,0,0:0:0:0:
240,326,80652,2,0,B|149:306|161:358|54:329,1,180,0|10,0:0|0:0,0:0:0:0:
9,159,81723,6,0,P|40:148|100:153,1,89.9999999999999,0|0,0:0|0:0,0:0:0:0:
173,198,82259,2,0,P|206:196|307:147,2,135,8|0|0,0:0|0:0|0:0,0:0:0:0:
118,269,83330,2,0,P|151:288|189:324,1,89.9999999999999,8|8,0:0|0:0,0:0:0:0:
275,297,83866,5,2,0:0:0:0:
446,227,91902,5,8,0:0:0:0:
294,130,92437,6,0,P|227:121|161:134,3,135,0|8|0|0,0:0|0:0|0:0|0:0,0:0:0:0:
81,241,94045,2,0,P|74:295|80:338,1,89.9999999999999,8|0,0:0|0:0,0:0:0:0:
165,353,94580,6,0,P|222:328|267:333,1,89.9999999999999,0|0,0:0|0:0,0:0:0:0:
335,354,95116,2,0,P|374:358|464:314,2,135,0|0|0,0:0|0:0|0:0,0:0:0:0:
310,267,96187,2,0,P|321:225|318:172,1,89.9999999999999,8|0,0:0|0:0,0:0:0:0:
273,101,96723,6,0,L|135:114,2,135,0|8|0,0:0|0:0|0:0,0:0:0:0:
333,270,98062,1,0,0:0:0:0:
412,227,98330,2,0,P|410:199|397:131,1,89.9999999999999,8|0,0:0|0:0,0:0:0:0:
488,128,98866,6,0,P|497:186|505:268,2,135,0|8|0,0:0|0:0|0:0,0:0:0:0:
431,57,99937,2,0,L|329:46,1,89.9999999999999,0|0,0:0|0:0,0:0:0:0:
252,32,100473,1,8,0:0:0:0:
125,160,101009,6,0,P|190:146|257:155,3,135,2|8|0|8,0:2|0:0|0:0|0:0,0:0:0:0:
355,249,102616,2,0,P|348:303|354:346,1,89.9999999999999,8|0,0:0|0:0,0:0:0:0:
262,350,103152,6,0,P|217:346|178:325,1,89.9999999999999,2|0,0:2|0:0,0:0:0:0:
98,282,103687,2,0,P|137:286|227:242,2,135,0|0|0,0:0|0:0|0:0,0:0:0:0:
26,227,104759,2,0,P|15:185|18:132,1,89.9999999999999,8|0,0:0|0:0,0:0:0:0:
58,58,105295,6,0,P|120:37|233:77,1,180,2|0,0:2|0:0,0:0:0:0:
296,235,106366,1,2,0:2:0:0:
371,185,106634,2,0,P|385:227|379:273,2,89.9999999999999,0|8|8,0:0|0:0|0:0,0:0:0:0:
364,95,107437,6,0,P|416:106|502:101,2,135,2|2|4,0:2|0:2|0:2,0:0:0:0:
364,95,109312,1,4,0:0:0:0:
322,174,109580,6,0,P|369:197|454:214,2,135,2|2|4,0:2|0:2|0:2,0:0:0:0:
322,174,111455,1,4,0:3:0:0:
260,240,111723,6,0,P|226:241|171:249,1,89.9999999999999,0|8,0:0|0:0,0:0:0:0:
81,260,112259,2,0,P|85:197|79:73,1,180,0|0,0:0|0:0,0:0:0:0:
170,85,113062,2,0,P|209:87|268:80,1,89.9999999999999,8|0,0:0|0:0,0:0:0:0:
344,50,113598,1,8,0:0:0:0:
416,103,113866,6,0,P|423:169|422:237,4,135,4|4|8|4|4,0:0|0:0|0:0|0:0|0:0,0:0:0:0:
344,50,115741,1,8,0:0:0:0:
312,134,116009,6,0,P|280:142|222:170,1,89.9999999999999,4|8,0:0|0:0,0:0:0:0:
185,245,116545,2,0,P|141:232|96:229,1,89.9999999999999,0|0,0:0|0:0,0:0:0:0:
46,305,117080,2,0,P|104:335|219:333,1,180,0|0,0:0|0:0,0:0:0:0:
286,276,117884,1,8,0:0:0:0:
374,258,118152,6,0,B|406:164|337:182|379:66,3,180,0|0|0|0,0:0|0:0|0:0|0:0,0:0:0:0:
257,220,120295,6,0,P|216:238|91:86,1,270,0|8,0:0|0:0,0:0:0:0:
144,35,121366,2,0,L|332:21,1,180,0|0,0:0|0:0,0:0:0:0:
451,148,122437,6,0,P|469:189|317:314,1,270,0|8,0:0|0:0,0:0:0:0:
252,279,123509,2,0,L|72:265,1,180,0|0,0:0|0:0,0:0:0:0:
7,97,124580,5,0,0:0:0:0:
7,97,126455,6,0,P|45:76|303:201,1,360,4|8,0:0|0:0,0:0:0:0:
390,199,127795,6,0,B|379:129|379:129|399:55,2,135,8|8|8,0:0|0:0|0:0,0:0:0:0:
393,288,128866,6,0,P|348:282|296:298,1,89.9999999999999,4|8,0:0|0:0,0:0:0:0:
227,338,129402,2,0,L|210:249,1,89.9999999999999,2|8,0:2|0:0,0:0:0:0:
180,215,129803,2,0,P|129:262|15:191,1,225,2|2,0:2|0:2,0:0:0:0:
15,100,130741,1,8,0:0:0:0:
98,65,131009,6,0,B|163:39|163:39|281:76,1,180,0|2,0:0|0:2,0:0:0:0:
181,230,132080,2,0,B|284:262|284:262|347:228,1,180
499,131,133152,6,0,B|508:86|508:86|501:27,1,89.9999999999999
415,24,133687,2,0,P|370:31|332:54,1,89.9999999999999,2|8,0:2|0:0,0:0:0:0:
302,87,134089,2,0,P|221:57|166:69,1,135,2|8,0:2|0:0,0:0:0:0:
88,38,134759,2,0,L|81:136,1,89.9999999999999,2|8,0:2|0:0,0:0:0:0:
118,211,135295,6,0,B|164:200|164:200|202:210|202:210|249:199,4,135,12|12|12|12|12,0:0|0:0|0:0|0:0|0:0,0:0:0:0:
115,301,137170,1,12,0:0:0:0:
202,323,137437,6,0,P|246:321|290:330,1,89.9999999999999,4|8,0:0|0:0,0:0:0:0:
359,271,137973,2,0,P|357:226|366:182,1,89.9999999999999,2|8,0:2|0:0,0:0:0:0:
392,145,138375,2,0,P|363:127|252:122,1,135,2|8,0:2|0:0,0:0:0:0:
203,51,139045,2,0,L|107:57,1,89.9999999999999,2|8,0:2|0:0,0:0:0:0:
60,129,139580,6,0,P|51:195|63:262,4,135,4|4|8|8|10,0:0|0:0|0:0|0:0|0:0,0:0:0:0:
150,126,141455,1,10,0:0:0:0:
235,152,141723,6,0,P|242:240|220:347,1,180,4|10,0:0|0:0,0:0:0:0:
402,364,142795,2,0,P|386:275|392:186,1,180,0|10,0:0|0:0,0:0:0:0:
285,41,143866,6,0,L|101:57,1,180,0|10,0:0|0:0,0:0:0:0:
26,218,144937,2,0,L|205:233,2,180,0|8|0,0:0|0:0|2:0,0:0:0:0:
338,79,154580,6,0,L|478:58,4,135,0|0|0|0|0,0:0|0:0|0:0|0:0|0:0,0:0:0:0:
248,87,156455,1,6,0:1:0:0:
234,175,156723,6,0,L|347:259,4,135,0|0|0|0|0,0:0|0:0|0:0|0:0|0:0,0:0:0:0:
164,117,158598,1,4,0:3:0:0:
93,169,158866,6,0,L|114:309,4,135,0|0|0|0|0,0:0|0:0|0:0|0:0|0:0,0:0:0:0:
84,79,160741,1,4,0:3:0:0:
173,82,161009,6,0,P|225:85|321:53,2,135,0|0|0,0:0|0:0|0:0,0:0:0:0:
84,79,162080,2,0,L|69:175,1,89.9999999999999,0|2,0:0|0:1,0:0:0:0:
146,218,162616,2,0,P|189:212|228:233,1,89.9999999999999,0|6,0:0|0:1,0:0:0:0:
174,305,163152,6,0,L|34:326,4,135,4|4|4|2|2,0:3|0:3|0:3|0:2|0:2,0:0:0:0:
264,297,165027,1,6,0:1:0:0:
278,209,165295,6,0,L|164:124,4,135,4|4|4|2|2,0:3|0:3|0:3|0:2|0:2,0:0:0:0:
348,267,167170,1,4,0:3:0:0:
419,215,167437,6,0,L|398:74,4,135,4|4|4|4|4,0:0|0:3|0:3|0:3|0:3,0:0:0:0:
428,305,169312,1,6,0:1:0:0:
339,318,169580,6,0,P|268:306|191:309,2,135,0|2|0,0:0|0:2|0:0,0:0:0:0:
428,305,170652,2,0,L|426:205,1,89.9999999999999,0|2,0:0|0:2,0:0:0:0:
340,186,171187,2,0,L|342:86,1,89.9999999999999,2|2,0:2|0:2,0:0:0:0:
256,64,171723,6,2,P|237:93|96:106,1,180,6|2,0:0|0:0,0:0:0:0:
44,179,172527,1,8,0:0:0:0:
98,250,172795,2,0,P|105:287|104:343,1,89.9999999999999,0|8,0:0|0:0,0:0:0:0:
193,353,173330,1,0,0:0:0:0:
301,209,173866,6,2,P|321:238|455:238,1,180
489,158,174670,1,8,0:0:0:0:
450,76,174937,2,0,L|357:106,1,89.9999999999999,2|8,0:0|0:0,0:0:0:0:
286,56,175473,1,0,0:0:0:0:
198,213,176009,6,2,P|89:204|19:217,2,180,6|2|2,0:0|0:0|0:0,0:0:0:0:
265,272,177348,2,0,P|323:277|361:253,1,89.9999999999999,10|2,0:0|0:0,0:0:0:0:
407,193,177884,1,8,0:0:0:0:
463,261,178152,6,0,P|428:313|237:357,1,270,2|8,0:0|0:0,0:0:0:0:
147,363,179223,2,0,P|150:316|144:267,1,89.9999999999999,0|8,0:0|0:0,0:0:0:0:
66,228,179759,1,2,0:0:0:0:
205,114,180295,6,0,L|296:105,1,89.9999999999999,4|10,0:0|0:0,0:0:0:0:
383,90,180830,2,0,P|377:177|374:280,1,180,0|0,0:0|0:0,0:0:0:0:
381,359,181634,2,0,P|435:349|481:348,2,89.9999999999999,8|2|8,0:0|0:0|0:0,0:0:0:0:
291,345,182437,6,0,P|246:336|202:333,1,89.9999999999999,0|8,0:0|0:0,0:0:0:0:
114,354,182973,2,0,L|88:166,1,180,2|0,0:0|0:0,0:0:0:0:
159,118,183777,1,8,0:0:0:0:
232,169,184045,2,0,P|276:157|323:155,1,89.9999999999999,2|8,0:0|0:0,0:0:0:0:
393,102,184580,6,0,P|428:129|372:325,1,270,4|8,0:0|0:0,0:0:0:0:
297,313,185652,6,0,B|156:258|186:350|28:297,1,270,0|8,0:0|0:0,0:0:0:0:
31,208,186723,6,0,P|66:186|202:204,1,180,4|0,0:0|0:0,0:0:0:0:
264,139,187527,1,8,0:0:0:0:
320,208,187795,2,0,L|501:191,1,180,0|8,0:0|0:0,0:0:0:0:
472,369,188866,6,0,P|434:359|375:359,1,89.9999999999999,4|8,0:0|0:0,0:0:0:0:
293,357,189402,2,0,P|271:317|259:274,1,89.9999999999999,8|8,0:0|0:0,0:0:0:0:
222,247,189803,2,0,P|246:213|150:84,1,225,2|8,0:2|0:0,0:0:0:0:
73,56,190741,1,8,0:0:0:0:
23,132,191009,6,0,B|36:246|-6:197|14:312,1,180,0|0,0:0|0:0,0:0:0:0:
186,359,192080,2,0,B|205:246|163:295|176:181,1,180,0|0,0:0|0:0,0:0:0:0:
351,138,193152,6,0,P|351:182|335:224,1,89.9999999999999,4|8,0:0|0:0,0:0:0:0:
350,314,193687,2,0,P|393:329|437:329,1,89.9999999999999,8|8,0:0|0:0,0:0:0:0:
476,306,194089,2,0,P|465:244|475:162,1,135,2|8,0:2|0:0,0:0:0:0:
486,83,194759,2,0,L|395:59,1,89.9999999999999,8|8,0:0|0:0,0:0:0:0:
307,59,195295,6,0,B|260:48|260:48|222:58|222:58|162:44,4,135,12|12|12|12|12,0:0|0:0|0:0|0:0|0:0,0:0:0:0:
340,142,197170,1,12,0:0:0:0:
343,231,197437,6,0,P|299:240|243:236,1,89.9999999999999,4|8,0:0|0:0,0:0:0:0:
204,162,197973,2,0,P|160:153|115:155,1,89.9999999999999,0|8,0:0|0:0,0:0:0:0:
72,169,198375,2,0,P|62:207|71:316,1,135,2|8,0:2|0:0,0:0:0:0:
145,345,199045,2,0,L|243:329,1,89.9999999999999,0|8,0:0|0:0,0:0:0:0:
298,267,199580,6,0,P|336:258|442:267,4,135,4|4|0|8|10,0:0|0:0|0:0|0:0|0:0,0:0:0:0:
223,317,201455,1,10,0:0:0:0:
136,292,201723,6,0,P|123:236|140:108,1,180,4|10,0:0|0:0,0:0:0:0:
313,78,202795,2,0,P|328:166|314:254,1,180,0|10,0:0|0:0,0:0:0:0:
152,334,203866,6,0,L|331:349,1,180,0|10,0:0|0:0,0:0:0:0:
466,229,204937,2,0,L|287:244,1,180,0|8,0:0|0:0,0:0:0:0:
196,237,205741,1,8,0:0:0:0:
107,255,206009,6,0,B|119:166|119:166|80:77,1,180,0|10,0:0|0:0,0:0:0:0:
248,13,207080,2,0,B|211:95|211:95|223:184,1,180,0|10,0:0|0:0,0:0:0:0:
311,341,208152,6,0,B|388:298|388:298|467:344,1,180,0|10,0:0|0:0,0:0:0:0:
507,168,209223,2,0,B|430:211|430:211|351:165,1,180,0|8,0:0|0:0,0:0:0:0:
202,60,210295,6,0,L|55:71,1,135,0|0,0:0|0:0,0:0:0:0:
43,203,211098,6,0,P|90:199|183:284,1,180,4|0,3:0|0:0,0:0:0:0:
239,352,211902,2,0,L|332:337,1,89.9999999999999
417,346,212437,6,0,L|418:197,1,135,0|0,0:0|0:0,0:0:0:0:
307,131,213241,6,0,P|296:195|231:240,1,135
194,312,213911,2,0,P|162:301|54:301,1,135,0|0,0:0|0:0,0:0:0:0:
41,211,214580,6,0,L|26:68,1,135,0|0,0:0|0:0,0:0:0:0:
161,60,215384,2,0,P|173:91|318:124,1,180
386,107,216187,2,0,P|417:104|472:122,1,89.9999999999999,0|0,0:0|0:0,0:0:0:0:
486,211,216723,6,0,P|459:232|351:247,3,135,8|8|8|8,0:0|0:0|0:0|0:0,0:0:0:0:
245,317,218330,6,0,P|180:302|103:300,1,135,8|4,0:0|0:2,0:0:0:0:
