osu file format v14

[General]
AudioFilename: Answer.mp3
AudioLeadIn: 2000
PreviewTime: 62437
Countdown: 0
SampleSet: Normal
StackLeniency: 0.7
Mode: 0
LetterboxInBreaks: 1
WidescreenStoryboard: 1

[Editor]
Bookmarks: 8866,26009,41009,107437,154580,171723,188866,210295
DistanceSpacing: 1.3
BeatDivisor: 4
GridSize: 4
TimelineZoom: 1.6

[Metadata]
Title:Answer
TitleUnicode:Answer
Artist:Katakiri Rekka
ArtistUnicode:片霧烈火
Creator:deetz
Version:Hard
Source:G線上の魔王
Tags:G-Senjou no Maou G Senjou opening full devil on g string g-string RLC xlni
BeatmapID:948161
BeatmapSetID:440266

[Difficulty]
HPDrainRate:4.5
CircleSize:4
OverallDifficulty:6.5
ApproachRate:8.2
SliderMultiplier:1.35
SliderTickRate:2

[Events]
//Background and Video events
0,0,"bg2.jpg",0,0
//Break Periods
2,26209,33830
2,84066,91152
2,146208,153830
//Storyboard Layer 0 (Background)
//Storyboard Layer 1 (Fail)
//Storyboard Layer 2 (Pass)
//Storyboard Layer 3 (Foreground)
//Storyboard Sound Samples

[TimingPoints]
295,267.857142857143,4,1,1,75,1,0
13152,-100,4,1,2,75,0,0
15295,-100,4,1,1,75,0,0
21723,-100,4,1,2,75,0,0
23866,-100,4,1,1,75,0,0
26009,-100,4,2,1,75,0,0
34580,-133.333333333333,4,2,2,75,0,0
41009,-100,4,1,1,75,0,0
47437,-100,4,3,1,75,0,0
49580,-100,4,1,1,75,0,0
58152,-100,4,2,1,75,0,0
60027,-100,4,3,1,75,0,0
62437,-95.2380952380952,4,1,1,75,0,1
74491,-95.2380952380952,4,1,2,75,0,1
75295,-95.2380952380952,4,1,2,75,0,0
83866,-95.2380952380952,4,2,2,75,0,0
91902,-95.2380952380952,4,1,1,75,0,0
92437,-117.647058823529,4,1,1,40,0,0
106634,-117.647058823529,4,1,1,75,0,0
107437,-100,4,1,1,75,0,0
113866,-100,4,3,1,75,0,0
116009,-100,4,1,1,75,0,0
124580,-100,4,2,1,75,0,0
126455,-100,4,3,1,75,0,0
128866,-95.2380952380952,4,1,1,75,0,1
140920,-95.2380952380952,4,1,2,75,0,1
141723,-95.2380952380952,4,1,2,75,0,0
145607,-111.111111111111,4,1,2,75,0,0
145875,-133.333333333333,4,1,2,75,0,0
146009,-133.333333333333,4,1,1,75,0,0
146277,-133.333333333333,4,2,1,5,0,0
154580,-100,4,1,1,75,0,0
154848,-100,4,2,1,5,0,0
154915,-100,4,2,1,20,0,0
154982,-100,4,1,1,75,0,0
155250,-100,4,2,1,5,0,0
155317,-100,4,2,1,20,0,0
155384,-100,4,1,1,75,0,0
155652,-100,4,2,1,5,0,0
155719,-100,4,2,1,20,0,0
155786,-100,4,1,1,75,0,0
156053,-100,4,2,1,5,0,0
156120,-100,4,2,1,20,0,0
156187,-100,4,1,1,75,0,0
156589,-100,4,2,1,5,0,0
156723,-100,4,1,1,75,0,0
156991,-100,4,2,1,5,0,0
157058,-100,4,2,1,20,0,0
157125,-100,4,1,1,75,0,0
157393,-100,4,2,1,5,0,0
157460,-100,4,2,1,20,0,0
157527,-100,4,1,1,75,0,0
157795,-100,4,2,1,5,0,0
157861,-100,4,2,1,20,0,0
157928,-100,4,1,1,75,0,0
158196,-100,4,2,1,5,0,0
158263,-100,4,2,1,20,0,0
158330,-100,4,1,1,75,0,0
159134,-100,4,2,1,5,0,0
159201,-100,4,2,1,20,0,0
159268,-100,4,1,1,75,0,0
159536,-100,4,2,1,5,0,0
159603,-100,4,2,1,20,0,0
159670,-100,4,1,1,75,0,0
159937,-100,4,2,1,5,0,0
160004,-100,4,2,1,20,0,0
160071,-100,4,1,1,75,0,0
160339,-100,4,2,1,5,0,0
160406,-100,4,2,1,20,0,0
160473,-100,4,1,1,75,0,0
161277,-100,4,2,1,5,0,0
161344,-100,4,2,1,20,0,0
161411,-100,4,1,1,75,0,0
161678,-100,4,2,1,5,0,0
161745,-100,4,2,1,20,0,0
161812,-100,4,1,1,75,0,0
167705,-100,4,2,1,5,0,0
167772,-100,4,1,1,75,0,0
168107,-100,4,2,1,5,0,0
168174,-100,4,1,1,75,0,0
168509,-100,4,2,1,5,0,0
168576,-100,4,1,1,75,0,0
168911,-100,4,2,1,5,0,0
168978,-100,4,1,1,75,0,0
171723,-95.2380952380952,4,1,1,75,0,0
188866,-95.2380952380952,4,1,1,75,0,1
200920,-95.2380952380952,4,1,2,75,0,1
201723,-95.2380952380952,4,1,2,75,0,0
210295,-100,4,1,2,75,0,0
211098,-100,4,2,1,40,0,0
212036,-100,4,1,1,40,0,0
212437,-100,4,1,1,75,0,0
213241,-100,4,2,1,40,0,0
214312,-100,4,1,1,75,0,0
215384,-100,4,2,1,40,0,0
216455,-100,4,1,1,75,0,0

[Colours]
Combo1 : 17,254,176
Combo2 : 173,255,95
Combo3 : 255,88,100
Combo4 : 255,94,55

[HitObjects]
202,27,7795,6,0,P|272:29|335:63,1,135,0|8,0:0|0:0,0:0:0:0:
363,190,8196,1,8,0:0:0:0:
363,190,8330,2,0,P|370:133|358:107,1,67.5,4|8,0:0|0:0,0:0:0:0:
507,230,8598,2,0,L|432:223,1,67.5,8|8,0:0|0:0,0:0:0:0:
375,340,8866,6,0,P|384:307|379:274,1,67.5,6|2,0:2|0:2,0:0:0:0:
293,253,9134,1,8,0:0:0:0:
230,315,9268,2,0,L|78:303,1,135,2|2,0:2|0:2,0:0:0:0:
62,222,9670,1,8,0:0:0:0:
62,222,9803,6,0,P|105:213|129:122,1,135,2|2,0:2|0:2,0:0:0:0:
210,66,10205,1,8,0:0:0:0:
210,66,10339,2,0,P|222:130|283:152,1,135,2|2,0:2|0:2,0:0:0:0:
362,110,10741,2,0,P|408:102|443:102,1,67.5,8|2,0:0|0:2,0:0:0:0:
472,199,11009,6,0,P|438:197|405:190,1,67.5,2|2,0:2|0:2,0:0:0:0:
333,242,11277,1,8,0:0:0:0:
246,229,11411,2,0,P|197:222|90:228,1,135,2|2,0:2|0:2,0:0:0:0:
60,138,11812,1,8,0:0:0:0:
60,138,11946,6,0,P|127:138|183:102,1,135,2|2,0:2|0:2,0:0:0:0:
286,168,12348,1,8,0:0:0:0:
286,168,12482,2,0,P|352:168|408:204,1,135,2|2,0:2|0:2,0:0:0:0:
485,66,12884,2,0,P|481:106|471:137,1,67.5,8|2,0:0|0:2,0:0:0:0:
403,67,13152,6,0,B|344:78|344:78|249:66,1,135,6|8,0:1|0:0,0:0:0:0:
166,210,13687,5,2,0:1:0:0:
148,123,13821,1,0,0:0:0:0:
84,183,13955,1,8,0:0:0:0:
376,221,14223,6,0,B|317:232|317:232|222:220,1,135,2|8,0:1|0:0,0:0:0:0:
139,364,14759,5,2,0:1:0:0:
121,277,14893,1,0,0:0:0:0:
57,337,15027,1,8,0:0:0:0:
246,341,15295,6,0,B|283:327|283:327|397:360,1,135,12|2,0:0|0:0,0:0:0:0:
463,272,15696,2,0,B|426:286|426:286|312:253,1,135,12|2,0:0|0:0,0:0:0:0:
251,199,16098,2,0,P|238:157|241:52,1,135,12|2,0:0|0:0,0:0:0:0:
364,29,16500,2,0,P|367:96|350:161,1,135,12|2,0:0|0:0,0:0:0:0:
242,296,16902,2,0,P|211:286|166:280,2,67.5,12|8|12,0:0|0:0|0:0,0:0:0:0:
242,296,17437,6,0,P|275:290|307:280,1,67.5,2|2,0:2|0:2,0:0:0:0:
381,328,17705,1,8,0:0:0:0:
447,270,17839,2,0,P|454:231|436:113,1,135,2|2,0:2|0:2,0:0:0:0:
480,56,18241,1,8,0:0:0:0:
480,56,18375,6,0,P|450:95|342:91,1,135,2|2,0:2|0:2,0:0:0:0:
328,209,18777,1,8,0:0:0:0:
328,209,18911,2,0,P|298:170|190:174,1,135,2|2,0:2|0:2,0:0:0:0:
76,172,19312,2,0,P|84:215|98:238,1,67.5,8|2,0:0|0:2,0:0:0:0:
146,131,19580,6,0,L|139:58,1,67.5,2|2,0:2|0:2,0:0:0:0:
223,37,19848,1,8,0:0:0:0:
293,88,19982,2,0,P|335:100|427:88,1,135,2|2,0:2|0:2,0:0:0:0:
443,193,20384,1,8,0:0:0:0:
443,193,20518,6,0,P|381:199|323:259,1,135,2|2,0:2|0:2,0:0:0:0:
254,176,20920,1,8,0:0:0:0:
254,176,21053,2,0,P|228:232|251:312,1,135,2|2,0:2|0:2,0:0:0:0:
318,384,21455,2,0,P|323:341|309:304,1,67.5,8|2,0:0|0:2,0:0:0:0:
186,362,21723,6,0,B|119:357|119:357|61:319,1,135,6|8,0:1|0:0,0:0:0:0:
172,203,22259,5,2,0:1:0:0:
190,116,22393,1,0,0:0:0:0:
254,176,22527,1,8,0:0:0:0:
343,283,22795,6,0,B|410:278|410:278|468:240,1,135,2|8,0:1|0:0,0:0:0:0:
357,124,23330,5,2,0:1:0:0:
339,37,23464,1,0,0:0:0:0:
275,97,23598,1,8,0:0:0:0:
65,94,23866,5,0,2:0:0:0:
65,94,24937,5,8,0:0:0:0:
142,134,25071,2,0,L|147:67,1,67.5,2|0,0:1|0:0,0:0:0:0:
224,109,25339,2,0,P|245:142|339:175,1,135,2|4,0:1|0:3,0:0:0:0:
389,242,25741,2,0,P|356:253|323:278,1,67.5,8|4,0:3|0:3,0:0:0:0:
397,327,26009,5,4,0:1:0:0:
51,120,34580,6,0,P|93:114|184:237,1,202.500007724762,2|8,0:0|0:0,0:0:0:0:
328,140,35652,6,0,P|316:238|315:346,1,202.500007724762,2|8,0:0|0:0,0:0:0:0:
470,260,36723,6,0,P|468:158|456:58,1,202.500007724762,2|8,0:0|0:0,0:0:0:0:
249,55,37795,5,2,0:0:0:0:
239,61,38330,1,8,0:0:0:0:
181,177,38866,6,0,P|111:163|-31:171,1,202.500007724762,2|8,0:0|0:0,0:0:0:0:
187,293,39937,1,2,0:0:0:0:
187,293,40205,2,0,P|225:286|284:249,1,101.250003862381,0|0,0:0|0:0,0:0:0:0:
454,211,40741,2,0,P|415:203|392:207,1,50.6250019311906,0|0,0:0|0:0,0:0:0:0:
321,180,41009,6,0,P|304:148|299:50,1,135,2|0,0:2|0:0,0:0:0:0:
210,42,41411,2,0,P|204:89|232:200,1,135,2|0,0:2|0:0,0:0:0:0:
266,253,41812,2,0,P|215:214|75:243,1,202.5,4|8,0:2|0:3,0:0:0:0:
223,343,42482,1,4,0:3:0:0:
223,343,42616,2,0,P|263:333|291:333,1,67.5,8|4,0:3|0:3,0:0:0:0:
372,362,42884,1,4,0:0:0:0:
372,362,43152,6,0,P|394:328|367:223,1,135,2|0,0:2|0:0,0:0:0:0:
476,235,43553,2,0,P|467:195|374:140,1,135,2|0,0:2|0:0,0:0:0:0:
305,178,43955,2,0,P|225:180|103:110,1,202.5,4|4,0:2|0:3,0:0:0:0:
39,167,44491,2,0,P|47:204|52:240,1,67.5,0|4,0:0|0:3,0:0:0:0:
47,321,44759,2,0,L|117:310,1,67.5,0|4,0:0|0:3,0:0:0:0:
186,260,45027,2,0,L|252:270,1,67.5,4|8,0:3|0:3,0:0:0:0:
319,328,45295,1,0,0:0:0:0:
319,328,45562,6,0,P|338:275|306:196,1,135,8|0,0:0|0:0,0:0:0:0:
347,121,45964,2,0,B|269:99|289:146|205:126,1,135,0|8,0:0|0:0,0:0:0:0:
166,201,46366,2,0,P|121:195|95:194,1,67.5,0|0,0:0|0:0,0:0:0:0:
48,121,46634,1,8,0:0:0:0:
83,292,46902,2,0,L|99:365,2,67.5,0|0|8,0:0|0:0|0:0,0:0:0:0:
48,121,47437,6,0,P|138:114|199:97,1,135,4|0,3:3|3:0,0:0:0:0:
260,64,47839,2,0,P|350:71|411:88,1,135,4|0,3:3|3:0,0:0:0:0:
479,60,48241,2,0,L|464:220,1,135,8|0,3:3|3:0,0:0:0:0:
480,281,48643,2,0,L|335:265,1,135,4|0,3:3|3:0,0:0:0:0:
268,308,49045,2,0,L|263:230,1,67.5,4|0,3:3|3:0,0:0:0:0:
178,260,49312,2,0,P|153:307|53:305,1,135,8|4,3:3|0:0,0:0:0:0:
77,320,49848,6,0,P|39:292|30:259,1,67.5,8|0,0:0|0:0,0:0:0:0:
13,187,50116,1,0,0:0:0:0:
100,194,50250,2,0,L|166:175,1,67.5,0|0,0:0|0:0,0:0:0:0:
155,87,50518,2,0,P|232:110|308:120,1,135,8|0,0:0|0:0,0:0:0:0:
370,91,50920,2,0,L|354:231,2,135,8|0|8,0:0|0:0|0:0,0:0:0:0:
474,320,51723,6,0,L|458:185,1,135,0|8,0:0|0:0,0:0:0:0:
331,307,52259,1,0,0:0:0:0:
331,307,52393,2,0,L|259:303,1,67.5,0|0,0:0|0:0,0:0:0:0:
188,349,52661,2,0,P|147:338|52:340,1,135,8|0,0:0|0:0,0:0:0:0:
63,251,53062,2,0,L|78:110,1,135,8|0,0:0|0:0,0:0:0:0:
160,146,53464,1,0,0:0:0:0:
239,108,53598,1,8,0:0:0:0:
239,108,53866,6,0,P|291:105|324:105,1,67.5,0|0,0:0|0:0,0:0:0:0:
381,58,54134,2,0,P|395:102|354:180,1,135,8|0,0:0|0:0,0:0:0:0:
439,210,54536,1,0,0:0:0:0:
419,295,54670,1,8,0:0:0:0:
245,315,54937,6,0,L|88:307,2,135,0|8|0,0:0|0:0|0:0,0:0:0:0:
229,227,55607,2,0,P|208:178|208:155,1,67.5,0|8,0:0|0:0,0:0:0:0:
360,77,56009,6,0,P|393:77|427:80,1,67.5,0|0,0:0|0:0,0:0:0:0:
495,137,56277,2,0,P|511:173|509:272,1,135,8|0,0:0|0:0,0:0:0:0:
445,326,56678,1,0,0:0:0:0:
361,297,56812,1,8,0:0:0:0:
190,336,57080,6,0,L|46:328,2,135,0|8|0,0:0|0:0|0:0,0:0:0:0:
238,196,57750,2,0,L|239:276,1,67.5,0|8,0:0|0:0,0:0:0:0:
72,126,58152,5,0,0:0:0:0:
72,126,59491,6,0,P|140:124|206:107,1,135,0|0,0:0|0:0,0:0:0:0:
339,221,60027,2,0,P|290:186|181:326,1,270,4|4,0:0|0:0,0:0:0:0:
258,326,60696,1,4,0:0:0:0:
331,374,60830,2,0,P|363:365|399:365,1,67.5,8|4,0:0|0:0,0:0:0:0:
468,292,61098,2,0,P|434:291|401:282,1,67.5,8|4,0:0|0:0,0:0:0:0:
339,221,61366,6,0,P|333:181|352:17,2,202.5,8|8|4,0:0|0:0|0:0,0:0:0:0:
339,221,62437,6,0,P|285:207|237:201,1,70.8749978370667,4|0,0:0|0:0,0:0:0:0:
182,156,62705,2,0,P|183:208|151:313,1,141.749995674133,8|2,0:0|0:2,0:0:0:0:
253,331,63107,2,0,P|293:333|344:326,1,70.8749978370667,2|8,0:2|0:0,0:0:0:0:
422,341,63375,6,0,P|414:292|424:197,1,141.749995674133,2|2,0:2|0:2,0:0:0:0:
511,153,63777,2,0,P|457:162|368:128,1,141.749995674133,8|2,0:0|0:2,0:0:0:0:
308,61,64178,2,0,P|357:38|380:38,1,70.8749978370667,0|8,0:0|0:0,0:0:0:0:
279,158,64446,6,0,P|228:148|125:154,1,141.749995674133,2|2,0:2|0:2,0:0:0:0:
178,242,64848,2,0,P|248:246|318:235,1,141.749995674133,8|2,0:0|0:2,0:0:0:0:
386,308,65250,2,0,P|375:341|370:386,1,70.8749978370667,2|8,0:0|0:0,0:0:0:0:
465,261,65518,6,2,P|451:195|448:106,1,141.749995674133
468,23,65920,1,10,0:0:0:0:
295,120,66187,2,2,L|221:109,1,70.8749978370667,2|10,0:0|0:0,0:0:0:0:
138,58,66455,1,12,0:0:0:0:
138,58,66589,1,0,0:0:0:0:
77,137,66723,6,0,P|88:188|83:282,2,141.749995674133,4|8|0,0:0|0:0|0:0,0:0:0:0:
166,200,67393,2,0,P|223:197|246:202,1,70.8749978370667,2|8,0:2|0:0,0:0:0:0:
323,151,67661,2,0,P|310:207|314:314,1,141.749995674133,2|2,0:2|0:2,0:0:0:0:
398,336,68062,1,8,0:0:0:0:
202,371,68330,5,2,0:2:0:0:
225,274,68464,1,0,0:0:0:0:
128,299,68598,1,8,0:0:0:0:
220,123,68866,6,0,P|253:133|386:117,1,141.749995674133,12|0,0:0|0:0,0:0:0:0:
451,60,69268,2,0,L|463:223,1,141.749995674133,12|0,0:0|0:0,0:0:0:0:
491,311,69670,2,0,P|439:304|341:327,1,141.749995674133,12|0,0:0|0:0,0:0:0:0:
244,358,70071,2,0,L|225:203,1,141.749995674133,12|0,0:0|0:0,0:0:0:0:
141,164,70473,2,0,L|135:242,1,70.8749978370667,12|8,0:0|0:0,0:0:0:0:
231,122,70741,1,12,0:0:0:0:
231,122,71009,6,0,P|285:131|331:120,1,70.8749978370667,4|0,0:0|0:0,0:0:0:0:
389,83,71277,2,0,L|379:226,1,141.749995674133,8|2,0:0|0:2,0:0:0:0:
472,257,71678,2,0,L|465:179,1,70.8749978370667,2|8,0:2|0:0,0:0:0:0:
369,242,71946,2,0,P|297:232|211:234,1,141.749995674133,2|2,0:2|0:2,0:0:0:0:
161,306,72348,2,0,P|89:316|3:314,1,141.749995674133,8|2,0:0|0:2,0:0:0:0:
73,162,72750,2,0,P|79:218|76:249,1,70.8749978370667,0|8,0:0|0:0,0:0:0:0:
250,332,73152,6,0,P|245:293|282:183,1,141.749995674133,4|8,0:0|0:0,0:0:0:0:
290,91,73553,2,0,P|346:116|449:111,1,141.749995674133,4|0,0:0|0:0,0:0:0:0:
481,208,73955,2,0,P|410:207|345:234,1,141.749995674133,8|8,0:0|0:0,0:0:0:0:
320,338,74357,2,0,P|361:338|394:328,1,70.8749978370667,8|10,0:0|0:1,0:0:0:0:
256,264,74625,1,8,0:0:0:0:
192,338,74759,2,0,P|151:338|118:328,1,70.8749978370667,10|8,0:0|0:0,0:0:0:0:
65,247,75027,2,0,L|57:163,1,70.8749978370667,10|8,0:0|0:0,0:0:0:0:
178,122,75295,6,0,L|166:265,1,141.749995674133,4|0,0:0|0:0,0:0:0:0:
166,263,75830,1,10,0:0:0:0:
263,246,75964,1,0,0:0:0:0:
433,347,76232,6,0,P|461:296|451:206,1,141.749995674133,0|8,0:0|0:0,0:0:0:0:
492,121,76634,2,0,L|338:131,1,141.749995674133,0|10,0:0|0:0,0:0:0:0:
157,80,77170,1,0,0:0:0:0:
313,205,77437,6,0,L|454:214,1,141.749995674133,0|0,0:0|0:0,0:0:0:0:
454,214,77973,1,10,0:0:0:0:
486,307,78107,1,0,0:0:0:0:
290,342,78375,6,0,P|233:302|130:298,1,141.749995674133,0|8,0:0|0:0,0:0:0:0:
63,285,78777,2,0,P|126:255|181:168,1,141.749995674133,0|10,0:0|0:0,0:0:0:0:
216,112,79178,2,0,P|242:150|270:175,2,70.8749978370667,0|0|8,0:0|0:0|0:0,0:0:0:0:
311,83,79580,6,0,P|374:112|448:117,1,141.749995674133,0|0,0:0|0:0,0:0:0:0:
434,216,79982,1,0,0:0:0:0:
434,216,80116,2,0,L|423:291,1,70.8749978370667,10|0,0:0|0:0,0:0:0:0:
497,353,80384,2,0,P|445:323|344:350,1,141.749995674133,0|0,0:0|0:0,0:0:0:0:
268,275,80786,2,0,P|310:271|345:259,1,70.8749978370667,8|0,0:0|0:0,0:0:0:0:
157,358,81187,6,0,P|122:341|12:340,1,141.749995674133,10|0,0:0|0:0,0:0:0:0:
20,337,81723,5,0,0:0:0:0:
69,250,81857,2,0,L|224:214,1,141.749995674133,8|0,0:0|0:0,0:0:0:0:
283,153,82259,2,0,L|304:233,1,70.8749978370667,8|8,0:0|0:0,0:0:0:0:
400,235,82527,1,8,0:0:0:0:
408,136,82661,1,0,0:0:0:0:
408,136,82928,5,8,0:0:0:0:
503,107,83062,2,0,L|482:35,1,70.8749978370667,0|0,0:0|0:0,0:0:0:0:
383,32,83330,2,0,P|327:37|304:35,1,70.8749978370667,8|8,0:0|0:0,0:0:0:0:
250,133,83598,2,0,P|285:132|320:137,1,70.8749978370667,8|8,0:0|0:0,0:0:0:0:
422,224,83866,5,2,0:0:0:0:
108,223,91902,5,8,0:0:0:0:
108,223,92303,5,8,0:0:0:0:
183,249,92437,2,0,P|234:240|359:258,1,172.125003283024,0|8,0:0|0:0,0:0:0:0:
432,264,92973,2,0,L|506:250,2,57.3750010943413,0|0|0,0:0|0:0|0:0,0:0:0:0:
360,313,93375,2,0,L|340:175,2,114.750002188683,0|0|0,0:0|0:0|0:0,0:0:0:0:
287,349,94045,2,0,P|230:355|155:357,1,114.750002188683,8|0,0:0|0:0,0:0:0:0:
80,225,94580,2,0,P|137:227|194:233,1,114.750002188683,0|0,0:0|0:0,0:0:0:0:
253,177,94982,2,0,P|274:217|274:242,1,57.3750010943413,8|0,0:0|0:0,0:0:0:0:
387,343,95384,5,0,0:0:0:0:
387,343,95518,2,0,P|380:287|401:222,1,114.750002188683,0|8,0:0|0:0,0:0:0:0:
469,198,95920,2,0,P|472:162|467:136,1,57.3750010943413,0|0,0:0|0:0,0:0:0:0:
405,90,96187,2,0,L|286:114,1,114.750002188683,8|0,0:0|0:0,0:0:0:0:
231,59,96589,1,8,0:0:0:0:
231,59,96723,6,0,P|246:94|241:195,1,114.750002188683,0|0,0:0|0:0,0:0:0:0:
180,212,97125,2,0,P|165:247|170:348,1,114.750002188683,8|0,0:0|0:0,0:0:0:0:
230,359,97527,1,0,0:0:0:0:
230,359,97661,2,0,L|92:381,1,114.750002188683,0|0,0:0|0:0,0:0:0:0:
47,334,98062,2,0,L|36:277,1,57.3750010943413,0|0,0:0|0:0,0:0:0:0:
64,201,98330,1,8,0:0:0:0:
212,261,98598,1,0,0:0:0:0:
335,158,98866,6,0,P|403:175|468:181,1,114.750002188683,0|0,0:0|0:0,0:0:0:0:
503,238,99268,2,0,L|492:369,1,114.750002188683,8|0,0:0|0:0,0:0:0:0:
412,348,99670,1,0,0:0:0:0:
412,348,99803,1,0,0:0:0:0:
275,263,100071,6,0,L|141:287,1,114.750002188683,8|0,0:0|0:0,0:0:0:0:
113,218,100473,2,0,L|181:204,1,57.3750010943413,8|0,0:0|0:0,0:0:0:0:
214,139,100741,1,0,0:0:0:0:
214,139,100875,1,8,0:0:0:0:
298,189,101009,6,0,L|415:206,1,114.750002188683,2|0,0:2|0:0,0:0:0:0:
483,167,101411,2,0,L|492:234,1,57.3750010943413,8|0,0:0|0:0,0:0:0:0:
434,281,101678,2,0,L|425:348,2,57.3750010943413,0|0|2,0:0|0:0|0:2,0:0:0:0:
411,205,102080,1,0,0:0:0:0:
334,228,102214,2,0,P|284:230|267:227,1,57.3750010943413,8|0,0:0|0:0,0:0:0:0:
229,163,102482,1,0,0:0:0:0:
153,220,102616,2,0,P|148:180|154:100,1,114.750002188683,8|0,0:0|0:0,0:0:0:0:
298,189,103152,6,0,L|415:206,1,114.750002188683,2|0,0:2|0:0,0:0:0:0:
490,223,103553,2,0,L|483:167,1,57.3750010943413,8|0,0:0|0:0,0:0:0:0:
416,121,103821,2,0,L|423:64,2,57.3750010943413,0|0|0,0:0|0:0|0:0,0:0:0:0:
343,85,104223,1,2,0:2:0:0:
269,116,104357,2,0,P|219:118|202:115,1,57.3750010943413,8|0,0:0|0:0,0:0:0:0:
140,78,104625,1,0,0:0:0:0:
86,137,104759,2,0,P|80:194|86:251,1,114.750002188683,8|0,0:0|0:0,0:0:0:0:
152,296,105161,2,0,L|219:282,1,57.3750010943413,8|2,0:0|0:2,0:0:0:0:
422,350,105562,6,0,L|355:336,1,57.3750010943413,0|8,0:0|0:0,0:0:0:0:
315,274,105830,2,0,P|316:228|305:152,1,114.750002188683,0|0,0:0|0:0,0:0:0:0:
384,135,106232,2,0,L|452:120,1,57.3750010943413,0|2,0:0|0:2,0:0:0:0:
247,94,106634,6,0,P|214:108|119:83,1,114.750002188683,0|8,0:0|0:0,0:0:0:0:
81,154,107036,2,0,L|84:217,1,57.3750010943413,8|8,0:0|0:0,0:0:0:0:
89,291,107303,1,8,0:0:0:0:
182,330,107437,6,0,P|214:313|312:308,1,135,2|0,0:2|0:0,0:0:0:0:
404,327,107839,2,0,P|387:261|392:194,1,135,2|0,0:2|0:0,0:0:0:0:
472,142,108241,2,0,P|387:100|300:171,1,202.5,4|8,0:2|0:3,0:0:0:0:
169,287,108911,1,4,0:3:0:0:
169,287,109045,2,0,P|129:297|101:297,1,67.5,8|4,0:3|0:3,0:0:0:0:
20,269,109312,1,4,0:0:0:0:
230,358,109580,6,0,P|252:324|225:219,1,135,2|0,0:2|0:0,0:0:0:0:
310,171,109982,2,0,P|319:211|412:266,1,135,2|0,0:2|0:0,0:0:0:0:
433,148,110384,2,0,P|380:98|242:115,1,202.5,4|4,0:2|0:3,0:0:0:0:
161,101,110920,2,0,P|169:138|174:174,1,67.5,0|4,0:0|0:3,0:0:0:0:
127,250,111187,2,0,L|60:260,1,67.5,0|4,0:0|0:3,0:0:0:0:
25,349,111455,2,0,L|91:359,1,67.5,4|8,0:3|0:3,0:0:0:0:
185,341,111723,1,0,0:0:0:0:
185,341,111991,6,0,P|238:322|317:354,1,135,8|0,0:0|0:0,0:0:0:0:
392,377,112393,2,0,B|414:299|367:319|387:235,1,135,0|8,0:0|0:0,0:0:0:0:
337,170,112795,2,0,P|292:164|266:163,1,67.5,0|0,0:0|0:0,0:0:0:0:
195,116,113062,1,8,0:0:0:0:
82,250,113330,2,0,L|6:229,2,67.5,0|0|8,0:0|0:0|0:0,0:0:0:0:
195,116,113866,6,0,P|285:109|346:92,1,135,4|0,0:0|0:0,0:0:0:0:
423,100,114268,2,0,P|408:165|405:233,1,135,4|0,0:0|0:0,0:0:0:0:
322,332,114670,2,0,P|318:264|304:198,1,135,8|0,0:0|0:0,0:0:0:0:
218,239,115071,2,0,L|73:223,1,135,4|0,0:0|0:0,0:0:0:0:
35,142,115473,2,0,L|30:64,1,67.5,4|0,0:0|0:0,0:0:0:0:
125,64,115741,2,0,P|150:111|250:109,1,135,8|4,0:0|0:0,0:0:0:0:
226,124,116277,6,0,P|264:96|273:63,1,67.5,8|0,0:0|0:0,0:0:0:0:
316,154,116545,1,0,0:0:0:0:
264,223,116678,2,0,L|268:290,1,67.5,0|0,0:0|0:0,0:0:0:0:
337,345,116946,2,0,P|414:361|490:353,1,135,8|0,0:0|0:0,0:0:0:0:
412,281,117348,2,0,L|426:131,2,135,8|0|8,0:0|0:0|0:0,0:0:0:0:
303,114,118152,6,0,L|319:249,1,135,0|8,0:0|0:0,0:0:0:0:
161,326,118687,1,0,0:0:0:0:
161,326,118821,2,0,L|89:322,1,67.5,0|0,0:0|0:0,0:0:0:0:
64,238,119089,2,0,P|130:243|213:244,1,135,8|0,0:0|0:0,0:0:0:0:
285,263,119491,2,0,L|300:122,1,135,8|0,0:0|0:0,0:0:0:0:
213,109,119893,1,0,0:0:0:0:
126,96,120027,1,8,0:0:0:0:
126,96,120295,6,0,P|123:148|123:181,1,67.5,0|0,0:0|0:0,0:0:0:0:
54,218,120562,2,0,P|29:268|44:351,1,135,8|0,0:0|0:0,0:0:0:0:
125,321,120964,1,0,0:0:0:0:
209,344,121098,1,8,0:0:0:0:
361,257,121366,6,0,L|495:263,2,135,0|8|0,0:0|0:0|0:0,0:0:0:0:
288,206,122036,2,0,P|267:157|267:134,1,67.5,0|8,0:0|0:0,0:0:0:0:
122,43,122437,6,0,P|121:97|129:128,1,67.5,0|0,0:0|0:0,0:0:0:0:
73,181,122705,2,0,P|68:237|127:291,1,135,8|0,0:0|0:0,0:0:0:0:
207,279,123106,1,0,0:0:0:0:
277,331,123240,1,8,0:0:0:0:
368,177,123509,6,0,L|502:184,2,135,0|8|0,0:0|0:0|0:0,0:0:0:0:
312,40,124178,2,0,L|313:120,1,67.5,0|8,0:0|0:0,0:0:0:0:
165,203,124580,5,0,0:0:0:0:
165,204,125920,6,0,P|233:202|308:224,1,135,0|0,0:0|0:0,0:0:0:0:
436,111,126455,2,0,P|387:146|278:6,1,270,4|4,0:0|0:0,0:0:0:0:
183,44,127125,1,4,0:0:0:0:
149,125,127259,2,0,P|115:125|82:134,1,67.5,8|4,0:0|0:0,0:0:0:0:
193,199,127527,2,0,P|225:207|259:208,1,67.5,8|4,0:0|0:0,0:0:0:0:
113,254,127795,6,0,P|210:285|311:288,2,202.5,8|8|8,0:0|0:0|0:0,0:0:0:0:
113,254,128866,6,0,P|59:240|11:234,1,70.8749978370667,4|0,0:0|0:0,0:0:0:0:
110,163,129134,2,0,P|177:138|234:73,1,141.749995674133,8|2,0:0|0:2,0:0:0:0:
299,155,129536,2,0,P|339:153|390:160,1,70.8749978370667,2|8,0:2|0:0,0:0:0:0:
460,116,129803,6,0,L|436:288,1,141.749995674133,2|2,0:2|0:2,0:0:0:0:
494,340,130205,2,0,P|427:350|353:310,1,141.749995674133,0|2,0:0|0:2,0:0:0:0:
295,244,130607,2,0,P|344:221|367:221,1,70.8749978370667,0|8,0:0|0:0,0:0:0:0:
204,209,130875,6,0,P|223:177|312:111,1,141.749995674133,2|2,0:2|0:2,0:0:0:0:
219,61,131277,2,0,L|79:46,1,141.749995674133,8|2,0:0|0:2,0:0:0:0:
23,128,131678,2,2,P|12:161|7:206,1,70.8749978370667,2|8,0:0|0:0,0:0:0:0:
112,344,131946,6,2,P|115:274|95:189,1,141.749995674133
199,218,132348,1,10,0:0:0:0:
342,81,132616,2,2,L|412:91,1,70.8749978370667,2|10,0:0|0:0,0:0:0:0:
479,165,132884,1,12,0:0:0:0:
479,165,133018,1,0,0:0:0:0:
394,216,133152,6,0,P|405:267|400:361,2,141.749995674133,4|8|2,0:0|0:0|0:2,0:0:0:0:
296,200,133821,2,0,P|260:196|225:200,1,70.8749978370667,2|8,0:2|0:0,0:0:0:0:
127,219,134089,2,0,P|125:148|140:79,1,141.749995674133,2|2,0:2|0:2,0:0:0:0:
239,69,134491,1,8,0:0:0:0:
428,207,134759,5,2,0:2:0:0:
451,110,134893,1,0,0:0:0:0:
354,135,135027,1,8,0:0:0:0:
459,303,135295,6,0,P|389:312|320:298,1,141.749995674133,12|0,0:0|0:0,0:0:0:0:
215,341,135696,2,0,L|204:199,1,141.749995674133,12|0,0:0|0:0,0:0:0:0:
138,106,136098,2,0,P|206:123|276:116,1,141.749995674133,12|0,0:0|0:0,0:0:0:0:
380,68,136500,2,0,L|362:208,1,141.749995674133,12|0,0:0|0:0,0:0:0:0:
279,287,136902,2,0,L|285:365,1,70.8749978370667,12|8,0:0|0:0,0:0:0:0:
375,315,137170,1,12,0:0:0:0:
375,315,137437,6,0,P|429:324|475:313,1,70.8749978370667,4|0,0:0|0:0,0:0:0:0:
412,227,137705,2,0,P|363:206|254:198,1,141.749995674133,8|2,0:0|0:2,0:0:0:0:
197,133,138107,2,0,L|190:55,1,70.8749978370667,2|8,0:2|0:0,0:0:0:0:
101,107,138375,2,0,P|115:175|121:258,1,141.749995674133,2|2,0:2|0:2,0:0:0:0:
203,303,138777,2,0,L|344:295,1,141.749995674133,8|2,0:0|0:2,0:0:0:0:
451,247,139178,2,0,P|457:303|454:334,1,70.8749978370667,0|8,0:0|0:0,0:0:0:0:
261,220,139580,6,0,P|256:181|293:71,1,141.749995674133,4|8,0:0|0:0,0:0:0:0:
386,53,139982,2,0,P|315:53|250:26,1,141.749995674133,4|0,0:0|0:0,0:0:0:0:
175,103,140384,2,0,P|104:102|39:129,1,141.749995674133,8|8,0:0|0:0,0:0:0:0:
173,227,140786,6,0,P|139:236|104:236,1,70.8749978370667,8|10,0:0|0:0,0:0:0:0:
256,160,141053,1,8,0:0:0:0:
338,227,141187,2,0,P|372:236|408:236,1,70.8749978370667,10|8,0:0|0:0,0:0:0:0:
368,80,141455,2,0,L|374:150,1,70.8749978370667,10|8,0:0|0:0,0:0:0:0:
264,88,141723,6,0,L|252:231,1,141.749995674133,4|0,0:0|0:0,0:0:0:0:
252,229,142259,1,10,0:0:0:0:
160,280,142393,1,0,0:0:0:0:
308,324,142661,6,0,P|377:315|440:346,1,141.749995674133,0|8,0:0|0:0,0:0:0:0:
472,252,143062,2,0,P|408:244|340:208,1,141.749995674133,0|10,0:0|0:0,0:0:0:0:
220,48,143598,1,0,0:0:0:0:
100,208,143866,6,0,P|164:200|232:164,1,141.749995674133,0|8,0:0|0:0,0:0:0:0:
231,164,144402,1,10,0:0:0:0:
340,208,144536,1,0,0:0:0:0:
184,328,144803,6,0,P|127:288|24:284,1,141.749995674133,8|0,0:0|0:0,0:0:0:0:
16,184,145205,2,0,P|79:154|134:67,1,141.749995674133,8|8,0:0|0:0,0:0:0:0:
224,128,145607,6,0,P|264:108|292:104,1,60.7499981460572,8|8,0:0|0:0,0:0:0:0:
284,196,145875,6,0,P|316:204|332:216,1,50.6250019311906,8|0,0:0|2:0,0:0:0:0:
188,112,154580,5,0,0:0:0:0:
188,112,154714,2,0,P|256:104|328:116,1,135,2|0,0:2|0:0,0:0:0:0:
392,61,155116,2,0,P|400:129|388:201,1,135,2|0,0:2|0:0,0:0:0:0:
443,265,155518,2,0,P|375:273|303:261,1,135,2|0,0:2|0:0,0:0:0:0:
239,316,155920,2,0,P|231:248|243:176,1,135,2|0,0:2|0:0,0:0:0:0:
315,188,156321,1,2,0:2:0:0:
287,90,156455,1,6,0:1:0:0:
107,180,156723,5,0,0:0:0:0:
107,180,156857,2,0,P|175:172|247:184,1,135,2|0,0:2|0:0,0:0:0:0:
311,129,157259,2,0,P|319:197|307:269,1,135,2|0,0:2|0:0,0:0:0:0:
362,333,157661,2,0,P|294:341|222:329,1,135,2|0,0:2|0:0,0:0:0:0:
158,384,158063,2,0,P|150:316|162:244,1,135,2|0,0:2|0:0,0:0:0:0:
234,256,158464,1,2,0:2:0:0:
206,158,158598,1,4,0:3:0:0:
365,84,158866,5,0,0:0:0:0:
365,84,159000,2,0,L|361:224,1,135,2|0,0:2|0:0,0:0:0:0:
419,285,159402,2,0,P|370:268|264:268,1,135,2|0,0:2|0:0,0:0:0:0:
210,305,159803,2,0,L|206:170,1,135,2|0,0:2|0:0,0:0:0:0:
264,104,160205,2,0,P|199:123|132:125,1,135,2|0,0:2|0:0,0:0:0:0:
77,55,160607,1,2,0:2:0:0:
5,144,160741,1,4,0:3:0:0:
128,260,161009,5,0,0:0:0:0:
128,260,161143,2,0,L|132:120,1,135,2|0,0:2|0:0,0:0:0:0:
77,55,161545,2,0,P|126:72|232:72,1,135,2|0,0:2|0:0,0:0:0:0:
290,44,161946,2,0,P|330:35|357:35,1,67.5,2|0,0:2|0:0,0:0:0:0:
337,121,162214,1,2,0:2:0:0:
423,105,162348,2,0,P|414:170|410:260,1,135,2|0,0:1|0:0,0:0:0:0:
476,297,162750,1,2,0:2:0:0:
393,327,162884,2,0,L|296:323,1,67.5,6|2,0:1|0:1,0:0:0:0:
250,292,163152,5,4,0:3:0:0:
250,292,163286,2,0,P|182:300|110:288,1,135,8|4,0:3|0:3,0:0:0:0:
46,343,163688,2,0,P|38:275|50:203,1,135,8|4,0:3|0:3,0:0:0:0:
2,139,164090,2,0,P|70:131|142:143,1,135,8|2,0:3|0:2,0:0:0:0:
208,93,164492,2,0,P|216:161|204:233,1,135,0|2,0:0|0:2,0:0:0:0:
123,216,164893,1,0,0:0:0:0:
151,314,165027,1,6,0:1:0:0:
339,228,165295,5,4,0:3:0:0:
339,228,165429,2,0,P|271:236|199:224,1,135,8|4,0:3|0:3,0:0:0:0:
135,279,165831,2,0,P|127:211|139:139,1,135,8|4,0:3|0:3,0:0:0:0:
91,75,166233,2,0,P|159:67|231:79,1,135,8|2,0:3|0:2,0:0:0:0:
297,29,166635,2,0,P|305:97|293:169,1,135,0|2,0:0|0:2,0:0:0:0:
212,152,167036,1,0,0:0:0:0:
240,250,167170,1,4,0:3:0:0:
401,316,167437,6,0,L|473:306,1,67.5,4|2,0:0|0:2,0:0:0:0:
270,351,167839,2,0,L|342:359,1,67.5,4|2,0:3|0:2,0:0:0:0:
135,351,168241,2,0,L|202:378,1,67.5,4|2,0:3|0:2,0:0:0:0:
4,316,168643,2,0,L|61:359,1,67.5,4|2,0:3|0:2,0:0:0:0:
197,185,169045,6,0,L|140:228,1,67.5,4|2,0:3|0:2,0:0:0:0:
56,212,169312,1,6,0:1:0:0:
111,68,169580,6,0,L|39:78,1,67.5,0|2,0:0|0:2,0:0:0:0:
242,33,169982,2,0,L|170:25,1,67.5,2|0,0:2|0:0,0:0:0:0:
377,33,170384,2,0,L|310:6,1,67.5,0|2,0:0|0:2,0:0:0:0:
320,95,170652,6,0,L|325:176,1,67.5,0|2,0:0|0:2,0:0:0:0:
403,201,170920,2,0,P|338:195|258:246,1,135,2|2,0:2|0:2,0:0:0:0:
206,172,171321,1,2,0:2:0:0:
135,224,171455,2,0,L|144:298,1,67.5,2|2,0:2|0:2,0:0:0:0:
82,355,171723,6,2,P|143:320|241:326,1,141.749995674133,6|10,0:0|0:0,0:0:0:0:
297,356,172125,1,0,0:0:0:0:
355,285,172259,2,0,P|395:272|428:270,1,70.8749978370667,2|0,0:0|0:0,0:0:0:0:
331,198,172527,2,0,P|291:185|258:183,1,70.8749978370667,8|0,0:0|0:0,0:0:0:0:
345,95,172795,6,0,P|288:92|190:117,1,141.749995674133,0|8,0:0|0:0,0:0:0:0:
130,56,173196,1,0,0:0:0:0:
68,124,173330,2,0,P|63:169|54:196,2,70.8749978370667,0|0|8,0:0|0:0|0:0,0:0:0:0:
169,278,173866,6,2,P|210:271|321:282,1,141.749995674133,2|10,0:0|0:0,0:0:0:0:
365,204,174268,1,0,0:0:0:0:
445,249,174402,2,0,P|453:195|448:166,1,70.8749978370667,2|0,0:0|0:0,0:0:0:0:
386,54,174670,2,0,P|384:89|392:123,1,70.8749978370667,8|0,0:0|0:0,0:0:0:0:
302,146,174937,5,0,0:0:0:0:
302,146,175071,2,0,L|226:131,1,70.8749978370667,0|8,0:0|0:0,0:0:0:0:
169,200,175339,2,0,L|99:213,1,70.8749978370667,0|0,0:0|0:0,0:0:0:0:
18,94,175607,2,0,L|165:120,1,141.749995674133,0|0,0:0|0:0,0:0:0:0:
228,58,176009,6,0,L|298:45,1,70.8749978370667,6|0,0:0|0:0,0:0:0:0:
346,124,176277,2,0,L|416:137,1,70.8749978370667,10|0,0:0|0:0,0:0:0:0:
491,82,176545,2,0,P|506:117|450:224,1,141.749995674133,2|8,0:0|0:0,0:0:0:0:
386,241,176946,1,0,0:0:0:0:
404,331,177080,6,0,B|323:339|352:295|233:313,2,141.749995674133,0|10|2,0:0|0:0|0:0,0:0:0:0:
502,232,177750,2,0,P|500:267|490:301,1,70.8749978370667,0|8,0:0|0:0,0:0:0:0:
228,97,178152,6,0,P|223:157|213:174,1,70.8749978370667,2|0,0:0|0:0,0:0:0:0:
135,207,178420,1,8,0:0:0:0:
214,252,178553,2,0,P|276:242|357:243,1,141.749995674133,0|0,0:0|0:0,0:0:0:0:
437,201,178955,1,8,0:0:0:0:
437,201,179089,2,0,L|426:358,1,141.749995674133,0|2,0:0|0:0,0:0:0:0:
330,344,179491,1,8,0:0:0:0:
164,261,179759,6,0,P|159:298|150:342,1,70.8749978370667,2|0,0:0|0:0,0:0:0:0:
81,271,180027,2,0,P|74:236|69:201,1,70.8749978370667,8|0,0:0|0:0,0:0:0:0:
118,122,180295,6,0,P|186:113|269:142,1,141.749995674133,4|10,0:0|0:0,0:0:0:0:
334,86,180696,1,0,0:0:0:0:
411,136,180830,2,0,P|414:173|423:210,2,70.8749978370667,0|2|8,0:0|0:0|0:0,0:0:0:0:
332,185,181232,1,0,0:0:0:0:
255,235,181366,2,0,P|251:272|243:309,2,70.8749978370667,0|2|8,0:0|0:0|0:0,0:0:0:0:
335,280,181768,6,0,P|391:280|405:283,1,70.8749978370667,0|2,0:0|0:0,0:0:0:0:
304,355,182036,2,0,P|243:384|169:324,1,141.749995674133,0|0,0:0|0:0,0:0:0:0:
108,296,182437,2,0,P|105:333|91:373,1,70.8749978370667,0|2,0:0|0:0,0:0:0:0:
30,278,182705,2,0,L|25:128,1,141.749995674133,8|2,0:0|0:0,0:0:0:0:
111,170,183107,2,0,L|195:162,1,70.8749978370667,0|8,0:0|0:0,0:0:0:0:
227,82,183375,6,0,L|375:98,1,141.749995674133,0|2,0:0|0:0,0:0:0:0:
426,169,183777,2,0,L|278:185,1,141.749995674133,8|2,0:0|0:0,0:0:0:0:
225,254,184178,2,0,L|373:270,1,141.749995674133,0|0,0:0|0:0,0:0:0:0:
433,333,184580,5,4,0:0:0:0:
433,333,184714,1,0,0:0:0:0:
343,354,184848,2,0,L|257:367,1,70.8749978370667,10|0,0:0|0:0,0:0:0:0:
189,323,185116,2,0,L|103:310,1,70.8749978370667,0|0,0:0|0:0,0:0:0:0:
37,357,185384,1,10,0:0:0:0:
39,238,185518,6,0,P|55:171|51:91,1,141.749995674133,4|2,0:0|0:0,0:0:0:0:
137,61,185920,1,8,0:0:0:0:
201,125,186053,2,0,P|258:110|277:110,2,70.8749978370667,8|10|8,0:0|0:0|0:0,0:0:0:0:
132,187,186455,1,8,0:0:0:0:
305,248,186723,6,0,P|314:203|310:159,1,70.8749978370667,4|0,0:0|0:0,0:0:0:0:
379,113,186991,2,0,P|395:153|416:185,1,70.8749978370667,10|0,0:0|0:0,0:0:0:0:
469,265,187259,1,0,0:0:0:0:
389,335,187393,2,0,L|294:337,1,70.8749978370667,10|8,0:0|0:0,0:0:0:0:
216,303,187661,6,0,P|164:336|68:318,1,141.749995674133,6|2,0:0|0:0,0:0:0:0:
123,179,188062,2,0,L|138:249,1,70.8749978370667,8|8,0:0|0:0,0:0:0:0:
274,242,188330,2,0,P|313:229|343:227,2,70.8749978370667,8|8|8,0:0|0:0|0:0,0:0:0:0:
113,254,188866,6,0,P|59:240|11:234,1,70.8749978370667,4|2,0:0|0:2,0:0:0:0:
110,163,189134,2,0,P|177:138|234:73,1,141.749995674133,8|8,0:0|0:0,0:0:0:0:
320,57,189536,2,0,P|360:55|411:62,1,70.8749978370667,2|8,0:2|0:0,0:0:0:0:
450,136,189803,6,0,P|386:150|305:142,1,141.749995674133,2|2,0:2|0:2,0:0:0:0:
350,235,190205,2,0,P|356:305|342:374,1,141.749995674133,8|8,0:0|0:0,0:0:0:0:
208,314,190607,2,0,P|257:291|280:291,1,70.8749978370667,2|8,0:2|0:0,0:0:0:0:
170,227,190875,6,0,P|100:238|31:223,1,141.749995674133,2|2,0:2|0:2,0:0:0:0:
110,104,191277,2,0,P|178:88|248:100,1,141.749995674133,8|0,0:0|0:0,0:0:0:0:
345,29,191678,2,0,P|334:62|329:107,1,70.8749978370667,10|8,0:0|0:0,0:0:0:0:
505,185,191946,6,2,P|456:187|359:167,1,141.749995674133
429,92,192348,1,10,0:0:0:0:
315,255,192616,2,2,P|350:254|385:265,1,70.8749978370667,2|10,0:0|0:0,0:0:0:0:
480,291,192884,1,12,0:0:0:0:
480,291,193018,1,0,0:0:0:0:
408,359,193152,6,0,P|349:363|258:349,2,141.749995674133,4|8|8,0:0|0:0|0:0,0:0:0:0:
480,291,193821,2,0,P|476:255|480:220,1,70.8749978370667,2|8,0:2|0:0,0:0:0:0:
390,140,194089,2,0,P|401:211|378:288,1,141.749995674133,2|2,0:2|0:2,0:0:0:0:
299,202,194491,1,8,0:0:0:0:
66,342,194759,5,8,0:0:0:0:
119,257,194893,1,2,0:2:0:0:
170,343,195027,1,8,0:0:0:0:
189,159,195295,6,0,P|203:89|194:19,1,141.749995674133,12|0,0:0|0:0,0:0:0:0:
110,85,195696,2,0,L|256:88,1,141.749995674133,12|0,0:0|0:0,0:0:0:0:
353,54,196098,2,0,P|341:122|335:194,1,141.749995674133,12|0,0:0|0:0,0:0:0:0:
457,317,196500,2,0,P|474:262|406:214,1,141.749995674133,12|0,0:0|0:0,0:0:0:0:
334,283,196902,2,0,P|297:286|258:294,1,70.8749978370667,12|8,0:0|0:0,0:0:0:0:
171,347,197170,1,12,0:0:0:0:
171,347,197437,6,0,P|180:293|169:247,1,70.8749978370667,4|2,0:0|0:2,0:0:0:0:
87,235,197705,2,0,P|81:164|91:83,1,141.749995674133,8|0,0:0|0:0,0:0:0:0:
183,62,198107,2,0,L|253:55,1,70.8749978370667,2|8,0:2|0:0,0:0:0:0:
212,147,198375,6,0,P|281:137|365:147,1,141.749995674133,2|2,0:2|0:2,0:0:0:0:
363,243,198777,2,0,P|294:253|210:243,1,141.749995674133,8|0,0:0|0:0,0:0:0:0:
157,358,199178,2,0,P|157:322|151:287,1,70.8749978370667,2|8,0:2|0:0,0:0:0:0:
68,122,199580,6,0,P|63:161|79:280,1,141.749995674133,4|8,0:0|0:0,0:0:0:0:
160,188,199982,2,0,P|170:118|165:47,1,141.749995674133,4|8,0:0|0:0,0:0:0:0:
260,112,200384,2,0,P|332:140|396:138,1,141.749995674133,0|8,0:0|0:0,0:0:0:0:
344,280,200786,6,0,P|379:280|413:271,1,70.8749978370667,8|10,0:0|0:0,0:0:0:0:
256,216,201053,1,8,0:0:0:0:
168,280,201187,2,0,P|132:280|98:271,1,70.8749978370667,10|8,0:0|0:0,0:0:0:0:
256,296,201455,2,0,L|256:368,1,70.8749978370667,10|8,0:0|0:0,0:0:0:0:
148,200,201723,6,0,L|136:58,1,141.749995674133,4|0,0:0|0:0,0:0:0:0:
136,58,202259,1,10,0:0:0:0:
232,40,202393,1,0,0:0:0:0:
352,180,202661,6,0,P|421:188|484:157,1,141.749995674133,0|8,0:0|0:0,0:0:0:0:
480,272,203062,2,0,P|410:265|328:260,1,141.749995674133,0|10,0:0|0:0,0:0:0:0:
408,96,203598,1,0,0:0:0:0:
264,296,203866,6,0,P|194:302|112:308,1,141.749995674133,0|0,0:0|0:0,0:0:0:0:
122,307,204402,1,10,0:0:0:0:
84,224,204536,1,0,0:0:0:0:
212,84,204803,6,0,L|208:232,1,141.749995674133,0|0,0:0|0:0,0:0:0:0:
284,280,205205,2,0,L|432:284,1,141.749995674133,8|8,0:0|0:0,0:0:0:0:
460,196,205607,2,0,L|384:200,1,70.8749978370667,8|8,0:0|0:0,0:0:0:0:
356,112,205875,1,8,0:0:0:0:
280,184,206009,6,0,P|240:152|136:184,1,141.749995674133,0|0,0:0|0:0,0:0:0:0:
155,164,206545,1,10,0:0:0:0:
80,112,206678,1,0,0:0:0:0:
52,292,206946,6,0,P|104:268|188:280,1,141.749995674133,0|8,0:0|0:0,0:0:0:0:
256,340,207348,2,0,P|323:328|408:320,1,141.749995674133,0|10,0:0|0:0,0:0:0:0:
288,216,207884,1,0,0:0:0:0:
472,316,208152,6,0,P|472:264|456:176,1,141.749995674133,0|0,0:0|0:0,0:0:0:0:
455,175,208687,1,10,0:0:0:0:
368,152,208821,1,0,0:0:0:0:
224,40,209089,6,0,L|68:80,1,141.749995674133,0|0,0:0|0:0,0:0:0:0:
36,152,209491,2,0,L|48:228,1,70.8749978370667,8|8,0:0|0:0,0:0:0:0:
124,172,209759,1,8,0:0:0:0:
244,280,210027,2,0,L|252:192,1,70.8749978370667,8|8,0:0|0:0,0:0:0:0:
187,329,210295,6,0,P|247:354|304:323,1,135
384,344,210696,2,0,L|372:180,1,135,0|0,0:0|0:0,0:0:0:0:
440,160,211098,2,0,P|296:204|64:108,1,405,4|0,3:0|0:0,0:0:0:0:
56,216,212036,2,0,P|84:280|96:348,1,135
188,328,212437,6,0,P|224:352|312:308,1,135,0|0,0:0|0:0,0:0:0:0:
384,344,212839,2,0,L|372:180,1,135,0|0,0:0|0:0,0:0:0:0:
440,160,213241,2,0,P|296:204|224:188,1,202.5
92,144,213911,2,0,P|88:204|112:280,1,135,0|0,0:0|0:0,0:0:0:0:
115,352,214312,2,0,L|48:344,1,67.5,0|0,0:0|0:0,0:0:0:0:
188,328,214580,6,0,P|224:352|312:308,1,135,0|0,0:0|0:0,0:0:0:0:
384,344,214982,2,0,L|372:180,1,135,0|0,0:0|0:0,0:0:0:0:
440,160,215384,2,0,P|296:204|168:156,1,270
24,352,216321,5,0,0:0:0:0:
96,320,216455,2,0,L|80:244,1,67.5,0|0,0:0|0:0,0:0:0:0:
36,188,216723,6,0,L|56:120,2,67.5,8|0|0,0:0|0:0|0:0,0:0:0:0:
152,136,217125,2,0,L|132:68,2,67.5,8|0|0,0:0|0:0|0:0,0:0:0:0:
228,204,217527,2,0,L|248:136,2,67.5,8|0|0,0:0|0:0|0:0,0:0:0:0:
344,152,217929,2,0,L|324:84,2,67.5,8|0|0,0:0|0:0|0:0,0:0:0:0:
456,132,218330,6,0,L|432:208,1,67.5,8|0,0:0|0:0,0:0:0:0:
364,336,218598,2,0,L|343:271,1,67.5,0|4,0:0|0:2,0:0:0:0:
