osu file format v14

[General]
AudioFilename: Girl meets Love.mp3
AudioLeadIn: 1000
PreviewTime: 55070
Countdown: 0
SampleSet: Soft
StackLeniency: 0.5
Mode: 0
LetterboxInBreaks: 0
WidescreenStoryboard: 0

[Editor]
DistanceSpacing: 1.3
BeatDivisor: 4
GridSize: 4
TimelineZoom: 2.999999

[Metadata]
Title:Girl meets Love
TitleUnicode:Girl meets Love
Artist:Katakiri Rekka & Suzuyu
ArtistUnicode:片霧烈火 & 鈴湯
Creator:fuyuyu-
Version:Insane
Source:花咲ワークスプリング!
Tags:sagaplanets eroge visual novel opening hana saki work spring laurier no dap no_dap -chata- moecho einess shioi moeka
BeatmapID:773155
BeatmapSetID:251405

[Difficulty]
HPDrainRate:5.5
CircleSize:3.8
OverallDifficulty:7
ApproachRate:9
SliderMultiplier:1.6
SliderTickRate:1

[Events]
//Background and Video events
0,0,"Hanasaki Work Spring.jpg",0,0
//Break Periods
//Storyboard Layer 0 (Background)
//Storyboard Layer 1 (Fail)
//Storyboard Layer 2 (Pass)
//Storyboard Layer 3 (Foreground)
//Storyboard Sound Samples

[TimingPoints]
584,324.324324324324,4,2,1,40,1,0
584,-133.333333333333,4,2,1,40,0,0
908,-133.333333333333,4,2,3,40,0,0
5773,-133.333333333333,4,2,5,40,0,0
9502,-100,4,2,5,60,0,0
9989,-100,4,2,5,40,0,0
10313,-100,4,2,5,50,0,0
10638,-100,4,2,5,60,0,0
10962,-100,4,2,5,60,0,1
11043,-100,4,2,5,60,0,0
19881,-100,4,2,5,70,0,0
21016,-83.3333333333333,4,2,2,75,0,0
21178,-100,4,2,5,20,0,0
21340,-133.333333333333,4,2,5,50,0,0
25881,-100,4,2,5,60,0,0
26367,-100,4,2,5,60,0,0
31232,-100,4,2,5,40,0,0
31394,-83.3333333333333,4,2,2,75,0,0
31556,-100,4,2,5,20,0,0
31719,-100,4,2,5,60,0,0
45989,-100,4,2,5,50,0,0
46313,-100,4,2,5,60,0,0
46638,-100,4,2,5,70,0,0
46962,-100,4,2,5,70,0,0
47124,-100,4,2,5,60,0,0
52475,-100,4,2,5,70,0,1
53773,-133.333333333333,4,2,5,50,0,0
54097,-200,4,2,1,50,0,0
55070,-100,4,2,5,70,0,1
60259,-100,4,2,5,70,0,1
61232,-90.9090909090909,4,2,1,70,0,1
61394,-90.9090909090909,4,2,5,70,0,1
61556,-100,4,2,5,70,0,1
62529,-90.9090909090909,4,2,1,70,0,1
62692,-90.9090909090909,4,2,5,70,0,1
62854,-100,4,2,5,70,0,1
64881,-100,4,2,5,50,0,1
65367,-100,4,2,5,50,0,0
65448,-100,4,2,5,70,0,1
70638,-100,4,2,5,70,0,1
71611,-90.9090909090909,4,2,1,70,0,1
71773,-90.9090909090909,4,2,5,70,0,1
71935,-100,4,2,5,70,0,1
72908,-90.9090909090909,4,2,1,70,0,1
73070,-90.9090909090909,4,2,5,70,0,1
73232,-100,4,2,5,70,0,1
75746,-100,4,2,5,60,0,0
75827,-133.333333333333,4,2,5,60,0,0
80854,-100,4,2,5,50,0,0
81016,-100,4,2,5,70,0,1
81502,-100,4,2,5,70,0,1
81989,-90.9090909090909,4,2,1,70,0,1
82151,-90.9090909090909,4,2,5,70,0,1
82313,-100,4,2,5,70,0,1
82800,-100,4,2,5,70,0,1
83286,-90.9090909090909,4,2,1,70,0,1
83448,-90.9090909090909,4,2,5,70,0,1
83611,-100,4,2,5,70,0,1
85638,-100,4,2,5,50,0,1
86205,-100,4,2,5,60,0,0
87665,-100,4,2,1,45,0,0
87827,-100,4,2,1,45,0,0
87989,-100,4,2,1,50,0,0
88151,-90.9090909090909,4,2,1,60,0,0
88313,-90.9090909090909,4,2,5,65,0,0
88475,-83.3333333333333,4,2,2,75,0,0
88638,-83.3333333333333,4,2,2,20,0,0
88800,-100,4,2,5,60,0,1
88881,-100,4,2,5,60,0,0
93908,-100,4,2,5,60,0,0
93989,-100,4,2,5,60,0,0
97719,-100,4,2,5,60,0,1
97800,-100,4,2,5,60,0,0

[Colours]
Combo1 : 145,229,103
Combo2 : 255,213,128
Combo3 : 242,121,97
Combo4 : 255,140,179
Combo5 : 187,103,229
Combo6 : 140,236,255

[HitObjects]
32,284,584,6,0,P|88:276|156:276,1,120.000004577637,6|8,0:0|0:0,0:0:0:0:
224,332,1070,1,8,0:0:0:0:
224,332,1232,2,0,P|280:339|348:340,1,120.000004577637,2|8,0:0|0:0,0:0:0:0:
444,296,1719,6,0,P|440:258|436:228,1,60.0000022888184,0|2,0:0|0:0,0:0:0:0:
312,176,2043,2,0,P|314:205|318:235,1,60.0000022888184,0|8,0:0|0:0,0:0:0:0:
376,116,2367,1,8,0:0:0:0:
376,116,2529,2,0,P|324:88|264:104,1,120.000004577637,2|8,0:0|0:0,0:0:0:0:
248,120,3178,6,0,P|184:116|104:108,1,120.000004577637,2|8,0:0|0:0,0:0:0:0:
76,200,3665,1,8,0:0:0:0:
76,200,3827,2,0,P|135:203|195:209,1,120.000004577637,2|8,0:0|0:0,0:0:0:0:
296,220,4313,1,0,0:0:0:0:
296,220,4475,6,0,L|284:288,1,60.0000022888184,6|0,0:0|0:0,0:0:0:0:
364,324,4800,2,0,L|374:264,1,60.0000022888184,12|8,0:0|0:0,0:0:0:0:
380,168,5124,2,0,P|448:168|508:160,2,120.000004577637,2|0|6,0:0|0:0|0:0,0:0:0:0:
320,96,6421,5,6,0:0:0:0:
240,192,7070,1,6,0:0:0:0:
168,72,7719,1,6,0:0:0:0:
180,88,8367,6,0,L|176:148,1,60.0000022888184,6|0,0:0|0:0,0:0:0:0:
164,288,8692,1,8,0:0:0:0:
40,216,8854,1,8,0:0:0:0:
40,216,8935,1,8,0:0:0:0:
40,216,9016,2,0,P|75:206|108:204,1,60.0000022888184,8|8,0:0|0:3,0:0:0:0:
236,232,9340,1,4,0:3:0:0:
136,364,9502,6,0,P|88:312|116:228,1,160,6|2,0:0|0:0,0:0:0:0:
324,200,9989,2,0,P|316:242|308:300,1,80,8|8,0:0|0:0,0:0:0:0:
156,104,10313,2,0,P|196:101|252:96,1,80,8|8,0:0|0:0,0:0:0:0:
420,44,10638,2,0,P|380:40|340:37,1,80,8|8,0:0|0:0,0:0:0:0:
168,120,10962,6,0,B|228:116|228:116|264:128|264:128|325:124,1,160,6|2,0:0|0:0,0:0:0:0:
432,180,11448,1,8,0:0:0:0:
432,180,11529,1,8,0:0:0:0:
432,180,11611,2,0,P|444:140|444:96,1,80,2|8,0:0|0:0,0:0:0:0:
304,224,11935,1,2,0:0:0:0:
408,296,12097,6,0,L|496:288,1,80,12|2,0:0|0:0,0:0:0:0:
320,320,12421,2,0,L|408:312,1,80,12|2,0:0|0:0,0:0:0:0:
232,288,12746,2,0,P|176:344|104:320,1,160,12|8,0:0|0:0,0:0:0:0:
152,192,13232,2,0,P|156:231|160:272,1,80,6|8,0:0|0:0,0:0:0:0:
28,240,13556,6,0,P|23:200|20:160,1,80,6|8,0:0|0:0,0:0:0:0:
104,72,13881,1,2,0:0:0:0:
168,164,14043,1,8,0:0:0:0:
168,164,14124,1,8,0:0:0:0:
168,164,14205,2,0,P|210:161|264:152,1,80,2|8,0:0|0:0,0:0:0:0:
316,64,14529,1,2,0:0:0:0:
416,124,14692,6,0,P|432:88|428:36,1,80,12|2,0:0|0:0,0:0:0:0:
332,160,15016,2,0,P|386:214|463:203,1,160,12|12,0:0|0:0,0:0:0:0:
244,135,15502,2,0,P|243:175|260:212,1,80,6|8,0:0|0:0,0:0:0:0:
344,320,15827,1,6,0:0:0:0:
344,320,15908,1,0,0:0:0:0:
344,320,15989,1,8,0:0:0:0:
344,320,16070,1,0,0:0:0:0:
344,320,16151,6,0,B|320:320|299:317|299:317|252:324|252:324|235:318|220:312|220:312|184:312,1,160,6|2,0:0|0:0,0:0:0:0:
40,316,16638,1,8,0:0:0:0:
40,316,16719,1,8,0:0:0:0:
40,316,16800,2,0,P|72:344|124:348,1,80,2|8,0:0|0:0,0:0:0:0:
196,224,17124,1,2,0:0:0:0:
96,188,17286,6,0,L|108:280,1,80,12|2,0:0|0:0,0:0:0:0:
72,96,17611,2,0,L|84:188,1,80,12|2,0:0|0:0,0:0:0:0:
236,240,17935,1,12,0:0:0:0:
236,240,18016,1,8,0:0:0:0:
236,240,18097,2,0,L|246:160,1,80,2|8,0:0|0:0,0:0:0:0:
168,48,18421,1,6,0:0:0:0:
128,184,18583,1,8,0:0:0:0:
328,144,18746,5,6,0:0:0:0:
168,48,19394,1,6,0:0:0:0:
128,184,19881,6,0,P|167:188|206:178,1,80,14|0,0:0|0:0,0:0:0:0:
353,168,20205,2,0,P|276:155|220:208,1,160,14|14,0:0|0:0,0:0:0:0:
404,235,20692,2,0,P|427:204|433:165,1,80,14|0,0:0|0:0,0:0:0:0:
304,240,21016,6,0,L|312:352,1,95.9999970703126,4|0,0:0|0:0,0:0:0:0:
159,326,21340,6,0,P|99:318|39:315,1,120.000004577637,6|2,0:0|0:0,0:0:0:0:
39,315,21989,1,8,0:0:0:0:
88,236,22151,2,0,P|86:203|84:164,1,60.0000022888184,0|2,0:0|0:0,0:0:0:0:
68,84,22475,1,8,0:0:0:0:
68,84,22556,1,8,0:0:0:0:
68,84,22638,6,0,P|102:89|148:92,1,60.0000022888184,2|8,0:0|0:0,0:0:0:0:
216,68,22962,2,0,P|250:62|296:60,1,60.0000022888184,2|0,0:0|0:0,0:0:0:0:
353,168,23286,2,0,P|292:160|225:160,1,120.000004577637,8|2,0:0|0:0,0:0:0:0:
172,276,23773,1,0,0:0:0:0:
172,276,23935,6,0,P|165:242|160:200,1,60.0000022888184,2|0,0:0|0:0,0:0:0:0:
336,276,24259,2,0,P|331:305|325:335,1,60.0000022888184,2|0,0:0|0:0,0:0:0:0:
256,208,24583,2,0,P|252:145|252:64,1,120.000004577637,8|2,0:0|0:0,0:0:0:0:
334,120,25070,1,8,0:0:0:0:
334,119,25232,6,0,P|364:114|392:103,1,60.0000022888184,12|2,0:0|0:0,0:0:0:0:
169,187,25556,2,0,P|139:182|112:172,1,60.0000022888184,12|2,0:0|0:0,0:0:0:0:
336,276,25881,1,8,0:0:0:0:
336,276,25962,1,8,0:0:0:0:
336,276,26043,2,0,L|332:220,2,40,8|8|8,0:0|0:0|0:0,0:0:0:0:
192,356,26367,6,0,P|148:304|36:328,1,160,6|2,0:0|0:0,0:0:0:0:
212,340,26854,2,0,P|216:299|222:260,1,80,8|0,0:0|0:0,0:0:0:0:
392,304,27178,2,0,P|351:311|308:316,1,80,2|2,0:0|0:0,0:0:0:0:
272,172,27502,1,8,0:0:0:0:
452,248,27665,6,0,P|469:329|416:384,1,160,6|2,0:0|0:0,0:0:0:0:
364,204,28151,2,0,P|372:165|384:116,1,80,8|0,0:0|0:0,0:0:0:0:
192,152,28475,2,0,P|192:192|212:232,1,80,2|2,0:0|0:0,0:0:0:0:
304,276,28800,1,8,0:0:0:0:
284,120,28962,6,0,B|252:120|232:116|232:116|192:120|192:120|192:120|152:108|120:112,1,160,6|2,0:0|0:0,0:0:0:0:
96,232,29448,2,0,P|132:236|192:216,1,80,8|0,0:0|0:0,0:0:0:0:
284,120,29773,2,0,P|286:79|292:36,2,80,2|2|8,0:0|0:0|0:0,0:0:0:0:
304,276,30259,1,6,0:0:0:0:
304,276,31232,1,2,0:0:0:0:
416,344,31394,6,0,L|430:249,1,95.9999970703126,4|0,0:0|0:0,0:0:0:0:
456,120,31719,6,0,P|376:125|288:128,1,160,6|8,0:0|0:0,0:0:0:0:
208,227,32205,1,0,0:0:0:0:
208,227,32367,2,0,P|249:230|300:235,1,80,2|2,0:0|0:0,0:0:0:0:
340,344,32692,1,8,0:0:0:0:
160,296,32854,6,0,P|120:228|160:156,1,160,2|2,0:0|0:0,0:0:0:0:
320,104,33340,1,8,0:0:0:0:
320,104,33502,2,0,P|304:188|292:276,1,160,2|2,0:0|0:0,0:0:0:0:
144,280,33989,2,0,P|101:274|52:272,1,80,8|0,0:0|0:0,0:0:0:0:
20,140,34313,6,0,P|95:142|200:132,1,160,2|8,0:0|0:0,0:0:0:0:
192,128,34962,1,2,0:0:0:0:
359,72,35124,2,0,P|363:111|348:148,1,80,2|8,0:0|0:0,0:0:0:0:
200,232,35448,6,0,P|156:232|112:208,1,80,2|0,0:0|0:0,0:0:0:0:
336,164,35773,2,0,P|372:148|412:149,1,80,2|8,0:0|0:0,0:0:0:0:
444,320,36097,1,2,0:0:0:0:
304,304,36259,1,8,0:0:0:0:
304,304,36340,1,8,0:0:0:0:
304,304,36421,2,0,L|296:256,2,40,8|8|8,0:0|0:0|0:0,0:0:0:0:
456,224,36746,6,0,P|496:172|468:84,1,160,6|2,0:0|0:0,0:0:0:0:
332,141,37232,2,0,L|372:145|412:149,1,80,8|0,0:0|0:0,0:0:0:0:
297,264,37556,2,0,L|257:260|217:256,1,80,2|2,0:0|0:0,0:0:0:0:
92,304,37881,1,8,0:0:0:0:
88,148,38043,6,0,P|160:164|232:96,1,160,6|2,0:0|0:0,0:0:0:0:
396,80,38529,2,0,P|359:60|296:64,1,80,8|0,0:0|0:0,0:0:0:0:
224,148,38854,2,0,L|232:248,1,80,2|2,0:0|0:0,0:0:0:0:
240,360,39178,1,8,0:0:0:0:
380,224,39340,6,0,P|319:201|244:260,1,160,6|2,0:0|0:0,0:0:0:0:
440,280,39827,2,0,P|460:244|456:192,1,80,8|0,0:0|0:0,0:0:0:0:
304,116,40151,1,2,0:0:0:0:
324,284,40313,1,2,0:0:0:0:
408,120,40475,1,8,0:0:0:0:
230,227,40638,6,0,P|210:191|214:139,1,80,6|0,0:0|0:0,0:0:0:0:
360,56,40962,1,2,0:0:0:0:
460,205,41124,2,0,P|422:209|380:213,1,80,8|8,0:0|0:0,0:0:0:0:
328,272,41367,1,8,0:0:0:0:
324,284,41448,6,0,P|282:277|240:268,1,80,12|8,0:0|0:3,0:0:0:0:
100,236,41773,1,4,0:3:0:0:
144,360,41935,1,4,0:3:0:0:
245,269,42097,6,0,P|256:228|261:189,1,80,6|0,0:0|0:0,0:0:0:0:
84,157,42421,2,0,P|89:196|99:235,1,80,8|2,0:0|0:0,0:0:0:0:
197,333,42746,2,0,P|273:342|323:283,1,160,8|8,0:0|0:0,0:0:0:0:
304,160,43232,6,0,L|292:76,2,80,2|8|0,0:0|0:0|0:0,0:0:0:0:
420,220,43719,2,0,P|436:184|448:132,1,80,8|2,0:0|0:0,0:0:0:0:
245,269,44043,2,0,P|215:241|191:209,1,80,8|2,0:0|0:0,0:0:0:0:
344,280,44367,2,0,L|332:359,1,80,8|2,0:0|0:0,0:0:0:0:
420,220,44692,5,8,0:0:0:0:
304,160,44854,1,0,0:0:0:0:
434,65,45016,2,0,P|440:103|445:144,1,80,8|2,0:0|0:0,0:0:0:0:
343,280,45340,2,0,P|304:275|264:272,1,80,8|2,0:0|0:0,0:0:0:0:
128,176,45665,2,0,P|167:171|207:168,1,80,8|2,0:0|0:0,0:0:0:0:
88,352,45989,6,0,P|72:314|60:272,1,80,12|0,0:0|0:0,0:0:0:0:
256,304,46313,2,0,P|265:265|272:220,1,80,12|2,0:0|0:0,0:0:0:0:
136,92,46638,2,0,P|144:168|156:260,1,160,12|12,0:0|0:0,0:0:0:0:
271,225,47124,1,2,0:0:0:0:
271,225,47205,1,0,0:0:0:0:
271,225,47286,6,0,P|312:224|355:221,1,80,12|0,0:0|0:0,0:0:0:0:
428,344,47611,2,0,P|386:344|344:348,1,80,8|2,0:0|0:0,0:0:0:0:
224,284,47935,2,0,P|196:208|248:152,1,160,8|8,0:0|0:0,0:0:0:0:
380,120,48421,6,0,L|480:108,2,80,2|8|0,0:0|0:0|0:0,0:0:0:0:
242,153,48908,2,0,P|201:147|142:141,1,80,8|2,0:0|0:0,0:0:0:0:
296,292,49232,2,0,P|338:286|396:280,1,80,8|2,0:0|0:0,0:0:0:0:
156,360,49556,2,0,P|150:320|145:280,1,80,12|4,0:0|0:3,0:0:0:0:
32,181,49881,6,0,P|107:196|162:142,1,160,6|8,0:0|0:0,0:0:0:0:
96,40,50367,1,2,0:0:0:0:
96,40,50448,1,2,0:0:0:0:
96,40,50529,2,0,P|87:79|84:132,1,80,2|2,0:0|0:0,0:0:0:0:
229,231,50854,2,0,P|237:192|241:139,1,80,8|2,0:0|0:0,0:0:0:0:
368,56,51178,6,0,P|411:53|456:48,1,80,2|2,0:0|0:0,0:0:0:0:
512,160,51502,1,8,0:0:0:0:
392,224,51665,1,2,0:0:0:0:
392,224,51746,1,2,0:0:0:0:
392,224,51827,2,0,P|352:219|312:217,1,80,2|2,0:0|0:0,0:0:0:0:
163,133,52151,1,12,0:0:0:0:
289,87,52313,1,2,0:0:0:0:
229,231,52475,6,0,P|193:247|137:251,1,80,12|2,0:0|0:0,0:0:0:0:
45,145,52800,1,2,0:0:0:0:
212,27,52962,6,0,P|243:50|275:96,1,80,12|2,0:0|0:0,0:0:0:0:
229,231,53286,1,2,0:0:0:0:
45,145,53448,6,0,P|49:105|73:55,1,80,12|8,0:0|0:0,0:0:0:0:
212,27,53773,1,6,0:0:0:0:
152,252,54097,6,2,B|148:284|148:284|152:296|152:296|148:330,2,80
136,232,55070,6,0,P|215:225|295:223,1,160,6|2,0:0|0:0,0:0:0:0:
416,268,55556,1,8,0:0:0:0:
416,268,55638,1,8,0:0:0:0:
416,268,55719,2,0,P|412:311|408:348,1,80,2|8,0:0|0:0,0:0:0:0:
295,223,56043,2,0,P|298:179|303:143,1,80,2|8,0:0|0:0,0:0:0:0:
392,60,56367,6,0,P|316:104|252:80,1,160,2|2,0:0|0:0,0:0:0:0:
112,40,56854,1,8,0:0:0:0:
112,40,56935,1,8,0:0:0:0:
112,40,57016,2,0,P|152:24|208:24,1,80,2|8,0:0|0:0,0:0:0:0:
36,100,57340,2,0,P|25:63|20:8,1,80,2|8,0:0|0:0,0:0:0:0:
172,124,57665,6,0,P|168:166|164:220,1,80,2|8,0:0|0:0,0:0:0:0:
20,292,57989,2,0,P|16:249|12:196,1,80,2|8,0:0|0:0,0:0:0:0:
156,224,58313,2,0,P|200:227|252:232,1,80,2|8,0:0|0:0,0:0:0:0:
386,273,58638,1,2,0:0:0:0:
408,124,58800,1,8,0:0:0:0:
301,170,58962,6,0,B|312:228|312:228|304:268|304:268|312:328,1,160,2|2,0:0|0:0,0:0:0:0:
463,266,59448,1,8,0:0:0:0:
463,266,59529,1,8,0:0:0:0:
463,266,59611,2,0,P|423:262|375:278,1,80,2|8,0:0|0:0,0:0:0:0:
228,312,59935,1,6,0:0:0:0:
198,309,60016,1,0,0:0:0:0:
168,306,60097,1,8,0:0:0:0:
138,303,60178,1,0,0:0:0:0:
107,299,60259,6,0,P|52:248|68:172,1,160,6|8,0:0|0:0,0:0:0:0:
208,164,60746,2,0,B|152:152|152:152|112:164|112:164|52:152,1,160,6|2,0:0|0:0,0:0:0:0:
236,152,61232,6,2,L|144:130,1,88.000002685547,8|2,0:0|0:0,0:0:0:0:
260,232,61556,6,0,P|315:180|299:104,1,160,6|8,0:0|0:0,0:0:0:0:
232,244,62043,2,0,B|266:247|300:256|300:256|344:248|344:248|408:252,1,160,6|2,0:0|0:0,0:0:0:0:
204,256,62529,6,2,L|218:345,1,88.000002685547,8|2,0:0|0:0,0:0:0:0:
408,259,62854,6,0,P|418:221|423:181,1,80,6|8,0:0|0:0,0:0:0:0:
368,72,63178,1,2,0:0:0:0:
276,148,63340,1,8,0:0:0:0:
276,148,63421,1,8,0:0:0:0:
276,148,63502,2,0,L|172:136,1,80,2|8,0:0|0:0,0:0:0:0:
68,204,63827,2,0,P|75:243|84:288,1,80,2|8,0:0|0:0,0:0:0:0:
196,138,64151,5,6,0:0:0:0:
196,138,64313,2,0,P|188:98|180:54,1,80,8|6,0:0|0:0,0:0:0:0:
352,144,64638,1,8,0:0:0:0:
352,144,64719,1,8,0:0:0:0:
352,144,64800,2,0,L|344:192,3,40,6|8|8|8,0:0|0:3|0:3|0:3,0:0:0:0:
424,220,65124,2,0,L|416:268,3,40,4|4|4|4,0:3|0:3|0:3|0:3,0:0:0:0:
344,300,65448,6,0,P|292:352|208:324,1,160,6|2,0:0|0:0,0:0:0:0:
92,300,65935,1,8,0:0:0:0:
92,300,66016,1,8,0:0:0:0:
92,300,66097,2,0,P|93:342|104:384,1,80,2|8,0:0|0:0,0:0:0:0:
264,240,66421,2,0,P|222:235|168:228,1,80,2|8,0:0|0:0,0:0:0:0:
256,108,66746,6,0,P|340:114|452:128,1,160,2|2,0:0|0:0,0:0:0:0:
344,300,67232,1,8,0:0:0:0:
344,300,67313,1,8,0:0:0:0:
344,300,67394,2,0,P|360:260|364:224,1,80,2|8,0:0|0:0,0:0:0:0:
164,252,67719,2,0,P|177:289|200:324,1,80,2|8,0:0|0:0,0:0:0:0:
264,240,68043,6,0,P|260:157|252:56,1,160,2|2,0:0|0:0,0:0:0:0:
172,172,68529,1,8,0:0:0:0:
172,172,68611,1,8,0:0:0:0:
172,172,68692,1,2,0:0:0:0:
344,132,68854,1,8,0:0:0:0:
244,52,69016,2,0,P|248:91|252:144,1,80,2|8,0:0|0:0,0:0:0:0:
372,216,69340,6,0,P|414:208|464:200,1,80,2|8,0:0|0:0,0:0:0:0:
356,100,69665,1,2,0:0:0:0:
260,252,69827,1,8,0:0:0:0:
260,252,69908,1,8,0:0:0:0:
260,252,69989,2,0,P|263:292|268:332,1,80,2|8,0:0|0:0,0:0:0:0:
100,276,70313,1,6,0:0:0:0:
97,246,70394,1,0,0:0:0:0:
94,216,70475,1,8,0:0:0:0:
91,186,70556,1,0,0:0:0:0:
89,156,70638,6,0,B|118:157|144:152|144:152|169:158|192:160|192:160|221:151|221:151|252:148,1,160,6|8,0:0|0:0,0:0:0:0:
22,118,71124,2,0,P|23:195|90:232,1,160,6|2,0:0|0:0,0:0:0:0:
232,136,71611,6,2,P|189:140|136:145,1,88.000002685547,8|2,0:0|0:0,0:0:0:0:
260,252,71935,6,0,P|348:260|400:204,1,160,6|8,0:0|0:0,0:0:0:0:
232,136,72421,2,0,B|220:184|248:216|248:216|252:256|220:296,1,160,6|2,0:0|0:0,0:0:0:0:
312,160,72908,6,2,P|321:118|329:63,1,88.000002685547,8|2,0:0|0:0,0:0:0:0:
104,144,73232,6,0,P|192:152|244:96,1,160,6|2,0:0|0:0,0:0:0:0:
360,72,73719,1,8,0:0:0:0:
360,72,73800,1,8,0:0:0:0:
360,72,73881,2,0,P|354:111|345:150,1,80,2|8,0:0|0:0,0:0:0:0:
300,268,74205,1,2,0:0:0:0:
444,224,74367,1,8,0:0:0:0:
396,368,74529,5,2,0:0:0:0:
396,368,74692,2,0,P|388:328|384:284,1,80,12|12,0:0|0:0,0:0:0:0:
240,336,75016,1,8,0:0:0:0:
240,336,75097,1,8,0:0:0:0:
240,336,75178,2,0,L|184:344,3,40,8|0|8|0,0:3|0:0|0:3|0:0,0:0:0:0:
144,296,75502,2,0,L|88:304,3,40,4|0|4|0,0:3|0:0|0:3|0:0,0:0:0:0:
40,268,75827,6,0,P|98:274|141:235,1,120.000004577637,6|0,0:0|0:0,0:0:0:0:
108,148,76313,1,2,0:0:0:0:
108,148,76475,2,0,B|172:128|164:164|225:145,1,120.000004577637,8|2,0:0|0:0,0:0:0:0:
304,104,76962,6,0,P|307:166|312:228,1,120.000004577637,8|8,0:0|0:0,0:0:0:0:
384,288,77448,2,0,P|416:280|456:280,1,60.0000022888184,2|0,0:0|0:0,0:0:0:0:
308,348,77773,2,0,P|252:332|176:332,1,120.000004577637,8|4,0:0|0:3,0:0:0:0:
172,340,78421,6,0,P|172:314|176:276,1,60.0000022888184,6|2,0:0|0:0,0:0:0:0:
80,256,78746,2,0,P|91:232|110:199,1,60.0000022888184,8|2,0:0|0:0,0:0:0:0:
200,152,79070,2,0,P|268:152|332:144,1,120.000004577637,8|4,0:0|0:3,0:0:0:0:
404,96,79556,6,0,P|403:70|400:32,1,60.0000022888184,8|2,0:0|0:0,0:0:0:0:
319,146,79881,2,0,P|323:198|339:278,1,120.000004577637,8|0,0:0|0:0,0:0:0:0:
428,292,80367,2,0,P|364:360|280:344,1,180.000006866455,6|2,0:0|0:0,0:0:0:0:
184,272,81016,6,0,P|224:248|244:216,1,80,6|8,0:0|0:3,0:0:0:0:
108,144,81340,1,4,0:3:0:0:
96,304,81502,2,0,B|152:296|152:296|204:308|256:296,1,160,6|2,0:0|0:0,0:0:0:0:
328,135,81989,6,2,P|349:174|353:218,1,88.000002685547,8|2,0:0|0:0,0:0:0:0:
264,80,82313,6,0,P|296:56|348:56,1,80,6|8,0:0|0:3,0:0:0:0:
432,128,82638,1,4,0:3:0:0:
353,218,82800,2,0,B|321:218|297:226|297:226|265:218|265:218|237:222|237:222|216:220|194:219,1,160,6|2,0:0|0:0,0:0:0:0:
368,244,83286,6,2,L|268:248,1,88.000002685547,8|2,0:0|0:0,0:0:0:0:
96,304,83611,6,0,P|180:296|224:352,1,160,6|2,0:0|0:0,0:0:0:0:
396,336,84097,1,8,0:0:0:0:
396,336,84178,1,8,0:0:0:0:
396,336,84259,2,0,P|357:335|300:316,1,80,2|8,0:0|0:0,0:0:0:0:
340,152,84583,2,0,P|378:152|436:172,1,80,2|8,0:0|0:0,0:0:0:0:
232,208,84908,5,6,0:0:0:0:
232,208,85070,2,0,L|224:116,1,80,8|6,0:0|0:0,0:0:0:0:
88,188,85394,1,8,0:0:0:0:
88,188,85475,1,8,0:0:0:0:
88,188,85556,2,0,L|92:264,3,40,6|8|8|8,0:0|0:3|0:3|0:3,0:0:0:0:
136,288,85881,2,0,L|140:364,3,40,4|4|4|4,0:3|0:3|0:3|0:3,0:0:0:0:
216,348,86205,6,0,P|256:348|320:340,1,80,6|8,0:0|0:0,0:0:0:0:
468,296,86529,1,2,0:0:0:0:
344,188,86692,1,8,0:0:0:0:
344,188,86773,1,8,0:0:0:0:
344,188,86854,1,2,0:0:0:0:
392,356,87016,2,0,L|384:268,1,80,2|8,0:0|0:0,0:0:0:0:
364,100,87340,5,6,0:0:0:0:
364,100,87665,1,2,0:0:0:0:
344,188,87827,1,2,0:0:0:0:
324,276,87989,1,2,0:0:0:0:
392,356,88151,6,0,L|480:348,1,88.000002685547,2|2,0:0|0:0,0:0:0:0:
324,276,88475,6,0,L|205:287,1,95.9999970703126,4|0,0:0|0:0,0:0:0:0:
116,311,88800,6,0,P|193:307|243:365,1,160,6|2,0:0|0:0,0:0:0:0:
40,368,89286,1,8,0:0:0:0:
40,368,89367,1,8,0:0:0:0:
40,368,89448,2,0,P|24:332|28:280,1,80,2|8,0:0|0:0,0:0:0:0:
96,176,89773,1,2,0:0:0:0:
96,176,89935,6,0,P|136:175|176:172,1,80,8|2,0:0|0:0,0:0:0:0:
284,280,90259,2,0,P|243:280|204:284,1,80,8|2,0:0|0:0,0:0:0:0:
368,344,90583,1,8,0:0:0:0:
368,344,90665,1,8,0:0:0:0:
368,344,90746,2,0,P|384:304|384:256,1,80,2|8,0:0|0:0,0:0:0:0:
272,124,91070,2,0,P|274:163|289:200,1,80,2|8,0:0|0:0,0:0:0:0:
416,100,91394,6,0,B|348:96|348:96|304:108|240:100,1,160,6|2,0:0|0:0,0:0:0:0:
88,52,91881,1,8,0:0:0:0:
88,52,91962,1,8,0:0:0:0:
88,52,92043,2,0,P|131:45|184:44,1,80,2|8,0:0|0:0,0:0:0:0:
272,124,92367,1,2,0:0:0:0:
96,192,92529,6,0,P|76:124|136:64,1,160,8|8,0:0|0:0,0:0:0:0:
196,184,93016,2,0,L|192:226|188:268,1,80,6|8,0:0|0:0,0:0:0:0:
176,288,93259,1,8,0:0:0:0:
176,288,93340,2,0,L|180:336,3,40,6|0|8|0,0:0|0:0|0:0|0:0,0:0:0:0:
256,348,93665,1,6,0:0:0:0:
281,332,93746,1,0,0:0:0:0:
310,323,93827,1,8,0:0:0:0:
339,323,93908,1,0,0:0:0:0:
368,331,93989,6,0,P|436:328|472:248,1,160,6|2,0:0|0:0,0:0:0:0:
340,140,94475,1,8,0:0:0:0:
340,140,94556,1,8,0:0:0:0:
340,140,94638,1,2,0:0:0:0:
456,96,94800,1,8,0:0:0:0:
396,260,94962,1,2,0:0:0:0:
256,168,95124,6,0,P|252:120|280:60,1,80,8|2,0:0|0:0,0:0:0:0:
396,260,95448,2,0,P|431:241|469:230,1,80,8|2,0:0|0:0,0:0:0:0:
252,304,95773,1,8,0:0:0:0:
252,304,95854,1,8,0:0:0:0:
252,304,95935,2,0,P|211:292|178:274,1,80,2|8,0:0|0:0,0:0:0:0:
80,192,96259,1,6,0:0:0:0:
80,192,96583,5,6,0:0:0:0:
160,88,96746,1,8,0:0:0:0:
256,168,96908,1,6,0:0:0:0:
178,274,97070,1,8,0:0:0:0:
178,274,97151,1,8,0:0:0:0:
178,274,97232,2,0,P|168:228|168:176,1,80,10|8,0:0|0:3,0:0:0:0:
284,80,97556,1,4,0:3:0:0:
312,240,97719,5,14,0:0:0:0:
