osu file format v14

[General]
AudioFilename: Girl meets Love.mp3
AudioLeadIn: 1000
PreviewTime: 55070
Countdown: 0
SampleSet: Soft
StackLeniency: 0.5
Mode: 0
LetterboxInBreaks: 0
WidescreenStoryboard: 0

[Editor]
DistanceSpacing: 1.6
BeatDivisor: 4
GridSize: 32
TimelineZoom: 3.399999

[Metadata]
Title:Girl meets Love
TitleUnicode:Girl meets Love
Artist:Katakiri Rekka & Suzuyu
ArtistUnicode:片霧烈火 & 鈴湯
Creator:fuyuyu-
Version:Hanasaki Extra
Source:花咲ワークスプリング!
Tags:sagaplanets eroge visual novel opening hana saki work spring laurier no dap no_dap -chata- moecho einess shioi moeka
BeatmapID:792057
BeatmapSetID:251405

[Difficulty]
HPDrainRate:6.8
CircleSize:4.2
OverallDifficulty:8.3
ApproachRate:9.2
SliderMultiplier:1.7
SliderTickRate:1

[Events]
//Background and Video events
0,0,"Hanasaki Work Spring.jpg",0,0
//Break Periods
//Storyboard Layer 0 (Background)
//Storyboard Layer 1 (Fail)
//Storyboard Layer 2 (Pass)
//Storyboard Layer 3 (Foreground)
//Storyboard Sound Samples

[TimingPoints]
584,324.324324324324,4,2,1,40,1,0
584,-133.333333333333,4,2,1,40,0,0
908,-133.333333333333,4,2,3,40,0,0
2773,-133.333333333333,4,2,3,5,0,0
2854,-133.333333333333,4,2,3,40,0,0
5124,-133.333333333333,4,2,3,50,0,0
5367,-133.333333333333,4,2,3,5,0,0
5448,-133.333333333333,4,2,3,50,0,0
5692,-133.333333333333,4,2,3,5,0,0
5773,-133.333333333333,4,2,5,60,0,0
8367,-100,4,2,5,60,0,0
9989,-100,4,2,5,50,0,0
10313,-100,4,2,5,60,0,0
10394,-100,4,2,5,30,0,0
10475,-100,4,2,5,60,0,0
10556,-100,4,2,5,30,0,0
10638,-100,4,2,5,70,0,0
10719,-100,4,2,5,35,0,0
10800,-100,4,2,5,70,0,0
10881,-100,4,2,5,35,0,0
10962,-90.9090909090909,4,2,5,60,0,1
11043,-90.9090909090909,4,2,5,60,0,0
12097,-83.3333333333333,4,2,5,70,0,0
12665,-83.3333333333333,4,2,5,5,0,0
12746,-83.3333333333333,4,2,5,70,0,0
12908,-90.9090909090909,4,2,5,60,0,0
14692,-83.3333333333333,4,2,5,70,0,0
14935,-83.3333333333333,4,2,5,5,0,0
15016,-83.3333333333333,4,2,5,70,0,0
15259,-83.3333333333333,4,2,5,5,0,0
15340,-83.3333333333333,4,2,5,70,0,0
15502,-90.9090909090909,4,2,5,60,0,0
17286,-83.3333333333333,4,2,5,70,0,0
17854,-83.3333333333333,4,2,5,5,0,0
17935,-83.3333333333333,4,2,5,70,0,0
18097,-90.9090909090909,4,2,5,60,0,0
19881,-90.9090909090909,4,2,5,70,0,0
20124,-90.9090909090909,4,2,5,5,0,0
20205,-83.3333333333333,4,2,5,70,0,0
20448,-83.3333333333333,4,2,5,5,0,0
20529,-76.9230769230769,4,2,5,70,0,0
20611,-76.9230769230769,4,2,5,5,0,0
20692,-133.333333333333,4,2,5,60,0,0
20935,-133.333333333333,4,2,5,5,0,0
21016,-66.6666666666667,4,2,2,75,0,0
21259,-66.6666666666667,4,2,2,5,0,0
21340,-133.333333333333,4,2,5,50,0,0
25881,-100,4,2,5,60,0,0
30583,-133.333333333333,4,2,5,40,0,0
30827,-133.333333333333,4,2,5,5,0,0
30908,-133.333333333333,4,2,5,40,0,0
31070,-133.333333333333,4,2,5,40,0,0
31232,-133.333333333333,4,2,5,60,0,0
31394,-66.6666666666667,4,2,2,75,0,0
31638,-66.6666666666667,4,2,2,5,0,0
31719,-100,4,2,5,60,0,0
41611,-90.9090909090909,4,2,5,60,0,0
41692,-90.9090909090909,4,2,5,5,0,0
41773,-100,4,2,5,60,0,0
41854,-100,4,2,5,5,0,0
41935,-111.111111111111,4,2,5,60,0,0
42016,-111.111111111111,4,2,5,5,0,0
42097,-100,4,2,5,60,0,0
42340,-100,4,2,5,5,0,0
42421,-100,4,2,5,60,0,0
45989,-111.111111111111,4,2,5,50,0,0
46232,-111.111111111111,4,2,5,5,0,0
46313,-90.9090909090909,4,2,5,60,0,0
46556,-90.9090909090909,4,2,5,5,0,0
46638,-76.9230769230769,4,2,5,70,0,0
46881,-76.9230769230769,4,2,5,5,0,0
46962,-66.6666666666667,4,2,5,75,0,0
47286,-100,4,2,5,60,0,0
47529,-100,4,2,5,5,0,0
47611,-100,4,2,5,60,0,0
52475,-100,4,2,5,70,0,0
53448,-66.6666666666667,4,2,5,70,0,0
53773,-133.333333333333,4,2,5,60,0,0
54016,-133.333333333333,4,2,5,5,0,0
54097,-133.333333333333,4,2,1,50,0,0
54340,-133.333333333333,4,2,1,5,0,0
54421,-133.333333333333,4,2,1,60,0,0
54665,-133.333333333333,4,2,1,5,0,0
54746,-133.333333333333,4,2,1,70,0,0
54989,-133.333333333333,4,2,1,5,0,0
55070,-90.9090909090909,4,2,5,70,0,1
61232,-80,4,2,1,70,0,1
61394,-80,4,2,5,70,0,1
61556,-90.9090909090909,4,2,5,70,0,1
62529,-80,4,2,1,70,0,1
62692,-80,4,2,5,70,0,1
62854,-90.9090909090909,4,2,5,70,0,1
64881,-90.9090909090909,4,2,5,50,0,1
65367,-90.9090909090909,4,2,5,50,0,0
65448,-90.9090909090909,4,2,5,70,0,1
71611,-80,4,2,1,70,0,1
71773,-80,4,2,5,70,0,1
71935,-90.9090909090909,4,2,5,70,0,1
72908,-80,4,2,1,70,0,1
73070,-80,4,2,5,70,0,1
73232,-90.9090909090909,4,2,5,70,0,1
75827,-133.333333333333,4,2,5,60,0,0
80854,-90.9090909090909,4,2,5,60,0,0
81016,-90.9090909090909,4,2,5,70,0,1
81502,-133.333333333333,4,2,5,70,0,1
81989,-80,4,2,1,70,0,1
82151,-90.9090909090909,4,2,5,70,0,1
82800,-133.333333333333,4,2,5,70,0,1
83286,-80,4,2,1,70,0,1
83448,-80,4,2,5,70,0,1
83611,-90.9090909090909,4,2,5,70,0,1
85638,-90.9090909090909,4,2,5,50,0,1
86205,-100,4,2,5,60,0,0
87665,-100,4,2,1,45,0,0
87827,-100,4,2,1,50,0,0
87989,-100,4,2,1,55,0,0
88151,-80,4,2,1,60,0,0
88313,-80,4,2,5,65,0,0
88475,-66.6666666666667,4,2,2,70,0,0
88719,-66.6666666666667,4,2,2,5,0,0
88800,-90.9090909090909,4,2,5,60,0,1
88881,-90.9090909090909,4,2,5,60,0,0
97719,-100,4,2,5,60,0,1
97800,-100,4,2,5,60,0,0

[Colours]
Combo1 : 145,229,103
Combo2 : 255,213,128
Combo3 : 242,121,97
Combo4 : 255,140,179
Combo5 : 187,103,229
Combo6 : 140,236,255

[HitObjects]
140,78,584,6,0,P|145:134|151:209,1,127.500004863739,6|8,0:0|0:0,0:0:0:0:
70,267,1070,1,8,0:0:0:0:
156,317,1232,2,0,P|222:293|297:304,1,127.500004863739,2|8,0:0|0:0,0:0:0:0:
403,320,1719,6,0,P|371:296|354:274,1,63.7500024318696,0|2,0:0|0:0,0:0:0:0:
304,157,2043,2,0,P|304:191|288:230,1,63.7500024318696,0|8,0:0|0:0,0:0:0:0:
228,173,2367,1,8,0:0:0:0:
325,50,2529,2,0,P|377:58|441:66,1,95.6250036478044,2|0,0:0|0:0,0:0:0:0:
440,60,2854,2,0,P|446:90|451:130,1,63.7500024318696,8|0,0:0|0:0,0:0:0:0:
304,157,3178,6,0,P|246:147|161:137,1,127.500004863739,2|8,0:0|0:0,0:0:0:0:
78,120,3665,1,8,0:0:0:0:
165,163,3827,2,0,P|178:229|143:295,1,127.500004863739,2|8,0:0|0:0,0:0:0:0:
69,311,4313,6,0,P|102:304|154:300,1,63.7500024318696,0|6,0:0|0:0,0:0:0:0:
278,342,4638,1,0,0:0:0:0:
255,265,4800,2,0,P|255:232|267:196,1,63.7500024318696,12|8,0:0|0:0,0:0:0:0:
435,139,5124,2,0,P|458:188|449:249,1,95.6250036478044,2|0,0:0|0:0,0:0:0:0:
424,245,5448,2,0,P|388:249|307:238,1,95.6250036478044
263,202,5773,5,6,0:0:0:0:
154,282,6421,1,6,0:0:0:0:
278,342,7070,1,6,0:0:0:0:
256,116,7719,1,6,0:0:0:0:
253,88,8367,5,6,0:0:0:0:
119,165,8529,1,0,0:0:0:0:
290,239,8692,1,8,0:0:0:0:
102,325,8854,1,8,0:0:0:0:
105,293,8935,1,8,0:0:0:0:
108,261,9016,1,8,0:0:0:0:
256,116,9178,1,8,0:3:0:0:
72,85,9340,1,4,0:3:0:0:
200,286,9502,6,0,B|263:273|263:273|305:284|305:284|366:273,1,170,6|2,0:0|0:0,0:0:0:0:
479,219,9989,1,8,0:0:0:0:
384,353,10151,1,8,0:0:0:0:
291,196,10313,6,0,L|289:239,1,42.5,8|0,0:0|0:0,0:0:0:0:
365,103,10475,2,0,L|368:61,1,42.5,8|0,0:0|0:0,0:0:0:0:
256,116,10638,2,0,L|210:123,1,42.5,8|0,0:0|0:0,0:0:0:0:
408,184,10800,2,0,L|450:177,1,42.5,8|0,0:0|0:0,0:0:0:0:
292,300,10962,6,0,L|199:285,1,93.5000028533936,6|8,0:0|0:0,0:0:0:0:
50,172,11286,2,0,L|143:157,1,93.5000028533936,2|8,0:0|0:0,0:0:0:0:
164,135,11529,1,8,0:0:0:0:
164,135,11611,1,2,0:0:0:0:
291,196,11773,1,8,0:0:0:0:
356,18,11935,1,2,0:0:0:0:
461,187,12097,5,12,0:0:0:0:
461,187,12421,2,0,P|390:194|343:130,1,152.999995330811,12|0,0:0|0:0,0:0:0:0:
411,73,12746,2,0,L|417:124,1,50.9999984436036,12|8,0:0|0:0,0:0:0:0:
366,274,12908,5,2,0:0:0:0:
200,196,13070,1,8,0:0:0:0:
343,134,13232,1,6,0:0:0:0:
199,285,13394,1,8,0:0:0:0:
394,364,13556,6,0,P|397:312|403:246,1,93.5000028533936,6|8,0:0|0:0,0:0:0:0:
264,120,13881,1,2,0:0:0:0:
177,274,14043,1,8,0:0:0:0:
177,274,14124,1,8,0:0:0:0:
177,274,14205,2,0,P|228:269|284:262,1,93.5000028533936,2|8,0:0|0:0,0:0:0:0:
59,340,14529,1,2,0:0:0:0:
104,143,14692,6,0,P|163:184|151:256,1,152.999995330811,12|0,0:0|0:0,0:0:0:0:
31,131,15016,2,0,B|88:137|131:112|131:112|117:89|118:59,1,152.999995330811,12|0,0:0|0:0,0:0:0:0:
193,68,15340,2,0,P|218:69|243:73,1,50.9999984436036,12|8,0:0|0:0,0:0:0:0:
383,200,15502,5,6,0:0:0:0:
427,37,15665,1,8,0:0:0:0:
282,183,15827,2,0,L|290:251,1,46.7500014266968,6|0,0:0|0:0,0:0:0:0:
397,332,15989,2,0,L|389:264,1,46.7500014266968,8|0,0:0|0:0,0:0:0:0:
256,345,16151,5,6,0:0:0:0:
186,185,16313,1,8,0:0:0:0:
383,200,16475,1,2,0:0:0:0:
271,47,16638,1,8,0:0:0:0:
271,47,16719,1,8,0:0:0:0:
271,47,16800,2,0,L|276:93|281:139,1,93.5000028533936,2|8,0:0|0:0,0:0:0:0:
297,333,17124,1,2,0:0:0:0:
461,187,17286,5,12,0:0:0:0:
461,187,17611,2,0,B|401:205|363:237|363:237|353:216|330:200,1,152.999995330811,12|0,0:0|0:0,0:0:0:0:
268,164,17935,2,0,P|260:190|261:218,1,50.9999984436036,12|8,0:0|0:0,0:0:0:0:
337,315,18097,5,2,0:0:0:0:
349,119,18259,1,8,0:0:0:0:
143,257,18421,1,6,0:0:0:0:
267,241,18583,1,8,0:0:0:0:
75,129,18746,5,6,0:0:0:0:
311,48,19394,1,6,0:0:0:0:
311,48,19881,6,0,P|245:48|164:40,1,140.25000428009,14|0,0:0|0:0,0:0:0:0:
75,129,20205,2,0,P|158:120|227:120,1,152.999995330811,14|0,0:0|0:0,0:0:0:0:
330,210,20529,2,0,P|301:205|263:203,1,55.2499974708558,14|0,0:0|0:0,0:0:0:0:
80,230,20692,6,0,P|69:182|64:132,1,95.6250036478044,14|0,0:0|0:0,0:0:0:0:
75,129,21016,6,0,P|101:227|32:303,1,191.250007295609,4|0,0:0|0:0,0:0:0:0:
146,335,21340,6,0,P|176:332|215:328,1,63.7500024318696,6|0,0:0|0:0,0:0:0:0:
380,304,21665,2,0,P|376:340|370:391,1,63.7500024318696,2|0,0:0|0:0,0:0:0:0:
287,281,21989,2,0,P|278:216|273:154,1,127.500004863739,8|2,0:0|0:0,0:0:0:0:
421,191,22476,5,8,0:0:0:0:
421,191,22557,1,8,0:0:0:0:
421,191,22638,2,0,P|452:186|498:181,1,63.7500024318696,2|8,0:0|0:0,0:0:0:0:
383,36,22962,2,0,L|369:98,1,63.7500024318696,2|0,0:0|0:0,0:0:0:0:
256,136,23286,1,8,0:0:0:0:
166,55,23448,1,0,0:0:0:0:
85,172,23611,2,0,P|116:175|148:180,1,63.7500024318696,2|0,0:0|0:0,0:0:0:0:
256,288,23935,6,0,L|192:293|128:298,1,127.500004863739,2|2,0:0|0:0,0:0:0:0:
385,333,24583,2,0,P|380:304|377:270,1,63.7500024318696,8|0,0:0|0:0,0:0:0:0:
421,191,24908,1,2,0:0:0:0:
297,101,25070,1,8,0:0:0:0:
289,118,25151,1,8,0:0:0:0:
281,134,25232,6,0,P|283:165|289:197,1,63.7500024318696,12|2,0:0|0:0,0:0:0:0:
205,79,25556,1,12,0:0:0:0:
385,115,25719,1,2,0:0:0:0:
302,273,25881,1,8,0:0:0:0:
260,267,25962,1,8,0:0:0:0:
218,263,26043,1,8,0:0:0:0:
176,259,26124,1,8,0:0:0:0:
133,257,26205,1,8,0:0:0:0:
53,51,26367,6,0,P|135:59|237:65,1,170,6|2,0:0|0:0,0:0:0:0:
372,31,26854,2,0,P|378:77|386:120,1,85,8|0,0:0|0:0,0:0:0:0:
479,218,27178,1,2,0:0:0:0:
312,309,27340,1,2,0:0:0:0:
334,193,27502,1,8,0:0:0:0:
465,349,27665,6,0,P|419:304|321:328,1,170,6|2,0:0|0:0,0:0:0:0:
187,358,28151,2,0,P|192:314|199:267,1,85,8|0,0:0|0:0,0:0:0:0:
86,191,28475,1,2,0:0:0:0:
201,131,28638,1,2,0:0:0:0:
51,92,28800,1,8,0:0:0:0:
238,208,28962,6,0,P|285:135|256:65,1,170,6|2,0:0|0:0,0:0:0:0:
86,191,29448,2,0,P|91:233|98:300,1,85,8|0,0:0|0:0,0:0:0:0:
300,340,29773,1,2,0:0:0:0:
221,235,29935,1,2,0:0:0:0:
433,202,30097,1,8,0:0:0:0:
201,131,30259,5,6,0:0:0:0:
450,38,30583,2,0,P|448:89|443:147,1,95.6250036478044
433,202,30908,1,0,0:0:0:0:
444,302,31070,6,0,P|413:294|381:293,1,63.7500024318696,0|2,0:0|0:0,0:0:0:0:
465,326,31394,6,0,P|351:343|291:293,1,191.250007295609,4|0,0:0|0:0,0:0:0:0:
213,187,31719,6,0,B|222:250|222:250|207:289|207:289|217:354,2,170,6|8|2,0:0|0:0|0:0,0:0:0:0:
85,235,32529,1,2,0:0:0:0:
157,90,32692,1,8,0:0:0:0:
25,63,32854,6,0,P|31:106|40:158,1,85,2|0,0:0|0:0,0:0:0:0:
213,187,33178,2,0,L|255:181|297:175,1,85,2|8,0:0|0:0,0:0:0:0:
465,326,33502,2,0,P|407:281|314:308,1,170,2|2,0:0|0:0,0:0:0:0:
174,359,33989,1,8,0:0:0:0:
213,187,34151,1,0,0:0:0:0:
319,303,34313,6,0,P|321:255|323:215,1,85,2|0,0:0|0:0,0:0:0:0:
134,135,34638,2,0,P|131:182|130:223,1,85,8|0,0:0|0:0,0:0:0:0:
224,87,34962,1,2,0:0:0:0:
68,28,35124,1,2,0:0:0:0:
224,87,35286,1,8,0:0:0:0:
123,245,35448,6,0,P|78:232|36:220,1,85,2|0,0:0|0:0,0:0:0:0:
199,336,35773,1,2,0:0:0:0:
335,176,35935,2,0,P|375:164|416:152,1,85,8|2,0:0|0:0,0:0:0:0:
277,277,36259,1,8,0:0:0:0:
246,247,36340,1,8,0:0:0:0:
228,209,36421,1,8,0:0:0:0:
224,167,36502,1,8,0:0:0:0:
236,126,36583,1,8,0:0:0:0:
450,54,36746,6,0,P|371:46|252:40,1,170,6|2,0:0|0:0,0:0:0:0:
108,65,37232,1,8,0:0:0:0:
264,157,37394,1,0,0:0:0:0:
123,245,37556,2,0,P|118:204|115:145,1,85,2|2,0:0|0:0,0:0:0:0:
15,287,37881,1,8,0:0:0:0:
192,345,38043,6,0,P|288:336|366:320,1,170,6|2,0:0|0:0,0:0:0:0:
441,164,38529,1,8,0:0:0:0:
505,277,38692,1,0,0:0:0:0:
345,204,38854,2,0,P|346:159|358:97,1,85,2|2,0:0|0:0,0:0:0:0:
485,45,39178,1,8,0:0:0:0:
423,245,39340,6,0,B|367:253|367:253|311:237|311:237|255:245,1,170,6|2,0:0|0:0,0:0:0:0:
55,211,39827,1,8,0:0:0:0:
177,329,39989,1,0,0:0:0:0:
119,128,40151,1,2,0:0:0:0:
87,297,40313,1,2,0:0:0:0:
264,157,40475,1,8,0:0:0:0:
79,39,40638,5,6,0:0:0:0:
79,39,40962,1,2,0:0:0:0:
285,66,41124,1,8,0:0:0:0:
157,228,41286,1,8,0:0:0:0:
157,228,41367,1,8,0:0:0:0:
157,228,41448,1,8,0:0:0:0:
352,140,41611,6,0,L|346:207,1,46.7500014266968,8|0,0:3|0:0,0:0:0:0:
397,312,41773,2,0,L|400:269,1,42.5,4|0,0:3|0:0,0:0:0:0:
487,185,41935,2,0,L|482:232,1,38.2499988327027,4|0,0:3|0:0,0:0:0:0:
303,313,42097,6,0,P|240:320|177:329,1,127.5,6|0,0:0|0:0,0:0:0:0:
149,336,42421,1,8,0:0:0:0:
238,202,42583,1,2,0:0:0:0:
61,158,42746,1,8,0:0:0:0:
157,228,42908,1,0,0:0:0:0:
9,252,43070,1,8,0:0:0:0:
61,52,43232,6,0,P|105:60|160:67,1,85,2|8,0:0|0:0,0:0:0:0:
305,58,43556,1,0,0:0:0:0:
238,202,43719,2,0,P|194:194|139:187,1,85,8|2,0:0|0:0,0:0:0:0:
359,236,44043,2,0,P|357:193|355:151,1,85,8|2,0:0|0:0,0:0:0:0:
158,271,44367,2,0,P|160:314|162:356,1,85,8|2,0:0|0:0,0:0:0:0:
238,202,44692,5,8,0:0:0:0:
94,139,44854,1,0,0:0:0:0:
270,70,45016,1,8,0:0:0:0:
148,198,45178,1,2,0:0:0:0:
355,332,45340,1,8,0:0:0:0:
341,146,45502,1,2,0:0:0:0:
241,308,45665,1,8,0:0:0:0:
416,237,45827,1,2,0:0:0:0:
302,81,45989,6,0,P|266:130|276:185,1,114.749996498108,12|0,0:0|0:0,0:0:0:0:
416,237,46313,6,0,P|373:195|283:201,1,140.25000428009,12|0,0:0|0:0,0:0:0:0:
260,355,46638,6,0,P|301:300|280:210,1,165.749992412568,12|0,0:0|0:0,0:0:0:0:
153,272,46962,6,0,P|185:276|217:277,1,63.7500024318696,12|8,0:0|0:0,0:0:0:0:
176,99,47124,2,0,P|144:95|112:94,1,63.7500024318696,8|8,0:0|0:0,0:0:0:0:
24,304,47286,6,0,P|87:297|151:294,1,127.5,6|0,0:0|0:0,0:0:0:0:
177,301,47611,1,8,0:0:0:0:
105,180,47773,1,2,0:0:0:0:
274,129,47935,2,0,P|271:88|263:25,1,85,8|0,0:0|0:0,0:0:0:0:
206,214,48259,1,8,0:0:0:0:
330,310,48421,6,0,P|379:319|430:324,1,85,2|8,0:0|0:0,0:0:0:0:
490,219,48746,1,0,0:0:0:0:
356,124,48908,2,0,P|358:166|363:208,1,85,8|2,0:0|0:0,0:0:0:0:
244,363,49232,2,0,P|249:320|251:278,1,85,8|2,0:0|0:0,0:0:0:0:
187,65,49556,2,0,P|122:66|80:89,1,85,12|4,0:0|0:3,0:0:0:0:
62,132,49800,1,2,0:0:0:0:
111,187,49881,6,0,P|198:176|260:120,1,170,6|8,0:0|0:0,0:0:0:0:
177,301,50367,1,2,0:0:0:0:
177,301,50448,1,2,0:0:0:0:
177,301,50529,2,0,P|135:291|63:288,1,85,2|2,0:0|0:0,0:0:0:0:
271,240,50854,2,0,L|286:307,1,42.5,8|0,0:0|0:0,0:0:0:0:
299,363,51016,1,2,0:0:0:0:
440,201,51178,6,0,L|432:298,1,85,2|2,0:0|0:0,0:0:0:0:
271,240,51502,1,8,0:0:0:0:
380,103,51665,1,2,0:0:0:0:
380,103,51746,1,2,0:0:0:0:
380,103,51827,2,0,P|428:95|479:88,1,85,2|2,0:0|0:0,0:0:0:0:
203,24,52151,2,0,L|195:121,1,85,12|2,0:0|0:0,0:0:0:0:
127,308,52475,5,12,0:0:0:0:
271,240,52638,1,2,0:0:0:0:
94,124,52800,1,2,0:0:0:0:
284,354,52962,5,12,0:0:0:0:
163,217,53124,1,2,0:0:0:0:
380,103,53286,1,2,0:0:0:0:
396,135,53367,1,0,0:0:0:0:
403,170,53448,6,0,P|397:203|376:246,1,63.7500024318696,12|8,0:0|0:0,0:0:0:0:
346,344,53611,2,0,P|313:352|265:351,1,63.7500024318696,8|8,0:0|0:0,0:0:0:0:
145,360,53773,6,0,P|103:331|74:293,1,95.6250036478044,6|0,0:0|0:0,0:0:0:0:
48,303,54097,6,2,P|58:250|65:189,1,95.6250036478044,2|0,0:0|0:0,0:0:0:0:
163,217,54421,6,2,P|164:163|159:101,1,95.6250036478044,2|0,0:0|0:0,0:0:0:0:
261,112,54745,6,2,P|248:60|228:1,1,95.6250036478044,2|0,0:0|0:0,0:0:0:0:
327,43,55070,6,0,L|432:40,1,93.5000028533936,6|8,0:0|0:0,0:0:0:0:
481,229,55394,2,0,L|387:226,1,93.5000028533936,2|8,0:0|0:0,0:0:0:0:
288,252,55638,1,8,0:0:0:0:
268,275,55719,2,0,P|262:324|262:374,1,93.5000028533936,2|8,0:0|0:0,0:0:0:0:
209,156,56043,1,2,0:0:0:0:
336,308,56205,1,8,0:0:0:0:
147,338,56367,6,0,P|99:331|49:323,1,93.5000028533936,2|8,0:0|0:0,0:0:0:0:
120,77,56692,1,2,0:0:0:0:
288,252,56854,1,8,0:0:0:0:
288,252,56935,1,8,0:0:0:0:
288,252,57016,2,0,P|240:245|190:237,1,93.5000028533936,2|8,0:0|0:0,0:0:0:0:
261,368,57340,1,2,0:0:0:0:
301,147,57502,1,8,0:0:0:0:
104,212,57665,6,0,L|76:108,1,93.5000028533936,2|8,0:0|0:0,0:0:0:0:
52,317,57989,1,2,0:0:0:0:
211,189,58151,1,8,0:0:0:0:
211,189,58232,1,8,0:0:0:0:
211,189,58313,1,2,0:0:0:0:
20,110,58475,1,8,0:0:0:0:
175,289,58638,2,0,P|223:282|273:274,1,93.5000028533936,2|8,0:0|0:0,0:0:0:0:
415,123,58962,5,2,0:0:0:0:
369,334,59124,1,8,0:0:0:0:
211,189,59286,1,2,0:0:0:0:
441,244,59448,1,8,0:0:0:0:
441,244,59529,1,8,0:0:0:0:
441,244,59611,6,0,P|414:238|379:237,1,46.7500014266968,2|0,0:0|0:0,0:0:0:0:
224,276,59773,2,0,P|202:287|175:308,1,46.7500014266968,8|0,0:0|0:0,0:0:0:0:
295,351,59935,5,6,0:0:0:0:
315,309,60016,1,0,0:0:0:0:
319,263,60097,1,8,0:0:0:0:
305,218,60178,1,0,0:0:0:0:
275,183,60259,6,0,P|250:171|224:167,1,46.7500014266968,6|0,0:0|0:0,0:0:0:0:
86,217,60421,2,0,P|108:201|125:180,1,46.7500014266968,8|8,0:3|0:3,0:0:0:0:
150,47,60583,1,4,0:3:0:0:
224,276,60746,6,0,B|271:287|271:287|309:281|336:298|336:298|337:270|354:245|354:245|348:222,1,187.000005706787,6|2,0:0|0:0,0:0:0:0:
172,219,61232,6,2,P|147:266|168:331,1,106.25,8|2,0:0|0:0,0:0:0:0:
350,230,61556,6,0,L|400:223,1,46.7500014266968,6|0,0:0|0:0,0:0:0:0:
461,116,61719,2,0,L|414:122,1,46.7500014266968,8|8,0:3|0:3,0:0:0:0:
296,67,61881,1,4,0:3:0:0:
128,195,62043,6,0,B|165:194|191:204|191:204|276:182|276:182|254:196|239:212,1,187.000005706787,6|2,0:0|0:0,0:0:0:0:
420,321,62529,6,2,L|300:307,1,106.25,8|2,0:0|0:0,0:0:0:0:
129,335,62854,5,6,0:0:0:0:
203,161,63016,1,8,0:0:0:0:
50,228,63178,1,2,0:0:0:0:
256,353,63340,1,8,0:0:0:0:
256,353,63421,1,8,0:0:0:0:
256,353,63502,1,2,0:0:0:0:
128,195,63665,1,8,0:0:0:0:
281,126,63827,1,2,0:0:0:0:
197,303,63989,5,8,0:0:0:0:
197,303,64070,1,8,0:0:0:0:
197,303,64151,1,6,0:0:0:0:
415,351,64313,2,0,L|431:258,1,93.5000028533936,8|6,0:0|0:0,0:0:0:0:
360,93,64638,1,8,0:0:0:0:
360,93,64719,1,8,0:0:0:0:
360,93,64800,6,0,L|372:145,1,46.7500014266968,6|8,0:0|0:3,0:0:0:0:
259,254,64962,2,0,L|269:208,1,46.7500014266968,8|8,0:3|0:3,0:0:0:0:
256,83,65124,5,4,0:3:0:0:
209,85,65205,1,4,0:3:0:0:
162,87,65286,1,4,0:3:0:0:
115,89,65367,1,4,0:3:0:0:
69,91,65448,6,0,P|119:100|168:110,1,93.5000028533936,6|8,0:0|0:0,0:0:0:0:
320,348,65773,2,0,P|327:305|331:251,1,93.5000028533936,2|8,0:0|0:0,0:0:0:0:
228,244,66016,1,8,0:0:0:0:
208,245,66097,2,0,P|158:236|109:226,1,93.5000028533936,2|8,0:0|0:0,0:0:0:0:
245,369,66421,1,2,0:0:0:0:
384,207,66583,1,8,0:0:0:0:
171,158,66746,6,0,L|208:245,1,93.5000028533936,2|8,0:0|0:0,0:0:0:0:
69,91,67070,1,2,0:0:0:0:
102,303,67232,1,8,0:0:0:0:
102,303,67313,1,8,0:0:0:0:
102,303,67394,1,2,0:0:0:0:
284,165,67556,1,8,0:0:0:0:
320,348,67719,2,0,L|366:356,1,46.7500014266968,2|0,0:0|0:0,0:0:0:0:
462,242,67881,2,0,L|416:234,1,46.7500014266968,8|0,0:0|0:0,0:0:0:0:
284,165,68043,5,2,0:0:0:0:
410,89,68205,1,8,0:0:0:0:
340,257,68367,1,2,0:0:0:0:
227,73,68529,1,8,0:0:0:0:
227,73,68611,1,8,0:0:0:0:
227,73,68692,2,0,L|321:60,1,93.5000028533936,2|8,0:0|0:0,0:0:0:0:
96,183,69016,2,0,L|2:170,1,93.5000028533936,2|8,0:0|0:0,0:0:0:0:
299,315,69340,6,0,L|310:222,1,93.5000028533936,2|8,0:0|0:0,0:0:0:0:
115,89,69665,1,2,0:0:0:0:
160,255,69827,1,8,0:0:0:0:
160,255,69908,1,8,0:0:0:0:
160,255,69989,6,0,L|216:247,1,46.7500014266968,2|0,0:0|0:0,0:0:0:0:
96,183,70151,2,0,L|40:175,1,46.7500014266968,8|0,0:0|0:0,0:0:0:0:
114,341,70313,5,6,0:0:0:0:
160,334,70394,1,0,0:0:0:0:
206,328,70475,1,8,0:0:0:0:
252,322,70556,1,0,0:0:0:0:
299,315,70638,6,0,L|353:307,1,46.7500014266968,6|0,0:0|0:0,0:0:0:0:
257,191,70800,2,0,L|303:219,1,46.7500014266968,8|8,0:3|0:3,0:0:0:0:
286,61,70962,2,0,L|307:111,1,46.7500014266968,4|0,0:3|0:0,0:0:0:0:
438,205,71124,6,0,B|367:191|367:191|326:207|326:207|257:191,1,187.000005706787,6|2,0:0|0:0,0:0:0:0:
103,77,71611,6,2,L|208:69,1,106.25,8|2,0:0|0:0,0:0:0:0:
352,121,71935,6,0,L|342:167,1,46.7500014266968,6|0,0:0|0:0,0:0:0:0:
175,228,72097,2,0,L|165:183,1,46.7500014266968,8|8,0:3|0:3,0:0:0:0:
322,263,72259,2,0,L|312:309,1,46.7500014266968,4|0,0:3|0:0,0:0:0:0:
261,144,72421,6,0,B|322:93|395:122|395:122|369:119|352:121,1,187.000005706787,6|2,0:0|0:0,0:0:0:0:
160,329,72908,6,2,L|138:225,1,106.25,8|2,0:0|0:0,0:0:0:0:
103,77,73232,5,6,0:0:0:0:
261,144,73394,1,8,0:0:0:0:
111,220,73556,1,2,0:0:0:0:
269,287,73719,1,8,0:0:0:0:
289,297,73800,1,8,0:0:0:0:
312,308,73881,2,0,L|411:298,1,93.5000028533936,2|8,0:0|0:0,0:0:0:0:
471,123,74205,2,0,L|377:132,1,93.5000028533936,2|8,0:0|0:0,0:0:0:0:
312,308,74529,5,2,0:0:0:0:
236,57,74692,1,12,0:0:0:0:
377,131,74854,1,12,0:0:0:0:
111,220,75016,1,8,0:0:0:0:
111,220,75097,1,8,0:0:0:0:
111,220,75178,6,0,L|167:211,1,46.7500014266968,8|0,0:3|0:0,0:0:0:0:
225,324,75340,2,0,L|178:316,1,46.7500014266968,8|0,0:3|0:0,0:0:0:0:
254,161,75502,6,0,L|310:152,1,46.7500014266968,4|0,0:3|0:0,0:0:0:0:
368,265,75664,2,0,L|321:257,1,46.7500014266968,4|0,0:3|0:0,0:0:0:0:
455,99,75827,6,0,P|472:159|432:208,1,127.500004863739,6|0,0:0|0:0,0:0:0:0:
434,206,76313,1,2,0:0:0:0:
337,61,76475,2,0,L|466:52,1,127.500004863739,8|2,0:0|0:0,0:0:0:0:
464,52,76962,5,8,0:0:0:0:
317,164,77124,2,0,L|241:160,1,63.7500024318696,0|8,0:0|0:0,0:0:0:0:
154,39,77448,2,0,L|166:109,1,63.7500024318696,2|0,0:0|0:0,0:0:0:0:
44,209,77773,2,0,L|53:74,1,127.500004863739,8|8,0:0|0:3,0:0:0:0:
145,203,78259,1,4,0:3:0:0:
145,203,78421,6,0,P|138:240|126:286,1,63.7500024318696,6|2,0:0|0:0,0:0:0:0:
232,148,78746,2,0,P|239:178|244:210,1,63.7500024318696,8|2,0:0|0:0,0:0:0:0:
228,343,79070,2,0,P|289:319|351:331,1,127.500004863739,8|4,0:0|0:3,0:0:0:0:
455,360,79556,6,0,P|446:326|441:279,1,63.7500024318696,8|2,0:0|0:0,0:0:0:0:
317,164,79881,1,8,0:0:0:0:
447,144,80043,2,0,P|441:176|434:206,1,63.7500024318696,2|0,0:0|0:0,0:0:0:0:
285,291,80367,2,0,L|148:269,1,127.500004863739,12|12,0:0|0:0,0:0:0:0:
102,71,80854,1,2,0:0:0:0:
110,86,80935,1,2,0:0:0:0:
118,101,81016,6,0,L|211:116,1,93.5000028533936,6|8,0:0|0:3,0:0:0:0:
320,192,81259,1,8,0:3:0:0:
272,185,81340,2,0,P|247:189|214:207,1,46.7500014266968,4|0,0:3|0:0,0:0:0:0:
285,291,81502,6,0,L|422:269,1,127.500004863739,6|2,0:0|0:0,0:0:0:0:
120,348,81989,6,2,L|141:239,1,106.25,8|2,0:0|0:0,0:0:0:0:
302,100,82313,6,0,L|320:193,1,93.5000028533936,6|8,0:0|0:3,0:0:0:0:
427,177,82557,1,8,0:3:0:0:
419,224,82638,2,0,L|410:269,1,46.7500014266968,4|0,0:3|0:0,0:0:0:0:
285,291,82800,6,0,P|346:283|402:318,1,127.500004863739,6|2,0:0|0:0,0:0:0:0:
120,348,83286,6,2,P|100:300|112:248,1,106.25,8|2,0:0|0:0,0:0:0:0:
292,84,83611,5,6,0:0:0:0:
320,271,83773,1,8,0:0:0:0:
462,155,83935,1,2,0:0:0:0:
268,188,84097,1,8,0:0:0:0:
268,188,84178,1,8,0:0:0:0:
268,188,84259,1,2,0:0:0:0:
372,356,84421,1,8,0:0:0:0:
166,278,84583,1,2,0:0:0:0:
360,180,84746,1,8,0:0:0:0:
149,99,84908,6,0,L|25:88,1,93.5000028533936,6|8,0:0|0:0,0:0:0:0:
166,278,85232,1,6,0:0:0:0:
268,188,85394,1,8,0:0:0:0:
268,188,85475,1,8,0:0:0:0:
268,188,85556,6,0,L|259:130,1,46.7500014266968,6|8,0:0|0:3,0:0:0:0:
364,276,85719,2,0,L|371:322,1,46.7500014266968,8|8,0:3|0:3,0:0:0:0:
210,290,85881,6,0,L|154:274,1,46.7500014266968,4|4,0:3|0:3,0:0:0:0:
301,70,86043,2,0,L|345:82,1,46.7500014266968,4|4,0:3|0:3,0:0:0:0:
488,264,86205,6,0,L|484:372,1,85,6|8,0:0|0:0,0:0:0:0:
268,188,86529,2,0,L|271:272,1,85,2|8,0:0|0:0,0:0:0:0:
512,124,86854,1,2,0:0:0:0:
301,70,87016,1,2,0:0:0:0:
396,264,87178,1,8,0:0:0:0:
412,25,87340,5,6,0:0:0:0:
412,25,87665,1,2,0:0:0:0:
301,70,87827,1,2,0:0:0:0:
396,264,87989,1,2,0:0:0:0:
507,219,88151,1,2,0:0:0:0:
382,108,88313,1,2,0:0:0:0:
294,314,88475,6,0,P|208:358|106:326,1,191.250007295609,4|0,0:0|0:0,0:0:0:0:
22,336,88800,6,0,P|66:286|54:158,1,187.000005706787,6|2,0:0|0:0,0:0:0:0:
0,38,89286,1,8,0:0:0:0:
0,38,89367,1,8,0:0:0:0:
0,38,89448,2,0,P|46:45|96:51,1,93.5000028533936,2|8,0:0|0:0,0:0:0:0:
288,33,89773,1,2,0:0:0:0:
172,246,89935,6,0,L|161:153,1,93.5000028533936,8|2,0:0|0:0,0:0:0:0:
377,237,90259,2,0,L|366:330,1,93.5000028533936,8|2,0:0|0:0,0:0:0:0:
317,109,90583,1,8,0:0:0:0:
317,109,90665,1,8,0:0:0:0:
317,109,90746,2,0,L|415:102,1,93.5000028533936,2|8,0:0|0:0,0:0:0:0:
172,246,91070,2,0,L|74:239,1,93.5000028533936,2|8,0:0|0:0,0:0:0:0:
233,115,91394,5,6,0:0:0:0:
347,281,91556,1,8,0:0:0:0:
410,102,91719,1,2,0:0:0:0:
252,255,91881,1,8,0:0:0:0:
252,255,91962,1,8,0:0:0:0:
252,255,92043,2,0,P|255:303|277:358,1,93.5000028533936,2|8,0:0|0:0,0:0:0:0:
465,231,92367,1,2,0:0:0:0:
296,112,92529,6,0,L|201:101,1,93.5000028533936,8|2,0:0|0:0,0:0:0:0:
328,208,92854,1,8,0:0:0:0:
169,306,93016,1,6,0:0:0:0:
192,80,93178,1,8,0:0:0:0:
192,80,93259,1,8,0:0:0:0:
192,80,93340,2,0,L|97:69,1,93.5000028533936,6|8,0:0|0:0,0:0:0:0:
42,137,93583,5,8,0:0:0:0:
60,150,93665,2,0,L|68:202,1,46.7500014266968,6|0,0:0|0:0,0:0:0:0:
144,301,93827,2,0,L|208:292,1,46.7500014266968,8|0,0:0|0:0,0:0:0:0:
328,208,93989,6,0,B|394:200|394:200|450:216|450:216|511:208,1,187.000005706787,6|2,0:0|0:0,0:0:0:0:
291,85,94475,1,8,0:0:0:0:
291,85,94556,1,8,0:0:0:0:
291,85,94638,1,2,0:0:0:0:
364,308,94800,1,8,0:0:0:0:
452,136,94962,1,2,0:0:0:0:
224,176,95124,6,0,L|131:164,1,93.5000028533936,8|2,0:0|0:0,0:0:0:0:
364,308,95448,2,0,L|457:296,1,93.5000028533936,8|2,0:0|0:0,0:0:0:0:
376,76,95773,1,8,0:0:0:0:
376,76,95854,1,8,0:0:0:0:
376,76,95935,1,2,0:0:0:0:
284,296,96097,1,8,0:0:0:0:
261,93,96259,2,0,L|249:1,1,93.5000028533936,6|8,0:0|0:0,0:0:0:0:
103,177,96583,5,6,0:0:0:0:
328,208,96746,1,8,0:0:0:0:
123,347,96908,1,6,0:0:0:0:
160,80,97070,5,8,0:0:0:0:
160,80,97151,1,8,0:0:0:0:
160,80,97232,1,10,0:0:0:0:
55,263,97394,1,8,0:3:0:0:
328,208,97556,1,4,0:3:0:0:
54,83,97719,5,14,0:0:0:0:
