osu file format v14

[General]
AudioFilename: audio.mp3
AudioLeadIn: 0
PreviewTime: 54989
Countdown: 0
SampleSet: Soft
StackLeniency: 0.7
Mode: 2
LetterboxInBreaks: 0
WidescreenStoryboard: 1

[Editor]
DistanceSpacing: 1.1
BeatDivisor: 4
GridSize: 32
TimelineZoom: 2.1

[Metadata]
Title:Girl meets Love (Short Ver.)
TitleUnicode:Girl meets Love (Short Ver.)
Artist:Katakiri Rekka & Suzuyu
ArtistUnicode:片霧烈火&鈴湯
Creator:-Joakh
Version:Salad
Source:花咲ワークスプリング!
Tags:Jemzuu AJamez Nelly amulet-pp -Hex- HANASAKI WORK SPRING! sagaplanets eroge visual novel VN video game japanese opening サガプラネッツ SAGA PLANETS うらん 山口朗彥 Yamaguchi Akihiko 水月陵 Arte Refact PMMK
BeatmapID:2785678
BeatmapSetID:1344930

[Difficulty]
HPDrainRate:4
CircleSize:3
OverallDifficulty:7
ApproachRate:7
SliderMultiplier:1.5
SliderTickRate:1

[Events]
//Background and Video events
0,0,"BG4.jpg",0,0
//Break Periods
//Storyboard Layer 0 (Background)
//Storyboard Layer 1 (Fail)
//Storyboard Layer 2 (Pass)
//Storyboard Layer 3 (Foreground)
//Storyboard Layer 4 (Overlay)
//Storyboard Sound Samples

[TimingPoints]
584,324.324324324324,4,2,1,40,1,0
584,-100,4,2,1,40,0,0
5773,-100,4,2,1,60,0,0
9989,-100,4,2,1,50,0,0
10313,-100,4,2,1,60,0,0
10638,-100,4,2,1,70,0,0
10962,-100,4,2,3,60,0,1
11043,-100,4,2,3,60,0,0
12097,-100,4,2,3,70,0,0
12340,-100,4,2,3,5,0,0
12421,-100,4,2,3,70,0,0
12665,-100,4,2,3,5,0,0
12746,-125,4,2,3,70,0,0
12908,-100,4,2,3,60,0,0
14692,-100,4,2,3,70,0,0
14935,-100,4,2,3,5,0,0
15016,-100,4,2,3,70,0,0
15259,-100,4,2,3,5,0,0
15340,-100,4,2,3,70,0,0
15502,-100,4,2,3,60,0,0
17286,-83.3333333333333,4,2,3,70,0,0
17529,-100,4,2,3,5,0,0
17611,-100,4,2,3,70,0,0
17854,-100,4,2,3,5,0,0
17935,-100,4,2,3,70,0,0
18097,-100,4,2,3,60,0,0
19881,-100,4,2,3,70,0,0
20124,-100,4,2,3,5,0,0
20205,-100,4,2,3,70,0,0
20448,-100,4,2,3,5,0,0
20529,-100,4,2,3,70,0,0
20692,-100,4,2,3,60,0,0
20935,-100,4,2,3,5,0,0
21016,-100,4,2,1,75,0,0
21259,-100,4,2,1,5,0,0
21340,-100,4,2,1,50,0,0
25881,-100,4,2,1,60,0,0
30583,-100,4,2,1,40,0,0
31232,-100,4,2,1,60,0,0
31394,-100,4,2,2,75,0,0
31638,-100,4,2,2,5,0,0
31719,-100,4,2,1,60,0,0
41773,-100,4,2,1,60,0,0
45989,-100,4,2,1,50,0,0
46232,-100,4,2,1,5,0,0
46313,-100,4,2,1,60,0,0
46556,-100,4,2,1,5,0,0
46638,-100,4,2,1,70,0,0
46881,-100,4,2,1,5,0,0
46962,-100,4,2,1,75,0,0
47286,-100,4,2,1,60,0,0
52475,-100,4,2,1,70,0,0
53773,-100,4,2,1,60,0,0
54097,-100,4,2,1,50,0,0
54340,-100,4,2,1,5,0,0
54421,-100,4,2,1,60,0,0
54665,-100,4,2,1,5,0,0
54746,-100,4,2,1,70,0,0
54989,-100,4,2,1,5,0,0
55070,-100,4,2,1,70,0,1
61232,-100,4,2,1,70,0,1
61394,-100,4,2,1,70,0,1
61556,-100,4,2,1,70,0,1
62529,-100,4,2,1,70,0,1
62692,-100,4,2,1,70,0,1
62854,-100,4,2,1,70,0,1
64881,-100,4,2,1,50,0,1
65367,-100,4,2,1,50,0,0
65448,-100,4,2,1,70,0,1
71611,-100,4,2,1,70,0,1
71773,-100,4,2,1,70,0,1
71935,-100,4,2,1,70,0,1
72908,-100,4,2,1,70,0,1
73070,-100,4,2,1,70,0,1
73232,-100,4,2,1,70,0,1
75827,-100,4,2,1,60,0,0
80611,-100,4,2,1,5,0,0
80692,-100,4,2,1,60,0,0
81016,-100,4,2,1,70,0,1
81502,-100,4,2,1,70,0,1
81989,-100,4,2,1,70,0,1
82151,-100,4,2,1,70,0,1
82800,-100,4,2,1,70,0,1
83286,-100,4,2,1,70,0,1
83448,-100,4,2,1,70,0,1
83611,-100,4,2,1,70,0,1
85638,-100,4,2,1,50,0,1
86205,-100,4,2,1,60,0,0
87583,-100,4,2,1,5,0,0
87665,-100,4,2,1,45,0,0
87827,-100,4,2,1,50,0,0
87989,-100,4,2,1,55,0,0
88151,-100,4,2,1,60,0,0
88313,-100,4,2,1,65,0,0
88475,-100,4,2,2,70,0,0
88800,-100,4,2,1,60,0,1
97719,-100,4,2,1,60,0,0
98205,-100,4,2,1,5,0,0

[Colours]
Combo1 : 200,253,140
Combo2 : 255,74,79
Combo3 : 46,139,233
Combo4 : 250,226,171

[HitObjects]
164,281,584,6,0,P|122:227|169:176,1,150,6|0,0:0|0:0,0:0:0:0:
334,170,1232,2,0,P|377:117|329:67,1,150,2|0,0:0|0:0,0:0:0:0:
167,309,1881,6,0,L|316:303,1,150
155,295,2529,2,0,P|104:255|154:214,1,150,2|0,0:0|0:0,0:0:0:0:
442,196,3178,6,0,P|485:142|439:91,1,150,2|0,0:0|0:0,0:0:0:0:
273,90,3827,2,0,P|204:66|130:76,1,150,2|0,0:0|0:0,0:0:0:0:
293,295,4475,6,0,P|367:284|436:257,2,150,0|2|2,0:0|0:0|0:0,0:0:0:0:
113,295,5448,1,2,0:0:0:0:
413,304,5773,6,0,P|414:196|330:128,1,225,6|2,0:0|0:0,0:0:0:0:
253,130,6421,2,0,P|201:171|252:212,1,150,6|0,0:0|0:0,0:0:0:0:
414,190,7070,6,0,P|306:164|195:176,1,225,4|2,0:0|0:0,0:0:0:0:
116,168,7719,2,0,P|97:236|158:272,1,150,6|0,0:0|0:0,0:0:0:0:
456,266,8367,6,0,L|381:266,1,75,6|2,0:0|0:0,0:0:0:0:
305,239,8692,2,0,P|300:201|302:164,1,75,10|8,0:0|0:0,0:0:0:0:
377,192,9016,2,0,P|426:147|378:100,1,150,10|2,0:0|0:0,0:0:0:0:
197,110,9502,6,0,P|117:168|189:236,1,225,6|8,0:0|0:0,0:0:0:0:
351,219,10313,2,0,L|351:144,1,75,8|8,0:0|0:0,0:0:0:0:
276,165,10638,2,0,L|270:90,1,75,8|8,0:0|0:0,0:0:0:0:
448,77,10962,6,0,P|459:148|401:190,1,150,6|2,0:0|0:0,0:0:0:0:
221,183,11611,2,0,L|149:161,2,75,10|8|2,0:0|0:0|0:0,0:0:0:0:
409,194,12097,6,0,P|401:124|334:99,1,150,12|12,0:0|0:0,0:0:0:0:
196,117,12746,2,0,P|269:67|357:65,1,180,12|2,0:0|0:0,0:0:0:0:
186,212,13556,5,6,0:0:0:0:
112,214,13719,2,0,L|111:139,1,75,10|2,0:0|0:0,0:0:0:0:
276,108,14205,2,0,L|331:158,2,75,10|8|2,0:0|0:0|0:0,0:0:0:0:
95,107,14692,6,0,P|64:167|126:195,1,150,12|12,0:0|0:0,0:0:0:0:
285,211,15340,1,8,0:0:0:0:
359,208,15502,2,0,P|408:161|360:113,1,150,6|2,0:0|0:0,0:0:0:0:
64,112,16151,6,0,P|64:181|132:200,1,150,6|2,0:0|0:0,0:0:0:0:
306,185,16800,2,0,L|359:237,2,75,10|8|2,0:0|0:0|0:0,0:0:0:0:
104,160,17286,6,0,P|46:108|109:61,1,179.999994506836,12|12,0:0|0:0,0:0:0:0:
282,74,17935,2,0,P|358:135|279:192,1,225,8|2,0:0|0:0,0:0:0:0:
144,316,18746,5,6,0:0:0:0:
384,278,19394,1,12,0:0:0:0:
159,255,19881,6,0,P|116:201|165:153,1,150,6|12,0:0|0:0,0:0:0:0:
335,84,20529,1,12,0:0:0:0:
410,85,20692,2,0,P|461:126|411:174,1,150,8|12,0:0|3:0,0:0:0:0:
115,195,21340,6,0,P|66:240|113:288,1,150,6|0,0:0|3:0,0:0:0:0:
283,295,21989,2,0,P|210:281|135:280,1,150,10|2,0:0|3:0,0:0:0:0:
214,280,22475,6,0,P|288:286|361:270,2,150,10|10|2,0:0|0:0|0:0,0:0:0:0:
61,286,23448,2,0,L|63:211,1,75,2|2,0:0|3:0,0:0:0:0:
142,186,23773,1,2,0:0:0:0:
220,209,23935,6,0,P|267:161|219:113,1,150,0|0,3:0|3:0,0:0:0:0:
69,104,24583,1,10,0:0:0:0:
99,189,24746,1,2,0:0:0:0:
179,230,24908,1,2,0:0:0:0:
476,204,25232,6,0,L|405:230,1,75,12|2,0:0|3:0,0:0:0:0:
326,248,25556,2,0,L|320:325,1,75,12|2,0:0|0:0,0:0:0:0:
399,297,25881,2,0,P|415:227|357:187,1,150,10|8,0:0|0:0,0:0:0:0:
177,205,26367,6,0,P|131:154|179:106,1,150,6|2,0:0|3:0,0:0:0:0:
261,100,26854,2,0,L|271:174,1,75,10|2,0:0|0:0,0:0:0:0:
189,186,27178,2,0,P|262:171|336:183,1,150,2|8,3:0|0:0,0:0:0:0:
152,221,27665,6,0,P|83:231|80:301,1,150,14|2,0:0|3:0,0:0:0:0:
158,277,28151,2,0,L|232:273,1,75,10|2,0:0|0:0,0:0:0:0:
311,249,28475,2,0,P|370:215|341:154,1,150,2|8,3:0|0:0,0:0:0:0:
160,199,28962,6,0,P|151:130|215:101,1,150,14|2,0:0|3:0,0:0:0:0:
294,107,29448,2,0,P|344:151|293:193,1,150,10|2,0:0|3:0,0:0:0:0:
215,219,29935,1,2,3:0:0:0:
133,231,30097,6,0,L|130:306,1,75,10|2,0:0|0:0,0:0:0:0:
396,260,31232,2,0,P|408:225|397:190,1,75,0|6,3:0|0:0,0:0:0:0:
96,182,31719,6,0,P|171:170|245:165,1,150,6|8,0:0|0:0,0:0:0:0:
106,295,32367,2,0,L|51:345,2,75,2|2|10,3:0|3:0|0:0,0:0:0:0:
185,289,32854,6,0,P|260:288|331:263,2,150,2|2|2,3:0|3:0|3:0,0:0:0:0:
357,224,33827,2,0,L|409:169,2,75,2|10|2,3:0|0:0|0:0,0:0:0:0:
277,244,34313,6,0,P|208:230|204:161,1,150,0|8,3:0|0:0,0:0:0:0:
346,124,34962,1,2,3:0:0:0:
409,157,35124,1,2,3:0:0:0:
399,226,35286,1,10,0:0:0:0:
330,241,35448,1,2,3:0:0:0:
156,178,35773,6,0,P|165:248|232:273,1,150,2|2,3:0|3:0,0:0:0:0:
312,253,36259,1,10,0:0:0:0:
390,275,36421,2,0,P|398:239|391:203,1,75,8|8,0:0|0:0,0:0:0:0:
206,183,36746,6,0,P|217:78|320:57,1,225,6|10,0:0|0:0,0:0:0:0:
153,289,37556,2,0,P|106:241|157:198,1,150,2|8,3:0|0:0,0:0:0:0:
342,228,38043,6,0,P|445:218|461:114,1,225,6|10,0:0|0:0,0:0:0:0:
283,112,38854,1,2,3:0:0:0:
224,107,39016,1,0,3:0:0:0:
165,98,39178,1,8,0:0:0:0:
349,146,39340,6,0,P|342:252|241:285,1,225,6|10,0:0|0:0,0:0:0:0:
70,188,40151,1,2,3:0:0:0:
46,256,40313,1,2,3:0:0:0:
90,312,40475,1,10,0:0:0:0:
161,305,40637,1,6,0:0:0:0:
341,283,40962,6,0,P|351:248|340:213,1,75,10|10,0:0|0:0,0:0:0:0:
163,210,41448,2,0,P|114:163|163:116,1,150,10|4,3:0|3:0,0:0:0:0:
463,137,42097,5,6,0:0:0:0:
316,126,42421,2,0,P|249:149|246:220,1,150,8|10,0:0|0:0,0:0:0:0:
425,236,43070,2,0,P|472:283|421:326,1,150,8|8,0:0|0:0,0:0:0:0:
340,306,43556,5,2,0:0:0:0:
260,327,43719,2,0,P|213:279|260:231,1,150,10|10,0:0|0:0,0:0:0:0:
409,190,44367,2,0,L|407:115,1,75,8|2,0:0|3:0,0:0:0:0:
327,107,44692,6,0,P|255:92|181:103,1,150,8|10,0:0|0:0,0:0:0:0:
327,208,45340,2,0,P|400:200|454:249,1,150,10|10,0:0|0:0,0:0:0:0:
375,275,45827,1,2,3:0:0:0:
198,209,45989,6,0,P|143:169|183:115,1,150,14|14,0:0|0:0,0:0:0:0:
362,116,46638,2,0,P|424:151|422:223,1,150,14|14,0:0|0:0,0:0:0:0:
344,249,47124,1,8,0:0:0:0:
171,208,47286,6,0,P|99:206|59:146,2,150,6|8|10,0:0|0:0|0:0,0:0:0:0:
348,175,48259,2,0,P|415:199|422:269,1,150,8|8,0:0|0:0,0:0:0:0:
342,271,48746,5,2,0:0:0:0:
262,271,48908,2,0,P|212:227|258:178,1,150,10|10,0:0|0:0,0:0:0:0:
404,192,49556,2,0,P|411:156|403:119,1,75,14|0,0:0|3:0,0:0:0:0:
218,116,49881,6,0,P|145:106|98:50,2,150,6|8|2,0:0|0:0|3:0,0:0:0:0:
399,214,50854,2,0,P|333:183|259:192,1,150,10|2,0:0|3:0,0:0:0:0:
76,202,51502,2,0,P|150:198|216:232,2,150,10|2|14,0:0|3:0|0:0,0:0:0:0:
377,285,52475,6,0,P|427:243|376:203,1,150,14|0,0:0|3:0,0:0:0:0:
296,176,52962,2,0,L|137:176,1,150,12|0,0:0|3:0,0:0:0:0:
225,202,53448,2,0,L|298:217,1,75,12|8,0:0|0:0,0:0:0:0:
116,198,53773,1,6,0:0:0:0:
116,198,54097,5,2,0:0:0:0:
280,198,54421,1,2,0:0:0:0:
116,198,54746,1,2,0:0:0:0:
416,67,55070,6,0,P|463:114|416:162,1,150,6|2,0:0|3:0,0:0:0:0:
242,172,55719,2,0,P|196:219|247:261,1,150,2|2,3:0|3:0,0:0:0:0:
328,283,56205,1,8,0:0:0:0:
405,259,56367,6,0,P|416:156|316:131,1,225,2|10,3:0|0:0,0:0:0:0:
238,159,57016,2,0,P|167:176|141:243,1,150,2|2,3:0|3:0,0:0:0:0:
444,306,57665,6,0,L|294:303,1,150,2|2,3:0|3:0,0:0:0:0:
427,231,58313,2,0,P|477:188|428:144,1,150,2|2,3:0|3:0,0:0:0:0:
345,159,58800,1,8,0:0:0:0:
157,162,58962,6,0,P|87:228|172:272,1,225,2|10,3:0|0:0,0:0:0:0:
254,260,59611,2,0,P|192:218|118:216,1,150,2|6,3:0|3:2,0:0:0:0:
131,138,60097,1,10,0:0:0:0:
318,191,60259,6,0,P|423:168|457:66,2,225,6|6|10,0:0|0:0|0:0,0:0:0:0:
61,136,61556,2,0,P|172:122|268:65,2,225,6|6|10,0:0|0:0|0:0,0:0:0:0:
349,179,62854,6,0,P|401:220|351:263,1,150,4|2,0:0|3:0,0:0:0:0:
176,312,63502,2,0,P|137:255|189:212,1,150,2|2,3:0|3:0,0:0:0:0:
469,196,64151,2,0,L|467:121,1,75,6|10,0:0|0:0,0:0:0:0:
385,112,64475,1,2,3:0:0:0:
229,219,64800,6,0,L|231:293,1,75,10|8,3:0|3:0,0:0:0:0:
315,292,65124,2,0,L|389:287,1,75,6|4,3:0|3:0,0:0:0:0:
210,177,65448,6,0,P|137:189|63:179,1,150,6|2,0:0|3:0,0:0:0:0:
230,118,66097,2,0,P|304:108|378:113,1,150,2|2,3:0|3:0,0:0:0:0:
300,138,66583,1,8,0:0:0:0:
114,133,66746,6,0,P|114:237|216:264,1,225,2|10,3:0|0:0,0:0:0:0:
295,257,67394,2,0,P|228:223|153:219,1,150,2|2,3:0|3:0,0:0:0:0:
459,279,68043,6,0,P|476:211|413:181,1,150,2|2,3:0|3:0,0:0:0:0:
251,161,68692,2,0,P|277:94|348:80,1,150,2|2,3:0|3:0,0:0:0:0:
425,106,69178,1,8,0:0:0:0:
240,95,69340,6,0,P|146:142|161:246,1,225,2|10,3:0|0:0,0:0:0:0:
244,236,69989,2,0,L|101:281,1,150,2|6,3:0|3:2,0:0:0:0:
171,324,70475,1,10,0:0:0:0:
356,319,70638,6,0,P|458:290|479:185,2,225,6|6|10,0:0|0:0|0:0,0:0:0:0:
94,283,71935,2,0,P|201:250|312:235,2,225,6|6|10,0:0|0:0|0:0,0:0:0:0:
354,313,73232,6,0,P|399:263|346:221,1,150,4|2,0:0|3:0,0:0:0:0:
184,190,73881,2,0,L|333:186,1,150,2|2,3:0|3:0,0:0:0:0:
175,139,74529,2,0,L|171:219,1,75,2|14,3:0|0:0,0:0:0:0:
354,213,74854,6,0,P|418:242|410:312,1,150,14|10,0:0|3:0,0:0:0:0:
251,332,75502,2,0,L|167:332,1,75,6|4,3:0|3:0,0:0:0:0:
360,167,75827,6,0,P|433:101|353:42,1,225,6|2,0:0|3:0,0:0:0:0:
271,47,76475,2,0,P|218:86|269:126,1,150,10|2,0:0|3:0,0:0:0:0:
429,322,77124,6,0,P|322:287|211:297,1,225,2|0,0:0|0:0,0:0:0:0:
286,266,77773,2,0,P|353:236|427:242,1,150,10|10,0:0|3:0,0:0:0:0:
346,238,78259,1,4,3:0:0:0:
160,244,78421,6,0,P|102:160|184:101,1,225,4|2,0:0|3:0,0:0:0:0:
264,103,79070,2,0,P|333:122|356:190,1,150,10|4,0:0|0:3,0:0:0:0:
199,288,79719,6,0,P|96:267|82:163,1,225,0|0,3:0|0:0,0:0:0:0:
164,154,80367,2,0,L|239:153,1,75,12|0,0:0|0:0,0:0:0:0:
321,149,80692,2,0,P|330:114|319:78,1,75,14|2,0:0|3:0,0:0:0:0:
128,97,81016,6,0,P|52:160|131:219,1,225,6|6,0:0|0:0,0:0:0:0:
384,198,81989,2,0,L|386:275,1,75,10|0,0:0|0:0,0:0:0:0:
200,286,82313,6,0,P|93:270|39:176,1,225,6|6,0:0|0:0,0:0:0:0:
297,161,83286,2,0,L|372:161,1,75,10|0,0:0|0:0,0:0:0:0:
183,327,83611,6,0,P|138:277|190:236,1,150,4|2,0:0|3:0,0:0:0:0:
339,225,84259,2,0,P|266:209|191:206,1,150,2|2,3:0|3:0,0:0:0:0:
270,228,84746,1,10,0:0:0:0:
352,221,84908,6,0,P|398:171|355:118,1,150,6|2,0:0|3:0,0:0:0:0:
275,120,85394,1,10,0:0:0:0:
92,114,85556,1,10,3:0:0:0:
62,178,85718,1,8,3:0:0:0:
102,238,85880,1,6,3:0:0:0:
393,214,86205,6,0,P|429:118|338:71,1,225,6|10,0:0|0:0,0:0:0:0:
258,85,86854,2,0,P|186:98|144:159,1,150,2|8,3:0|0:0,0:0:0:0:
134,239,87340,1,12,0:0:0:0:
290,262,87665,5,2,0:0:0:0:
364,260,87827,2,0,P|372:223|364:187,1,75,2|2,0:0|0:0,0:0:0:0:
288,182,88151,2,0,P|216:161|141:166,1,150,2|12,0:0|0:0,0:0:0:0:
451,310,88800,6,0,P|438:240|371:215,1,150,6|0,0:0|3:0,0:0:0:0:
291,240,89286,1,10,0:0:0:0:
212,264,89448,2,0,P|158:225|206:179,1,150,2|0,3:0|3:0,0:0:0:0:
284,158,89935,6,0,P|359:158|430:135,2,150,10|10|10,0:0|0:0|0:0,0:0:0:0:
201,162,90746,1,2,3:0:0:0:
357,155,91070,1,2,3:0:0:0:
64,245,91394,6,0,P|137:227|212:233,1,150,6|0,0:0|3:0,0:0:0:0:
293,233,91881,1,10,0:0:0:0:
212,227,92043,2,0,P|165:176|208:122,1,150,2|0,3:0|3:0,0:0:0:0:
289,117,92529,6,0,P|385:168|416:274,1,225,10|2,0:0|3:0,0:0:0:0:
334,286,93178,1,8,0:0:0:0:
251,292,93340,2,0,L|403:291,1,150,2|6,3:0|3:2,0:0:0:0:
112,153,93989,6,0,P|128:258|231:286,1,225,6|10,0:0|0:0,0:0:0:0:
312,272,94638,2,0,P|362:228|311:186,1,150,2|0,3:0|3:0,0:0:0:0:
229,179,95124,6,0,P|179:135|230:92,1,150,10|10,0:0|0:0,0:0:0:0:
399,86,95773,2,0,L|318:89,1,75,10|2,0:0|3:0,0:0:0:0:
159,103,96259,1,6,0:0:0:0:
441,199,96583,6,0,P|436:269|369:292,1,150,2|2,3:0|3:0,0:0:0:0:
285,293,97070,1,10,0:0:0:0:
202,293,97232,2,0,P|193:258|209:219,1,75,10|10,3:0|3:0,0:0:0:0:
288,216,97556,1,6,3:0:0:0:
482,211,97719,1,14,0:0:0:0:
