osu file format v14

[General]
AudioFilename: audio.mp3
AudioLeadIn: 0
PreviewTime: 54989
Countdown: 0
SampleSet: Soft
StackLeniency: 0.7
Mode: 2
LetterboxInBreaks: 0
WidescreenStoryboard: 1

[Editor]
Bookmarks: 10475
DistanceSpacing: 1.2
BeatDivisor: 4
GridSize: 32
TimelineZoom: 2.1

[Metadata]
Title:Girl meets Love (Short Ver.)
TitleUnicode:Girl meets Love (Short Ver.)
Artist:Katakiri Rekka & Suzuyu
ArtistUnicode:片霧烈火&鈴湯
Creator:-Joakh
Version:Nelly's Overdose
Source:花咲ワークスプリング!
Tags:Jemzuu AJamez Nelly amulet-pp -Hex- HANASAKI WORK SPRING! sagaplanets eroge visual novel VN video game japanese opening サガプラネッツ SAGA PLANETS うらん 山口朗彥 Yamaguchi Akihiko 水月陵 Arte Refact PMMK
BeatmapID:2803934
BeatmapSetID:1344930

[Difficulty]
HPDrainRate:6
CircleSize:4.2
OverallDifficulty:9.2
ApproachRate:9.2
SliderMultiplier:1.99
SliderTickRate:2

[Events]
//Background and Video events
0,0,"BG6.jpg",0,0
//Break Periods
//Storyboard Layer 0 (Background)
//Storyboard Layer 1 (Fail)
//Storyboard Layer 2 (Pass)
//Storyboard Layer 3 (Foreground)
//Storyboard Layer 4 (Overlay)
//Storyboard Sound Samples

[TimingPoints]
584,324.324324324324,4,2,1,40,1,0
584,-100,4,2,1,40,0,0
5773,-100,4,2,1,60,0,0
9989,-100,4,2,1,50,0,0
10313,-100,4,2,1,60,0,0
10638,-100,4,2,1,70,0,0
10962,-100,4,2,3,60,0,1
11043,-100,4,2,3,60,0,0
12097,-100,4,2,3,70,0,0
12340,-100,4,2,3,5,0,0
12421,-100,4,2,3,70,0,0
12665,-100,4,2,3,5,0,0
12746,-100,4,2,3,70,0,0
12908,-100,4,2,3,60,0,0
14692,-100,4,2,3,70,0,0
14935,-100,4,2,3,5,0,0
15016,-100,4,2,3,70,0,0
15259,-100,4,2,3,5,0,0
15340,-100,4,2,3,70,0,0
15502,-100,4,2,3,60,0,0
17286,-100,4,2,3,70,0,0
17529,-100,4,2,3,5,0,0
17611,-100,4,2,3,70,0,0
17854,-100,4,2,3,5,0,0
17935,-100,4,2,3,70,0,0
18097,-100,4,2,3,60,0,0
19881,-100,4,2,3,70,0,0
20124,-100,4,2,3,5,0,0
20205,-100,4,2,3,70,0,0
20448,-100,4,2,3,5,0,0
20529,-100,4,2,3,70,0,0
20692,-100,4,2,3,60,0,0
20935,-100,4,2,3,5,0,0
21016,-100,4,2,1,75,0,0
21259,-100,4,2,1,5,0,0
21340,-100,4,2,1,50,0,0
25881,-100,4,2,1,60,0,0
30583,-100,4,2,1,40,0,0
31232,-100,4,2,1,60,0,0
31394,-100,4,2,2,75,0,0
31638,-100,4,2,2,5,0,0
31719,-100,4,2,1,60,0,0
41773,-100,4,2,1,60,0,0
45989,-100,4,2,1,50,0,0
46232,-100,4,2,1,5,0,0
46313,-100,4,2,1,60,0,0
46556,-100,4,2,1,5,0,0
46638,-100,4,2,1,70,0,0
46881,-100,4,2,1,5,0,0
46962,-100,4,2,1,75,0,0
47286,-100,4,2,1,60,0,0
52475,-100,4,2,1,70,0,0
53773,-100,4,2,1,60,0,0
54097,-100,4,2,1,50,0,0
54340,-100,4,2,1,5,0,0
54421,-100,4,2,1,60,0,0
54665,-100,4,2,1,5,0,0
54746,-100,4,2,1,70,0,0
54989,-100,4,2,1,5,0,0
55070,-100,4,2,1,70,0,1
61232,-100,4,2,1,70,0,1
61394,-100,4,2,1,70,0,1
61556,-100,4,2,1,70,0,1
62529,-100,4,2,1,70,0,1
62692,-100,4,2,1,70,0,1
62854,-100,4,2,1,70,0,1
64881,-100,4,2,1,50,0,1
65367,-100,4,2,1,50,0,0
65448,-100,4,2,1,70,0,1
71611,-100,4,2,1,70,0,1
71773,-100,4,2,1,70,0,1
71935,-100,4,2,1,70,0,1
72908,-100,4,2,1,70,0,1
73070,-100,4,2,1,70,0,1
73232,-100,4,2,1,70,0,1
75827,-100,4,2,1,60,0,0
80611,-100,4,2,1,5,0,0
80692,-100,4,2,1,60,0,0
81016,-100,4,2,1,70,0,1
81502,-100,4,2,1,70,0,1
81989,-100,4,2,1,70,0,1
82151,-100,4,2,1,70,0,1
82800,-100,4,2,1,70,0,1
83286,-100,4,2,1,70,0,1
83448,-100,4,2,1,70,0,1
83611,-100,4,2,1,70,0,1
85638,-100,4,2,1,50,0,1
86205,-100,4,2,1,60,0,0
87583,-100,4,2,1,5,0,0
87665,-100,4,2,1,45,0,0
87827,-100,4,2,1,50,0,0
87989,-100,4,2,1,55,0,0
88151,-100,4,2,1,60,0,0
88313,-100,4,2,1,65,0,0
88475,-100,4,2,2,70,0,0
88800,-100,4,2,1,60,0,1
97719,-100,4,2,1,60,0,0
98205,-100,4,2,1,5,0,0

[Colours]
Combo1 : 203,121,223
Combo2 : 254,109,192
Combo3 : 13,242,214
Combo4 : 250,226,171

[HitObjects]
113,329,584,6,0,P|113:281|223:193,1,199,6|0,0:0|0:0,0:0:0:0:
310,193,1070,1,2,0:0:0:0:
141,229,1232,2,0,P|118:188|196:81,1,199,2|0,0:0|0:0,0:0:0:0:
367,160,1719,6,0,L|168:154,2,199,2|2|2,0:0|0:0|0:0,0:0:0:0:
218,345,2529,2,0,L|215:246,1,99.5,2|0,0:0|0:0,0:0:0:0:
355,266,2854,2,0,L|352:167,1,99.5
183,236,3178,6,0,P|137:217|177:104,1,199,2|0,0:0|0:0,0:0:0:0:
265,104,3665,1,2,0:0:0:0:
434,327,3827,2,0,P|434:279|324:191,1,199,2|0,0:0|0:0,0:0:0:0:
157,326,4313,6,0,P|121:314|158:199,1,199,2|2,0:0|0:0,0:0:0:0:
309,190,4800,2,0,L|310:87,1,99.5,2|2,0:0|0:0,0:0:0:0:
171,304,5124,2,0,L|172:201,1,99.5,2|0,0:0|0:0,0:0:0:0:
309,190,5448,2,0,L|310:87,1,99.5,2|0,0:0|0:0,0:0:0:0:
70,340,5773,6,0,P|37:302|139:121,1,298.5,6|2,0:0|0:0,0:0:0:0:
377,315,6421,2,0,P|377:276|198:123,1,298.5,6|0,0:0|0:0,0:0:0:0:
438,340,7070,6,0,P|471:302|369:121,1,298.5,4|2,0:0|0:0,0:0:0:0:
130,312,7719,2,0,L|127:213,1,99.5,6|0,0:0|0:0,0:0:0:0:
266,232,8043,2,0,L|263:133,1,99.5
482,224,8367,6,0,L|485:125,1,99.5,6|2,0:0|0:0,0:0:0:0:
336,102,8692,1,10,0:0:0:0:
484,95,8854,1,8,0:0:0:0:
424,88,8935,1,8,0:0:0:0:
220,256,9016,1,10,0:0:0:0:
359,239,9178,2,0,L|362:140,1,99.5,2|2,0:0|0:0,0:0:0:0:
123,257,9502,6,0,P|89:226|149:108,1,199,6|8,0:0|0:0,0:0:0:0:
283,108,9989,1,8,0:0:0:0:
143,108,10151,1,8,0:0:0:0:
382,322,10313,2,0,L|386:271,1,49.75,8|0,0:0|0:0,0:0:0:0:
316,236,10475,2,0,L|290:191,1,49.75,8|0,0:0|0:0,0:0:0:0:
220,162,10638,2,0,L|170:160,1,49.75,8|0,0:0|0:0,0:0:0:0:
400,61,10800,2,0,L|350:59,1,49.75,8|0,0:0|0:0,0:0:0:0:
141,268,10962,6,0,L|241:267,2,99.5,6|8|2,0:0|0:0|0:0,0:0:0:0:
290,169,11448,2,0,L|240:167,1,49.75,8|8,0:0|0:0,0:0:0:0:
59,89,11611,2,0,L|159:88,2,99.5,10|8|2,0:0|0:0|0:0,0:0:0:0:
337,342,12097,6,0,L|341:241,1,99.5,12|0,0:0|0:0,0:0:0:0:
63,315,12421,2,0,L|59:214,1,99.5,12|0,0:0|0:0,0:0:0:0:
339,207,12746,2,0,P|395:196|404:74,1,199,12|8,0:0|0:0,0:0:0:0:
265,79,13232,1,2,0:0:0:0:
404,74,13394,1,10,0:0:0:0:
86,341,13556,6,0,L|82:240,1,99.5,6|10,0:0|0:0,0:0:0:0:
231,224,13881,1,2,0:0:0:0:
82,154,14043,1,10,0:0:0:0:
142,150,14124,1,8,0:0:0:0:
321,165,14205,2,0,L|325:64,1,99.5,10|8,0:0|0:0,0:0:0:0:
176,48,14530,1,2,0:0:0:0:
454,355,14692,6,0,L|458:254,1,99.5,12|0,0:0|0:0,0:0:0:0:
180,292,15016,2,0,L|176:191,1,99.5,12|0,0:0|0:0,0:0:0:0:
325,164,15340,1,8,0:0:0:0:
47,255,15502,2,0,L|43:154,1,99.5,6|8,0:0|0:0,0:0:0:0:
263,91,15827,2,0,L|213:90,1,49.75,2|0,0:0|0:0,0:0:0:0:
69,83,15989,2,0,L|19:82,1,49.75,8|0,0:0|0:0,0:0:0:0:
263,181,16151,6,0,L|362:179,2,99.5,6|8|2,0:0|0:0|0:0,0:0:0:0:
113,283,16638,2,0,L|163:282,1,49.75,8|8,0:0|0:0,0:0:0:0:
352,349,16800,2,0,L|253:347,2,99.5,10|8|2,0:0|0:0|0:0,0:0:0:0:
74,346,17286,6,0,L|70:245,1,99.5,12|0,0:0|0:0,0:0:0:0:
350,213,17611,2,0,L|354:112,1,99.5,12|0,0:0|0:0,0:0:0:0:
76,64,17935,2,0,L|274:59,1,199,8|8,0:0|0:0,0:0:0:0:
126,270,18421,2,0,L|122:169,1,99.5,2|8,0:0|0:0,0:0:0:0:
442,108,18746,5,6,0:0:0:0:
71,96,19394,1,12,0:0:0:0:
444,321,19881,6,0,L|342:316,1,99.5,6|0,0:0|0:0,0:0:0:0:
126,302,20205,2,0,L|24:297,1,99.5,12|0,0:0|0:0,0:0:0:0:
305,222,20529,1,12,0:0:0:0:
25,212,20692,2,0,P|22:175|105:114,1,149.25,8|0,0:0|0:0,0:0:0:0:
163,36,21016,2,0,L|63:32,1,99.5,12|0,3:0|0:0,0:0:0:0:
342,331,21340,6,0,P|377:324|436:190,1,199,6|0,0:0|3:0,0:0:0:0:
197,228,21989,2,0,L|194:129,1,99.5,10|2,0:0|0:0,0:0:0:0:
333,96,22313,1,2,3:0:0:0:
194,46,22475,1,10,0:0:0:0:
253,42,22556,1,8,0:0:0:0:
434,241,22638,6,0,L|438:139,1,99.5,2|10,3:0|0:0,0:0:0:0:
299,197,22962,2,0,L|303:95,1,99.5,0|2,3:0|0:0,0:0:0:0:
164,72,23286,1,8,0:0:0:0:
303,43,23448,2,0,L|403:47,2,99.5,2|2|2,0:0|3:0|0:0,0:0:0:0:
63,303,23935,6,0,P|34:266|112:163,1,199,0|0,3:0|3:0,0:0:0:0:
348,233,24583,1,10,0:0:0:0:
208,216,24746,2,0,L|205:115,1,99.5,2|2,0:0|0:0,0:0:0:0:
344,71,25070,1,2,0:0:0:0:
284,67,25151,1,8,0:0:0:0:
95,218,25232,6,0,L|90:118,1,99.5,12|2,0:0|3:0,0:0:0:0:
408,328,25556,2,0,L|413:228,1,99.5,12|2,0:0|0:0,0:0:0:0:
133,311,25881,1,10,0:0:0:0:
89,275,25962,1,8,0:0:0:0:
74,223,26043,1,8,0:0:0:0:
94,172,26124,1,8,0:0:0:0:
141,143,26205,1,8,0:0:0:0:
419,78,26367,6,0,L|219:70,1,199,6|2,0:0|3:0,0:0:0:0:
360,268,26854,2,0,L|365:168,1,99.5,10|2,0:0|0:0,0:0:0:0:
126,229,27178,1,2,3:0:0:0:
265,217,27340,2,0,L|270:117,1,99.5,0|8,3:0|0:0,0:0:0:0:
30,332,27665,6,0,L|230:324,1,199,14|2,0:0|3:0,0:0:0:0:
90,248,28151,2,0,L|85:148,1,99.5,10|2,0:0|0:0,0:0:0:0:
324,95,28475,2,0,L|225:89,1,99.5,2|0,3:0|3:0,0:0:0:0:
85,100,28800,1,8,0:0:0:0:
324,301,28962,6,0,P|376:288|369:166,1,199,14|2,0:0|3:0,0:0:0:0:
231,155,29448,2,0,L|228:55,1,99.5,10|2,0:0|0:0,0:0:0:0:
468,33,29773,2,0,L|369:30,2,99.5,2|2|10,3:0|3:0|0:0,0:0:0:0:
190,265,30259,5,2,0:0:0:0:
445,254,31232,1,0,3:0:0:0:
167,251,31394,2,0,L|162:102,1,149.25,6|0,0:0|0:0,0:0:0:0:
353,205,31719,6,0,P|404:193|400:70,1,199,6|8,0:0|0:0,0:0:0:0:
163,231,32367,1,2,3:0:0:0:
302,218,32529,2,0,L|305:118,1,99.5,2|10,3:0|0:0,0:0:0:0:
65,317,32854,6,0,L|62:217,1,99.5,2|0,3:0|0:0,0:0:0:0:
201,196,33178,2,0,L|204:96,1,99.5,2|8,3:0|0:0,0:0:0:0:
343,160,33502,2,0,P|378:133|317:23,1,199,2|2,3:0|3:0,0:0:0:0:
178,38,33989,2,0,L|175:138,1,99.5,10|2,0:0|0:0,0:0:0:0:
414,297,34313,6,0,P|456:274|407:163,1,199,0|8,3:0|0:0,0:0:0:0:
175,158,34962,2,0,L|274:154,2,99.5,2|2|10,3:0|3:0|0:0,0:0:0:0:
414,280,35448,6,0,L|419:179,1,99.5,2|0,3:0|0:0,0:0:0:0:
279,208,35773,2,0,L|284:107,1,99.5,2|8,3:0|0:0,0:0:0:0:
145,85,36097,1,2,3:0:0:0:
384,322,36259,1,10,0:0:0:0:
433,292,36340,1,8,0:0:0:0:
451,235,36421,1,8,0:0:0:0:
426,182,36502,1,8,0:0:0:0:
372,161,36583,1,8,0:0:0:0:
132,76,36746,6,0,L|331:68,1,199,6|2,0:0|3:0,0:0:0:0:
192,275,37232,2,0,L|189:174,1,99.5,10|2,0:0|0:0,0:0:0:0:
428,149,37556,2,0,L|326:145,2,99.5,2|0|8,3:0|3:0|0:0,0:0:0:0:
188,319,38043,6,0,P|119:299|137:191,1,199,6|2,0:0|3:0,0:0:0:0:
373,156,38529,2,0,L|474:154,1,99.5,10|2,0:0|0:0,0:0:0:0:
232,357,38854,1,2,3:0:0:0:
371,341,39016,2,0,L|374:240,1,99.5,0|8,3:0|0:0,0:0:0:0:
135,273,39340,6,0,P|66:253|84:145,1,199,6|2,0:0|3:0,0:0:0:0:
322,114,39827,2,0,L|423:112,1,99.5,10|2,0:0|0:0,0:0:0:0:
183,251,40151,2,0,L|282:252,2,99.5,2|2|10,3:0|3:0|0:0,0:0:0:0:
443,349,40638,6,0,L|447:250,1,99.5,6|0,0:0|0:0,0:0:0:0:
189,205,40962,1,10,0:0:0:0:
447,220,41124,1,10,0:0:0:0:
454,161,41205,1,8,0:0:0:0:
425,110,41286,1,8,0:0:0:0:
371,88,41367,1,8,0:0:0:0:
182,85,41448,1,10,3:0:0:0:
442,322,41611,2,0,L|446:222,1,99.5,8|4,3:0|3:0,0:0:0:0:
307,202,41935,1,4,3:0:0:0:
49,290,42097,6,0,L|45:190,1,99.5,6|0,0:0|0:0,0:0:0:0:
184,189,42421,2,0,L|188:89,1,99.5,8|0,0:0|3:0,0:0:0:0:
428,174,42746,2,0,L|424:74,1,99.5,10|0,0:0|0:0,0:0:0:0:
185,32,43070,1,8,0:0:0:0:
325,27,43232,1,2,3:0:0:0:
86,192,43394,6,0,L|186:188,1,99.5,8|2,0:0|0:0,0:0:0:0:
325,180,43719,2,0,L|425:176,1,99.5,10|0,0:0|3:0,0:0:0:0:
186,352,44043,2,0,L|184:252,1,99.5,10|0,0:0|3:0,0:0:0:0:
325,180,44367,1,8,0:0:0:0:
185,175,44529,1,2,3:0:0:0:
425,282,44692,6,0,L|427:182,1,99.5,8|2,0:0|0:0,0:0:0:0:
288,199,45016,2,0,L|290:99,1,99.5,10|2,0:0|3:0,0:0:0:0:
51,70,45340,1,10,0:0:0:0:
290,62,45502,1,2,3:0:0:0:
160,67,45665,1,10,0:0:0:0:
290,62,45827,1,2,3:0:0:0:
32,332,45989,6,0,L|30:232,1,99.5,14|0,0:0|0:0,0:0:0:0:
288,173,46313,2,0,L|187:169,1,99.5,14|0,0:0|0:0,0:0:0:0:
449,224,46638,2,0,L|451:124,1,99.5,14|0,0:0|0:0,0:0:0:0:
193,79,46962,2,0,L|242:77,1,49.75,14|8,0:0|0:0,0:0:0:0:
402,66,47124,2,0,L|453:64,1,49.75,8|8,0:0|0:0,0:0:0:0:
243,233,47286,6,0,L|141:231,1,99.5,6|0,0:0|0:0,0:0:0:0:
284,335,47611,2,0,L|386:333,1,99.5,8|0,0:0|3:0,0:0:0:0:
145,308,47935,2,0,L|143:208,1,99.5,10|0,0:0|0:0,0:0:0:0:
284,136,48259,1,8,0:0:0:0:
144,131,48421,1,2,3:0:0:0:
383,41,48583,6,0,L|281:39,1,99.5,8|2,0:0|0:0,0:0:0:0:
424,247,48908,2,0,L|426:147,1,99.5,10|0,0:0|3:0,0:0:0:0:
168,320,49232,2,0,L|166:220,1,99.5,10|0,0:0|3:0,0:0:0:0:
424,124,49556,2,0,L|322:122,1,99.5,14|0,0:0|3:0,0:0:0:0:
64,328,49881,6,0,P|44:294|129:186,1,199,6|8,0:0|0:0,0:0:0:0:
266,184,50367,2,0,L|269:133,1,49.75,2|0,3:0|3:0,0:0:0:0:
90,54,50529,2,0,L|191:51,1,99.5,2|0,3:0|3:0,0:0:0:0:
329,150,50854,2,0,L|228:147,1,99.5,10|0,0:0|3:0,0:0:0:0:
468,335,51178,6,0,L|471:232,1,99.5,2|0,3:0|3:0,0:0:0:0:
232,294,51502,2,0,L|131:291,1,99.5,10|0,0:0|3:0,0:0:0:0:
273,208,51827,2,0,L|374:205,1,99.5,2|0,3:0|3:0,0:0:0:0:
134,116,52151,2,0,L|33:113,1,99.5,14|0,0:0|3:0,0:0:0:0:
396,289,52475,5,14,0:0:0:0:
252,283,52637,1,0,3:0:0:0:
110,279,52799,1,0,3:0:0:0:
414,163,52962,2,0,L|308:161,2,99.5,12|0|0,0:0|3:0|3:0,0:0:0:0:
156,76,53448,2,0,L|205:74,1,49.75,12|8,0:0|0:0,0:0:0:0:
365,63,53610,2,0,L|416:61,1,49.75,8|8,0:0|0:0,0:0:0:0:
203,185,53773,5,6,0:0:0:0:
441,301,54097,1,0,0:0:0:0:
256,285,54421,1,0,0:0:0:0:
71,301,54746,1,0,0:0:0:0:
470,320,55070,6,0,P|477:273|449:227,1,99.5,6|8,0:0|0:0,0:0:0:0:
382,211,55313,1,0,0:0:0:0:
173,121,55394,2,0,L|275:117,1,99.5,2|8,3:0|0:0,0:0:0:0:
343,113,55638,1,8,0:0:0:0:
134,260,55719,2,0,L|32:256,1,99.5,2|8,3:0|0:0,0:0:0:0:
104,214,55962,1,0,0:0:0:0:
313,193,56043,2,0,L|415:189,1,99.5,2|8,3:0|0:0,0:0:0:0:
134,341,56367,6,0,L|130:241,1,99.5,2|8,3:0|0:0,0:0:0:0:
230,208,56692,1,0,3:0:0:0:
349,126,56854,1,10,0:0:0:0:
290,123,56935,1,8,0:0:0:0:
111,66,57016,2,0,L|212:62,1,99.5,2|8,3:0|0:0,0:0:0:0:
350,53,57340,2,0,L|451:49,1,99.5,2|10,3:0|0:0,0:0:0:0:
169,334,57665,6,0,L|166:233,1,99.5,2|8,3:0|0:0,0:0:0:0:
236,219,57908,1,0,0:0:0:0:
445,224,57989,2,0,L|448:123,1,99.5,2|8,3:0|0:0,0:0:0:0:
378,109,58232,1,8,0:0:0:0:
169,96,58313,2,0,L|68:93,1,99.5,2|8,3:0|0:0,0:0:0:0:
139,60,58556,1,0,0:0:0:0:
351,44,58638,2,0,L|452:41,1,99.5,2|8,3:0|0:0,0:0:0:0:
172,282,58962,5,2,3:0:0:0:
311,269,59124,2,0,L|313:163,1,99.5,8|0,0:0|3:0,0:0:0:0:
174,105,59448,1,10,0:0:0:0:
233,102,59529,1,8,0:0:0:0:
414,191,59611,2,0,L|313:188,1,99.5,2|8,3:0|0:0,0:0:0:0:
36,344,59935,2,0,L|33:243,1,99.5,6|10,3:2|0:0,0:0:0:0:
311,300,60259,6,0,L|360:298,1,49.75,6|0,0:0|0:0,0:0:0:0:
201,214,60421,2,0,L|152:212,2,49.75,8|8|10,3:0|3:0|3:0,0:0:0:0:
441,255,60746,2,0,P|475:222|406:115,1,199,6|0,0:0|3:0,0:0:0:0:
131,329,61232,2,10,L|127:229,1,99.5,10|0,0:0|0:0,0:0:0:0:
398,148,61556,6,0,L|349:146,1,49.75,6|0,0:0|0:0,0:0:0:0:
187,56,61719,2,0,L|236:54,1,49.75,8|8,3:0|3:0,0:0:0:0:
307,57,61881,1,10,3:0:0:0:
68,282,62043,2,0,P|34:249|103:142,1,199,6|0,0:0|3:0,0:0:0:0:
378,340,62529,2,10,L|382:239,1,99.5,10|0,0:0|0:0,0:0:0:0:
102,226,62854,6,0,P|95:179|123:133,1,99.5,4|8,0:0|0:0,0:0:0:0:
190,117,63097,1,0,0:0:0:0:
399,288,63178,2,0,P|406:241|378:195,1,99.5,2|10,3:0|0:0,0:0:0:0:
311,179,63421,1,8,0:0:0:0:
102,312,63502,2,0,L|207:308,1,99.5,2|8,3:0|0:0,0:0:0:0:
341,294,63827,1,2,3:0:0:0:
202,284,63989,1,10,0:0:0:0:
480,285,64151,6,0,L|484:184,1,99.5,6|10,0:0|0:0,0:0:0:0:
245,117,64475,2,0,L|144:114,1,99.5,2|8,3:0|0:0,0:0:0:0:
215,81,64718,1,8,0:0:0:0:
406,348,64800,5,10,3:0:0:0:
451,308,64881,1,8,3:0:0:0:
479,256,64962,1,8,3:0:0:0:
486,197,65043,1,8,3:0:0:0:
472,139,65124,1,6,3:0:0:0:
439,90,65205,1,4,3:0:0:0:
390,56,65286,1,4,3:0:0:0:
333,42,65367,1,4,3:0:0:0:
143,40,65448,6,0,L|42:43,1,99.5,6|8,0:0|0:0,0:0:0:0:
113,75,65691,1,0,0:0:0:0:
325,128,65773,2,0,L|426:131,1,99.5,2|8,3:0|0:0,0:0:0:0:
355,163,66016,1,8,0:0:0:0:
146,334,66097,2,0,P|139:287|167:241,1,99.5,2|8,3:0|0:0,0:0:0:0:
234,225,66340,1,0,0:0:0:0:
443,270,66421,2,0,L|344:267,1,99.5,2|8,3:0|0:0,0:0:0:0:
64,254,66746,6,0,L|60:151,1,99.5,2|8,3:0|0:0,0:0:0:0:
199,134,67070,1,0,3:0:0:0:
60,73,67232,1,10,0:0:0:0:
120,70,67313,1,8,0:0:0:0:
299,248,67394,2,0,L|303:149,1,99.5,2|8,3:0|0:0,0:0:0:0:
163,179,67719,2,0,L|167:80,1,99.5,2|10,3:0|0:0,0:0:0:0:
445,273,68043,6,0,P|452:226|424:180,1,99.5,2|8,3:0|0:0,0:0:0:0:
357,164,68286,1,0,0:0:0:0:
148,155,68367,2,0,L|47:158,1,99.5,2|8,3:0|0:0,0:0:0:0:
118,190,68610,1,8,0:0:0:0:
330,156,68692,2,0,P|337:109|309:63,1,99.5,2|8,3:0|0:0,0:0:0:0:
242,47,68935,1,0,0:0:0:0:
33,279,69016,2,0,L|133:276,1,99.5,2|8,3:0|0:0,0:0:0:0:
412,259,69340,6,0,L|416:156,1,99.5,2|8,3:0|0:0,0:0:0:0:
277,139,69664,1,0,3:0:0:0:
416,78,69826,1,10,0:0:0:0:
356,75,69907,1,8,0:0:0:0:
175,228,69989,2,0,L|275:225,1,99.5,2|8,3:0|0:0,0:0:0:0:
16,99,70313,2,0,L|116:96,1,99.5,6|10,3:2|0:0,0:0:0:0:
395,235,70638,6,0,L|399:183,1,49.75,6|0,0:0|0:0,0:0:0:0:
240,101,70800,2,0,L|292:98,1,49.75,8|8,3:0|3:0,0:0:0:0:
359,99,70962,1,10,3:0:0:0:
81,311,71124,2,0,P|37:296|80:189,1,199,6|0,0:0|3:0,0:0:0:0:
361,255,71611,2,10,L|364:156,1,99.5,10|0,0:0|0:0,0:0:0:0:
86,88,71935,6,0,L|140:86,1,49.75,6|0,0:0|0:0,0:0:0:0:
295,81,72097,2,0,L|345:82,2,49.75,8|8|10,3:0|3:0|3:0,0:0:0:0:
17,300,72421,2,0,P|17:267|135:173,1,199,6|0,0:0|3:0,0:0:0:0:
415,175,72908,2,10,L|418:76,1,99.5,10|0,0:0|0:0,0:0:0:0:
140,338,73232,6,0,L|136:235,1,99.5,4|8,0:0|0:0,0:0:0:0:
275,218,73556,1,2,3:0:0:0:
136,157,73718,1,10,0:0:0:0:
196,154,73799,1,8,0:0:0:0:
377,235,73881,2,0,L|381:132,1,99.5,2|8,3:0|0:0,0:0:0:0:
242,115,74205,1,2,3:0:0:0:
381,54,74367,1,10,0:0:0:0:
242,29,74529,5,2,3:0:0:0:
482,188,74692,1,14,0:0:0:0:
204,263,74854,2,0,L|101:259,1,99.5,14|10,0:0|0:0,0:0:0:0:
174,222,75097,1,0,0:0:0:0:
353,253,75178,5,10,3:0:0:0:
387,205,75259,1,0,3:0:0:0:
374,148,75340,1,8,3:0:0:0:
323,119,75421,1,0,3:0:0:0:
114,103,75502,2,0,L|163:100,1,49.75,6|0,3:0|3:0,0:0:0:0:
323,86,75665,2,0,L|372:83,1,49.75,4|0,3:0|3:0,0:0:0:0:
144,324,75827,6,0,P|123:296|203:183,1,199,6|0,0:0|3:0,0:0:0:0:
299,184,76313,1,2,3:0:0:0:
60,37,76475,2,0,L|258:34,1,199,10|2,0:0|3:0,0:0:0:0:
119,120,76962,1,8,0:0:0:0:
358,290,77124,6,0,L|363:189,1,99.5,2|8,0:0|0:0,0:0:0:0:
264,217,77448,2,0,L|259:116,1,99.5,0|0,3:0|0:0,0:0:0:0:
499,29,77773,2,0,L|301:26,1,199,10|10,0:0|3:0,0:0:0:0:
440,112,78260,1,4,3:0:0:0:
203,251,78421,6,0,L|303:249,1,99.5,4|0,0:0|3:0,0:0:0:0:
162,170,78746,2,0,L|158:70,1,99.5,8|2,0:0|3:0,0:0:0:0:
397,269,79070,2,0,P|442:243|391:134,1,199,10|4,0:0|0:3,0:0:0:0:
294,134,79556,1,8,0:0:0:0:
54,240,79719,6,0,L|49:140,1,99.5,0|8,3:0|0:0,0:0:0:0:
148,188,80043,2,0,L|143:88,1,99.5,0|0,3:0|0:0,0:0:0:0:
382,48,80367,2,0,P|416:61|383:142,1,149.25,12|0,0:0|0:0,0:0:0:0:
313,192,80692,2,0,L|310:140,1,49.75,14|2,0:0|0:0,0:0:0:0:
380,264,80854,2,0,L|377:212,1,49.75,2|2,3:0|0:0,0:0:0:0:
188,149,81016,6,0,L|139:146,1,49.75,6|0,0:0|0:0,0:0:0:0:
298,275,81178,2,0,L|347:272,2,49.75,8|8|10,3:0|3:0|3:0,0:0:0:0:
40,293,81502,2,0,P|21:262|104:152,1,199,6|0,0:0|3:0,0:0:0:0:
384,159,81989,2,10,L|484:164,1,99.5,10|0,0:0|0:0,0:0:0:0:
165,344,82313,6,0,L|161:292,1,49.75,6|0,0:0|0:0,0:0:0:0:
320,210,82475,2,0,L|268:207,1,49.75,8|8,3:0|3:0,0:0:0:0:
201,208,82637,1,10,3:0:0:0:
461,265,82800,2,0,P|486:229|414:116,1,199,6|0,0:0|3:0,0:0:0:0:
135,111,83286,2,10,L|35:116,1,99.5,10|0,0:0|0:0,0:0:0:0:
316,284,83611,6,0,L|215:279,2,99.5,4|8|2,0:0|0:0|3:0,0:0:0:0:
167,189,84097,2,0,L|220:187,1,49.75,10|8,0:0|0:0,0:0:0:0:
396,204,84259,2,0,L|400:104,1,99.5,2|8,3:0|0:0,0:0:0:0:
261,65,84583,1,2,3:0:0:0:
401,58,84746,1,10,0:0:0:0:
123,161,84908,6,0,L|22:156,1,99.5,6|10,0:0|0:0,0:0:0:0:
302,312,85232,2,0,L|403:307,1,99.5,2|10,3:0|0:0,0:0:0:0:
332,255,85475,1,8,0:0:0:0:
143,241,85556,5,10,3:0:0:0:
108,195,85637,1,8,3:0:0:0:
120,138,85718,1,8,3:0:0:0:
171,111,85799,1,8,3:0:0:0:
362,237,85881,1,6,3:0:0:0:
397,191,85962,1,4,3:0:0:0:
385,134,86043,1,4,3:0:0:0:
334,107,86124,1,4,3:0:0:0:
145,97,86205,6,0,L|44:92,1,99.5,6|8,0:0|0:0,0:0:0:0:
304,326,86529,2,0,L|308:221,1,99.5,0|10,3:0|0:0,0:0:0:0:
237,211,86773,1,8,0:0:0:0:
47,172,86854,2,0,L|148:167,1,99.5,2|0,3:0|3:0,0:0:0:0:
385,171,87178,1,8,0:0:0:0:
67,86,87340,1,12,0:0:0:0:
307,331,87665,5,2,0:0:0:0:
313,231,87827,1,2,0:0:0:0:
213,198,87989,1,2,0:0:0:0:
352,159,88151,1,2,0:0:0:0:
129,86,88313,1,0,3:0:0:0:
407,88,88475,2,0,P|456:135|410:185,1,149.25,12|0,0:0|0:0,0:0:0:0:
193,206,88800,6,0,L|94:203,2,99.5,6|8|0,0:0|0:0|3:0,0:0:0:0:
332,98,89286,2,0,L|281:101,1,49.75,10|8,0:0|0:0,0:0:0:0:
93,296,89448,2,0,L|192:293,2,99.5,2|8|0,3:0|0:0|3:0,0:0:0:0:
373,344,89935,6,0,P|428:328|409:213,1,199,10|10,0:0|0:0,0:0:0:0:
130,186,90421,2,0,L|126:84,1,99.5,0|10,3:0|0:0,0:0:0:0:
197,72,90665,1,8,0:0:0:0:
356,169,90746,2,0,L|255:165,1,99.5,2|8,3:0|0:0,0:0:0:0:
495,298,91070,2,0,L|394:294,1,99.5,2|8,3:0|0:0,0:0:0:0:
117,191,91394,6,0,L|216:188,2,99.5,6|8|0,0:0|0:0|3:0,0:0:0:0:
256,87,91880,2,0,L|205:90,1,49.75,10|8,0:0|0:0,0:0:0:0:
27,291,92042,2,0,L|126:294,2,99.5,2|8|0,3:0|0:0|3:0,0:0:0:0:
307,341,92529,6,0,P|346:327|308:213,1,199,10|10,0:0|0:0,0:0:0:0:
27,202,93016,2,0,L|23:100,1,99.5,2|8,3:0|0:0,0:0:0:0:
93,92,93259,1,8,0:0:0:0:
283,80,93340,2,0,L|383:79,1,99.5,2|8,3:0|0:0,0:0:0:0:
142,288,93665,1,6,3:2:0:0:
118,235,93746,1,2,0:0:0:0:
138,181,93827,1,10,0:0:0:0:
192,158,93908,1,2,0:0:0:0:
381,148,93989,6,0,L|480:145,2,99.5,6|8|0,0:0|0:0|3:0,0:0:0:0:
242,274,94475,2,0,L|293:271,1,49.75,10|8,0:0|0:0,0:0:0:0:
483,54,94638,2,0,L|384:57,2,99.5,2|8|0,3:0|0:0|3:0,0:0:0:0:
205,348,95124,6,0,P|152:336|156:213,1,199,10|10,0:0|0:0,0:0:0:0:
434,189,95611,2,0,L|438:90,1,99.5,0|10,3:0|0:0,0:0:0:0:
368,66,95854,1,8,0:0:0:0:
179,261,95935,2,0,L|175:162,1,99.5,2|8,3:0|0:0,0:0:0:0:
453,274,96259,2,0,L|353:271,1,99.5,6|8,0:0|0:0,0:0:0:0:
75,71,96583,6,0,L|175:68,2,99.5,2|10|2,3:0|0:0|3:0,0:0:0:0:
315,212,97070,2,0,L|365:207,1,49.75,10|8,0:0|0:0,0:0:0:0:
175,318,97232,2,0,L|275:321,2,99.5,10|10|6,3:0|3:0|3:0,0:0:0:0:
455,289,97719,1,14,0:0:0:0:
