osu file format v14

[General]
AudioFilename: audio.mp3
AudioLeadIn: 0
PreviewTime: 54989
Countdown: 0
SampleSet: Soft
StackLeniency: 0.7
Mode: 2
LetterboxInBreaks: 0
WidescreenStoryboard: 1

[Editor]
DistanceSpacing: 1.4
BeatDivisor: 4
GridSize: 32
TimelineZoom: 2.1

[Metadata]
Title:Girl meets Love (Short Ver.)
TitleUnicode:Girl meets Love (Short Ver.)
Artist:Katakiri Rekka & Suzuyu
ArtistUnicode:片霧烈火&鈴湯
Creator:-Joakh
Version:Jemzuu's Rain
Source:花咲ワークスプリング!
Tags:Jemzuu AJamez Nelly amulet-pp -Hex- HANASAKI WORK SPRING! sagaplanets eroge visual novel VN video game japanese opening サガプラネッツ SAGA PLANETS うらん 山口朗彥 Yamaguchi Akihiko 水月陵 Arte Refact PMMK
BeatmapID:2802250
BeatmapSetID:1344930

[Difficulty]
HPDrainRate:6
CircleSize:4
OverallDifficulty:9
ApproachRate:9
SliderMultiplier:1.82
SliderTickRate:2

[Events]
//Background and Video events
0,0,"BG5.jpg",0,0
//Break Periods
//Storyboard Layer 0 (Background)
//Storyboard Layer 1 (Fail)
//Storyboard Layer 2 (Pass)
//Storyboard Layer 3 (Foreground)
//Storyboard Layer 4 (Overlay)
//Storyboard Sound Samples

[TimingPoints]
584,324.324324324324,4,2,1,40,1,0
584,-100,4,2,1,40,0,0
5773,-100,4,2,1,60,0,0
9989,-100,4,2,1,50,0,0
10313,-100,4,2,1,60,0,0
10638,-100,4,2,1,70,0,0
10962,-100,4,2,3,60,0,1
11043,-100,4,2,3,60,0,0
12097,-100,4,2,3,70,0,0
12340,-100,4,2,3,5,0,0
12421,-100,4,2,3,70,0,0
12665,-100,4,2,3,5,0,0
12746,-100,4,2,3,70,0,0
12908,-100,4,2,3,60,0,0
14692,-100,4,2,3,70,0,0
14935,-100,4,2,3,5,0,0
15016,-100,4,2,3,70,0,0
15259,-100,4,2,3,5,0,0
15340,-100,4,2,3,70,0,0
15502,-100,4,2,3,60,0,0
17286,-100,4,2,3,70,0,0
17529,-100,4,2,3,5,0,0
17611,-100,4,2,3,70,0,0
17854,-100,4,2,3,5,0,0
17935,-100,4,2,3,70,0,0
18097,-100,4,2,3,60,0,0
19881,-100,4,2,3,70,0,0
20124,-100,4,2,3,5,0,0
20205,-100,4,2,3,70,0,0
20448,-100,4,2,3,5,0,0
20529,-100,4,2,3,70,0,0
20692,-100,4,2,3,60,0,0
20935,-100,4,2,3,5,0,0
21016,-100,4,2,1,75,0,0
21259,-100,4,2,1,5,0,0
21340,-100,4,2,1,50,0,0
25881,-100,4,2,1,60,0,0
30583,-100,4,2,1,40,0,0
31232,-100,4,2,1,60,0,0
31394,-100,4,2,2,75,0,0
31638,-100,4,2,2,5,0,0
31719,-100,4,2,1,60,0,0
41773,-100,4,2,1,60,0,0
45989,-100,4,2,1,50,0,0
46232,-100,4,2,1,5,0,0
46313,-100,4,2,1,60,0,0
46556,-100,4,2,1,5,0,0
46638,-100,4,2,1,70,0,0
46881,-100,4,2,1,5,0,0
46962,-100,4,2,1,75,0,0
47286,-100,4,2,1,60,0,0
52475,-100,4,2,1,70,0,0
53773,-100,4,2,1,60,0,0
54097,-100,4,2,1,50,0,0
54340,-100,4,2,1,5,0,0
54421,-100,4,2,1,60,0,0
54665,-100,4,2,1,5,0,0
54746,-100,4,2,1,70,0,0
54989,-100,4,2,1,5,0,0
55070,-100,4,2,1,70,0,1
61232,-100,4,2,1,70,0,1
61394,-100,4,2,1,70,0,1
61556,-100,4,2,1,70,0,1
62529,-100,4,2,1,70,0,1
62692,-100,4,2,1,70,0,1
62854,-100,4,2,1,70,0,1
64881,-100,4,2,1,50,0,1
65367,-100,4,2,1,50,0,0
65448,-100,4,2,1,70,0,1
71611,-100,4,2,1,70,0,1
71773,-100,4,2,1,70,0,1
71935,-100,4,2,1,70,0,1
72908,-100,4,2,1,70,0,1
73070,-100,4,2,1,70,0,1
73232,-100,4,2,1,70,0,1
75827,-100,4,2,1,60,0,0
80611,-100,4,2,1,5,0,0
80692,-100,4,2,1,60,0,0
81016,-100,4,2,1,70,0,1
81502,-100,4,2,1,70,0,1
81989,-100,4,2,1,70,0,1
82151,-100,4,2,1,70,0,1
82800,-100,4,2,1,70,0,1
83286,-100,4,2,1,70,0,1
83448,-100,4,2,1,70,0,1
83611,-100,4,2,1,70,0,1
85638,-100,4,2,1,50,0,1
86205,-100,4,2,1,60,0,0
87583,-100,4,2,1,5,0,0
87665,-100,4,2,1,45,0,0
87827,-100,4,2,1,50,0,0
87989,-100,4,2,1,55,0,0
88151,-100,4,2,1,60,0,0
88313,-100,4,2,1,65,0,0
88475,-100,4,2,2,70,0,0
88800,-100,4,2,1,60,0,1
97719,-100,4,2,1,60,0,0
98205,-100,4,2,1,5,0,0

[Colours]
Combo1 : 203,121,223
Combo2 : 254,109,192
Combo3 : 13,242,214
Combo4 : 250,226,171

[HitObjects]
420,329,584,6,0,P|453:255|359:209,1,182,6|0,0:0|0:0,0:0:0:0:
274,213,1070,1,2,0:0:0:0:
161,231,1232,2,0,P|128:157|222:111,1,182,2|0,0:0|0:0,0:0:0:0:
318,98,1719,6,0,L|325:200,1,91,2|0,0:0|0:0,0:0:0:0:
195,220,2043,2,0,L|396:308,1,182,2|2,0:0|0:0,0:0:0:0:
225,318,2529,2,0,L|42:249,1,182,2|0,0:0|0:0,0:0:0:0:
325,364,3178,6,0,P|346:311|247:241,1,182,2|0,0:0|0:0,0:0:0:0:
147,244,3665,1,2,0:0:0:0:
27,246,3827,2,0,L|208:166,1,182,2|0,0:0|0:0,0:0:0:0:
321,173,4313,1,2,0:0:0:0:
194,171,4475,5,0,0:0:0:0:
146,106,4638,1,2,0:0:0:0:
194,171,4800,1,2,0:0:0:0:
321,173,4962,1,2,0:0:0:0:
172,271,5124,2,0,L|8:182,1,182,2|2,0:0|0:0,0:0:0:0:
312,353,5773,6,0,P|336:282|184:191,1,273,6|2,0:0|0:0,0:0:0:0:
453,271,6421,2,0,P|477:200|325:109,1,273,6|0,0:0|0:0,0:0:0:0:
83,131,7070,5,4,0:0:0:0:
203,150,7232,2,0,P|303:177|345:271,1,182,0|2,0:0|0:0,0:0:0:0:
99,346,7719,2,0,P|64:277|171:226,1,182,6|0,0:0|0:0,0:0:0:0:
404,289,8367,5,6,0:0:0:0:
452,180,8529,1,2,0:0:0:0:
404,289,8692,1,10,0:0:0:0:
264,200,8854,2,0,L|241:153,2,45.5,8|8|10,0:0|0:0|0:0,0:0:0:0:
404,289,9178,2,0,L|308:287,1,91,2|2,0:0|0:0,0:0:0:0:
28,242,9502,6,0,L|237:269,1,182,6|8,0:0|0:0,0:0:0:0:
88,311,9989,1,8,0:0:0:0:
217,328,10151,2,0,L|244:277,2,45.5,8|8|8,0:0|0:0|0:0,0:0:0:0:
81,342,10475,1,8,0:0:0:0:
330,360,10638,2,0,L|456:355,1,91,8|8,0:0|0:0,0:0:0:0:
155,330,10962,6,0,L|146:213,1,91,6|8,0:0|0:0,0:0:0:0:
281,183,11286,2,0,L|178:179,1,91,2|8,0:0|0:0,0:0:0:0:
338,111,11611,2,0,L|458:109,2,91,10|8|2,0:0|0:0|0:0,0:0:0:0:
91,150,12097,6,0,L|70:46,1,91,12|0,0:0|0:0,0:0:0:0:
221,49,12421,2,0,L|314:39,1,91,12|0,0:0|0:0,0:0:0:0:
48,61,12746,2,0,P|26:125|130:160,1,182,12|8,0:0|0:0,0:0:0:0:
238,174,13232,1,2,0:0:0:0:
112,170,13394,1,10,0:0:0:0:
375,139,13556,5,6,0:0:0:0:
417,215,13718,1,10,0:0:0:0:
379,294,13880,1,2,0:0:0:0:
293,310,14042,1,10,0:0:0:0:
165,333,14205,2,0,L|276:332,2,91,10|8|2,0:0|0:0|0:0,0:0:0:0:
443,358,14692,6,0,L|451:245,1,91,12|0,0:0|0:0,0:0:0:0:
197,246,15016,2,0,L|192:134,1,91,12|0,0:0|0:0,0:0:0:0:
322,138,15340,1,8,0:0:0:0:
67,176,15502,2,0,L|57:69,1,91,6|8,0:0|0:0,0:0:0:0:
193,41,15827,2,0,L|76:44,1,91,2|8,0:0|0:0,0:0:0:0:
349,121,16151,6,0,L|458:129,1,91,6|8,0:0|0:0,0:0:0:0:
300,191,16475,2,0,L|295:300,1,91,2|8,0:0|0:0,0:0:0:0:
445,308,16800,2,0,L|450:210,1,91,10|8,0:0|0:0,0:0:0:0:
322,200,17124,1,2,0:0:0:0:
64,117,17286,6,0,L|168:97,1,91,12|0,0:0|0:0,0:0:0:0:
406,31,17611,2,0,L|285:29,1,91,12|0,0:0|0:0,0:0:0:0:
56,120,17935,2,0,L|33:173,1,45.5,8|8,0:0|0:0,0:0:0:0:
56,120,18097,2,0,L|174:116,1,91,6|8,0:0|0:0,0:0:0:0:
280,103,18421,1,2,0:0:0:0:
148,117,18583,1,8,0:0:0:0:
438,212,18746,5,6,0:0:0:0:
37,317,19394,1,12,0:0:0:0:
397,354,19881,6,0,L|206:326,1,182,6|12,0:0|0:0,0:0:0:0:
470,283,20529,1,12,0:0:0:0:
172,251,20692,6,0,P|108:237|125:133,1,182,8|12,0:0|3:0,0:0:0:0:
432,47,21340,6,0,L|447:249,1,182,6|0,0:0|3:0,0:0:0:0:
185,335,21989,2,0,L|76:335,2,91,10|2|2,0:0|0:0|3:0,0:0:0:0:
315,282,22475,2,0,L|272:255,1,45.5,10|8,0:0|0:0,0:0:0:0:
221,256,22638,5,2,3:0:0:0:
362,224,22800,2,0,L|364:122,1,91,10|0,0:0|3:0,0:0:0:0:
226,103,23124,2,0,L|125:100,1,91,2|8,0:0|0:0,0:0:0:0:
284,45,23448,2,0,L|379:40,2,91,2|2|2,0:0|3:0|0:0,0:0:0:0:
126,31,23935,6,0,L|111:226,1,182,0|0,3:0|3:0,0:0:0:0:
380,299,24583,2,0,L|472:300,2,91,10|2|2,0:0|0:0|0:0,0:0:0:0:
251,289,25070,2,0,L|186:298,1,45.5,2|8,0:0|0:0,0:0:0:0:
408,227,25232,5,12,0:0:0:0:
448,149,25394,1,2,3:0:0:0:
405,74,25556,1,12,0:0:0:0:
314,66,25718,1,2,0:0:0:0:
160,135,25881,1,10,0:0:0:0:
205,141,25962,1,8,0:0:0:0:
254,148,26043,1,8,0:0:0:0:
308,152,26124,1,8,0:0:0:0:
365,160,26205,1,8,0:0:0:0:
78,356,26367,6,0,P|65:277|161:232,1,182,6|2,0:0|3:0,0:0:0:0:
266,231,26854,1,10,0:0:0:0:
142,229,27016,1,2,0:0:0:0:
288,304,27178,2,0,P|346:288|332:165,1,182,2|8,3:0|0:0,0:0:0:0:
102,116,27665,6,0,L|301:70,1,182,14|2,0:0|3:0,0:0:0:0:
179,18,28151,1,10,0:0:0:0:
58,32,28313,1,2,0:0:0:0:
203,135,28475,2,0,L|300:141,2,91,2|0|8,3:0|3:0|0:0,0:0:0:0:
471,76,28962,6,0,P|494:145|405:201,1,182,14|2,0:0|3:0,0:0:0:0:
294,224,29448,1,10,0:0:0:0:
417,203,29611,1,2,0:0:0:0:
280,309,29773,2,0,L|182:307,2,91,2|2|10,3:0|3:0|0:0,0:0:0:0:
9,226,30259,5,6,0:0:0:0:
490,94,31232,1,0,3:0:0:0:
217,64,31394,2,0,L|63:68,1,136.5,6|0,0:0|0:0,0:0:0:0:
295,195,31719,6,0,L|471:257,2,182,6|8|2,0:0|0:0|3:0,0:0:0:0:
171,211,32529,1,2,3:0:0:0:
295,193,32692,1,10,0:0:0:0:
143,276,32854,6,0,P|117:208|224:158,1,182,2|2,3:0|3:0,0:0:0:0:
305,155,33340,1,8,0:0:0:0:
433,185,33502,2,0,P|451:129|349:62,1,182,2|2,3:0|3:0,0:0:0:0:
238,72,33989,1,10,0:0:0:0:
368,60,34151,1,2,0:0:0:0:
117,225,34313,6,0,L|301:316,2,182,0|8|2,3:0|0:0|3:0,0:0:0:0:
248,192,35124,1,2,3:0:0:0:
119,226,35286,1,10,0:0:0:0:
269,215,35448,6,0,L|281:114,1,91,2|0,3:0|0:0,0:0:0:0:
135,102,35773,2,0,L|27:108,1,91,2|8,3:0|0:0,0:0:0:0:
168,40,36097,1,2,3:0:0:0:
312,37,36259,1,10,0:0:0:0:
355,45,36340,1,8,0:0:0:0:
375,84,36421,1,8,0:0:0:0:
356,123,36502,1,8,0:0:0:0:
313,133,36583,1,8,0:0:0:0:
54,291,36746,6,0,P|27:229|128:178,1,182,6|2,0:0|3:0,0:0:0:0:
215,157,37232,1,10,0:0:0:0:
339,178,37394,1,2,0:0:0:0:
181,273,37556,2,0,L|75:284,2,91,2|0|8,3:0|3:0|0:0,0:0:0:0:
444,323,38043,6,0,L|243:356,1,182,6|2,0:0|3:0,0:0:0:0:
394,366,38529,2,0,L|397:267,1,91,10|2,0:0|0:0,0:0:0:0:
258,247,38854,2,0,L|145:231,2,91,2|0|8,3:0|3:0|0:0,0:0:0:0:
14,121,39340,6,0,L|215:71,1,182,6|2,0:0|3:0,0:0:0:0:
287,96,39827,1,10,0:0:0:0:
331,175,39989,1,2,0:0:0:0:
287,255,40151,1,2,3:0:0:0:
190,276,40313,1,2,3:0:0:0:
335,318,40475,1,10,0:0:0:0:
70,348,40638,6,0,L|53:237,1,91,6|0,0:0|0:0,0:0:0:0:
188,220,40962,1,10,0:0:0:0:
435,90,41124,1,10,0:0:0:0:
477,103,41205,1,8,0:0:0:0:
496,143,41286,1,8,0:0:0:0:
480,184,41367,1,8,0:0:0:0:
440,202,41448,5,10,3:0:0:0:
315,208,41611,1,8,3:0:0:0:
440,202,41773,1,4,3:0:0:0:
315,208,41935,1,4,3:0:0:0:
55,249,42097,6,0,L|37:130,1,91,6|0,0:0|0:0,0:0:0:0:
174,102,42421,2,0,L|60:93,1,91,8|0,0:0|3:0,0:0:0:0:
324,48,42746,2,0,L|337:159,1,91,10|0,0:0|0:0,0:0:0:0:
191,159,43070,2,0,L|181:264,1,91,8|2,0:0|3:0,0:0:0:0:
434,173,43394,5,8,0:0:0:0:
487,241,43556,1,2,0:0:0:0:
455,322,43718,1,10,0:0:0:0:
369,335,43880,1,0,3:0:0:0:
104,273,44043,2,0,L|213:258,1,91,10|0,0:0|3:0,0:0:0:0:
52,212,44367,2,0,L|50:111,1,91,8|2,0:0|3:0,0:0:0:0:
290,49,44692,6,0,L|171:68,1,91,8|2,0:0|0:0,0:0:0:0:
340,130,45016,2,0,L|451:133,1,91,10|2,0:0|3:0,0:0:0:0:
283,190,45340,2,0,L|274:291,1,91,10|2,0:0|3:0,0:0:0:0:
432,207,45665,2,0,L|446:308,1,91,10|2,0:0|3:0,0:0:0:0:
192,355,45989,6,0,L|78:364,1,91,14|0,0:0|0:0,0:0:0:0:
256,134,46313,2,0,L|384:131,1,91,14|0,0:0|0:0,0:0:0:0:
88,214,46638,2,0,L|77:97,1,91,14|0,0:0|0:0,0:0:0:0:
225,64,46962,1,14,0:0:0:0:
268,73,47043,1,8,0:0:0:0:
290,111,47124,1,8,0:0:0:0:
275,153,47205,1,8,0:0:0:0:
65,277,47286,6,0,P|40:221|142:166,1,182,6|8,0:0|0:0,0:0:0:0:
14,143,47773,1,0,3:0:0:0:
253,75,47935,2,0,L|359:70,2,91,10|0|8,0:0|0:0|0:0,0:0:0:0:
125,69,48421,1,2,3:0:0:0:
374,166,48583,6,0,L|379:273,1,91,8|2,0:0|0:0,0:0:0:0:
230,249,48908,2,0,L|118:264,1,91,10|0,0:0|3:0,0:0:0:0:
384,341,49232,2,0,L|497:350,1,91,10|0,0:0|3:0,0:0:0:0:
213,357,49556,2,0,L|101:355,1,91,14|0,0:0|3:0,0:0:0:0:
174,333,49800,1,0,3:0:0:0:
370,324,49881,6,0,P|434:306|416:196,1,182,6|8,0:0|0:0,0:0:0:0:
298,200,50367,2,0,L|268:157,2,45.5,2|0|2,3:0|3:0|3:0,0:0:0:0:
429,206,50692,1,0,3:0:0:0:
277,225,50854,2,0,L|168:236,1,91,10|0,0:0|3:0,0:0:0:0:
428,250,51178,6,0,L|429:140,1,91,2|0,3:0|3:0,0:0:0:0:
284,106,51502,2,0,L|390:100,1,91,10|0,0:0|3:0,0:0:0:0:
323,78,51746,1,0,3:0:0:0:
264,69,51827,2,0,L|143:78,1,91,2|0,3:0|3:0,0:0:0:0:
424,26,52151,2,0,L|431:126,1,91,14|0,0:0|3:0,0:0:0:0:
161,178,52475,6,0,L|237:256,1,91,14|0,0:0|3:0,0:0:0:0:
357,256,52800,1,0,3:0:0:0:
102,294,52962,2,0,L|198:335,1,91,12|0,0:0|3:0,0:0:0:0:
332,339,53286,1,0,3:0:0:0:
55,369,53448,5,12,0:0:0:0:
30,332,53529,1,8,0:0:0:0:
46,292,53610,1,8,0:0:0:0:
89,283,53691,1,8,0:0:0:0:
288,255,53773,5,6,0:0:0:0:
20,90,54097,2,0,L|219:106,2,182,2|2|2,0:0|0:0|0:0,0:0:0:0:
486,40,55070,6,0,L|495:150,1,91,6|8,0:0|0:0,0:0:0:0:
351,193,55394,2,0,L|447:203,1,91,2|8,3:0|0:0,0:0:0:0:
390,233,55638,1,8,0:0:0:0:
214,322,55719,2,0,L|111:322,1,91,2|8,3:0|0:0,0:0:0:0:
265,261,56043,2,0,L|374:250,1,91,2|8,3:0|0:0,0:0:0:0:
115,183,56367,6,0,L|-3:174,2,91,2|8|0,3:0|0:0|3:0,0:0:0:0:
235,155,56854,2,0,L|286:146,1,45.5,10|8,0:0|0:0,0:0:0:0:
91,302,57016,1,2,3:0:0:0:
40,246,57178,1,8,0:0:0:0:
91,302,57340,1,0,3:0:0:0:
195,335,57502,2,0,L|250:329,1,45.5,10|2,0:0|0:0,0:0:0:0:
441,351,57665,6,0,L|453:254,1,91,2|8,3:0|0:0,0:0:0:0:
309,240,57989,2,0,L|186:232,1,91,2|8,3:0|0:0,0:0:0:0:
269,211,58232,1,8,0:0:0:0:
458,182,58313,2,0,L|463:86,1,91,2|8,3:0|0:0,0:0:0:0:
332,95,58638,1,2,3:0:0:0:
462,91,58800,1,8,0:0:0:0:
213,97,58962,6,0,L|113:94,2,91,2|8|0,3:0|0:0|3:0,0:0:0:0:
341,198,59448,2,0,L|285:200,1,45.5,10|8,0:0|0:0,0:0:0:0:
108,259,59611,2,0,L|2:260,1,91,2|8,3:0|0:0,0:0:0:0:
270,340,59935,1,6,3:2:0:0:
397,350,60097,1,8,0:0:0:0:
122,370,60259,6,0,L|112:269,1,91,6|8,0:0|3:0,0:0:0:0:
166,246,60502,1,8,3:0:0:0:
225,246,60583,1,10,3:0:0:0:
473,170,60746,6,0,L|283:140,1,182,6|0,0:0|3:0,0:0:0:0:
430,127,61232,2,0,L|433:37,1,91,10|0,0:0|0:0,0:0:0:0:
169,72,61556,6,0,L|266:116,1,91,6|8,0:0|3:0,0:0:0:0:
306,120,61800,1,8,3:0:0:0:
365,120,61881,1,10,3:0:0:0:
103,160,62043,6,0,P|86:222|194:268,1,182,6|0,0:0|3:0,0:0:0:0:
35,326,62529,2,0,L|28:219,1,91,10|0,0:0|0:0,0:0:0:0:
287,168,62854,6,0,L|175:156,1,91,4|8,0:0|0:0,0:0:0:0:
338,94,63178,2,0,L|445:86,1,91,2|10,3:0|0:0,0:0:0:0:
377,66,63421,1,8,0:0:0:0:
314,53,63502,6,0,L|185:65,1,91,2|8,3:0|0:0,0:0:0:0:
343,167,63827,1,2,3:0:0:0:
470,187,63989,1,10,0:0:0:0:
210,273,64151,6,0,L|110:273,2,91,6|10|2,0:0|0:0|3:0,0:0:0:0:
345,348,64638,2,0,L|271:358,1,45.5,8|8,0:0|0:0,0:0:0:0:
92,366,64800,6,0,L|81:266,1,91,10|8,3:0|3:0,0:0:0:0:
134,261,65043,1,8,3:0:0:0:
326,240,65124,1,6,3:0:0:0:
368,228,65205,1,4,3:0:0:0:
387,189,65286,1,4,3:0:0:0:
368,149,65367,1,4,3:0:0:0:
158,120,65448,6,0,L|37:119,1,91,6|8,0:0|0:0,0:0:0:0:
209,53,65773,2,0,L|86:49,1,91,2|0,3:0|0:0,0:0:0:0:
170,26,66016,1,8,0:0:0:0:
358,120,66097,2,0,L|474:128,1,91,2|8,3:0|0:0,0:0:0:0:
301,209,66421,2,0,L|168:209,1,91,2|8,3:0|0:0,0:0:0:0:
471,326,66746,6,0,L|472:233,1,91,2|8,3:0|0:0,0:0:0:0:
345,226,67070,1,0,3:0:0:0:
474,235,67232,2,0,L|403:240,1,45.5,10|8,0:0|0:0,0:0:0:0:
238,157,67394,2,0,L|130:154,1,91,2|8,3:0|0:0,0:0:0:0:
312,86,67719,1,2,3:0:0:0:
331,125,67800,1,2,0:0:0:0:
313,165,67881,1,10,0:0:0:0:
271,176,67962,1,2,0:0:0:0:
66,236,68043,6,0,L|53:119,1,91,2|8,3:0|0:0,0:0:0:0:
184,126,68367,1,2,3:0:0:0:
54,140,68529,2,0,L|115:128,1,45.5,8|8,0:0|0:0,0:0:0:0:
292,291,68692,2,0,L|395:290,1,91,2|8,3:0|0:0,0:0:0:0:
260,351,69016,1,2,3:0:0:0:
126,359,69178,1,8,0:0:0:0:
383,357,69340,6,0,L|498:346,2,91,2|8|0,3:0|0:0|3:0,0:0:0:0:
254,328,69827,2,2,L|190:324,1,45.5,10|2,0:0|0:0,0:0:0:0:
400,260,69989,2,0,L|502:243,1,91,2|8,3:0|0:0,0:0:0:0:
247,189,70313,2,2,L|191:189,1,45.5,2|2,3:2|0:2,0:2:0:0:
250,176,70475,2,2,L|323:170,1,45.5,10|2,0:2|0:2,0:2:0:0:
102,128,70638,6,0,L|6:118,1,91,6|8,0:0|3:0,0:0:0:0:
63,82,70881,1,8,3:0:0:0:
124,77,70962,1,10,3:0:0:0:
372,280,71124,6,0,P|393:219|281:175,1,182,6|0,0:0|3:0,0:0:0:0:
454,173,71611,2,0,L|464:77,1,91,10|0,0:0|0:0,0:0:0:0:
191,57,71935,6,0,L|205:155,1,91,6|8,0:0|3:0,0:0:0:0:
254,164,72178,1,8,3:0:0:0:
316,177,72259,1,10,3:0:0:0:
54,239,72421,6,0,L|251:280,1,182,6|0,0:0|3:0,0:0:0:0:
88,339,72908,2,0,L|74:242,1,91,10|0,0:0|0:0,0:0:0:0:
335,182,73232,6,0,L|221:180,1,91,4|8,0:0|0:0,0:0:0:0:
384,112,73556,2,0,L|495:106,1,91,2|10,3:0|0:0,0:0:0:0:
421,86,73800,1,8,0:0:0:0:
232,93,73881,6,0,L|129:95,1,91,2|8,3:0|0:0,0:0:0:0:
285,37,74205,2,0,L|389:32,2,91,2|10|6,3:0|0:0|0:0,0:0:0:0:
25,110,74692,5,10,0:0:0:0:
154,155,74854,1,10,0:0:0:0:
25,110,75016,2,0,L|71:106,1,45.5,10|2,0:0|0:0,0:0:0:0:
280,132,75178,5,10,3:0:0:0:
340,202,75340,1,8,3:0:0:0:
280,132,75502,1,6,3:0:0:0:
151,135,75665,1,4,3:0:0:0:
439,65,75827,6,0,P|471:126|367:170,1,182,6|0,0:0|3:0,0:0:0:0:
280,200,76313,1,2,3:0:0:0:
147,256,76475,6,0,L|345:288,1,182,10|2,0:0|3:0,0:0:0:0:
182,354,76962,2,0,P|164:298|269:248,1,182,8|8,0:0|0:0,0:0:0:0:
390,247,77448,1,0,3:0:0:0:
105,282,77773,2,0,L|90:85,1,182,10|10,0:0|3:0,0:0:0:0:
216,69,78259,1,4,3:0:0:0:
470,113,78421,6,0,L|482:212,1,91,4|0,0:0|3:0,0:0:0:0:
339,244,78746,2,0,L|451:251,1,91,8|0,0:0|0:0,0:0:0:0:
181,334,79070,2,0,P|157:278|255:218,1,182,10|4,0:0|0:3,0:0:0:0:
370,218,79556,1,8,0:0:0:0:
130,121,79719,6,0,L|23:109,1,91,0|8,3:0|0:0,0:0:0:0:
184,40,80043,2,0,L|73:47,1,91,0|0,3:0|0:0,0:0:0:0:
343,140,80367,5,12,0:0:0:0:
452,157,80529,1,0,3:0:0:0:
208,243,80692,2,0,L|323:249,1,91,12|2,0:0|3:2,0:0:0:0:
348,252,80935,1,2,0:0:0:0:
139,351,81016,6,0,L|17:338,1,91,6|8,0:0|3:0,0:0:0:0:
98,307,81259,1,8,3:0:0:0:
159,310,81340,1,10,3:0:0:0:
428,193,81502,6,0,L|220:171,1,182,6|0,0:0|3:0,0:0:0:0:
392,137,81989,2,0,L|394:30,1,91,10|0,0:0|0:0,0:0:0:0:
126,78,82313,6,0,L|224:109,1,91,6|8,0:0|3:0,0:0:0:0:
264,114,82556,1,8,3:0:0:0:
325,120,82638,1,10,3:0:0:0:
54,165,82800,6,0,P|31:234|133:268,1,182,6|0,0:0|3:0,0:0:0:0:
243,287,83286,1,10,0:0:0:0:
114,280,83448,1,0,0:0:0:0:
379,277,83611,6,0,L|502:268,2,91,4|8|2,0:0|0:0|3:0,0:0:0:0:
250,220,84097,2,0,L|303:206,1,45.5,10|8,0:0|0:0,0:0:0:0:
351,213,84259,6,0,L|361:106,1,91,2|8,3:0|0:0,0:0:0:0:
208,96,84583,2,0,L|83:101,1,91,2|10,3:0|0:0,0:0:0:0:
376,47,84908,2,0,L|489:39,1,91,6|10,0:0|0:0,0:0:0:0:
176,238,85232,2,0,L|63:246,1,91,2|10,3:0|0:0,0:0:0:0:
374,148,85556,5,10,3:0:0:0:
397,185,85637,1,8,3:0:0:0:
383,226,85718,1,8,3:0:0:0:
342,242,85799,1,8,3:0:0:0:
159,293,85881,2,0,L|105:288,1,45.5,6|4,3:0|3:0,0:0:0:0:
299,356,86043,2,0,L|355:348,1,45.5,4|4,3:0|3:0,0:0:0:0:
134,353,86205,6,0,L|25:349,2,91,6|8|0,0:0|0:0|3:0,0:0:0:0:
260,286,86692,2,0,L|199:284,1,45.5,10|8,0:0|0:0,0:0:0:0:
145,290,86854,2,0,L|127:167,1,91,2|0,3:0|3:0,0:0:0:0:
248,168,87178,1,8,0:0:0:0:
498,73,87340,6,0,L|299:58,1,182,12|2,0:0|0:0,0:0:0:0:
207,77,87827,1,2,0:0:0:0:
158,157,87989,1,2,0:0:0:0:
210,235,88151,1,2,0:0:0:0:
319,251,88313,1,0,3:0:0:0:
54,352,88475,2,0,L|42:253,1,91,12|0,0:0|0:0,0:0:0:0:
307,166,88800,6,0,L|185:157,1,91,6|8,0:0|0:0,0:0:0:0:
363,100,89124,2,0,L|465:87,1,91,0|10,3:0|0:0,0:0:0:0:
402,77,89367,1,8,0:0:0:0:
219,80,89448,6,0,L|112:73,2,91,2|8|0,3:0|0:0|3:0,0:0:0:0:
348,73,89935,1,10,0:0:0:0:
97,191,90097,1,0,3:0:0:0:
230,196,90259,2,0,P|251:253|158:309,1,182,10|10,0:0|0:0,0:0:0:0:
110,315,90665,1,8,0:0:0:0:
312,337,90746,2,0,L|412:327,1,91,2|8,3:0|0:0,0:0:0:0:
283,268,91070,1,2,3:0:0:0:
149,264,91232,1,8,0:0:0:0:
402,167,91394,6,0,L|522:159,2,91,6|8|0,3:2|0:0|3:0,0:0:0:0:
284,184,91881,2,0,L|229:182,1,45.5,10|8,0:0|0:0,0:0:0:0:
38,237,92043,6,0,L|34:144,1,91,2|8,3:0|0:0,0:0:0:0:
153,114,92367,1,0,3:0:0:0:
398,56,92529,2,0,L|203:40,1,182,10|10,0:0|0:0,0:0:0:0:
477,31,93016,2,0,L|486:153,1,91,6|8,3:2|0:0,0:0:0:0:
431,135,93259,1,8,0:0:0:0:
240,211,93340,6,0,L|107:215,1,91,2|8,3:0|0:0,0:0:0:0:
407,246,93665,1,2,3:0:0:0:
424,286,93746,1,2,0:0:0:0:
404,325,93827,1,10,0:0:0:0:
361,332,93908,1,2,0:0:0:0:
159,354,93989,6,0,L|56:351,1,91,6|8,0:0|0:0,0:0:0:0:
224,292,94313,2,0,L|337:282,1,91,0|10,3:0|0:0,0:0:0:0:
263,270,94556,1,8,0:0:0:0:
72,279,94638,5,2,3:0:0:0:
25,209,94800,1,8,0:0:0:0:
72,279,94962,1,0,3:0:0:0:
310,150,95124,2,0,L|181:151,1,91,10|0,0:0|3:0,0:0:0:0:
366,77,95448,2,0,L|380:184,1,91,10|0,0:0|3:0,0:0:0:0:
136,259,95773,2,0,L|191:264,1,45.5,10|8,0:0|0:0,0:0:0:0:
366,304,95935,6,0,L|481:290,1,91,2|8,3:0|0:0,0:0:0:0:
191,357,96259,1,6,3:2:0:0:
58,353,96421,1,8,0:0:0:0:
341,277,96583,6,0,L|450:278,2,91,2|10|2,3:0|0:0|3:0,0:0:0:0:
209,240,97070,2,0,L|156:240,1,45.5,10|8,0:0|0:0,0:0:0:0:
368,210,97232,2,0,L|368:104,1,91,10|10,3:0|3:0,0:0:0:0:
101,115,97556,1,6,3:0:0:0:
368,119,97719,5,14,0:0:0:0:
