osu file format v14

[General]
AudioFilename: audio.mp3
AudioLeadIn: 0
PreviewTime: 54989
Countdown: 0
SampleSet: Soft
StackLeniency: 0.7
Mode: 2
LetterboxInBreaks: 0
WidescreenStoryboard: 1

[Editor]
DistanceSpacing: 1.4
BeatDivisor: 4
GridSize: 32
TimelineZoom: 2.1

[Metadata]
Title:Girl meets Love (Short Ver.)
TitleUnicode:Girl meets Love (Short Ver.)
Artist:Katakiri Rekka & Suzuyu
ArtistUnicode:片霧烈火&鈴湯
Creator:-Joakh
Version:Hex's Platter
Source:花咲ワークスプリング!
Tags:Jemzuu AJamez Nelly amulet-pp -Hex- HANASAKI WORK SPRING! sagaplanets eroge visual novel VN video game japanese opening サガプラネッツ SAGA PLANETS うらん 山口朗彥 Yamaguchi Akihiko 水月陵 Arte Refact PMMK
BeatmapID:2787577
BeatmapSetID:1344930

[Difficulty]
HPDrainRate:5
CircleSize:3.5
OverallDifficulty:8
ApproachRate:8
SliderMultiplier:1.6
SliderTickRate:2

[Events]
//Background and Video events
0,0,"BG2.jpg",0,0
//Break Periods
//Storyboard Layer 0 (Background)
//Storyboard Layer 1 (Fail)
//Storyboard Layer 2 (Pass)
//Storyboard Layer 3 (Foreground)
//Storyboard Layer 4 (Overlay)
//Storyboard Sound Samples

[TimingPoints]
584,324.324324324324,4,2,1,40,1,0
584,-100,4,2,1,40,0,0
5773,-100,4,2,1,60,0,0
9989,-100,4,2,1,50,0,0
10313,-100,4,2,1,60,0,0
10638,-100,4,2,1,70,0,0
10962,-100,4,2,3,60,0,1
11043,-100,4,2,3,60,0,0
12097,-100,4,2,3,70,0,0
12340,-100,4,2,3,5,0,0
12421,-100,4,2,3,70,0,0
12665,-100,4,2,3,5,0,0
12746,-100,4,2,3,70,0,0
12908,-100,4,2,3,60,0,0
14692,-100,4,2,3,70,0,0
14935,-100,4,2,3,5,0,0
15016,-100,4,2,3,70,0,0
15259,-100,4,2,3,5,0,0
15340,-100,4,2,3,70,0,0
15502,-100,4,2,3,60,0,0
17286,-100,4,2,3,70,0,0
17529,-100,4,2,3,5,0,0
17611,-100,4,2,3,70,0,0
17854,-100,4,2,3,5,0,0
17935,-100,4,2,3,70,0,0
18097,-100,4,2,3,60,0,0
19881,-100,4,2,3,70,0,0
20124,-100,4,2,3,5,0,0
20205,-100,4,2,3,70,0,0
20448,-100,4,2,3,5,0,0
20529,-100,4,2,3,70,0,0
20692,-100,4,2,3,60,0,0
20935,-100,4,2,3,5,0,0
21016,-100,4,2,1,75,0,0
21259,-100,4,2,1,5,0,0
21340,-100,4,2,1,50,0,0
25881,-100,4,2,1,60,0,0
30583,-100,4,2,1,40,0,0
31232,-100,4,2,1,60,0,0
31394,-100,4,2,2,75,0,0
31638,-100,4,2,2,5,0,0
31719,-100,4,2,1,60,0,0
41773,-100,4,2,1,60,0,0
45989,-100,4,2,1,50,0,0
46232,-100,4,2,1,5,0,0
46313,-100,4,2,1,60,0,0
46556,-100,4,2,1,5,0,0
46638,-100,4,2,1,70,0,0
46881,-100,4,2,1,5,0,0
46962,-100,4,2,1,75,0,0
47286,-100,4,2,1,60,0,0
52475,-100,4,2,1,70,0,0
53773,-100,4,2,1,60,0,0
54097,-100,4,2,1,50,0,0
54340,-100,4,2,1,5,0,0
54421,-100,4,2,1,60,0,0
54665,-100,4,2,1,5,0,0
54746,-100,4,2,1,70,0,0
54989,-100,4,2,1,5,0,0
55070,-90.9090909090909,4,2,1,70,0,1
61232,-90.9090909090909,4,2,1,70,0,1
61394,-90.9090909090909,4,2,1,70,0,1
61556,-90.9090909090909,4,2,1,70,0,1
62529,-90.9090909090909,4,2,1,70,0,1
62692,-90.9090909090909,4,2,1,70,0,1
62854,-90.9090909090909,4,2,1,70,0,1
64881,-90.9090909090909,4,2,1,50,0,1
65367,-100,4,2,1,50,0,0
65448,-90.9090909090909,4,2,1,70,0,1
71611,-90.9090909090909,4,2,1,70,0,1
71773,-90.9090909090909,4,2,1,70,0,1
71935,-90.9090909090909,4,2,1,70,0,1
72908,-90.9090909090909,4,2,1,70,0,1
73070,-90.9090909090909,4,2,1,70,0,1
73232,-90.9090909090909,4,2,1,70,0,1
75827,-100,4,2,1,60,0,0
80611,-100,4,2,1,5,0,0
80692,-100,4,2,1,60,0,0
81016,-90.9090909090909,4,2,1,70,0,1
81502,-90.9090909090909,4,2,1,70,0,1
81989,-90.9090909090909,4,2,1,70,0,1
82151,-90.9090909090909,4,2,1,70,0,1
82800,-90.9090909090909,4,2,1,70,0,1
83286,-90.9090909090909,4,2,1,70,0,1
83448,-90.9090909090909,4,2,1,70,0,1
83611,-90.9090909090909,4,2,1,70,0,1
85638,-90.9090909090909,4,2,1,50,0,1
86205,-100,4,2,1,60,0,0
87583,-100,4,2,1,5,0,0
87665,-100,4,2,1,45,0,0
87827,-100,4,2,1,50,0,0
87989,-100,4,2,1,55,0,0
88151,-100,4,2,1,60,0,0
88313,-100,4,2,1,65,0,0
88475,-100,4,2,2,70,0,0
88800,-100,4,2,1,60,0,1
97719,-100,4,2,1,60,0,0
98205,-100,4,2,1,5,0,0

[Colours]
Combo1 : 253,225,68
Combo2 : 255,0,0
Combo3 : 192,192,192
Combo4 : 158,121,200

[HitObjects]
245,350,584,6,0,P|221:315|297:236,1,160,6|0,0:0|0:0,0:0:0:0:
354,225,1070,1,2,0:0:0:0:
426,217,1232,2,0,P|415:152|308:104,1,160,2|0,0:0|0:0,0:0:0:0:
172,85,1719,6,0,L|26:19,2,160,2|2|2,0:0|0:0|0:0,0:0:0:0:
253,116,2529,1,2,0:0:0:0:
92,186,2854,1,0,0:0:0:0:
347,337,3178,6,0,P|401:325|436:220,1,160,2|0,0:0|0:0,0:0:0:0:
368,212,3665,1,2,0:0:0:0:
296,200,3827,2,0,L|101:178,1,160,2|0,0:0|0:0,0:0:0:0:
305,111,4313,6,0,P|354:83|277:33,1,160,2|2,0:0|0:0,0:0:0:0:
231,21,4800,1,2,0:0:0:0:
495,64,5124,2,0,L|494:252,1,160,2|2,0:0|0:0,0:0:0:0:
50,311,5773,5,6,0:0:0:0:
195,310,6421,1,6,0:0:0:0:
340,316,7070,1,4,0:0:0:0:
485,124,7719,1,6,0:0:0:0:
38,29,8367,6,0,L|42:124,1,80,6|2,0:0|0:0,0:0:0:0:
122,104,8692,1,10,0:0:0:0:
191,101,8854,1,8,0:0:0:0:
221,125,8935,1,8,0:0:0:0:
239,161,9016,1,10,0:0:0:0:
87,313,9178,2,0,L|78:217,1,80,2|2,0:0|0:0,0:0:0:0:
319,345,9502,6,0,L|495:330,1,160,6|8,0:0|0:0,0:0:0:0:
406,302,9989,1,8,0:0:0:0:
380,229,10151,1,8,0:0:0:0:
418,162,10313,1,8,0:0:0:0:
493,146,10475,1,8,0:0:0:0:
341,104,10638,2,0,L|239:91,1,80,8|8,0:0|0:0,0:0:0:0:
488,20,10962,6,0,L|480:190,1,160,6|2,0:0|0:0,0:0:0:0:
216,199,11611,2,0,L|114:183,2,80,10|8|2,0:0|0:0|0:0,0:0:0:0:
441,199,12097,6,0,L|447:98,1,80,12|0,0:0|0:0,0:0:0:0:
294,103,12421,2,0,L|200:95,1,80,12|0,0:0|0:0,0:0:0:0:
439,39,12746,2,0,P|497:86|437:134,1,160,12|8,0:0|0:0,0:0:0:0:
378,130,13232,1,2,0:0:0:0:
450,135,13394,1,10,0:0:0:0:
222,353,13556,5,6,0:0:0:0:
168,294,13718,1,10,0:0:0:0:
151,217,13880,1,2,0:0:0:0:
177,142,14042,1,10,0:0:0:0:
237,91,14204,1,10,0:0:0:0:
315,77,14366,1,8,0:0:0:0:
389,105,14528,1,2,0:0:0:0:
161,208,14692,6,0,L|75:204,1,80,12|0,0:0|0:0,0:0:0:0:
221,93,15016,2,0,L|339:88,1,80,12|0,0:0|0:0,0:0:0:0:
77,27,15340,1,8,0:0:0:0:
12,89,15502,2,0,P|14:170|31:259,1,160,6|2,0:0|0:0,0:0:0:0:
446,182,16151,6,0,P|501:232|437:277,1,160,6|2,0:0|0:0,0:0:0:0:
195,354,16800,1,10,0:0:0:0:
274,349,16962,1,8,0:0:0:0:
354,344,17124,1,2,0:0:0:0:
123,258,17286,6,0,L|114:167,1,80,12|0,0:0|0:0,0:0:0:0:
259,83,17611,2,0,L|367:75,1,80,12|0,0:0|0:0,0:0:0:0:
112,27,17935,2,0,P|57:57|118:113,1,160,8|8,0:0|0:0,0:0:0:0:
178,114,18421,1,2,0:0:0:0:
105,116,18583,1,8,0:0:0:0:
338,216,18746,5,6,0:0:0:0:
50,320,19394,1,12,0:0:0:0:
457,81,19881,6,0,L|264:75,2,160,6|12|12,0:0|0:0|0:0,0:0:0:0:
224,185,20692,2,0,L|53:180,1,160,8|12,0:0|3:0,0:0:0:0:
457,287,21340,6,0,P|476:213|400:169,1,160,6|0,0:0|3:0,0:0:0:0:
255,232,21989,1,10,0:0:0:0:
178,198,22151,1,2,0:0:0:0:
183,123,22313,1,2,3:0:0:0:
334,121,22475,6,0,L|342:233,1,80,10|2,0:0|3:0,0:0:0:0:
258,204,22800,2,0,L|154:203,1,80,10|0,0:0|3:0,0:0:0:0:
256,272,23124,2,0,L|255:361,1,80,2|8,0:0|0:0,0:0:0:0:
103,341,23448,2,0,L|13:336,2,80,2|2|2,0:0|3:0|0:0,0:0:0:0:
257,343,23935,6,0,L|419:330,1,160,0|0,3:0|3:0,0:0:0:0:
153,232,24583,1,10,0:0:0:0:
69,213,24745,1,2,0:0:0:0:
70,139,24907,1,2,0:0:0:0:
154,124,25069,1,2,0:0:0:0:
380,242,25232,6,0,L|384:149,1,80,12|2,0:0|3:0,0:0:0:0:
302,112,25556,2,0,L|386:111,1,80,12|2,0:0|0:0,0:0:0:0:
230,169,25881,1,10,0:0:0:0:
191,176,25962,1,8,0:0:0:0:
160,201,26043,1,8,0:0:0:0:
144,238,26124,1,8,0:0:0:0:
147,277,26205,1,8,0:0:0:0:
381,146,26367,6,0,P|378:218|287:238,1,160,6|2,0:0|3:0,0:0:0:0:
224,248,26854,2,0,L|212:341,1,80,10|2,0:0|0:0,0:0:0:0:
365,350,27178,2,0,L|457:350,2,80,2|0|8,3:0|3:0|0:0,0:0:0:0:
127,350,27665,6,0,P|78:305|151:260,1,160,14|2,0:0|3:0,0:0:0:0:
213,165,28151,2,0,L|123:165,1,80,10|2,0:0|0:0,0:0:0:0:
286,89,28475,2,0,L|375:88,2,80,2|0|8,3:0|3:0|0:0,0:0:0:0:
61,91,28962,6,0,P|52:164|135:186,1,160,14|2,0:0|3:0,0:0:0:0:
202,239,29448,2,0,L|118:240,1,80,10|2,0:0|0:0,0:0:0:0:
275,138,29773,2,0,L|277:55,1,80,2|2,3:0|3:0,0:0:0:0:
197,51,30097,1,10,0:0:0:0:
437,59,30259,5,2,0:0:0:0:
154,284,31232,1,0,3:0:0:0:
381,279,31394,1,6,0:0:0:0:
252,152,31719,6,0,L|55:136,1,160,6|8,0:0|0:0,0:0:0:0:
250,324,32367,2,0,L|337:314,2,80,2|2|10,3:0|3:0|0:0,0:0:0:0:
96,321,32854,6,0,P|81:268|171:216,1,160,2|2,3:0|3:0,0:0:0:0:
235,210,33340,1,8,0:0:0:0:
314,209,33502,2,0,P|307:146|196:98,1,160,2|2,3:0|3:0,0:0:0:0:
80,86,33989,2,0,L|70:188,1,80,10|2,0:0|0:0,0:0:0:0:
221,167,34313,6,0,L|382:164,1,160,0|8,3:0|0:0,0:0:0:0:
221,309,34962,2,0,L|134:300,2,80,2|2|10,3:0|3:0|0:0,0:0:0:0:
372,155,35448,6,0,L|203:144,1,160,2|2,3:0|3:0,0:0:0:0:
476,51,36097,1,2,3:0:0:0:
396,76,36259,1,10,0:0:0:0:
358,87,36340,1,8,0:0:0:0:
341,122,36421,1,8,0:0:0:0:
356,158,36502,1,8,0:0:0:0:
392,173,36583,1,8,0:0:0:0:
162,365,36746,6,0,P|88:353|88:269,1,160,6|2,0:0|3:0,0:0:0:0:
161,185,37232,2,0,L|77:183,1,80,10|2,0:0|0:0,0:0:0:0:
232,91,37556,1,2,3:0:0:0:
311,91,37718,1,0,3:0:0:0:
391,92,37880,1,8,0:0:0:0:
150,268,38043,6,0,P|144:204|245:163,1,160,6|2,0:0|3:0,0:0:0:0:
297,103,38529,2,0,L|202:103,1,80,10|2,0:0|0:0,0:0:0:0:
65,220,38854,2,0,L|57:130,1,80,2|0,3:0|3:0,0:0:0:0:
138,111,39178,1,8,0:0:0:0:
368,160,39340,6,0,P|409:129|341:47,1,160,6|2,0:0|3:0,0:0:0:0:
288,44,39827,2,0,L|283:136,1,80,10|2,0:0|0:0,0:0:0:0:
428,211,40151,2,0,L|521:210,2,80,2|2|10,3:0|3:0|0:0,0:0:0:0:
202,269,40638,6,0,L|114:269,1,80,6|0,0:0|0:0,0:0:0:0:
202,192,40962,1,10,0:0:0:0:
354,190,41124,2,0,L|355:101,1,80,10|8,0:0|0:0,0:0:0:0:
202,35,41448,1,10,3:0:0:0:
282,35,41610,1,8,3:0:0:0:
362,35,41772,1,4,3:0:0:0:
442,35,41934,1,4,3:0:0:0:
206,181,42097,6,0,L|36:131,2,160,6|8|10,0:0|0:0|0:0,0:0:0:0:
77,295,43070,1,8,0:0:0:0:
238,302,43394,6,0,L|238:210,1,80,8|2,0:0|0:0,0:0:0:0:
157,217,43719,2,0,L|154:127,1,80,10|0,0:0|3:0,0:0:0:0:
306,135,44043,2,0,P|357:86|298:45,1,160,10|8,0:0|0:0,0:0:0:0:
220,46,44529,1,2,3:0:0:0:
456,40,44692,5,8,0:0:0:0:
463,118,44854,1,2,0:0:0:0:
427,189,45016,1,10,0:0:0:0:
360,230,45178,1,2,3:0:0:0:
281,230,45340,1,10,0:0:0:0:
433,346,45502,2,0,L|331:348,2,80,2|10|2,3:0|0:0|3:0,0:0:0:0:
183,340,45989,6,0,P|140:334|132:227,1,160,14|14,0:0|0:0,0:0:0:0:
195,223,46475,1,0,0:0:0:0:
349,222,46638,2,0,P|435:199|450:131,1,160,14|14,0:0|0:0,0:0:0:0:
39,31,47286,6,0,P|116:45|160:139,2,160,6|8|10,0:0|0:0|0:0,0:0:0:0:
167,192,48259,1,8,0:0:0:0:
312,343,48583,6,0,L|223:341,1,80,8|2,0:0|0:0,0:0:0:0:
312,266,48908,2,0,L|399:262,1,80,10|0,0:0|3:0,0:0:0:0:
248,182,49232,2,0,L|241:90,1,80,10|0,0:0|3:0,0:0:0:0:
394,89,49556,2,0,L|482:90,1,80,14|0,0:0|3:0,0:0:0:0:
245,52,49881,6,0,L|59:50,1,160,6|8,0:0|0:0,0:0:0:0:
165,122,50367,1,2,3:0:0:0:
245,120,50529,2,0,L|247:218,1,80,2|0,3:0|3:0,0:0:0:0:
94,200,50854,2,0,L|87:298,1,80,10|0,0:0|3:0,0:0:0:0:
324,331,51178,6,0,P|367:288|299:218,1,160,2|10,3:0|0:0,0:0:0:0:
239,218,51665,1,0,3:0:0:0:
391,142,51827,2,0,L|398:254,1,80,2|0,3:0|3:0,0:0:0:0:
252,324,52151,2,0,L|349:319,1,80,14|0,0:0|3:0,0:0:0:0:
104,208,52475,6,0,L|2:203,2,80,14|0|0,0:0|3:0|3:0,0:0:0:0:
349,88,52962,2,0,L|448:82,2,80,12|0|0,0:0|3:0|3:0,0:0:0:0:
198,91,53448,1,12,0:0:0:0:
193,130,53529,1,8,0:0:0:0:
189,170,53610,1,8,0:0:0:0:
442,227,53773,5,6,0:0:0:0:
46,280,55070,6,0,L|43:184,1,88.000002685547,6|8,0:0|0:0,0:0:0:0:
123,174,55394,2,0,L|117:75,1,88.000002685547,2|8,3:0|0:0,0:0:0:0:
277,35,55719,2,0,L|452:30,1,176.000005371094,2|2,3:0|3:0,0:0:0:0:
374,98,56205,1,8,0:0:0:0:
131,111,56367,6,0,P|74:147|141:201,1,176.000005371094,2|0,3:0|3:0,0:0:0:0:
212,198,56854,1,10,0:0:0:0:
372,304,57016,2,0,L|193:316,1,176.000005371094,2|2,3:0|3:0,0:0:0:0:
461,81,57665,6,0,L|334:73,1,88.000002685547,2|8,3:0|0:0,0:0:0:0:
302,145,57989,2,0,L|404:148,1,88.000002685547,2|8,3:0|0:0,0:0:0:0:
240,270,58313,2,0,P|189:211|277:176,1,176.000005371094,2|2,3:0|3:0,0:0:0:0:
333,162,58800,1,8,0:0:0:0:
91,187,58962,6,0,P|76:121|176:74,1,176.000005371094,2|0,3:0|3:0,0:0:0:0:
227,68,59448,1,10,0:0:0:0:
378,62,59611,2,0,L|387:162,1,88.000002685547,2|8,3:0|0:0,0:0:0:0:
235,267,59935,2,0,L|135:260,1,88.000002685547,6|10,3:2|0:0,0:0:0:0:
416,228,60259,6,0,P|469:208|472:159,1,88.000002685547,6|8,0:0|3:0,0:0:0:0:
472,139,60502,1,8,3:0:0:0:
440,110,60583,1,10,3:0:0:0:
192,47,60746,2,0,P|136:100|211:146,1,176.000005371094,6|0,0:0|3:0,0:0:0:0:
347,152,61232,2,0,L|441:154,1,88.000002685547,10|0,0:0|0:0,0:0:0:0:
180,276,61556,6,0,P|127:256|124:207,1,88.000002685547,6|8,0:0|3:0,0:0:0:0:
124,187,61799,1,8,3:0:0:0:
156,158,61880,1,10,3:0:0:0:
405,96,62043,2,0,P|463:143|386:195,1,176.000005371094,6|0,0:0|3:0,0:0:0:0:
255,187,62529,2,0,L|166:184,1,88.000002685547,10|0,0:0|0:0,0:0:0:0:
422,208,62854,6,0,L|415:108,1,88.000002685547,4|8,0:0|0:0,0:0:0:0:
345,105,63178,1,2,3:0:0:0:
420,43,63340,1,10,0:0:0:0:
261,257,63502,2,0,L|49:254,1,176.000005371094,2|2,3:0|3:0,0:0:0:0:
160,177,63989,1,10,0:0:0:0:
412,173,64151,5,6,0:0:0:0:
497,171,64313,2,0,L|500:271,1,88.000002685547,10|2,0:0|3:0,0:0:0:0:
421,265,64638,1,8,0:0:0:0:
184,258,64800,2,0,L|175:151,1,88.000002685547,10|8,3:0|3:0,0:0:0:0:
326,82,65124,2,0,L|380:117,2,44.0000013427735,6|4|4,3:0|3:0|3:0,0:0:0:0:
97,28,65448,6,0,L|-3:27,1,88.000002685547,6|8,0:0|0:0,0:0:0:0:
89,101,65773,2,0,L|-18:102,1,88.000002685547,2|8,3:0|0:0,0:0:0:0:
159,175,66097,2,0,P|167:247|58:279,1,176.000005371094,2|2,3:0|3:0,0:0:0:0:
10,288,66583,1,8,0:0:0:0:
262,300,66746,6,0,L|466:285,1,176.000005371094,2|0,3:0|3:0,0:0:0:0:
367,220,67232,1,10,0:0:0:0:
213,140,67394,2,0,L|11:123,1,176.000005371094,2|2,3:0|3:0,0:0:0:0:
288,309,68043,6,0,L|387:302,1,88.000002685547,2|8,3:0|0:0,0:0:0:0:
304,216,68367,2,0,L|397:211,1,88.000002685547,2|8,3:0|0:0,0:0:0:0:
233,169,68692,2,0,P|223:108|318:57,1,176.000005371094,2|2,3:0|3:0,0:0:0:0:
389,50,69178,1,8,0:0:0:0:
142,295,69340,6,0,B|54:286|54:286|49:181,1,176.000005371094,2|0,3:0|3:0,0:0:0:0:
129,181,69827,1,10,0:0:0:0:
279,175,69989,2,0,L|284:71,1,88.000002685547,2|8,3:0|0:0,0:0:0:0:
133,43,70313,2,0,L|41:40,1,88.000002685547,6|10,3:2|0:0,0:0:0:0:
293,27,70638,6,0,L|389:26,1,88.000002685547,6|8,0:0|3:0,0:0:0:0:
346,96,70881,1,8,3:0:0:0:
309,100,70962,1,10,3:0:0:0:
73,106,71124,2,0,P|22:162|95:224,1,176.000005371094,6|0,0:0|3:0,0:0:0:0:
221,311,71611,2,0,L|117:312,1,88.000002685547,10|0,0:0|0:0,0:0:0:0:
383,233,71935,6,0,L|494:231,1,88.000002685547,6|8,0:0|3:0,0:0:0:0:
436,160,72178,1,8,3:0:0:0:
401,161,72259,1,10,3:0:0:0:
172,168,72421,2,0,P|168:90|254:66,1,176.000005371094,6|0,0:0|3:0,0:0:0:0:
401,24,72908,2,0,L|304:22,1,88.000002685547,10|0,0:0|0:0,0:0:0:0:
87,32,73232,6,0,L|72:147,1,88.000002685547,4|8,0:0|0:0,0:0:0:0:
146,127,73556,1,2,3:0:0:0:
216,127,73719,1,10,0:0:0:0:
66,243,73881,2,0,L|249:253,1,176.000005371094,2|2,3:0|3:0,0:0:0:0:
170,175,74367,1,10,0:0:0:0:
408,172,74529,5,2,3:0:0:0:
488,172,74692,2,0,L|492:264,1,88.000002685547,14|14,0:0|0:0,0:0:0:0:
412,266,75016,1,10,0:0:0:0:
253,305,75178,2,0,L|53:287,1,176.000005371094,10|6,3:0|3:0,0:0:0:0:
480,35,75827,5,6,0:0:0:0:
352,233,76151,2,0,L|259:232,1,80,0|2,3:0|3:0,0:0:0:0:
351,55,76475,2,0,L|350:232,1,160,10|2,0:0|3:0,0:0:0:0:
92,336,77124,6,0,L|273:324,1,160,2|0,0:0|3:0,0:0:0:0:
492,246,77773,2,0,L|485:78,1,160,10|10,0:0|3:0,0:0:0:0:
406,80,78259,1,4,3:0:0:0:
173,74,78421,6,0,L|71:77,2,80,4|0|8,0:0|3:0|0:0,0:0:0:0:
430,66,79070,2,0,L|437:250,1,160,10|4,0:0|0:3,0:0:0:0:
180,339,79719,5,0,3:0:0:0:
260,338,79881,1,8,0:0:0:0:
340,338,80043,1,0,3:0:0:0:
84,261,80367,2,0,L|72:168,1,80,12|0,0:0|0:0,0:0:0:0:
226,149,80692,2,0,L|314:145,1,80,14|2,0:0|3:0,0:0:0:0:
59,29,81016,6,0,P|58:80|102:105,1,88.000002685547,6|8,0:0|3:0,0:0:0:0:
127,105,81259,1,8,3:0:0:0:
171,109,81340,1,10,3:0:0:0:
400,108,81502,2,0,P|445:125|457:258,1,176.000005371094,6|0,0:0|3:0,0:0:0:0:
320,328,81989,2,0,L|420:296,1,88.000002685547,10|0,0:0|0:0,0:0:0:0:
170,350,82313,6,0,L|58:334,1,88.000002685547,6|8,0:0|3:0,0:0:0:0:
124,272,82556,1,8,3:0:0:0:
166,268,82638,1,10,3:0:0:0:
402,236,82800,2,0,P|456:195|381:140,1,176.000005371094,6|0,0:0|3:0,0:0:0:0:
247,35,83286,2,0,L|153:34,1,88.000002685547,10|0,0:0|0:0,0:0:0:0:
392,143,83611,6,0,L|490:141,1,88.000002685547,4|8,0:0|0:0,0:0:0:0:
409,73,83935,1,2,3:0:0:0:
479,68,84097,1,10,0:0:0:0:
329,240,84259,2,0,P|270:187|344:145,1,176.000005371094,2|2,3:0|3:0,0:0:0:0:
418,144,84746,1,10,0:0:0:0:
192,98,84908,5,6,0:0:0:0:
111,101,85070,2,0,L|16:97,1,88.000002685547,10|2,0:0|3:0,0:0:0:0:
109,193,85394,1,10,0:0:0:0:
357,330,85556,2,0,L|460:328,1,88.000002685547,10|8,3:0|3:0,0:0:0:0:
294,241,85881,1,6,3:0:0:0:
254,235,85962,1,4,3:0:0:0:
215,225,86043,1,4,3:0:0:0:
445,36,86205,6,0,P|372:17|305:69,2,160,6|0|2,0:0|3:0|3:0,0:0:0:0:
364,104,87016,1,0,3:0:0:0:
444,106,87178,1,8,0:0:0:0:
217,230,87340,6,0,L|19:219,1,160,12|2,0:0|0:0,0:0:0:0:
131,197,87827,1,2,0:0:0:0:
160,125,87989,1,2,0:0:0:0:
124,57,88151,1,2,0:0:0:0:
48,41,88313,1,0,3:0:0:0:
200,37,88475,2,0,L|299:38,1,80,12|0,0:0|0:0,0:0:0:0:
50,92,88800,6,0,L|58:277,1,160,6|0,0:0|3:0,0:0:0:0:
130,246,89286,1,10,0:0:0:0:
282,233,89448,2,0,L|295:70,1,160,2|0,3:0|3:0,0:0:0:0:
142,38,89935,6,0,L|298:114,2,160,10|10|10,0:0|0:0|0:0,0:0:0:0:
295,147,90746,1,2,3:0:0:0:
456,142,91070,1,2,3:0:0:0:
70,310,91394,6,0,P|26:286|89:217,1,160,6|0,0:0|3:0,0:0:0:0:
146,213,91881,1,10,0:0:0:0:
296,212,92043,2,0,P|301:148|213:102,1,160,2|0,3:0|3:0,0:0:0:0:
76,22,92529,6,0,L|265:20,1,160,10|10,0:0|0:0,0:0:0:0:
310,21,93016,1,2,3:0:0:0:
237,23,93178,1,8,0:0:0:0:
390,99,93340,2,0,L|398:192,1,80,2|8,3:0|0:0,0:0:0:0:
243,274,93665,2,0,L|150:270,1,80,6|10,3:2|0:0,0:0:0:0:
406,216,93989,6,0,P|448:182|387:113,1,160,6|0,0:0|3:0,0:0:0:0:
325,116,94475,1,10,0:0:0:0:
173,41,94638,2,0,L|347:35,1,160,2|0,3:0|3:0,0:0:0:0:
181,201,95124,6,0,L|341:280,2,160,10|10|10,0:0|0:0|0:0,0:0:0:0:
335,135,95935,1,2,3:0:0:0:
494,135,96259,1,6,0:0:0:0:
45,334,96583,5,2,3:0:0:0:
26,258,96745,1,10,0:0:0:0:
71,195,96907,1,2,3:0:0:0:
148,188,97069,1,10,0:0:0:0:
301,178,97232,1,10,3:0:0:0:
217,89,97394,1,10,3:0:0:0:
301,178,97556,1,6,3:0:0:0:
50,31,97719,6,0,P|29:132|146:185,1,240,14|0,0:0|0:0,0:0:0:0:
