osu file format v14

[General]
AudioFilename: audio.mp3
AudioLeadIn: 0
PreviewTime: 65448
Countdown: 0
SampleSet: Soft
StackLeniency: 0.4
Mode: 0
LetterboxInBreaks: 0
WidescreenStoryboard: 1

[Editor]
Bookmarks: 5854,11043,21421,31800,42178,52556,62935,65529,75908,86286,91475,99259,112232,114827,125205,135583,145962,148556,158935,169313,174502,182286,195259,200448,205637,210827,216016,221205,228989,239367,248286,248773
DistanceSpacing: 1.2
BeatDivisor: 4
GridSize: 32
TimelineZoom: 2.4

[Metadata]
Title:Girl meets Love
TitleUnicode:Girl meets Love
Artist:Katakiri Rekka & Suzuyu
ArtistUnicode:片霧烈火&鈴湯
Creator:Lasse
Version:Karelia's Insane
Source:花咲ワークスプリング!
Tags:hana saki spring work! hanasaki Saga Planets rizia kawaiwkyik 7ka -nanaka- shurelia karen suiyu eroge visual novel opening full version japanese pop rock
BeatmapID:2465137
BeatmapSetID:1175182

[Difficulty]
HPDrainRate:6
CircleSize:4
OverallDifficulty:8
ApproachRate:9
SliderMultiplier:2
SliderTickRate:1

[Events]
//Background and Video events
0,0,"ye.jpg",0,0
//Break Periods
//Storyboard Layer 0 (Background)
//Storyboard Layer 1 (Fail)
//Storyboard Layer 2 (Pass)
//Storyboard Layer 3 (Foreground)
//Storyboard Layer 4 (Overlay)
//Storyboard Sound Samples

[TimingPoints]
665,324.324324324324,4,2,1,45,1,0
665,-166.666666666667,4,2,1,45,0,0
5854,-125,4,2,1,50,0,0
9583,-125,4,2,1,52,0,0
11043,-100,4,2,1,55,0,0
15908,-83.3333333333333,4,2,1,55,0,0
16232,-100,4,2,1,55,0,0
19962,-100,4,2,1,58,0,0
20448,-95.2380952380952,4,2,1,58,0,0
20529,-100,4,2,1,58,0,0
20610,-90.9090909090909,4,2,1,58,0,0
20692,-100,4,2,1,58,0,0
20773,-86.9565217391304,4,2,1,58,0,0
20854,-100,4,2,1,58,0,0
20935,-83.3333333333333,4,2,1,58,0,0
21016,-100,4,2,1,58,0,0
21097,-80,4,2,1,58,0,0
21178,-100,4,2,1,58,0,0
21259,-76.9230769230769,4,2,1,58,0,0
21340,-100,4,2,1,58,0,0
21421,-100,4,2,1,60,0,0
22556,-125,4,2,1,60,0,0
22800,-100,4,2,1,60,0,0
22881,-100,4,2,1,60,0,0
23124,-100,4,2,1,60,0,0
23205,-83.3333333333333,4,2,1,60,0,0
23286,-100,4,2,1,60,0,0
23367,-100,4,2,1,60,0,0
25151,-111.111111111111,4,2,1,60,0,0
25394,-100,4,2,1,60,0,0
25475,-90.9090909090909,4,2,1,60,0,0
25719,-100,4,2,1,60,0,0
25800,-83.3333333333333,4,2,1,60,0,0
25881,-100,4,2,1,60,0,0
25962,-76.9230769230769,4,2,1,60,0,0
26610,-100,4,2,1,60,0,0
27746,-125,4,2,1,60,0,0
27989,-100,4,2,1,60,0,0
28070,-100,4,2,1,60,0,0
28313,-100,4,2,1,60,0,0
28394,-83.3333333333333,4,2,1,60,0,0
28475,-100,4,2,1,60,0,0
28556,-100,4,2,1,60,0,0
29205,-100,4,2,1,55,0,0
31475,-100,4,2,1,50,0,0
31800,-125,4,2,1,48,0,0
35692,-125,4,2,1,50,0,0
36340,-125,4,2,1,47,0,0
36827,-125,4,2,1,50,0,0
41692,-125,4,2,1,40,0,0
41773,-125,4,2,1,5,0,0
41854,-125,4,2,43,50,0,0
42097,-125,4,2,43,10,0,0
42178,-125,4,2,1,50,0,0
51908,-125,4,2,1,52,0,0
52232,-125,4,2,1,54,0,0
52556,-125,4,2,1,60,0,0
57016,-125,4,2,1,5,0,0
57097,-125,4,2,1,60,0,0
57340,-125,4,2,1,5,0,0
57421,-125,4,2,1,60,0,0
64556,-40,4,2,1,50,0,0
64800,-50,4,2,1,5,0,0
64881,-40.0000000000002,4,2,1,54,0,0
65124,-50,4,2,1,5,0,0
65205,-66.6666666666667,4,2,1,58,0,0
65448,-25,4,2,1,5,0,0
65529,-83.3333333333333,4,2,1,70,0,1
75827,-83.3333333333333,4,2,1,70,0,0
75908,-83.3333333333333,4,2,1,70,0,1
85637,-83.3333333333333,4,2,1,65,0,1
86286,-125,4,2,1,62,0,0
91475,-100,4,2,1,70,0,0
96016,-100,4,2,1,65,0,0
96664,-100,4,2,1,70,0,0
97800,-100,4,2,1,65,0,0
98124,-100,4,2,1,60,0,0
98286,-95.2380952380952,4,2,1,60,0,0
98367,-100,4,2,1,60,0,0
98448,-90.9090909090909,4,2,1,60,0,0
98529,-100,4,2,1,60,0,0
98610,-86.9565217391304,4,2,1,62,0,0
98692,-100,4,2,1,62,0,0
98773,-83.3333333333333,4,2,1,62,0,0
98854,-100,4,2,1,62,0,0
98935,-80,4,2,43,64,0,0
99016,-100,4,2,43,64,0,0
99097,-76.9230769230769,4,2,43,64,0,0
99178,-100,4,2,43,64,0,0
99259,-100,4,2,1,58,0,0
108178,-100,4,2,1,60,0,0
109637,-100,4,2,1,62,0,0
112232,-100,4,2,1,55,0,0
114502,-100,4,2,1,50,0,0
114827,-125,4,2,1,48,0,0
118719,-125,4,2,1,50,0,0
119367,-125,4,2,1,47,0,0
119854,-125,4,2,1,50,0,0
124719,-125,4,2,1,40,0,0
124800,-125,4,2,1,5,0,0
124881,-125,4,2,43,50,0,0
125124,-125,4,2,43,10,0,0
125205,-125,4,2,1,50,0,0
134935,-125,4,2,1,52,0,0
135259,-125,4,2,1,54,0,0
135583,-125,4,2,1,60,0,0
147583,-55.5555555555556,4,2,1,50,0,0
147746,-55.5555555555556,4,2,1,30,0,0
147908,-55.5555555555556,4,2,1,54,0,0
148070,-55.5555555555556,4,2,1,30,0,0
148232,-100,4,2,1,58,0,0
148394,-55.5555555555556,4,2,1,30,0,0
148556,-83.3333333333333,4,2,1,70,0,1
168664,-83.3333333333333,4,2,1,65,0,1
169313,-125,4,2,1,62,0,0
174502,-100,4,2,1,70,0,0
179043,-100,4,2,1,65,0,0
179692,-100,4,2,1,70,0,0
180827,-100,4,2,1,65,0,0
181151,-100,4,2,1,60,0,0
181637,-100,4,2,1,62,0,0
181962,-83.3333333333333,4,2,43,64,0,0
182286,-100,4,2,1,65,0,0
191367,-100,4,2,1,68,0,0
192827,-100,4,2,1,65,0,0
193962,-100,4,2,1,70,0,0
195097,-100,4,2,1,60,0,0
195259,-100,4,2,1,50,0,0
196556,-100,4,2,1,54,0,0
197529,-100,4,2,43,54,0,0
197854,-100,4,2,1,56,0,0
199151,-100,4,2,1,58,0,0
199475,-100,4,2,1,52,0,0
199637,-100,4,2,1,58,0,0
200124,-100,4,2,43,60,0,0
200448,-90.9090909090909,4,2,1,70,0,0
205637,-83.3333333333333,4,2,1,70,0,1
215367,-83.3333333333333,4,2,1,65,0,1
216016,-125,4,2,1,62,0,0
221205,-100,4,2,1,70,0,0
225746,-100,4,2,1,65,0,0
226394,-100,4,2,1,70,0,0
227529,-100,4,2,1,65,0,0
227854,-100,4,2,1,60,0,0
228016,-95.2380952380952,4,2,1,60,0,0
228097,-100,4,2,1,60,0,0
228178,-90.9090909090909,4,2,1,60,0,0
228259,-100,4,2,1,60,0,0
228340,-86.9565217391304,4,2,1,62,0,0
228421,-100,4,2,1,62,0,0
228502,-83.3333333333333,4,2,1,62,0,0
228583,-100,4,2,1,62,0,0
228664,-80,4,2,43,64,0,0
228746,-100,4,2,43,64,0,0
228827,-76.9230769230769,4,2,43,64,0,0
228908,-100,4,2,43,64,0,0
228989,-100,4,2,1,60,0,0
233854,-83.3333333333333,4,2,1,60,0,0
234178,-100,4,2,1,60,0,0
237908,-100,4,2,1,62,0,0
238556,-100,4,2,1,60,0,0
238881,-100,4,2,43,60,0,0
239043,-100,4,2,43,65,0,0
239205,-100,4,2,43,55,0,0
239286,-100,4,2,43,10,0,0
239367,-100,4,2,1,62,0,0
244232,-83.3333333333333,4,2,1,62,0,0
244556,-100,4,2,1,62,0,0
248286,-125,4,2,1,60,0,0
248306,-125,4,2,43,50,0,0
248448,-125,4,2,43,5,0,0
248773,-125,4,2,99,15,0,0

[Colours]
Combo1 : 250,180,240
Combo2 : 120,200,230
Combo3 : 255,150,150
Combo4 : 160,230,150

[HitObjects]
495,80,665,6,0,P|405:74|315:64,1,179.999994506836,6|0,0:2|3:0,0:0:0:0:
428,176,1313,2,0,P|432:235|435:295,1,119.999996337891,2|0,0:0|3:0,0:0:0:0:
277,215,1800,1,2,0:0:0:0:
141,297,2124,1,2,0:0:0:0:
7,216,2448,1,0,3:0:0:0:
90,197,2610,2,0,P|85:138|78:78,1,119.999996337891,2|0,0:0|3:0,0:0:0:0:
54,366,3259,6,0,P|142:352|232:349,1,179.999994506836,2|0,0:0|3:0,0:0:0:0:
337,295,3908,2,0,P|341:235|348:175,1,119.999996337891,2|0,0:0|3:0,0:0:0:0:
392,37,4394,1,2,0:0:0:0:
392,37,4719,5,0,0:0:0:0:
325,63,4881,1,2,3:2:0:0:
136,48,5043,1,0,3:0:0:0:
235,6,5205,1,2,0:0:0:0:
460,342,5529,1,0,3:0:0:0:
170,166,5854,6,0,P|76:233|83:348,1,240,6|0,1:2|2:0,0:0:0:0:
204,287,6502,2,0,P|283:293|362:306,1,160,6|0,1:2|2:0,0:0:0:0:
502,372,6989,1,2,0:0:0:0:
487,229,7313,1,2,0:0:0:0:
472,86,7637,1,2,0:0:0:0:
412,32,7800,2,0,P|332:39|252:44,1,160,6|0,1:2|0:0,0:0:0:0:
252,44,8448,5,6,1:2:0:0:
156,31,8610,1,2,0:0:0:0:
69,73,8773,1,14,0:0:0:0:
40,164,8935,1,8,0:0:0:0:
40,164,9016,1,8,0:0:0:0:
40,164,9097,1,10,0:0:0:0:
64,254,9259,1,8,0:3:0:0:
148,298,9421,1,4,0:3:0:0:
342,265,9583,1,6,1:2:0:0:
342,265,9908,6,0,P|342:245|340:225,1,40,0|0,1:0|0:0,0:0:0:0:
426,223,10070,2,0,P|421:203|413:184,1,40,0|0,1:0|0:0,0:0:0:0:
493,166,10232,2,0,P|483:148|471:132,1,40,0|0,1:0|0:0,0:0:0:0:
504,61,10394,6,0,P|502:51|501:41,6,20,2|0|2|0|2|0|2,1:2|0:0|1:2|0:0|1:2|0:0|1:2,0:0:0:0:
464,53,10719,5,2,1:2:0:0:
424,49,10800,1,2,1:2:0:0:
384,44,10881,1,2,1:2:0:0:
344,39,10962,1,2,1:2:0:0:
294,33,11043,6,0,P|244:34|194:34,1,100,6|8,1:2|0:0,0:0:0:0:
81,75,11367,1,0,1:2:0:0:
178,161,11529,1,8,0:0:0:0:
178,161,11610,1,8,0:0:0:0:
178,161,11692,2,0,P|179:210|182:260,1,100,2|8,1:2|0:0,0:0:0:0:
205,378,12016,1,0,1:0:0:0:
308,317,12178,6,0,P|357:307|406:299,1,100,10|0,0:0|1:0,0:0:0:0:
103,242,12502,2,0,P|53:232|4:224,1,100,10|0,0:0|1:0,0:0:0:0:
307,175,12827,2,0,P|331:166|355:161,1,50,8|8,0:0|0:0,0:0:0:0:
442,197,12989,2,0,P|437:147|430:98,1,100,2|8,1:2|0:0,0:0:0:0:
342,352,13313,2,2,P|282:312|221:349,1,150,2|0,1:0|0:0,0:1:0:0:
202,377,13637,6,0,P|196:327|185:278,1,100,6|8,1:2|0:0,0:0:0:0:
152,162,13962,1,0,1:0:0:0:
56,234,14124,1,8,0:0:0:0:
56,234,14205,1,8,0:0:0:0:
56,234,14286,2,0,P|51:184|43:134,1,100,2|8,1:2|0:0,0:0:0:0:
0,23,14610,1,0,1:0:0:0:
152,162,14773,6,0,P|226:154|300:143,1,150,10|0,0:0|0:0,0:0:0:0:
335,139,15097,1,10,0:0:0:0:
452,116,15259,1,6,1:2:0:0:
426,238,15421,1,10,0:2:0:0:
426,238,15502,1,8,0:0:0:0:
426,238,15583,2,0,P|430:287|440:336,1,100,2|8,1:1|0:0,0:0:0:0:
295,236,15908,6,0,P|266:235|235:231,1,59.9999981689454,2|2,1:2|1:2,0:0:0:0:
168,352,16070,2,0,P|138:355|108:356,1,59.9999981689454,10|2,1:2|1:2,0:0:0:0:
29,262,16232,6,0,P|34:212|37:162,1,100,6|8,0:2|0:0,0:0:0:0:
32,42,16556,1,0,1:0:0:0:
141,91,16719,1,8,0:0:0:0:
141,91,16800,1,8,0:0:0:0:
141,91,16881,2,0,P|191:87|241:80,1,100,2|8,1:2|0:0,0:0:0:0:
352,37,17205,1,0,1:0:0:0:
414,138,17367,6,0,P|416:188|418:238,1,100,10|0,0:0|1:0,0:0:0:0:
249,252,17692,2,0,P|246:301|244:351,1,100,10|0,0:0|1:0,0:0:0:0:
87,115,18016,1,8,0:0:0:0:
87,115,18097,1,8,0:0:0:0:
87,115,18178,2,0,P|89:164|91:214,1,100,2|8,1:2|0:0,0:0:0:0:
335,354,18502,2,2,P|399:333|375:270,1,150,6|0,1:2|0:0,0:1:0:0:
344,255,18827,5,6,1:2:0:0:
230,215,18989,1,8,0:0:0:0:
123,378,19151,1,2,1:2:0:0:
237,338,19313,1,8,0:0:0:0:
92,194,19475,6,0,P|97:219|100:244,1,50,2|0,1:2|0:0,0:0:0:0:
0,355,19637,2,0,P|3:330|8:305,1,50,8|0,0:3|0:0,0:0:0:0:
123,378,19800,5,4,0:3:0:0:
172,374,19881,1,2,0:0:0:0:
221,368,19962,1,6,1:1:0:0:
221,368,20286,6,0,P|245:366|270:364,1,50,2|0,1:2|0:0,0:0:0:0:
388,308,20448,6,0,P|361:308|335:312,1,52.4999983978272,10|0,0:2|0:0,0:0:0:0:
211,280,20610,6,0,P|238:276|265:274,1,55.0000016784668,8|8,0:3|0:3,0:0:0:0:
398,227,20773,6,0,P|369:228|340:232,1,57.5000010967255,8|0,0:3|0:0,0:0:0:0:
199,195,20935,6,0,P|228:191|258:190,1,59.9999981689454,4|4,0:3|0:3,0:0:0:0:
397,137,21097,6,0,P|365:138|334:143,1,62.5,10|0,0:0|0:0,0:0:0:0:
190,112,21259,6,0,P|222:108|254:108,1,64.9999970245363,2|0,0:0|0:0,0:0:0:0:
98,51,21421,6,0,P|90:100|85:150,1,100,6|8,1:0|0:0,0:0:0:0:
86,270,21746,1,2,1:2:0:0:
197,217,21908,1,8,0:0:0:0:
197,217,21989,1,8,0:0:0:0:
197,217,22070,1,2,1:2:0:0:
291,290,22232,1,8,0:0:0:0:
396,232,22394,1,2,1:2:0:0:
500,288,22556,6,2,P|486:230|483:170,1,120,14|0,2:2|0:0,0:1:0:0:
482,142,22881,2,2,P|482:76|418:90,1,150,14|0,2:2|0:0,0:1:0:0:
405,127,23205,2,0,P|376:127|346:121,1,59.9999981689454,10|8,0:2|0:0,0:0:0:0:
265,54,23367,6,2,P|216:60|166:63,1,100,4|8,1:2|0:0,0:1:0:0:
46,52,23692,1,2,1:2:0:0:
46,52,23854,1,8,0:2:0:0:
94,139,24016,1,6,1:2:0:0:
42,224,24178,1,8,0:0:0:0:
94,309,24340,1,2,1:2:0:0:
196,286,24502,5,8,0:0:0:0:
196,286,24583,1,8,0:0:0:0:
196,286,24664,1,2,1:2:0:0:
77,307,24827,1,8,0:0:0:0:
42,192,24989,1,2,1:2:0:0:
117,98,25151,6,2,P|181:93|251:90,1,134.999995880127,14|0,1:2|0:0,0:1:0:0:
276,90,25475,2,2,P|330:34|400:66,1,165.000005035401,14|0,1:2|0:0,0:1:0:0:
408,92,25800,2,0,P|404:121|408:151,1,59.9999981689454,10|0,0:1|0:0,0:0:0:0:
481,209,25962,6,2,P|490:280|496:345,1,129.999994049073,6|8,1:2|0:0,0:1:0:0:
382,286,26286,1,2,1:2:0:0:
330,290,26367,1,2,1:2:0:0:
278,294,26448,1,10,1:2:0:0:
226,300,26529,1,2,1:2:0:0:
176,303,26610,6,0,P|174:254|167:204,1,100,6|8,1:1|0:0,0:0:0:0:
128,90,26935,1,0,1:0:0:0:
37,168,27097,1,8,0:0:0:0:
37,168,27178,1,8,0:0:0:0:
37,168,27259,1,2,1:2:0:0:
19,49,27421,1,8,0:0:0:0:
128,90,27583,1,2,1:2:0:0:
232,29,27746,6,2,P|235:88|237:148,1,120,14|0,0:2|0:0,0:1:0:0:
264,156,28070,2,2,P|283:225|228:269,1,150,14|0,0:0|0:0,0:1:0:0:
223,300,28394,2,0,P|225:330|230:360,1,59.9999981689454,10|8,0:0|0:0,0:0:0:0:
372,374,28556,6,2,P|372:324|374:274,1,100,4|8,1:2|0:0,0:1:0:0:
404,157,28881,1,2,1:2:0:0:
484,68,29043,1,8,0:0:0:0:
307,82,29205,5,6,1:2:0:0:
307,82,29367,1,0,0:0:0:0:
307,82,29529,1,0,0:0:0:0:
307,82,29692,1,0,0:0:0:0:
222,166,29854,5,6,1:2:0:0:
222,166,30016,1,0,0:0:0:0:
222,166,30178,1,0,0:0:0:0:
123,97,30340,5,14,2:2:0:0:
41,184,30664,5,12,0:2:0:0:
138,253,30989,5,12,0:2:0:0:
43,364,31151,6,2,P|142:359|242:350,1,200,14|8,0:2|0:3,0:1:0:0:
40,29,31800,6,0,P|118:42|198:52,1,160,6|0,1:2|1:0,0:0:0:0:
444,241,32448,1,10,0:0:0:0:
352,211,32610,1,0,0:0:0:0:
352,115,32773,1,0,1:0:0:0:
444,85,32935,1,2,1:2:0:0:
444,85,33016,1,0,1:0:0:0:
444,85,33097,1,0,1:0:0:0:
499,162,33259,6,0,P|496:201|495:241,1,80,8|0,0:0|1:0,0:0:0:0:
329,365,33583,2,0,P|327:325|325:286,1,80,0|8,0:0|0:0,0:0:0:0:
224,166,33908,1,2,0:0:0:0:
192,336,34070,1,0,1:0:0:0:
34,263,34232,1,0,0:0:0:0:
110,166,34394,6,0,P|102:86|87:7,1,160,2|0,1:2|1:0,0:0:0:0:
67,384,35043,1,10,0:0:0:0:
192,336,35205,1,0,0:0:0:0:
323,377,35367,1,2,1:2:0:0:
451,336,35529,1,0,1:0:0:0:
451,336,35610,1,0,1:0:0:0:
451,336,35692,1,14,0:0:0:0:
317,283,35854,6,0,P|317:243|320:203,1,80,0|12,1:0|0:0,0:0:0:0:
420,21,36178,1,0,1:0:0:0:
490,143,36340,1,0,1:0:0:0:
475,162,36421,1,0,1:0:0:0:
452,170,36502,1,0,1:0:0:0:
428,173,36583,1,0,1:0:0:0:
404,167,36664,1,0,1:0:0:0:
384,152,36746,1,0,1:0:0:0:
368,132,36827,6,0,P|329:125|289:121,1,80,6|0,1:2|0:0,0:0:0:0:
162,193,37151,1,0,1:0:0:0:
108,126,37313,2,0,P|68:130|28:137,1,80,10|2,0:0|0:0,0:0:0:0:
39,271,37637,1,2,1:2:0:0:
25,292,37800,1,0,1:0:0:0:
154,297,37962,1,8,0:0:0:0:
231,349,38124,6,0,P|270:352|310:353,1,80,6|0,1:2|0:0,0:0:0:0:
476,295,38448,1,0,1:0:0:0:
401,265,38610,2,0,P|403:226|407:186,1,80,10|2,0:0|0:0,0:0:0:0:
426,65,38935,1,2,1:2:0:0:
442,42,39097,1,0,1:2:0:0:
323,41,39259,1,8,0:0:0:0:
273,151,39421,6,0,P|198:153|163:86,1,160,6|0,0:2|1:0,0:0:0:0:
128,227,39908,2,0,P|127:266|132:306,1,80,10|2,0:0|0:0,0:0:0:0:
235,223,40232,1,2,1:2:0:0:
252,312,40394,1,2,1:2:0:0:
346,214,40556,1,10,0:2:0:0:
386,349,40718,1,6,1:2:0:0:
386,349,41692,1,0,1:0:0:0:
355,247,41854,2,0,P|372:195|424:210,1,120,10|0,0:0|0:0,0:0:0:0:
476,282,42178,6,0,P|461:203|452:123,1,160,6|8,1:2|0:0,0:0:0:0:
197,31,42826,1,2,1:2:0:0:
109,71,42988,1,0,1:0:0:0:
123,166,43151,1,8,0:0:0:0:
217,183,43313,6,0,P|260:180|296:176,1,80,2|0,1:2|0:0,0:0:0:0:
120,274,43637,2,0,P|77:271|40:267,1,80,2|8,1:2|0:0,0:0:0:0:
215,375,43962,2,0,P|258:372|294:368,1,80,2|0,1:2|0:0,0:0:0:0:
457,338,44286,1,2,1:2:0:0:
354,259,44448,1,8,0:0:0:0:
444,163,44610,1,2,0:0:0:0:
346,74,44772,6,0,P|264:84|187:89,1,160,0|8,1:2|0:2,0:2:0:0:
457,338,45421,1,2,1:2:0:0:
376,242,45583,1,0,1:0:0:0:
496,227,45745,1,8,0:0:0:0:
336,353,45908,6,0,P|299:351|256:346,1,80,2|0,1:2|0:0,0:0:0:0:
76,244,46232,2,0,P|112:242|155:237,1,80,2|8,1:2|0:0,0:0:0:0:
314,179,46556,1,2,1:2:0:0:
156,96,46718,1,0,1:0:0:0:
135,82,46799,1,0,1:0:0:0:
130,58,46880,1,0,1:0:0:0:
137,35,46961,1,0,1:0:0:0:
158,25,47042,1,0,1:0:0:0:
181,31,47124,1,0,1:0:0:0:
198,47,47205,6,0,P|237:49|277:56,1,80,6|0,1:2|0:0,0:0:0:0:
444,123,47529,1,0,1:0:0:0:
371,166,47691,2,0,P|362:204|358:244,1,80,10|2,0:0|0:0,0:0:0:0:
392,379,48015,1,2,1:2:0:0:
421,354,48178,1,0,1:0:0:0:
281,327,48340,1,8,0:0:0:0:
162,372,48502,6,0,P|124:361|85:353,1,80,6|0,1:2|0:0,0:0:0:0:
5,220,48826,1,0,1:0:0:0:
86,233,48988,2,0,P|89:193|93:153,1,80,10|2,0:0|0:0,0:0:0:0:
55,31,49313,1,2,1:2:0:0:
36,13,49475,1,0,1:0:0:0:
186,60,49637,1,8,0:0:0:0:
279,150,49799,6,0,P|290:230|297:309,1,160,6|0,1:2|1:0,0:0:0:0:
435,169,50286,2,0,P|439:208|445:248,1,80,10|2,0:0|0:0,0:0:0:0:
471,369,50610,1,2,1:2:0:0:
381,287,50772,1,2,1:2:0:0:
361,165,50934,1,10,0:0:0:0:
403,52,51097,6,0,P|442:54|482:58,1,80,6|0,1:2|0:0,0:0:0:0:
294,116,51421,1,4,1:2:0:0:
174,32,51583,1,10,1:2:0:0:
190,145,51746,1,0,1:0:0:0:
190,145,51827,1,0,1:0:0:0:
190,145,51908,1,10,0:0:0:0:
66,92,52070,1,8,0:3:0:0:
14,202,52232,2,0,P|15:221|17:241,1,40,4|0,0:3|0:0,0:0:0:0:
131,292,52394,2,0,P|133:272|135:253,1,40,4|0,0:3|0:0,0:0:0:0:
249,333,52556,6,0,P|328:333|408:341,1,160,14|8,1:1|0:0,0:0:0:0:
408,341,53044,1,0,1:0:0:0:
463,229,53205,2,0,P|463:149|471:69,1,160,10|8,0:1|0:0,0:0:0:0:
358,169,53692,6,0,P|356:130|351:90,1,80,2|8,1:2|0:1,0:0:0:0:
229,199,54016,1,2,1:2:0:0:
229,199,54178,2,0,P|231:159|236:119,1,80,10|0,2:1|1:0,0:0:0:0:
52,225,54502,2,0,P|57:264|59:304,1,80,10|0,2:0|1:0,0:0:0:0:
153,281,54827,1,8,2:0:0:0:
132,186,54990,1,2,1:2:0:0:
93,97,55151,6,0,P|54:97|14:93,1,80,8|2,0:0|1:2,0:0:0:0:
179,55,55475,1,10,0:0:0:0:
179,55,55638,1,0,1:0:0:0:
271,81,55800,1,10,0:0:0:0:
363,52,55963,1,0,1:0:0:0:
452,96,56124,1,10,0:0:0:0:
452,96,56286,1,0,1:0:0:0:
417,185,56448,6,2,P|413:224|412:264,1,80,14|0,0:2|1:0,0:1:0:0:
311,375,56773,2,2,P|273:335|222:359,1,120,14|0,0:2|0:0,0:1:0:0:
315,351,57097,2,2,P|277:311|226:334,1,120,14|0,0:2|0:0,0:1:0:0:
332,314,57421,6,0,P|331:294|325:275,1,40,2|2,1:2|1:2,0:0:0:0:
226,262,57583,2,0,P|220:281|219:300,1,40,2|2,1:2|1:2,0:0:0:0:
317,187,57746,6,0,P|237:181|157:181,1,160,14|8,0:1|0:0,0:0:0:0:
157,181,58232,1,0,1:0:0:0:
0,58,58394,2,0,P|79:58|159:64,1,160,10|8,0:1|0:0,0:0:0:0:
40,226,58881,6,0,P|36:265|32:305,1,80,2|8,1:2|0:0,0:0:0:0:
164,185,59205,1,2,1:2:0:0:
164,185,59367,2,0,P|167:224|171:264,1,80,10|0,0:1|1:0,0:0:0:0:
324,162,59692,2,0,P|320:201|316:241,1,80,10|0,2:1|1:0,0:0:0:0:
497,361,60016,2,0,P|493:321|489:281,1,80,14|0,0:2|1:0,0:0:0:0:
469,75,60340,6,0,P|389:65|311:49,1,160,6|8,1:2|0:0,0:0:0:0:
214,47,60828,1,0,1:0:0:0:
199,228,60989,2,0,P|278:218|356:202,1,160,10|10,0:2|0:0,0:0:0:0:
0,35,61637,6,2,P|35:37|80:43,1,80,10|0,0:0|1:0,0:1:0:0:
145,127,61962,2,0,P|184:121|224:120,1,80,10|0,0:1|1:0,0:0:0:0:
336,5,62286,2,0,P|375:6|415:11,1,80,8|0,2:2|1:0,2:0:0:0:
497,132,62610,2,0,P|480:142|463:152,1,40,14|0,0:2|0:0,0:0:0:0:
362,184,62773,2,0,P|379:194|396:204,1,40,0|0,1:0|0:0,0:0:0:0:
471,234,62935,5,14,2:1:0:0:
331,267,63097,1,2,1:2:0:0:
416,313,63259,1,2,1:2:0:0:
218,384,63421,5,14,2:1:0:0:
185,244,63583,1,2,1:2:0:0:
139,329,63745,1,2,1:2:0:0:
214,108,63908,5,10,0:1:0:0:
189,77,63989,1,8,0:0:0:0:
158,54,64070,1,8,0:0:0:0:
122,42,64151,1,8,0:0:0:0:
81,43,64232,1,4,1:2:0:0:
81,43,64556,6,0,B|-5:18|-46:80|-52:147|-13:172|13:216|82:169|82:169|89:110|66:117,1,375,2|0,0:1|0:0,0:0:0:0:
167,150,64881,6,0,B|186:83|194:48|194:48|216:83|241:108|241:108|277:84|292:48|292:48|315:140|325:156,1,375,2|0,0:1|0:0,0:0:0:0:
404,5,65205,6,0,B|423:97|422:161|422:161|461:155|489:159,1,225.000008583069,2|0,0:1|0:0,0:0:0:0:
457,316,65529,6,0,P|397:308|337:303,1,119.999996337891,6|8,1:1|0:0,0:0:0:0:
465,163,65854,2,0,P|405:171|346:181,1,119.999996337891,2|8,1:0|0:0,0:0:0:0:
405,54,66097,1,8,0:0:0:0:
411,17,66178,2,0,P|355:40|301:65,1,119.999996337891,2|8,1:1|0:0,0:0:0:0:
184,13,66502,2,0,P|169:38|157:66,1,59.9999981689454,2|0,1:0|0:0,0:0:0:0:
157,0,66664,2,0,P|142:26|129:54,1,59.9999981689454,8|0,0:0|0:0,0:0:0:0:
187,189,66827,6,2,P|189:248|189:308,1,119.999996337891,2|8,1:1|0:0,0:1:0:0:
270,379,67151,1,0,1:0:0:0:
81,353,67313,1,10,2:2:0:0:
57,325,67394,1,8,2:2:0:0:
39,293,67475,2,0,P|38:233|41:173,1,119.999996337891,2|8,1:0|0:0,0:0:0:0:
77,32,67800,1,0,1:1:0:0:
227,78,67962,1,8,0:2:0:0:
262,75,68043,1,8,0:2:0:0:
297,72,68124,6,0,P|355:83|414:94,1,119.999996337891,2|8,1:1|0:0,0:0:0:0:
260,184,68448,2,0,P|313:210|368:235,1,119.999996337891,2|8,1:1|0:0,0:0:0:0:
207,266,68692,1,8,0:0:0:0:
176,275,68773,2,0,P|221:314|267:353,1,119.999996337891,2|8,1:0|0:0,0:0:0:0:
49,276,69097,2,0,P|52:305|58:335,1,59.9999981689454,2|0,1:0|0:0,0:0:0:0:
21,281,69259,2,0,P|24:311|30:341,1,59.9999981689454,8|0,0:0|0:0,0:0:0:0:
26,142,69421,6,2,P|40:84|57:27,1,119.999996337891,2|8,1:1|0:0,0:1:0:0:
202,25,69746,1,0,1:0:0:0:
218,178,69908,1,10,0:2:0:0:
211,213,69989,1,8,0:2:0:0:
203,248,70070,2,0,P|261:259|320:273,1,119.999996337891,2|8,1:0|0:0,0:0:0:0:
512,367,70394,2,2,P|483:376|454:383,1,59.9999981689454,6|0,1:2|0:0,0:1:0:0:
360,384,70556,2,0,P|330:376|302:367,1,59.9999981689454,8|0,0:0|0:0,0:0:0:0:
409,305,70719,5,6,1:2:0:0:
199,316,70881,1,8,0:3:0:0:
179,272,70962,1,8,0:3:0:0:
160,227,71043,1,8,0:3:0:0:
364,79,71205,2,2,P|350:137|337:195,1,119.999996337891,6|0,1:0|0:0,0:1:0:0:
337,195,71529,1,0,1:0:0:0:
181,84,71692,2,2,P|122:77|62:68,1,119.999996337891,10|0,2:2|1:0,0:1:0:0:
90,249,72016,5,6,1:2:0:0:
270,351,72178,1,8,0:3:0:0:
310,325,72259,1,8,0:3:0:0:
353,304,72340,1,8,0:3:0:0:
218,140,72502,2,2,P|210:199|205:259,1,119.999996337891,6|0,1:0|0:0,0:1:0:0:
205,259,72827,1,0,1:0:0:0:
386,188,72989,2,2,P|445:181|505:172,1,119.999996337891,10|0,0:0|1:0,0:1:0:0:
300,0,73313,6,0,P|306:59|312:119,1,119.999996337891,6|8,1:1|0:0,0:0:0:0:
346,259,73637,1,2,1:0:0:0:
229,344,73800,1,8,0:0:0:0:
193,339,73881,1,8,0:0:0:0:
157,336,73962,2,0,P|162:276|169:216,1,119.999996337891,2|8,1:1|0:2,0:0:0:0:
189,74,74286,1,2,1:0:0:0:
189,74,74448,1,8,0:2:0:0:
65,161,74610,5,6,1:2:0:0:
83,38,74773,1,8,1:2:0:0:
236,178,74935,2,2,P|295:169|354:157,1,119.999996337891,6|8,1:2|0:0,0:1:0:0:
476,57,75259,2,0,P|482:28|491:0,3,59.9999981689454,8|8|8|8,0:3|0:3|0:3|0:3,0:0:0:0:
416,56,75583,5,4,0:3:0:0:
357,42,75664,1,4,0:3:0:0:
297,31,75746,1,4,0:3:0:0:
237,29,75827,1,4,0:3:0:0:
177,34,75908,6,0,P|118:47|59:58,1,119.999996337891,6|8,1:1|0:0,0:0:0:0:
198,163,76232,2,0,P|145:191|90:217,1,119.999996337891,2|8,1:0|0:0,0:0:0:0:
242,255,76476,1,8,0:0:0:0:
269,265,76556,2,0,P|225:305|179:344,1,119.999996337891,2|8,1:1|0:0,0:0:0:0:
371,322,76881,2,0,P|366:350|364:381,1,59.9999981689454,2|0,1:0|0:0,0:0:0:0:
405,325,77043,2,0,P|400:354|398:385,1,59.9999981689454,8|0,0:0|0:0,0:0:0:0:
512,282,77206,6,2,P|509:222|504:162,1,119.999996337891,2|8,1:1|0:0,0:1:0:0:
379,95,77530,1,0,1:0:0:0:
241,138,77692,1,10,2:2:0:0:
208,123,77773,1,8,2:2:0:0:
176,106,77854,2,0,P|116:116|57:125,1,119.999996337891,2|8,1:0|0:0,0:0:0:0:
18,264,78179,1,0,1:1:0:0:
125,359,78341,1,8,0:0:0:0:
156,341,78422,1,8,0:0:0:0:
187,323,78503,6,0,P|245:335|305:345,1,119.999996337891,2|8,1:1|0:0,0:0:0:0:
201,212,78827,2,0,P|260:208|320:202,1,119.999996337891,2|8,1:1|0:0,0:0:0:0:
175,119,79070,1,8,0:0:0:0:
159,101,79151,2,0,P|215:81|271:60,1,119.999996337891,2|8,1:0|0:0,0:0:0:0:
464,10,79476,2,0,P|468:39|471:69,1,59.9999981689454,2|0,1:0|0:0,0:0:0:0:
431,14,79637,2,0,P|435:43|438:73,1,59.9999981689454,8|0,0:0|0:0,0:0:0:0:
485,182,79800,6,2,P|427:191|388:234,1,119.999996337891,2|8,1:1|0:0,0:1:0:0:
384,379,80125,1,0,1:0:0:0:
264,299,80287,1,10,0:2:0:0:
228,305,80368,1,8,0:2:0:0:
192,311,80449,2,0,P|132:303|72:296,1,119.999996337891,2|8,1:0|0:0,0:0:0:0:
17,143,80773,2,0,P|45:133|74:127,1,59.9999981689454,6|2,1:2|1:2,0:0:0:0:
158,84,80935,2,0,P|180:64|201:43,1,59.9999981689454,10|2,1:2|1:2,0:0:0:0:
156,173,81098,5,6,1:2:0:0:
343,67,81260,1,8,0:3:0:0:
357,112,81341,1,8,0:3:0:0:
379,154,81422,1,8,0:3:0:0:
257,298,81583,2,2,P|262:239|272:180,1,119.999996337891,6|0,1:0|0:0,0:1:0:0:
272,180,81908,1,0,1:0:0:0:
388,283,82070,2,2,P|447:294|506:305,1,119.999996337891,10|0,2:2|1:0,0:1:0:0:
339,384,82395,5,6,1:2:0:0:
170,261,82557,1,8,0:3:0:0:
124,277,82638,1,8,0:3:0:0:
78,293,82719,1,8,0:3:0:0:
177,146,82881,2,2,P|164:87|153:28,1,119.999996337891,6|0,1:0|0:0,0:1:0:0:
153,28,83206,1,0,1:0:0:0:
58,192,83367,2,2,P|46:250|34:309,1,119.999996337891,10|0,0:0|1:0,0:1:0:0:
258,288,83692,6,0,P|317:284|377:276,1,119.999996337891,6|8,1:1|0:0,0:0:0:0:
512,253,84016,1,2,1:0:0:0:
422,139,84178,1,8,0:0:0:0:
432,104,84260,1,8,0:0:0:0:
444,70,84341,2,0,P|384:65|324:58,1,119.999996337891,2|8,1:1|0:2,0:0:0:0:
184,89,84665,1,2,1:0:0:0:
184,89,84827,1,8,0:2:0:0:
276,184,84989,5,6,1:2:0:0:
238,3,85151,1,8,1:2:0:0:
128,196,85314,2,2,P|70:209|11:221,1,119.999996337891,14|8,2:2|0:0,0:1:0:0:
131,324,85638,2,0,P|132:354|137:384,3,59.9999981689454,8|8|8|8,0:3|0:3|0:3|0:3,0:0:0:0:
189,311,85962,5,4,0:3:0:0:
248,319,86043,1,8,0:3:0:0:
307,329,86125,1,4,0:3:0:0:
366,336,86205,1,4,0:3:0:0:
421,343,86286,6,0,P|408:264|403:184,1,160,6|0,1:2|1:0,0:0:0:0:
403,184,86773,1,0,1:2:0:0:
360,51,86935,2,0,P|320:49|280:43,1,80,10|0,0:2|0:0,0:0:0:0:
201,238,87259,2,0,P|205:198|212:158,1,80,0|8,1:0|0:0,0:0:0:0:
28,127,87583,2,0,P|63:58|139:46,1,160,2|2,0:0|1:2,0:0:0:0:
124,150,88070,1,0,0:0:0:0:
44,251,88232,2,0,P|35:290|29:329,1,80,10|0,0:0|0:0,0:0:0:0:
165,354,88556,1,8,0:3:0:0:
165,354,88719,1,8,0:3:0:0:
278,287,88881,6,0,P|356:291|411:346,1,160,6|8,1:2|0:0,0:0:0:0:
411,346,89367,1,0,1:0:0:0:
480,229,89529,2,0,P|481:190|486:150,1,80,10|0,0:0|0:0,0:0:0:0:
335,114,89854,2,0,B|333:74|328:34,1,80,8|8,1:3|0:0,0:0:0:0:
225,218,90178,6,0,P|147:234|67:233,1,160,2|2,1:2|1:2,0:0:0:0:
67,233,90664,1,0,0:0:0:0:
59,74,90827,1,14,0:0:0:0:
22,156,90989,1,0,1:0:0:0:
163,89,91151,1,2,1:2:0:0:
126,7,91313,1,2,1:2:0:0:
261,42,91475,6,2,P|310:35|360:29,1,100,6|8,1:2|0:3,0:1:0:0:
410,33,91719,1,8,0:3:0:0:
410,33,91800,1,8,0:3:0:0:
427,154,91962,2,2,P|377:147|327:141,1,100,6|0,1:0|0:0,0:1:0:0:
232,287,92286,1,0,1:0:0:0:
318,350,92448,2,2,P|367:347|417:347,1,100,10|0,2:2|1:0,0:1:0:0:
143,356,92773,6,2,P|134:307|125:258,1,100,6|8,1:2|0:3,0:1:0:0:
112,209,93017,1,8,0:3:0:0:
112,209,93098,1,8,0:3:0:0:
13,134,93260,2,2,P|17:84|22:34,1,100,6|0,1:0|0:0,0:1:0:0:
179,64,93584,1,0,1:0:0:0:
273,111,93746,2,2,P|322:108|372:102,1,100,10|0,0:0|1:0,0:1:0:0:
490,270,94070,6,0,P|441:259|391:250,1,100,6|8,1:1|0:0,0:0:0:0:
256,219,94394,1,2,1:0:0:0:
146,348,94556,1,8,0:0:0:0:
116,344,94637,1,8,0:0:0:0:
86,337,94719,1,2,1:1:0:0:
10,205,94881,1,8,0:2:0:0:
142,143,95043,2,0,L|154:44,1,100,2|8,1:0|0:2,0:0:0:0:
249,308,95367,6,2,P|298:305|348:302,1,100,6|8,1:2|1:2,2:1:0:0:
512,330,95692,1,6,1:2:0:0:
447,204,95854,1,8,0:0:0:0:
447,204,95935,1,8,0:3:0:0:
447,204,96016,2,0,P|449:179|455:155,3,50,8|8|8|8,0:3|0:3|0:3|0:3,0:0:0:0:
397,198,96340,5,4,0:3:0:0:
357,167,96421,1,4,0:3:0:0:
350,117,96502,1,4,0:3:0:0:
366,69,96583,1,4,0:3:0:0:
405,38,96664,6,0,P|305:48|205:51,1,200,6|2,1:0|1:2,0:0:0:0:
372,167,97151,1,8,0:0:0:0:
390,190,97232,1,8,0:0:0:0:
409,211,97313,2,0,P|310:226|214:255,1,200,2|10,1:0|0:1,0:0:0:0:
33,353,97800,1,6,1:2:0:0:
33,353,98124,6,0,P|57:351|82:349,1,50,2|0,0:2|0:0,0:0:0:0:
200,293,98286,6,0,P|173:293|147:297,1,52.4999983978272,2|0,0:0|0:0,0:0:0:0:
23,265,98448,6,0,P|50:261|77:259,1,55.0000016784668,2|0,0:0|0:0,0:0:0:0:
210,212,98611,6,0,P|181:213|152:217,1,57.5000010967255,2|0,0:2|0:0,0:0:0:0:
11,180,98773,6,0,P|40:176|70:175,1,59.9999981689454,2|0,1:2|0:0,0:0:0:0:
209,122,98935,6,0,P|177:123|146:128,1,62.5,10|0,0:2|0:0,0:0:0:0:
2,97,99097,6,0,P|34:93|66:93,1,64.9999970245363,2|0,0:0|0:0,0:0:0:0:
143,37,99259,6,0,B|232:28|225:130|328:122,1,200,6|0,1:2|1:2,0:0:0:0:
454,75,99746,1,8,0:0:0:0:
452,84,99827,1,8,0:0:0:0:
449,93,99908,2,0,P|392:81|360:44,1,100,2|8,1:2|0:0,0:0:0:0:
322,210,100232,1,0,1:0:0:0:
487,172,100394,1,10,0:0:0:0:
378,312,100556,6,0,P|393:252|412:209,1,100,0|10,1:0|0:0,0:0:0:0:
482,279,100881,1,0,1:0:0:0:
372,133,101043,1,8,0:0:0:0:
449,56,101205,2,0,L|464:179,1,100,2|8,1:2|0:0,0:0:0:0:
296,203,101529,1,2,1:0:0:0:
192,117,101692,1,8,0:0:0:0:
185,124,101773,1,0,1:0:0:0:
180,132,101854,6,0,L|383:109,1,200,6|0,1:2|1:0,0:0:0:0:
382,284,102340,1,8,0:0:0:0:
373,278,102421,1,8,0:0:0:0:
364,273,102502,2,0,P|356:232|392:191,1,100,2|8,1:2|0:0,0:0:0:0:
457,297,102827,1,0,1:0:0:0:
317,347,102989,1,10,0:0:0:0:
405,371,103151,5,0,1:0:0:0:
280,222,103313,1,10,0:0:0:0:
207,360,103475,1,6,1:2:0:0:
177,256,103637,1,10,0:2:0:0:
168,262,103719,1,8,0:0:0:0:
160,267,103800,2,0,L|219:269,1,50,2|0,1:1|0:0,0:0:0:0:
210,164,103962,1,8,0:0:0:0:
219,158,104044,1,0,1:0:0:0:
227,153,104125,2,0,L|168:151,1,50,2|2,1:2|1:2,0:0:0:0:
220,68,104286,2,0,L|161:66,1,50,10|2,1:2|1:2,0:0:0:0:
103,194,104448,6,0,B|61:159|61:159|98:6,1,200,6|0,0:2|1:0,0:0:0:0:
307,85,104935,1,8,0:0:0:0:
303,94,105016,1,8,0:0:0:0:
300,103,105097,2,0,P|359:100|371:54,1,100,2|8,1:2|0:0,0:0:0:0:
454,112,105421,1,0,1:0:0:0:
419,251,105583,6,0,L|319:233,1,100,10|0,0:0|1:0,0:0:0:0:
186,369,105908,2,0,P|195:314|239:296,1,100,10|0,0:0|1:0,0:0:0:0:
205,178,106232,1,8,0:0:0:0:
202,168,106313,1,8,0:0:0:0:
200,158,106394,2,0,L|218:44,1,100,2|8,1:2|0:0,0:0:0:0:
380,130,106719,2,2,P|327:118|276:138,1,100,6|8,1:2|0:0,0:1:0:0:
157,249,107043,5,6,1:2:0:0:
26,206,107205,1,8,0:0:0:0:
70,66,107367,1,2,1:2:0:0:
201,109,107529,1,8,0:0:0:0:
194,116,107610,1,8,0:0:0:0:
186,123,107692,6,0,L|180:61,1,50,2|0,1:2|0:0,0:0:0:0:
279,122,107854,2,0,L|274:72,1,50,8|0,0:3|0:0,0:0:0:0:
366,127,108016,2,0,L|361:77,1,50,4|0,0:3|0:0,0:0:0:0:
505,48,108178,6,2,P|455:10|339:0,1,150,6|0,1:1|0:0,0:1:0:0:
358,71,108502,6,0,P|374:87|407:93,1,50,2|0,1:2|0:0,0:0:0:0:
359,173,108664,2,0,P|378:184|412:181,1,50,10|0,0:2|0:0,0:0:0:0:
205,167,108827,2,0,P|226:172|258:161,1,50,8|8,0:3|0:3,0:0:0:0:
256,254,108989,2,0,P|278:254|306:234,1,50,8|0,0:3|0:0,0:0:0:0:
284,35,109151,6,0,P|272:56|264:101,1,50,4|4,0:3|0:3,0:0:0:0:
183,8,109313,2,0,P|176:31|180:76,1,50,10|0,0:0|0:0,0:0:0:0:
76,35,109475,2,0,P|76:59|91:102,1,50,2|0,0:0|0:0,0:0:0:0:
122,207,109637,6,0,B|75:158|31:151|31:151|-9:192,1,150,6|0,1:0|0:0,0:0:0:0:
0,162,109962,2,0,L|22:272,1,100,2|8,1:2|0:0,0:0:0:0:
0,339,110205,1,8,0:0:0:0:
1,348,110286,2,0,P|46:364|84:335,1,100,2|8,1:2|0:0,0:0:0:0:
212,199,110610,1,2,1:2:0:0:
244,343,110773,2,2,L|190:322,1,50,14|0,2:2|0:0,0:1:0:0:
298,108,111097,2,2,L|244:87,1,50,14|0,2:2|0:0,0:1:0:0:
306,251,111421,6,0,P|207:224|165:129,1,200,10|8,0:2|0:0,0:0:0:0:
214,3,111908,1,2,1:2:0:0:
112,61,112070,1,8,0:0:0:0:
121,57,112151,1,0,1:0:0:0:
130,53,112232,5,6,1:2:0:0:
352,176,112881,1,6,1:2:0:0:
343,24,113367,6,0,P|271:23|215:73,1,150,14|0,2:2|0:0,0:0:0:0:
134,59,113692,2,0,P|131:118|198:188,1,150,12|0,0:2|0:0,0:0:0:0:
212,264,114016,2,0,P|239:257|261:236,1,50,12|0,0:2|0:0,0:0:0:0:
321,171,114178,2,2,L|276:372,1,200,14|8,0:2|0:3,0:1:0:0:
61,350,114827,6,0,P|26:318|66:214,1,160,6|2,1:2|0:0,0:0:0:0:
204,66,115475,2,0,P|192:101|177:167,1,80,10|0,0:0|0:0,0:0:0:0:
85,122,115800,1,0,1:0:0:0:
286,220,115962,1,2,1:2:0:0:
286,220,116043,1,0,1:0:0:0:
286,220,116124,6,0,L|376:199,1,80,0|8,1:0|0:0,0:0:0:0:
397,66,116448,2,0,P|341:62|270:136,1,160,0|8,1:0|0:0,0:0:0:0:
214,274,116935,1,2,0:0:0:0:
85,122,117097,1,0,1:0:0:0:
12,276,117259,1,0,0:0:0:0:
139,226,117421,6,0,P|97:209|55:202,1,80,2|0,1:2|0:0,0:0:0:0:
99,382,117746,2,0,P|135:364|147:310,1,80,0|0,1:0|0:0,0:0:0:0:
217,191,118070,1,10,0:0:0:0:
233,361,118232,1,0,0:0:0:0:
217,191,118394,1,2,1:2:0:0:
296,302,118556,1,0,1:0:0:0:
296,302,118637,1,0,1:0:0:0:
296,302,118719,6,0,P|344:275|440:266,1,120,14|0,0:0|0:0,0:0:0:0:
414,277,119043,2,0,B|428:226|428:226|402:200,1,80,12|0,0:0|1:0,0:0:0:0:
273,126,119367,1,0,1:0:0:0:
288,144,119448,1,0,1:0:0:0:
311,150,119529,1,0,1:0:0:0:
334,149,119610,1,0,1:0:0:0:
353,135,119692,1,0,1:0:0:0:
463,33,119854,6,0,B|415:13|415:13|439:139,1,160,6|0,1:2|1:0,0:0:0:0:
475,236,120340,2,0,P|426:229|405:183,1,80,10|2,0:0|0:0,0:0:0:0:
294,348,120664,2,0,L|329:173,1,160,2|8,1:2|0:0,0:0:0:0:
293,20,121151,6,0,P|246:14|208:115,1,160,6|0,1:2|1:0,0:0:0:0:
142,241,121637,2,0,P|179:229|227:217,1,80,10|2,0:0|0:0,0:0:0:0:
286,291,121962,1,2,1:2:0:0:
409,142,122124,1,0,1:2:0:0:
464,257,122286,1,8,0:0:0:0:
345,384,122448,6,0,L|381:224,1,160,6|0,0:2|1:0,0:0:0:0:
325,157,122935,1,10,0:0:0:0:
325,157,123097,1,2,0:0:0:0:
286,291,123259,1,2,1:2:0:0:
371,239,123421,1,2,1:2:0:0:
188,167,123583,1,10,0:2:0:0:
352,64,123746,1,6,1:2:0:0:
352,64,124719,5,0,1:0:0:0:
268,91,124881,2,0,P|228:75|104:55,1,160,10|6,0:0|1:2,0:0:0:0:
31,324,125529,6,0,P|15:276|38:243,1,80,8|0,0:0|0:0,0:0:0:0:
115,219,125854,1,2,1:2:0:0:
193,333,126016,1,0,1:0:0:0:
260,282,126178,1,8,0:0:0:0:
199,343,126340,6,0,L|114:324,1,80,2|0,1:2|0:0,0:0:0:0:
275,191,126664,2,0,L|181:202,1,80,2|8,1:2|0:0,0:0:0:0:
87,84,126989,2,0,P|164:70|233:123,1,160,2|2,1:2|1:2,0:0:0:0:
334,30,127475,2,0,P|322:62|310:119,1,80,10|2,0:0|0:0,0:0:0:0:
493,155,127800,6,0,B|423:151|426:242|355:240,1,160,2|8,1:2|0:2,0:2:0:0:
359,230,128448,2,0,L|368:333,1,80,2|0,1:2|1:0,0:0:0:0:
454,294,128773,1,8,0:0:0:0:
302,371,128935,2,0,P|260:344|223:344,1,80,2|0,1:2|0:0,0:0:0:0:
263,203,129259,2,0,P|220:217|189:268,1,80,2|8,1:2|0:0,0:0:0:0:
156,384,129583,1,2,1:2:0:0:
41,323,129746,1,0,1:0:0:0:
46,299,129827,1,0,1:0:0:0:
44,275,129908,1,0,1:0:0:0:
37,251,129989,1,0,1:0:0:0:
19,234,130070,1,0,1:0:0:0:
162,145,130232,6,0,P|148:215|133:318,1,160,6|0,1:2|1:0,0:0:0:0:
254,51,130719,2,0,L|157:66,1,80,10|2,0:0|0:0,0:0:0:0:
235,231,131043,2,0,P|294:238|367:152,1,160,2|8,1:2|0:0,0:0:0:0:
449,31,131529,6,0,B|413:7|413:7|435:134,1,160,6|0,1:2|1:0,0:0:0:0:
493,211,132016,1,10,0:0:0:0:
346,91,132178,1,2,0:0:0:0:
493,211,132340,2,0,B|414:199|434:305|345:289,1,160,2|8,1:2|0:0,0:0:0:0:
264,354,132827,6,0,P|262:303|292:254,1,80,6|0,1:2|0:0,0:0:0:0:
337,208,133151,1,0,1:0:0:0:
249,101,133313,2,0,P|206:113|154:114,1,80,10|2,0:0|0:0,0:0:0:0:
104,257,133637,1,2,1:2:0:0:
204,199,133800,1,2,1:2:0:0:
61,88,133962,1,10,0:0:0:0:
210,210,134124,6,0,P|191:269|168:374,1,160,6|4,1:2|1:2,0:0:0:0:
4,361,134610,1,10,2:2:0:0:
5,336,134692,1,2,0:0:0:0:
16,314,134773,1,10,2:2:0:0:
34,298,134854,1,8,2:0:0:0:
56,289,134935,1,10,0:0:0:0:
154,345,135097,1,8,0:3:0:0:
1,217,135259,1,4,0:3:0:0:
193,197,135421,1,4,0:3:0:0:
1,217,135583,6,0,P|46:207|99:191,1,80,14|0,1:1|1:0,0:0:0:0:
75,32,135908,2,0,P|113:21|152:13,1,80,8|0,0:0|1:0,0:0:0:0:
149,261,136232,2,0,P|194:251|247:235,1,80,10|0,0:1|1:0,0:0:0:0:
223,77,136557,2,0,P|261:66|300:58,1,80,8|2,0:0|1:2,0:0:0:0:
416,226,136881,6,0,P|350:220|297:135,1,160,8|10,0:1|2:1,0:0:0:0:
376,104,137367,1,0,1:0:0:0:
493,171,137529,2,0,P|496:216|500:262,1,80,10|0,2:0|1:0,0:0:0:0:
373,383,137854,2,0,P|330:374|285:341,1,80,8|2,2:0|1:2,0:0:0:0:
440,325,138178,6,0,P|404:304|285:272,1,160,8|10,0:0|0:0,0:0:0:0:
218,319,138664,1,0,1:0:0:0:
69,197,138827,2,0,L|83:288,1,80,10|0,0:0|1:0,0:0:0:0:
220,222,139151,2,0,L|232:142,1,80,10|0,0:0|1:0,0:0:0:0:
56,374,139475,6,2,P|11:360|8:283,1,120,14|0,0:2|0:0,0:1:0:0:
22,285,139800,2,2,P|74:302|153:319,1,120,14|0,0:2|0:0,0:1:0:0:
152,335,140124,2,2,L|140:239,1,80,14|0,0:2|1:0,0:1:0:0:
261,170,140448,1,2,1:2:0:0:
296,177,140529,1,2,1:2:0:0:
326,195,140610,1,2,1:2:0:0:
343,226,140692,1,2,1:2:0:0:
337,261,140773,6,0,P|293:261|248:245,1,80,14|0,0:1|1:0,0:0:0:0:
281,81,141097,2,0,P|325:81|370:97,1,80,8|0,0:0|1:0,0:0:0:0:
166,239,141421,2,0,P|122:239|77:223,1,80,10|0,0:1|1:0,0:0:0:0:
110,59,141745,2,0,P|154:59|199:75,1,80,8|2,0:0|1:2,0:0:0:0:
273,186,142070,6,0,P|254:254|237:343,1,160,8|10,0:0|0:1,0:0:0:0:
322,371,142556,1,0,1:0:0:0:
456,311,142719,2,0,P|406:312|381:287,1,80,10|0,2:1|1:0,0:0:0:0:
442,137,143043,2,0,L|430:180,1,40,14|0,0:2|0:0,0:0:0:0:
342,102,143205,2,0,L|354:150,1,40,0|0,1:0|1:0,0:0:0:0:
420,187,143367,6,0,P|345:162|246:149,1,160,6|8,1:2|0:0,0:0:0:0:
196,211,143854,1,0,1:0:0:0:
68,135,144016,2,0,P|63:84|50:37,1,80,10|0,0:2|1:0,0:0:0:0:
196,0,144340,1,10,0:0:0:0:
158,135,144502,1,0,1:0:0:0:
196,0,144664,6,2,B|250:13|250:13|280:63|280:63|336:78,1,160,10|10,0:0|0:1,0:1:0:0:
405,19,145151,1,0,1:0:0:0:
354,148,145313,1,8,2:2:0:0:
461,89,145475,1,0,1:0:0:0:
363,158,145637,1,14,0:2:0:0:
314,25,145800,1,0,1:0:0:0:
372,170,145962,6,0,P|326:172|292:131,1,80,14|2,2:1|1:2,0:0:0:0:
431,104,146286,1,2,1:2:0:0:
242,244,146448,2,0,P|217:205|235:155,1,80,14|2,2:1|1:2,0:0:0:0:
328,262,146772,1,2,1:2:0:0:
456,182,146935,2,0,L|443:232,1,40,10|8,0:1|0:0,0:0:0:0:
426,296,147097,2,0,L|413:346,1,40,8|8,0:0|0:0,0:0:0:0:
337,367,147259,5,4,1:2:0:0:
337,367,147583,6,0,B|329:212|220:176|220:176|206:226,1,269.999991760254,2|0,0:1|0:0,0:0:0:0:
337,367,147908,6,0,B|409:230|335:143|335:143|297:178,1,269.999991760254,2|0,0:1|0:0,0:0:0:0:
337,367,148232,6,0,P|390:294|457:305,1,150,2|0,0:1|0:0,0:0:0:0:
337,367,148556,6,0,P|284:343|267:269,1,119.999996337891,6|8,1:1|0:0,0:0:0:0:
424,135,148881,2,0,L|298:155,1,119.999996337891,2|8,1:0|0:0,0:0:0:0:
215,94,149124,1,8,0:0:0:0:
206,102,149205,2,0,P|198:164|252:198,1,119.999996337891,2|8,1:1|0:0,0:0:0:0:
373,67,149529,1,2,1:1:0:0:
329,233,149692,1,8,0:0:0:0:
471,181,149854,6,2,P|413:145|346:161,1,119.999996337891,2|8,1:1|0:0,0:1:0:0:
380,313,150178,1,0,1:0:0:0:
234,338,150340,1,10,2:2:0:0:
227,347,150421,1,8,2:2:0:0:
222,357,150502,2,0,L|241:228,1,119.999996337891,2|8,1:0|0:0,0:0:0:0:
178,167,150746,1,2,0:0:0:0:
171,177,150827,2,0,P|128:208|46:190,1,119.999996337891,0|8,1:2|0:2,0:0:0:0:
0,357,151151,6,0,L|117:331,1,119.999996337891,2|8,1:1|0:0,0:0:0:0:
0,71,151475,2,0,L|128:98,1,119.999996337891,2|8,1:1|0:0,0:0:0:0:
185,34,151719,1,8,0:0:0:0:
175,27,151800,2,0,P|239:26|264:94,1,119.999996337891,2|8,1:0|0:0,0:0:0:0:
303,174,152124,1,2,1:0:0:0:
460,111,152286,1,8,0:0:0:0:
402,4,152448,6,2,P|388:52|370:129,1,119.999996337891,2|8,1:1|0:0,0:1:0:0:
426,195,152773,1,0,1:0:0:0:
311,291,152935,1,10,0:2:0:0:
318,300,153016,1,8,0:2:0:0:
325,309,153097,2,0,P|390:324|425:261,1,119.999996337891,2|8,1:0|0:0,0:0:0:0:
512,278,153421,2,2,P|430:241|271:192,1,239.999992675781,6|6,1:2|1:2,0:1:0:0:
135,337,153908,5,8,0:3:0:0:
114,307,153989,1,8,0:3:0:0:
123,272,154070,1,8,0:3:0:0:
191,125,154232,2,2,P|202:176|202:251,1,119.999996337891,6|0,1:0|0:0,0:1:0:0:
269,363,154556,1,0,1:0:0:0:
403,306,154719,2,2,L|283:282,1,119.999996337891,10|0,2:2|1:0,0:1:0:0:
31,336,155043,6,2,L|22:265,1,59.9999981689454,6|0,1:2|0:0,0:1:0:0:
66,190,155205,1,8,0:3:0:0:
101,192,155286,1,8,0:3:0:0:
124,218,155367,1,8,0:3:0:0:
180,104,155529,2,2,P|120:100|51:81,1,119.999996337891,6|0,1:0|0:0,0:1:0:0:
106,8,155854,1,0,1:0:0:0:
270,81,156016,2,2,P|264:136|263:207,1,119.999996337891,10|0,0:0|1:0,0:1:0:0:
424,230,156340,6,0,P|364:236|351:187,1,119.999996337891,6|8,1:1|0:0,0:0:0:0:
411,118,156664,1,2,1:0:0:0:
265,212,156827,1,8,0:0:0:0:
338,338,156989,2,0,L|463:314,1,119.999996337891,2|8,1:1|0:2,0:0:0:0:
482,230,157313,1,2,1:0:0:0:
348,105,157475,1,8,0:2:0:0:
446,54,157637,6,2,L|420:177,1,119.999996337891,6|8,1:2|1:2,2:1:0:0:
278,270,157962,1,6,1:2:0:0:
166,176,158124,1,8,0:0:0:0:
134,158,158205,1,8,0:3:0:0:
98,155,158286,1,8,0:3:0:0:
66,172,158367,1,8,0:3:0:0:
51,204,158448,1,8,0:3:0:0:
54,239,158529,1,8,0:3:0:0:
98,269,158610,1,4,0:3:0:0:
151,258,158692,1,4,0:3:0:0:
176,210,158773,1,4,0:3:0:0:
228,197,158854,1,4,0:3:0:0:
271,229,158935,6,0,L|239:348,1,119.999996337891,6|8,1:1|0:0,0:0:0:0:
131,69,159259,2,0,L|99:188,1,119.999996337891,2|8,1:0|0:0,0:0:0:0:
125,254,159502,1,8,0:0:0:0:
118,264,159583,2,0,P|52:255|27:191,1,119.999996337891,2|8,1:1|0:0,0:0:0:0:
42,59,159908,1,2,1:1:0:0:
183,186,160070,1,8,0:0:0:0:
42,59,160232,6,2,P|114:50|263:148,1,239.999992675781,2|0,1:1|1:0,0:1:0:0:
357,187,160719,1,10,2:2:0:0:
363,177,160800,1,8,2:2:0:0:
369,166,160881,1,2,1:0:0:0:
328,80,161043,1,8,0:0:0:0:
286,272,161205,1,0,1:2:0:0:
463,170,161367,1,8,0:0:0:0:
286,272,161529,6,0,P|267:202|288:152,1,119.999996337891,2|8,1:1|0:0,0:0:0:0:
465,268,161854,2,0,P|416:311|359:315,1,119.999996337891,2|8,1:1|0:0,0:0:0:0:
282,363,162097,1,8,0:0:0:0:
290,371,162178,2,0,L|163:327,1,119.999996337891,2|8,1:0|0:0,0:0:0:0:
27,354,162502,1,2,1:0:0:0:
202,246,162664,1,8,0:0:0:0:
95,164,162827,6,2,B|55:186|55:186|89:276,1,119.999996337891,2|8,1:1|0:0,0:1:0:0:
109,384,163151,1,0,1:0:0:0:
202,246,163313,1,10,0:2:0:0:
213,242,163394,1,8,0:2:0:0:
224,237,163475,1,2,1:0:0:0:
306,295,163637,1,8,0:0:0:0:
432,183,163800,1,6,1:2:0:0:
425,268,163962,1,10,1:2:0:0:
251,153,164124,6,2,L|331:179,1,59.9999981689454,6|0,1:2|0:0,0:1:0:0:
382,110,164286,1,8,0:3:0:0:
395,76,164367,1,8,0:3:0:0:
384,41,164448,1,8,0:3:0:0:
182,102,164610,2,2,P|196:157|200:240,1,119.999996337891,6|0,1:0|0:0,0:1:0:0:
287,322,164935,1,0,1:0:0:0:
130,270,165097,2,2,P|73:275|40:210,1,119.999996337891,10|0,2:2|1:0,0:1:0:0:
179,384,165421,6,2,P|189:343|206:313,1,59.9999981689454,6|0,1:2|0:0,0:1:0:0:
282,238,165583,1,8,0:3:0:0:
314,222,165664,1,8,0:3:0:0:
347,236,165746,1,8,0:3:0:0:
424,351,165908,2,2,P|360:349|311:302,1,119.999996337891,6|0,1:0|0:0,0:1:0:0:
370,145,166232,1,0,1:0:0:0:
472,270,166394,2,2,P|461:204|458:135,1,119.999996337891,10|0,0:0|1:0,0:1:0:0:
498,26,166719,6,0,B|438:7|438:7|399:69,1,119.999996337891,6|8,1:1|0:0,0:0:0:0:
294,71,167043,1,2,1:0:0:0:
382,233,167205,1,8,0:0:0:0:
371,239,167286,1,8,0:0:0:0:
361,246,167367,2,0,P|351:179|368:115,1,119.999996337891,2|8,1:1|0:2,0:0:0:0:
274,252,167692,1,2,1:0:0:0:
440,308,167854,1,8,0:2:0:0:
240,359,168016,6,2,P|307:334|359:326,1,119.999996337891,6|8,1:2|1:2,2:1:0:0:
449,200,168340,1,14,2:2:0:0:
267,160,168502,1,8,0:0:0:0:
257,152,168583,1,8,0:0:0:0:
247,144,168664,1,8,0:3:0:0:
292,59,168827,1,8,0:3:0:0:
298,246,168989,1,4,0:3:0:0:
292,59,169151,1,4,0:3:0:0:
298,246,169313,6,0,P|329:218|363:101,1,160,6|0,1:2|1:0,0:0:0:0:
436,62,169800,1,0,1:2:0:0:
505,187,169962,2,0,P|464:181|447:147,1,80,10|0,0:2|0:0,0:0:0:0:
263,73,170286,2,0,P|303:36|341:38,1,80,0|8,1:0|0:0,0:0:0:0:
321,187,170610,6,0,P|244:161|155:147,1,160,2|2,0:0|1:2,0:0:0:0:
109,210,171097,1,0,0:0:0:0:
194,342,171259,2,0,P|168:302|179:270,1,80,10|0,0:0|0:0,0:0:0:0:
278,371,171583,1,8,0:3:0:0:
234,201,171746,1,8,0:3:0:0:
422,323,171908,6,0,L|248:278,1,160,6|8,1:2|0:0,0:0:0:0:
462,244,172394,1,0,1:0:0:0:
351,155,172556,2,0,L|374:253,1,80,10|0,0:0|0:0,0:0:0:0:
263,133,172881,1,8,1:3:0:0:
263,133,173043,1,8,0:0:0:0:
373,9,173205,6,0,P|436:59|519:55,1,160,2|2,1:2|1:2,0:0:0:0:
512,165,173692,1,0,0:0:0:0:
512,165,173854,2,0,P|469:147|425:138,1,80,14|0,0:0|1:0,0:0:0:0:
312,174,174178,1,2,1:2:0:0:
275,191,174259,1,2,1:2:0:0:
235,185,174340,1,2,1:2:0:0:
209,154,174421,1,2,1:2:0:0:
206,114,174502,6,2,L|223:2,1,100,6|8,1:2|0:3,0:1:0:0:
134,0,174746,1,8,0:3:0:0:
141,6,174827,2,0,L|79:5,1,50,8|0,0:3|0:0,0:0:0:0:
0,78,174989,2,2,B|89:82|50:194|159:202,1,200,6|0,1:0|1:0,0:1:0:0:
328,351,175475,2,2,P|270:327|251:278,1,100,10|0,2:2|1:0,0:1:0:0:
463,177,175800,6,2,P|397:161|346:170,1,100,6|8,1:2|0:3,0:1:0:0:
272,207,176043,1,8,0:3:0:0:
263,212,176124,2,0,L|257:146,1,50,8|0,0:3|0:0,0:0:0:0:
312,86,176286,2,2,P|348:153|333:273,1,200,6|0,1:0|1:0,0:1:0:0:
488,357,176773,2,2,B|455:336|455:336|476:252,1,100,10|0,0:0|1:0,0:1:0:0:
512,102,177097,6,0,P|466:140|418:120,1,100,6|8,1:1|0:0,0:0:0:0:
390,49,177421,1,2,1:0:0:0:
228,117,177583,1,8,0:0:0:0:
223,125,177664,1,8,0:0:0:0:
216,133,177746,2,0,L|195:27,1,100,2|8,1:1|0:2,0:0:0:0:
320,0,178070,1,2,1:0:0:0:
299,171,178232,1,8,0:2:0:0:
426,73,178394,6,2,L|317:90,1,100,6|8,1:2|1:2,2:1:0:0:
384,288,178719,1,6,1:2:0:0:
503,181,178881,1,8,0:0:0:0:
499,190,178962,1,0,0:0:0:0:
495,199,179043,2,0,L|484:127,1,50,8|8,0:3|0:3,0:0:0:0:
406,157,179205,2,0,L|413:206,1,50,8|8,0:3|0:3,0:0:0:0:
331,218,179367,2,0,L|320:146,1,50,4|4,0:3|0:3,0:0:0:0:
249,125,179529,1,4,0:3:0:0:
239,121,179610,1,4,0:3:0:0:
230,116,179692,6,0,B|185:95|185:95|137:142,1,100,6|8,1:0|0:0,0:0:0:0:
192,302,180016,1,2,1:2:0:0:
63,228,180178,1,8,0:0:0:0:
65,237,180259,1,8,0:0:0:0:
66,246,180340,2,0,P|123:243|159:199,1,100,2|0,1:0|1:0,0:0:0:0:
164,47,180664,1,10,0:1:0:0:
286,114,180827,6,0,P|272:182|260:270,1,150,6|0,1:2|0:0,0:0:0:0:
343,313,181151,2,0,P|379:303|407:262,1,50,2|0,0:2|0:0,0:0:0:0:
358,184,181313,2,0,P|384:210|434:213,1,50,2|0,0:0|0:0,0:0:0:0:
481,126,181475,2,0,P|471:162|493:206,1,50,2|0,0:0|0:0,0:0:0:0:
512,277,181637,2,0,L|453:258,1,50,2|0,0:2|0:0,0:0:0:0:
427,369,181800,1,2,1:2:0:0:
512,277,181962,6,0,P|440:235|328:219,1,179.999994506836,10|0,0:2|0:0,0:0:0:0:
298,253,182286,6,0,P|289:204|281:155,1,100,6|8,1:1|0:0,0:0:0:0:
178,230,182610,2,0,P|169:279|161:328,1,100,2|8,1:2|0:0,0:0:0:0:
159,353,182854,1,8,0:0:0:0:
159,353,182935,1,2,1:0:0:0:
59,350,183097,1,8,0:0:0:0:
22,241,183259,1,2,1:2:0:0:
68,152,183421,1,10,0:1:0:0:
21,63,183583,6,0,P|114:29|213:38,1,200,0|0,1:0|1:0,0:0:0:0:
305,147,184070,1,8,0:0:0:0:
305,147,184151,1,8,0:0:0:0:
305,147,184232,1,2,1:1:0:0:
320,48,184394,1,8,0:0:0:0:
417,71,184556,1,2,1:2:0:0:
393,168,184719,1,8,0:0:0:0:
305,147,184881,6,0,P|289:194|276:242,1,100,6|8,1:1|0:0,0:0:0:0:
306,350,185205,2,0,P|354:362|401:378,1,100,2|10,1:2|0:1,0:0:0:0:
477,304,185448,1,8,0:0:0:0:
467,280,185529,2,0,P|480:232|496:185,1,100,0|10,1:0|0:0,0:0:0:0:
166,286,186016,6,0,P|117:298|70:314,1,100,14|0,0:1|1:0,0:0:0:0:
158,168,186340,1,8,0:0:0:0:
50,220,186502,1,2,1:2:0:0:
71,95,186664,1,10,0:1:0:0:
71,95,186746,1,8,0:0:0:0:
71,94,186827,2,0,P|60:46|52:-3,1,100,0|8,1:0|0:0,0:0:0:0:
185,103,187151,1,0,1:0:0:0:
271,37,187313,1,8,0:0:0:0:
340,122,187475,6,0,P|336:171|332:221,1,100,6|8,0:1|0:0,0:0:0:0:
327,322,187800,1,2,1:2:0:0:
425,338,187962,1,8,0:0:0:0:
492,264,188124,2,0,P|481:164|467:65,1,200,2|2,1:2|1:2,0:0:0:0:
340,122,188610,6,0,P|336:171|332:221,1,100,10|0,0:1|1:0,0:0:0:0:
327,322,188935,1,8,0:0:0:0:
239,276,189097,1,2,1:2:0:0:
162,342,189259,1,8,0:0:0:0:
162,342,189340,1,8,0:0:0:0:
162,342,189421,2,0,P|154:292|148:242,1,100,2|10,1:1|0:2,0:0:0:0:
301,203,189746,1,6,1:2:0:0:
207,154,189908,1,8,0:0:0:0:
207,154,189989,1,8,0:0:0:0:
207,154,190070,6,0,P|112:138|45:208,1,200,6|2,1:1|1:2,0:0:0:0:
162,342,190556,1,8,0:0:0:0:
162,342,190637,1,8,0:0:0:0:
162,342,190719,2,0,P|211:332|260:326,1,100,2|8,1:1|0:0,0:0:0:0:
388,359,191043,2,0,P|437:365|487:375,1,100,2|8,1:2|0:0,0:0:0:0:
342,238,191367,6,0,P|330:163|318:89,2,150,2|10|10,1:1|0:1|0:1,0:0:0:0:
441,148,191935,1,8,0:0:0:0:
441,148,192016,2,0,P|452:73|464:0,2,150,2|10|10,1:1|0:1|0:1,0:0:0:0:
413,325,192664,6,0,P|338:266|246:295,1,200,6|0,1:0|1:0,0:0:0:0:
126,357,193151,1,8,0:0:0:0:
126,357,193232,1,8,0:0:0:0:
126,357,193313,2,0,P|76:363|26:367,1,100,4|8,1:2|0:0,0:0:0:0:
157,250,193637,2,0,P|159:226|160:201,1,50,0|0,1:2|0:0,0:0:0:0:
87,169,193800,2,0,P|89:144|90:119,1,50,8|0,0:0|0:0,0:0:0:0:
164,38,193962,5,6,1:1:0:0:
252,162,194124,1,2,1:1:0:0:
344,38,194286,1,2,1:1:0:0:
432,162,194448,1,2,0:1:0:0:
432,162,194773,1,10,0:1:0:0:
346,294,194935,2,0,P|295:243|227:264,1,150,10|0,0:1|0:0,0:0:0:0:
189,340,195259,5,6,0:2:0:0:
36,33,196556,1,6,1:2:0:0:
380,113,197205,1,4,0:3:0:0:
126,335,197854,5,6,1:2:0:0:
175,151,198502,1,6,1:2:0:0:
359,46,199151,5,8,0:3:0:0:
496,201,199475,1,12,0:0:0:0:
337,301,199800,1,2,1:2:0:0:
337,301,199962,1,0,1:0:0:0:
204,210,200124,2,0,P|201:135|197:60,1,150,10|2,2:2|2:2,0:0:0:0:
214,69,200448,6,2,P|265:86|320:83,1,110.000003356934,6|8,1:2|0:3,0:1:0:0:
373,61,200692,1,8,0:3:0:0:
373,61,200773,1,8,0:3:0:0:
291,219,200935,2,2,P|293:274|296:329,1,110.000003356934,6|0,1:0|0:0,0:1:0:0:
296,329,201259,1,0,1:0:0:0:
431,190,201420,2,2,P|442:136|479:96,1,110.000003356934,10|0,2:2|1:0,0:1:0:0:
298,69,201746,6,2,P|246:86|191:83,1,110.000003356934,6|8,1:2|0:3,0:1:0:0:
139,61,201990,1,8,0:3:0:0:
139,61,202071,1,8,0:3:0:0:
221,219,202233,2,2,P|218:274|215:329,1,110.000003356934,6|0,1:0|0:0,0:1:0:0:
215,328,202557,1,0,1:0:0:0:
81,190,202718,2,2,P|69:136|32:96,1,110.000003356934,10|0,0:0|1:0,0:1:0:0:
0,316,203043,6,0,P|54:308|108:300,1,110.000003356934,6|8,1:1|0:0,0:0:0:0:
219,334,203367,1,2,1:0:0:0:
330,306,203529,1,8,0:0:0:0:
330,306,203610,1,8,0:0:0:0:
330,306,203692,2,0,P|339:251|362:201,1,110.000003356934,2|8,1:1|0:2,0:0:0:0:
188,229,204016,2,0,P|178:174|155:124,1,110.000003356934,2|8,1:0|0:2,0:0:0:0:
325,0,204340,5,6,1:2:0:0:
347,102,204502,2,0,P|292:92|242:69,1,110.000003356934,8|6,1:2|1:2,0:0:0:0:
134,25,204827,1,8,0:0:0:0:
79,35,204908,1,8,0:0:0:0:
54,84,204989,2,0,P|26:79|0:75,3,55.0000016784668,8|8|8|8,0:3|0:3|0:3|0:3,0:0:0:0:
55,138,205313,5,4,0:3:0:0:
54,192,205394,1,4,0:3:0:0:
52,246,205475,1,4,0:3:0:0:
49,300,205556,1,4,0:3:0:0:
51,350,205637,6,0,P|110:355|170:362,1,119.999996337891,6|8,1:1|0:0,0:0:0:0:
145,235,205962,2,0,P|204:224|263:217,1,119.999996337891,2|8,1:0|0:0,0:0:0:0:
195,95,206205,1,8,0:0:0:0:
201,49,206286,2,0,P|257:72|311:97,1,119.999996337891,2|8,1:1|0:0,0:0:0:0:
412,16,206610,2,0,P|431:38|450:62,1,59.9999981689454,2|0,1:0|0:0,0:0:0:0:
437,0,206772,2,0,P|456:22|474:46,1,59.9999981689454,8|0,0:0|0:0,0:0:0:0:
489,177,206935,6,2,P|491:236|491:296,1,119.999996337891,2|8,1:1|0:0,0:1:0:0:
347,310,207259,1,0,1:0:0:0:
375,156,207421,1,10,2:2:0:0:
384,121,207502,1,8,2:2:0:0:
391,85,207583,2,0,P|331:78|271:69,1,119.999996337891,2|8,1:0|0:0,0:0:0:0:
151,31,207908,1,0,1:1:0:0:
89,133,208070,1,8,0:0:0:0:
80,168,208151,1,8,0:0:0:0:
74,203,208232,6,0,P|62:261|51:320,1,119.999996337891,2|8,1:1|0:0,0:0:0:0:
189,257,208556,2,0,P|215:310|240:365,1,119.999996337891,2|8,1:1|0:0,0:0:0:0:
306,256,208800,1,8,0:0:0:0:
305,219,208881,2,0,P|350:258|396:297,1,119.999996337891,2|8,1:0|0:0,0:0:0:0:
425,131,209205,2,0,P|454:125|484:121,1,59.9999981689454,2|0,1:0|0:0,0:0:0:0:
425,101,209367,2,0,P|454:95|484:92,1,59.9999981689454,8|0,0:0|0:0,0:0:0:0:
322,126,209529,6,2,P|264:108|206:94,1,119.999996337891,2|8,1:1|0:0,0:1:0:0:
233,228,209854,1,0,1:0:0:0:
404,318,210016,1,10,0:2:0:0:
438,309,210097,1,8,0:2:0:0:
472,301,210178,2,0,P|475:242|432:203,1,119.999996337891,2|8,1:0|0:0,0:0:0:0:
277,343,210502,2,0,P|248:352|219:359,1,59.9999981689454,6|2,1:2|1:2,0:0:0:0:
112,354,210664,2,0,P|82:346|54:337,1,59.9999981689454,10|2,1:2|1:2,0:0:0:0:
176,277,210827,5,6,1:2:0:0:
314,167,210989,1,8,0:3:0:0:
307,214,211070,1,8,0:3:0:0:
300,261,211151,1,8,0:3:0:0:
178,164,211313,2,2,P|120:150|62:137,1,119.999996337891,6|0,1:0|0:0,0:1:0:0:
61,136,211637,1,0,1:0:0:0:
252,78,211800,2,2,P|310:63|368:50,1,119.999996337891,10|0,2:2|1:0,0:1:0:0:
479,167,212124,5,6,1:2:0:0:
333,285,212286,1,8,0:3:0:0:
293,259,212367,1,8,0:3:0:0:
250,238,212448,1,8,0:3:0:0:
368,50,212610,2,2,P|360:109|355:169,1,119.999996337891,6|0,1:0|0:0,0:1:0:0:
354,169,212935,1,0,1:0:0:0:
245,43,213097,2,2,P|185:51|126:58,1,119.999996337891,10|0,0:0|1:0,0:1:0:0:
31,223,213421,6,0,P|37:282|43:342,1,119.999996337891,6|8,1:1|0:0,0:0:0:0:
149,267,213745,1,2,1:0:0:0:
233,181,213908,1,8,0:0:0:0:
204,158,213989,1,8,0:0:0:0:
176,134,214070,2,0,P|180:74|187:14,1,119.999996337891,2|8,1:1|0:2,0:0:0:0:
301,86,214394,1,2,1:0:0:0:
301,86,214556,1,8,0:2:0:0:
422,24,214718,5,6,1:2:0:0:
512,119,214881,1,8,1:2:0:0:
390,187,215043,2,2,P|380:246|372:305,1,119.999996337891,14|8,2:2|0:0,0:1:0:0:
238,260,215367,2,0,P|232:231|223:203,3,59.9999981689454,8|8|8|8,0:3|0:3|0:3|0:3,0:0:0:0:
242,313,215691,5,4,0:3:0:0:
188,340,215773,1,8,0:3:0:0:
129,324,215854,1,4,0:3:0:0:
108,267,215935,1,8,0:3:0:0:
130,220,216016,6,0,P|117:142|66:82,1,160,6|0,1:2|1:0,0:0:0:0:
66,82,216503,1,0,1:2:0:0:
209,26,216665,2,0,P|248:31|288:33,1,80,10|0,0:2|0:0,0:0:0:0:
349,161,216989,2,0,P|309:166|269:168,1,80,0|8,1:0|0:0,0:0:0:0:
456,65,217313,6,0,P|500:131|493:209,1,160,2|2,0:0|1:2,0:0:0:0:
493,209,217800,1,0,0:0:0:0:
388,302,217962,2,0,P|379:340|372:380,1,80,10|0,0:0|0:0,0:0:0:0:
271,227,218286,1,8,0:3:0:0:
271,227,218449,1,8,0:3:0:0:
274,333,218611,6,0,P|195:317|116:306,1,160,6|8,1:2|0:0,0:0:0:0:
116,306,219097,1,0,1:0:0:0:
20,203,219259,2,0,P|19:164|14:124,1,80,10|0,0:0|0:0,0:0:0:0:
167,8,219584,2,0,B|162:48|160:88,1,80,8|8,1:3|0:0,0:0:0:0:
278,158,219908,6,0,P|347:121|424:135,1,160,2|2,1:2|1:2,0:0:0:0:
424,135,220394,1,0,0:0:0:0:
466,275,220557,1,14,0:0:0:0:
362,206,220719,1,0,1:0:0:0:
246,335,220881,1,2,1:2:0:0:
364,294,221043,1,2,1:2:0:0:
222,249,221205,6,2,P|172:254|122:262,1,100,6|8,1:2|0:3,0:1:0:0:
76,272,221449,1,8,0:3:0:0:
76,272,221530,1,8,0:3:0:0:
162,147,221692,2,2,P|112:140|62:134,1,100,6|0,1:0|0:0,0:1:0:0:
215,13,222016,1,0,1:0:0:0:
265,99,222178,2,2,P|315:92|365:86,1,100,10|0,2:2|1:0,0:1:0:0:
224,232,222503,6,2,P|233:281|242:330,1,100,6|8,1:2|0:3,0:1:0:0:
287,362,222747,1,8,0:3:0:0:
287,362,222828,1,8,0:3:0:0:
356,267,222990,2,2,P|406:271|456:276,1,100,6|0,1:0|0:0,0:1:0:0:
311,170,223313,1,0,1:0:0:0:
414,127,223476,2,2,P|411:78|405:28,1,100,10|0,0:0|1:0,0:1:0:0:
204,29,223800,6,0,P|193:78|184:128,1,100,6|8,1:1|0:0,0:0:0:0:
172,226,224124,1,2,1:0:0:0:
78,260,224286,1,8,0:0:0:0:
85,289,224367,1,8,0:0:0:0:
93,318,224449,1,2,1:1:0:0:
181,363,224611,1,8,0:2:0:0:
259,288,224773,2,0,P|308:293|358:300,1,100,2|8,1:0|0:2,0:0:0:0:
185,168,225097,6,2,P|135:170|85:174,1,100,6|8,1:2|1:2,2:1:0:0:
163,48,225422,1,6,1:2:0:0:
275,155,225584,1,8,0:0:0:0:
275,155,225665,1,8,0:3:0:0:
275,155,225746,2,0,P|273:180|267:204,3,50,8|8|8|8,0:3|0:3|0:3|0:3,0:0:0:0:
287,111,226070,5,4,0:3:0:0:
319,72,226151,1,4,0:3:0:0:
368,67,226232,1,4,0:3:0:0:
408,95,226313,1,4,0:3:0:0:
435,136,226394,6,0,P|447:232|384:306,1,200,6|2,1:0|1:2,0:0:0:0:
196,339,226881,1,8,0:0:0:0:
167,331,226962,1,8,0:0:0:0:
138,323,227043,2,0,P|123:224|94:128,1,200,2|10,1:0|0:1,0:0:0:0:
7,25,227530,1,6,1:2:0:0:
7,25,227854,6,0,P|8:49|11:74,1,50,2|0,0:2|0:0,0:0:0:0:
82,145,228016,6,0,P|89:120|92:92,1,52.4999983978272,2|0,0:0|0:0,0:0:0:0:
171,19,228178,6,0,P|175:46|177:73,1,55.0000016784668,2|0,0:0|0:0,0:0:0:0:
268,155,228340,6,0,P|264:126|258:99,1,57.5000010967255,2|0,0:2|0:0,0:0:0:0:
347,3,228503,6,0,P|346:32|342:62,1,59.9999981689454,2|0,1:2|0:0,0:0:0:0:
425,181,228665,6,0,P|421:150|413:119,1,62.5,10|0,0:2|0:0,0:0:0:0:
499,9,228827,6,0,P|499:41|495:73,1,64.9999970245363,2|0,0:0|0:0,0:0:0:0:
367,243,228989,6,0,P|320:226|270:228,1,100,6|8,1:2|0:0,0:0:0:0:
209,331,229313,1,0,1:2:0:0:
107,288,229475,1,8,0:0:0:0:
107,288,229556,1,8,0:0:0:0:
107,288,229638,2,0,P|58:289|8:292,1,100,2|8,1:2|0:0,0:0:0:0:
59,184,229962,1,0,1:0:0:0:
195,105,230124,6,0,P|186:155|177:204,1,100,10|0,0:0|1:0,0:0:0:0:
0,98,230448,2,0,P|10:48|18:-1,1,100,10|0,0:0|1:0,0:0:0:0:
217,24,230773,2,0,P|240:32|264:38,1,50,8|8,0:0|0:0,0:0:0:0:
335,59,230935,2,0,P|342:108|347:158,1,100,2|8,1:2|0:0,0:0:0:0:
358,276,231259,2,2,P|421:249|459:307,1,150,2|0,1:0|0:0,0:1:0:0:
438,347,231583,6,0,P|389:348|339:355,1,100,6|8,1:2|0:0,0:0:0:0:
226,314,231908,1,0,1:0:0:0:
264,205,232070,1,8,0:0:0:0:
264,205,232151,1,8,0:0:0:0:
264,205,232232,2,0,P|259:155|251:105,1,100,2|8,1:2|0:0,0:0:0:0:
150,40,232556,1,0,1:0:0:0:
31,196,232719,6,0,P|91:153|163:165,1,150,10|0,0:0|0:0,0:0:0:0:
168,193,233043,1,10,0:0:0:0:
117,301,233205,1,6,1:2:0:0:
220,362,233367,1,10,0:2:0:0:
220,362,233448,1,8,0:0:0:0:
220,362,233529,2,0,P|268:351|318:347,1,100,2|8,1:1|0:0,0:0:0:0:
467,304,233854,6,0,P|468:275|472:244,1,59.9999981689454,2|2,1:2|1:2,0:0:0:0:
365,234,234016,2,0,P|362:204|361:174,1,59.9999981689454,10|2,1:2|1:2,0:0:0:0:
460,129,234178,6,0,P|464:79|467:29,1,100,6|8,0:2|0:0,0:0:0:0:
354,82,234502,1,0,1:0:0:0:
245,42,234665,1,8,0:0:0:0:
245,42,234746,1,8,0:0:0:0:
245,41,234827,2,0,P|248:90|255:140,1,100,2|8,1:2|0:0,0:0:0:0:
267,259,235151,1,0,1:0:0:0:
155,216,235313,6,0,P|105:218|55:220,1,100,10|0,0:0|1:0,0:0:0:0:
214,360,235637,2,0,P|263:363|313:365,1,100,10|0,0:0|1:0,0:0:0:0:
59,320,235962,1,8,0:0:0:0:
59,320,236043,1,8,0:0:0:0:
59,319,236124,2,0,P|62:270|55:221,1,100,2|8,1:2|0:0,0:0:0:0:
35,99,236448,2,2,P|100:121|129:59,1,150,6|0,1:2|0:0,0:1:0:0:
110,39,236773,5,6,1:2:0:0:
228,23,236935,1,8,0:0:0:0:
320,188,237097,1,2,1:2:0:0:
202,172,237259,1,8,0:0:0:0:
349,63,237421,6,0,P|373:59|398:55,1,50,2|0,1:2|0:0,0:0:0:0:
411,141,237583,2,0,P|436:144|461:149,1,50,8|0,0:3|0:0,0:0:0:0:
408,246,237746,2,0,P|431:255|454:266,1,50,4|0,0:3|0:0,0:0:0:0:
323,318,237908,1,6,1:1:0:0:
323,318,238232,6,0,B|287:315|273:310,1,50,10|0,1:2|0:3,0:0:0:0:
181,247,238394,2,0,P|183:222|187:197,3,50,8|8|10|4,0:3|0:3|1:2|0:3,0:0:0:0:
108,326,238719,2,0,P|109:350|113:375,3,50,8|8|4|4,0:3|0:3|0:3|3:0,0:0:0:0:
14,331,239043,2,0,P|76:303|52:240,1,150,10|0,1:2|0:0,0:0:0:0:
19,215,239367,6,0,P|18:166|28:117,1,100,6|8,1:2|0:0,0:0:0:0:
122,42,239691,1,0,1:2:0:0:
192,151,239853,1,8,0:0:0:0:
192,151,239934,1,8,0:0:0:0:
192,151,240016,2,0,P|241:150|291:147,1,100,2|8,1:2|0:0,0:0:0:0:
372,57,240340,1,0,1:0:0:0:
452,145,240502,6,0,P|460:194|470:243,1,100,10|0,0:0|1:0,0:0:0:0:
334,373,240827,2,0,P|344:324|353:275,1,100,10|0,0:0|1:0,0:0:0:0:
501,339,241151,2,0,P|476:344|453:352,1,50,8|8,0:0|0:0,0:0:0:0:
334,373,241313,2,0,P|284:368|234:360,1,100,2|8,1:2|0:0,0:0:0:0:
33,319,241637,2,2,P|67:257|138:263,1,150,2|0,1:0|0:0,0:1:0:0:
169,288,241961,6,0,P|163:239|152:190,1,100,6|8,1:2|0:0,0:0:0:0:
99,82,242286,1,0,1:0:0:0:
213,35,242448,1,8,0:0:0:0:
213,35,242529,1,8,0:0:0:0:
213,35,242610,2,0,P|263:40|313:48,1,100,2|8,1:2|0:0,0:0:0:0:
410,115,242934,1,0,1:0:0:0:
302,169,243097,6,0,P|315:242|321:317,1,150,10|0,0:0|0:0,0:0:0:0:
321,351,243421,1,10,0:0:0:0:
239,263,243583,1,6,1:2:0:0:
163,357,243745,1,10,0:2:0:0:
163,357,243826,1,8,0:0:0:0:
163,357,243907,2,0,P|114:361|65:371,1,100,2|8,1:1|0:0,0:0:0:0:
131,248,244232,6,0,P|129:218|126:188,1,59.9999981689454,2|2,1:2|1:2,0:0:0:0:
3,168,244394,2,0,P|4:138|7:108,1,59.9999981689454,10|2,1:2|1:2,0:0:0:0:
116,70,244556,6,0,P|166:75|216:78,1,100,6|8,0:2|0:0,0:0:0:0:
318,140,244880,1,0,1:0:0:0:
423,77,245043,1,8,0:0:0:0:
423,77,245124,1,8,0:0:0:0:
423,76,245205,2,0,P|427:126|434:176,1,100,2|8,1:2|0:0,0:0:0:0:
344,255,245529,1,0,1:0:0:0:
402,359,245691,6,0,P|352:361|302:363,1,100,10|0,0:0|1:0,0:0:0:0:
238,200,246016,2,0,P|189:197|139:195,1,100,10|0,0:0|1:0,0:0:0:0:
32,364,246340,1,8,0:0:0:0:
32,364,246421,1,8,0:0:0:0:
32,364,246502,2,0,P|81:362|131:360,1,100,2|8,1:2|0:0,0:0:0:0:
344,264,246826,2,2,P|309:201|237:199,1,150,6|0,1:2|0:0,0:1:0:0:
217,234,247151,5,6,1:2:0:0:
282,334,247313,1,8,0:0:0:0:
429,287,247475,1,2,1:2:0:0:
494,186,247637,1,8,0:0:0:0:
414,96,247799,6,0,P|410:71|406:46,1,50,2|0,1:2|0:0,0:0:0:0:
299,9,247961,2,0,P|294:34|292:59,1,50,8|0,0:3|0:0,0:0:0:0:
186,118,248124,2,0,P|182:93|178:68,1,50,4|0,0:3|0:0,0:0:0:0:
80,12,248286,6,2,P|20:29|75:61,1,160,6|0,1:1|0:0,0:1:0:0:
