osu file format v14

[General]
AudioFilename: audio.mp3
AudioLeadIn: 0
PreviewTime: 65448
Countdown: 0
SampleSet: Soft
StackLeniency: 0.7
Mode: 0
LetterboxInBreaks: 0
WidescreenStoryboard: 1

[Editor]
DistanceSpacing: 1.1
BeatDivisor: 8
GridSize: 32
TimelineZoom: 1.6

[Metadata]
Title:Girl meets Love
TitleUnicode:Girl meets Love
Artist:Katakiri Rekka & Suzuyu
ArtistUnicode:片霧烈火&鈴湯
Creator:Lasse
Version:Easy
Source:花咲ワークスプリング!
Tags:hana saki spring work! hanasaki Saga Planets rizia kawaiwkyik 7ka -nanaka- shurelia karen suiyu eroge visual novel opening full version japanese pop rock
BeatmapID:2454343
BeatmapSetID:1175182

[Difficulty]
HPDrainRate:3
CircleSize:3
OverallDifficulty:4
ApproachRate:5
SliderMultiplier:0.799999999999999
SliderTickRate:1

[Events]
//Background and Video events
0,0,"ye.jpg",0,0
//Break Periods
//Storyboard Layer 0 (Background)
//Storyboard Layer 1 (Fail)
//Storyboard Layer 2 (Pass)
//Storyboard Layer 3 (Foreground)
//Storyboard Layer 4 (Overlay)
//Storyboard Sound Samples

[TimingPoints]
665,324.324324324324,4,2,1,45,1,0
665,-125,4,2,1,45,0,0
5854,-111.111111111111,4,2,1,50,0,0
9583,-111.111111111111,4,2,1,52,0,0
11043,-100,4,2,1,55,0,0
19962,-100,4,2,1,58,0,0
21421,-100,4,2,1,60,0,0
29205,-100,4,2,1,55,0,0
31475,-100,4,2,1,50,0,0
31800,-111.111111111111,4,2,1,48,0,0
35692,-111.111111111111,4,2,1,50,0,0
36340,-111.111111111111,4,2,1,47,0,0
36827,-111.111111111111,4,2,1,50,0,0
41692,-111.111111111111,4,2,1,40,0,0
41773,-111.111111111111,4,2,1,5,0,0
41854,-111.111111111111,4,2,43,50,0,0
42097,-111.111111111111,4,2,43,10,0,0
42178,-111.111111111111,4,2,1,50,0,0
51908,-111.111111111111,4,2,1,52,0,0
52232,-111.111111111111,4,2,1,54,0,0
52556,-100,4,2,1,60,0,0
64556,-100,4,2,1,50,0,0
64881,-100,4,2,1,54,0,0
65205,-100,4,2,1,58,0,0
65529,-90.9090909090909,4,2,1,70,0,1
75259,-90.9090909090909,4,2,1,70,0,0
75908,-90.9090909090909,4,2,1,70,0,1
85637,-90.9090909090909,4,2,1,65,0,1
86286,-100,4,2,1,62,0,0
91475,-90.9090909090909,4,2,1,70,0,1
96016,-90.9090909090909,4,2,1,65,0,1
96664,-90.9090909090909,4,2,1,70,0,1
97800,-100,4,2,1,65,0,0
98124,-100,4,2,1,60,0,0
98610,-100,4,2,1,62,0,0
98935,-100,4,2,43,64,0,0
99259,-100,4,2,1,58,0,0
108178,-100,4,2,1,60,0,0
109637,-100,4,2,1,62,0,0
112232,-100,4,2,1,55,0,0
114502,-100,4,2,1,50,0,0
114827,-111.111111111111,4,2,1,48,0,0
118719,-111.111111111111,4,2,1,50,0,0
119367,-111.111111111111,4,2,1,47,0,0
119854,-111.111111111111,4,2,1,50,0,0
124719,-111.111111111111,4,2,1,40,0,0
124800,-111.111111111111,4,2,1,5,0,0
124881,-111.111111111111,4,2,43,50,0,0
125124,-111.111111111111,4,2,43,10,0,0
125205,-111.111111111111,4,2,1,50,0,0
134935,-111.111111111111,4,2,1,52,0,0
135259,-111.111111111111,4,2,1,54,0,0
135583,-99.9999999999999,4,2,1,60,0,0
147583,-99.9999999999999,4,2,1,50,0,0
147746,-99.9999999999999,4,2,1,30,0,0
147908,-99.9999999999999,4,2,1,54,0,0
148070,-99.9999999999999,4,2,1,30,0,0
148232,-99.9999999999999,4,2,1,58,0,0
148394,-99.9999999999999,4,2,1,30,0,0
148556,-90.9090909090909,4,2,1,70,0,1
158286,-90.9090909090909,4,2,1,70,0,0
158935,-90.9090909090909,4,2,1,70,0,1
168664,-90.9090909090909,4,2,1,65,0,1
169313,-100,4,2,1,62,0,0
174502,-90.9090909090909,4,2,1,70,0,1
179043,-90.9090909090909,4,2,1,65,0,1
179692,-90.9090909090909,4,2,1,70,0,1
180827,-100,4,2,1,65,0,0
181151,-100,4,2,1,60,0,0
181637,-100,4,2,1,62,0,0
181962,-100,4,2,43,64,0,0
182286,-90.9090909090909,4,2,1,65,0,0
191367,-90.9090909090909,4,2,1,68,0,0
192827,-90.9090909090909,4,2,1,65,0,0
193962,-90.9090909090909,4,2,1,70,0,0
195097,-90.9090909090909,4,2,1,60,0,0
195259,-105.263157894737,4,2,1,50,0,0
196556,-105.263157894737,4,2,1,54,0,0
197529,-105.263157894737,4,2,43,54,0,0
197854,-105.263157894737,4,2,1,56,0,0
199151,-105.263157894737,4,2,1,58,0,0
199475,-105.263157894737,4,2,1,52,0,0
199637,-105.263157894737,4,2,1,58,0,0
200124,-105.263157894737,4,2,43,60,0,0
200448,-90.9090909090909,4,2,1,70,0,1
204989,-90.9090909090909,4,2,1,70,0,0
205637,-90.9090909090909,4,2,1,70,0,1
215367,-90.9090909090909,4,2,1,65,0,1
216016,-100,4,2,1,62,0,0
221205,-90.9090909090909,4,2,1,70,0,1
225746,-90.9090909090909,4,2,1,65,0,1
226394,-90.9090909090909,4,2,1,70,0,1
227529,-100,4,2,1,65,0,0
227854,-100,4,2,1,60,0,0
228340,-100,4,2,1,62,0,0
228664,-100,4,2,43,64,0,0
228989,-100,4,2,1,60,0,0
237908,-100,4,2,1,62,0,0
238556,-100,4,2,1,60,0,0
238881,-100,4,2,43,60,0,0
239043,-100,4,2,43,65,0,0
239205,-100,4,2,43,55,0,0
239367,-100,4,2,1,62,0,0
248286,-111.111111111111,4,2,1,60,0,0
248306,-111.111111111111,4,2,43,50,0,0
248448,-111.111111111111,4,2,43,5,0,0
248773,-111.111111111111,4,2,99,15,0,0

[Colours]
Combo1 : 250,180,240
Combo2 : 120,200,230
Combo3 : 255,150,150
Combo4 : 160,230,150

[HitObjects]
0,234,665,5,6,0:2:0:0:
138,211,1313,1,2,0:0:0:0:
187,304,1800,2,0,B|239:342|239:342|285:318|344:329,1,160,2|2,0:0|0:0,0:0:0:0:
471,347,3259,5,2,0:0:0:0:
485,206,3908,1,2,0:0:0:0:
423,120,4394,2,0,B|411:109|399:103|399:103|368:119|338:117|338:117|310:98|265:97,1,160,2|2,0:0|0:0,0:0:0:0:
130,165,5854,5,6,1:2:0:0:
189,311,6502,1,6,1:2:0:0:
338,363,7151,1,6,1:2:0:0:
462,264,7800,1,6,1:2:0:0:
463,105,8448,6,0,B|461:66|440:38|440:38|406:57|364:45,1,143.999995605469,6|10,1:2|0:0,0:0:0:0:
252,32,9583,2,0,B|221:14|184:26|184:26|206:85|160:129,1,179.999994506836,6|2,1:2|1:2,0:0:0:0:
53,265,11043,6,0,B|35:333|85:358|85:358|140:342,1,160,6|2,1:2|1:2,0:0:0:0:
261,307,12178,1,10,0:0:0:0:
261,307,12502,1,10,0:0:0:0:
338,349,12827,2,0,P|398:372|450:350,1,120,8|2,0:0|1:0,0:0:0:0:
501,283,13637,6,0,L|497:119,1,160,6|2,1:2|1:2,0:0:0:0:
402,30,14773,2,0,B|366:14|321:26|321:26|312:46|317:66|317:66|279:78|250:123,1,200,10|2,0:0|1:1,0:0:0:0:
223,192,15908,1,2,1:2:0:0:
185,271,16232,6,0,B|144:339|144:339|65:298,1,160,6|2,0:2|1:2,0:0:0:0:
11,184,17367,1,10,0:0:0:0:
11,184,17692,1,10,0:0:0:0:
25,96,18016,2,0,P|65:55|140:59,1,120,8|6,0:0|1:2,0:0:0:0:
187,113,18827,6,0,P|180:137|193:207,1,79.9999999999999,6|2,1:2|1:2,0:0:0:0:
224,269,19475,1,2,1:2:0:0:
326,352,19962,2,2,B|369:359|398:331|398:331|423:348|440:353|440:353|459:326|480:317|480:317|471:296|470:272|470:272|491:255|495:218,1,280,6|10,1:1|0:0,0:1:0:0:
463,143,21421,6,0,L|433:54,1,79.9999999999999,6|2,1:0|1:2,0:0:0:0:
363,19,22070,1,2,1:2:0:0:
234,49,22556,2,2,P|195:54|149:31,2,79.9999999999999,14|14|10,2:2|2:2|0:2,0:1:0:0:
363,19,23692,1,2,1:2:0:0:
422,83,24016,6,0,P|434:123|430:172,1,79.9999999999999,6|2,1:2|1:2,0:0:0:0:
415,247,24664,1,2,1:2:0:0:
330,348,25151,2,2,P|288:331|242:327,1,79.9999999999999,14|14,1:2|1:2,0:1:0:0:
168,353,25800,2,0,P|111:368|52:360,1,120,10|2,0:1|1:2,0:0:0:0:
4,287,26610,6,0,L|12:195,1,79.9999999999999,6|0,1:1|1:0,0:0:0:0:
20,119,27259,1,2,1:2:0:0:
142,71,27746,2,2,L|223:48,2,79.9999999999999,14|14|10,0:2|0:0|0:0,0:1:0:0:
20,119,28881,1,2,1:2:0:0:
27,206,29205,5,6,1:2:0:0:
113,359,29854,1,6,1:2:0:0:
241,329,30340,2,0,B|275:313|320:322|320:322|346:356|385:363|385:363|400:342|418:325,1,200,14|14,2:2|0:2,0:0:0:0:
498,199,31800,6,0,P|504:124|472:50,1,143.999995605469,6|10,1:2|0:0,0:0:0:0:
343,12,33097,1,0,1:0:0:0:
299,149,33746,1,8,0:0:0:0:
264,288,34394,1,2,1:2:0:0:
139,360,35043,1,10,0:0:0:0:
21,276,35692,2,0,P|12:244|16:202,2,71.9999978027344,14|12|0,0:0|0:0|1:0,0:0:0:0:
106,342,36827,6,0,L|229:355,1,107.999996704102,6|10,1:2|0:0,0:0:0:0:
288,383,37637,1,2,1:2:0:0:
393,347,38124,2,0,P|407:297|397:231,1,107.999996704102,6|10,1:2|0:0,0:0:0:0:
364,169,38935,1,2,1:2:0:0:
261,217,39421,6,0,B|212:233|212:233|162:205,1,107.999996704102,6|10,0:2|0:0,0:0:0:0:
108,144,40232,2,0,P|105:102|136:35,1,107.999996704102,2|6,1:2|1:2,0:0:0:0:
455,35,42178,6,0,P|477:115|465:180,1,143.999995605469,6|2,1:2|1:2,0:0:0:0:
422,272,43313,1,2,1:2:0:0:
287,221,43962,1,2,1:2:0:0:
167,356,44773,2,0,P|87:371|47:316,1,143.999995605469,0|2,1:2|1:2,0:2:0:0:
12,228,45908,2,0,B|32:176|32:176|24:138|24:138|64:44,1,179.999994506836,2|0,1:2|1:0,0:0:0:0:
166,15,47205,6,0,P|187:45|263:43,1,107.999996704102,6|10,1:2|0:0,0:0:0:0:
326,10,48016,1,2,1:2:0:0:
427,62,48502,2,0,P|443:96|433:165,1,107.999996704102,6|10,1:2|0:0,0:0:0:0:
401,240,49313,1,2,1:2:0:0:
298,170,49800,6,0,B|268:149|268:149|243:151|243:151|189:121,1,107.999996704102,6|10,1:2|0:0,0:0:0:0:
141,72,50610,2,0,P|98:52|40:66,2,107.999996704102,2|6|10,1:2|1:2|1:2,0:0:0:0:
202,128,51908,1,10,0:0:0:0:
299,266,52556,6,0,B|362:315|362:315|450:286,1,160,14|10,1:1|0:1,0:0:0:0:
506,182,53692,2,0,L|486:56,1,120,2|10,1:2|2:1,0:0:0:0:
414,19,54502,1,10,2:0:0:0:
312,96,54989,6,0,P|278:107|201:81,1,120,2|10,1:2|0:0,0:0:0:0:
140,30,55800,1,10,0:0:0:0:
28,157,56448,2,2,P|19:201|25:240,1,79.9999999999999,14|14,0:2|0:2,0:1:0:0:
75,302,57097,2,2,B|103:311|103:311|110:325|110:325|150:341,1,79.9999999999999,14|2,0:2|1:2,0:1:0:0:
224,359,57746,6,0,B|277:349|277:349|317:365|317:365|387:354,1,160,14|10,0:1|0:1,0:0:0:0:
488,289,58881,2,0,B|444:250|460:193|460:193|459:183|459:183|488:143|475:93,1,200,2|10,1:2|2:1,0:0:0:0:
433,31,60016,1,14,0:2:0:0:
364,81,60340,6,0,P|296:95|207:57,1,160,6|10,1:2|0:2,0:0:0:0:
139,21,61313,1,10,0:0:0:0:
139,21,61637,1,10,0:0:0:0:
74,76,61962,2,0,P|40:131|60:237,1,160,10|14,0:1|0:2,0:0:0:0:
112,280,62935,6,0,L|240:263,1,120,14|14,2:1|2:1,0:0:0:0:
305,161,63908,2,0,P|304:115|322:67,1,79.9999999999999,10|4,0:1|1:2,0:0:0:0:
487,238,65529,6,0,P|496:289|479:334,1,88.0000026855468,6|2,1:1|1:0,0:0:0:0:
417,378,66178,1,2,1:1:0:0:
417,378,66502,1,2,1:1:0:0:
348,322,66827,2,2,P|289:295|172:310,1,176.000005371094,2|2,1:1|1:0,0:1:0:0:
19,377,68124,6,0,P|14:337|30:279,1,88.0000026855468,2|2,1:1|1:1,0:0:0:0:
77,220,68773,1,2,1:0:0:0:
77,220,69097,1,2,1:0:0:0:
148,271,69421,2,2,P|231:295|324:267,1,176.000005371094,2|2,1:1|1:0,0:1:0:0:
463,175,70719,6,2,B|450:131|475:89|475:89|463:61|440:41,1,132.00000402832,6|6,1:2|1:0,0:1:0:0:
330,3,71692,1,10,2:2:0:0:
264,61,72016,2,2,P|243:116|249:205,1,132.00000402832,6|6,1:2|1:0,0:1:0:0:
304,305,72989,1,10,0:0:0:0:
230,352,73313,6,0,L|127:342,1,88.0000026855468,6|2,1:1|1:0,0:0:0:0:
57,368,73962,1,2,1:1:0:0:
57,368,74286,1,2,1:0:0:0:
17,289,74610,2,2,L|36:192,1,88.0000026855468,6|6,1:2|1:2,2:1:0:0:
85,130,75259,2,0,L|180:121,1,88.0000026855468,8|4,0:3|0:3,0:0:0:0:
264,141,75908,6,0,P|264:91|283:49,1,88.0000026855468,6|2,1:1|1:0,0:0:0:0:
360,24,76556,1,2,1:1:0:0:
360,24,76881,1,2,1:1:0:0:
442,54,77205,2,2,B|487:96|487:96|460:216,1,176.000005371094,2|2,1:1|1:0,0:1:0:0:
306,290,78502,6,0,B|298:259|298:259|302:240|302:240|290:197,1,88.0000026855468,2|2,1:1|1:1,0:0:0:0:
273,118,79151,1,2,1:0:0:0:
273,118,79475,1,2,1:0:0:0:
206,60,79800,2,2,P|147:40|36:91,1,176.000005371094,2|2,1:1|1:0,0:1:0:0:
10,252,81097,6,2,B|2:339|2:339|43:360,1,132.00000402832,6|6,1:2|1:0,0:1:0:0:
172,382,82070,1,10,2:2:0:0:
191,296,82394,2,2,L|214:155,1,132.00000402832,6|6,1:2|1:0,0:1:0:0:
238,36,83367,1,10,0:0:0:0:
318,70,83692,6,0,L|421:60,1,88.0000026855468,6|2,1:1|1:0,0:0:0:0:
494,88,84340,1,2,1:1:0:0:
494,88,84664,1,2,1:0:0:0:
509,174,84989,2,2,L|497:273,1,88.0000026855468,6|14,1:2|2:2,2:1:0:0:
467,343,85637,2,0,P|418:353|374:330,1,88.0000026855468,8|4,0:3|0:3,0:0:0:0:
330,271,86286,6,0,B|311:211|311:211|321:182|321:182|299:104,1,160,6|10,1:2|0:2,0:0:0:0:
178,5,87583,1,2,0:0:0:0:
24,48,88232,1,10,0:0:0:0:
7,130,88556,1,8,0:3:0:0:
24,212,88881,6,0,B|27:292|27:292|39:333|94:340,1,160,6|10,1:2|0:0,0:0:0:0:
245,350,90178,1,2,1:2:0:0:
403,369,90827,1,14,0:0:0:0:
488,215,91475,6,2,B|496:128|496:128|455:107,1,132.00000402832,6|6,1:2|1:0,0:1:0:0:
327,76,92448,1,10,2:2:0:0:
343,162,92773,2,2,P|348:219|312:295,1,132.00000402832,6|6,1:2|1:0,0:1:0:0:
221,375,93746,1,10,0:0:0:0:
141,336,94070,6,0,P|127:295|132:249,1,88.0000026855468,6|2,1:1|1:0,0:0:0:0:
172,175,94719,1,2,1:1:0:0:
172,175,95043,1,2,1:0:0:0:
241,228,95367,2,2,P|287:238|337:227,1,88.0000026855468,6|6,1:2|1:2,2:1:0:0:
405,192,96016,2,0,P|416:157|412:92,1,88.0000026855468,8|4,0:3|0:3,0:0:0:0:
354,37,96664,6,0,B|297:27|297:27|254:68|177:59,1,176.000005371094,6|2,1:0|1:0,0:0:0:0:
70,29,97800,1,6,1:2:0:0:
70,29,99259,6,0,B|52:89|94:128|94:128|78:142|62:175,1,160,6|2,1:2|1:2,0:0:0:0:
10,288,100394,1,10,0:0:0:0:
10,288,100719,1,10,0:0:0:0:
70,348,101043,2,0,P|129:369|182:349,1,120,8|2,0:0|1:0,0:0:0:0:
222,275,101854,6,0,L|242:116,1,160,6|2,1:2|1:2,0:0:0:0:
343,37,102989,2,0,B|382:20|424:33|424:33|431:52|437:70|437:70|464:89|481:137,1,200,10|2,0:0|1:1,0:0:0:0:
500,216,104124,1,2,1:2:0:0:
484,300,104448,6,0,B|472:345|445:368|445:368|367:334,1,160,6|2,0:2|1:2,0:0:0:0:
259,283,105583,1,10,0:0:0:0:
259,283,105908,1,10,0:0:0:0:
307,212,106232,2,0,P|322:172|306:91,1,120,8|6,0:0|1:2,0:0:0:0:
243,42,107043,6,0,L|159:33,1,79.9999999999999,6|2,1:2|1:2,0:0:0:0:
77,34,107692,1,2,1:2:0:0:
15,146,108178,2,2,B|1:187|20:223|20:223|3:242|3:265|3:265|22:284|25:303|25:303|55:296|78:299|78:299|85:322|123:344,1,280,6|10,1:1|0:0,0:1:0:0:
195,368,109637,6,0,L|285:359,1,79.9999999999999,6|2,1:0|1:2,0:0:0:0:
357,381,110286,1,2,1:2:0:0:
463,309,110773,2,2,P|475:280|470:226,2,79.9999999999999,14|14|10,2:2|2:2|0:2,0:1:0:0:
357,381,111908,1,2,1:2:0:0:
294,319,112232,5,6,1:2:0:0:
344,150,112881,1,6,1:2:0:0:
257,50,113367,2,0,B|230:22|182:29|182:29|159:69|116:70|116:70|98:55|70:46,1,200,14|14,2:2|0:2,0:0:0:0:
8,190,114827,6,0,B|-8:298|-8:298|28:328,1,143.999995605469,6|10,1:2|0:0,0:0:0:0:
150,377,116124,1,0,1:0:0:0:
279,314,116773,1,8,0:0:0:0:
414,363,117421,1,2,1:2:0:0:
510,256,118070,1,10,0:0:0:0:
455,122,118719,2,0,L|462:45,2,71.9999978027344,14|12|0,0:0|0:0|1:0,0:0:0:0:
390,217,119854,6,0,P|339:228|284:191,1,107.999996704102,6|10,1:2|0:0,0:0:0:0:
235,143,120664,1,2,1:2:0:0:
161,240,121151,2,0,B|141:261|141:261|136:298|136:298|104:331,1,107.999996704102,6|10,1:2|0:0,0:0:0:0:
42,377,121962,1,2,1:2:0:0:
7,260,122448,6,0,L|20:137,1,107.999996704102,6|10,0:2|0:0,0:0:0:0:
80,99,123259,2,0,P|116:114|191:100,1,107.999996704102,2|6,1:2|1:2,0:0:0:0:
379,54,125205,6,0,B|418:24|465:32|465:32|489:57|495:85,1,143.999995605469,6|2,1:2|1:2,0:0:0:0:
505,183,126340,1,2,1:2:0:0:
447,315,126989,1,2,1:2:0:0:
323,183,127800,2,0,B|288:141|288:141|284:106|284:106|240:54,1,143.999995605469,2|2,1:2|1:2,0:2:0:0:
146,31,128935,2,0,P|95:27|41:132,1,179.999994506836,2|0,1:2|1:0,0:0:0:0:
107,211,130232,6,0,L|221:196,1,107.999996704102,6|10,1:2|0:0,0:0:0:0:
274,253,131043,1,2,1:2:0:0:
357,161,131529,2,0,B|373:129|373:129|365:102|365:102|389:54,1,107.999996704102,6|10,1:2|0:0,0:0:0:0:
452,15,132340,1,2,1:2:0:0:
499,129,132827,6,0,L|485:242,1,107.999996704102,6|10,1:2|0:0,0:0:0:0:
438,304,133637,2,0,P|393:320|333:300,2,107.999996704102,2|6|10,1:2|1:2|2:2,0:0:0:0:
485,236,134935,1,10,0:0:0:0:
422,83,135583,6,0,B|397:53|338:41|338:41|287:86,1,160,14|10,1:1|0:1,0:0:0:0:
245,195,136719,2,0,B|266:241|266:241|238:322,1,120,2|10,1:2|2:1,0:0:0:0:
196,376,137529,1,10,2:0:0:0:
87,311,138016,6,0,P|70:253|90:182,1,120,2|10,1:2|0:0,0:0:0:0:
126,124,138827,1,10,0:0:0:0:
265,217,139475,2,2,P|305:227|353:215,1,79.9999999999999,14|14,0:2|0:2,0:1:0:0:
410,170,140124,2,2,B|414:89,1,79.9999999999999,14|2,0:2|1:2,0:1:0:0:
349,35,140773,6,0,B|296:25|296:25|256:43|256:43|186:30,1,160,14|10,0:1|0:1,0:0:0:0:
71,59,141908,2,0,B|76:114|49:151|49:151|52:159|52:159|18:195|46:260,1,200,2|10,1:2|2:1,0:0:0:0:
77,324,143043,1,14,0:2:0:0:
151,362,143367,6,0,L|316:347,1,160,6|10,1:2|0:2,0:0:0:0:
394,377,144340,1,10,0:0:0:0:
394,377,144664,1,10,0:0:0:0:
456,320,144989,2,0,P|474:269|451:167,1,160,10|14,0:1|0:2,0:0:0:0:
394,106,145962,6,0,B|353:98|353:98|327:105|327:105|267:93,1,120,14|14,2:1|2:1,0:0:0:0:
163,149,146935,2,0,P|147:186|148:228,1,79.9999999999999,10|4,0:1|1:2,0:0:0:0:
360,369,148556,6,0,P|406:373|447:357,1,88.0000026855468,6|2,1:1|1:0,0:0:0:0:
496,288,149205,1,2,1:1:0:0:
496,288,149529,1,2,1:1:0:0:
451,211,149854,2,2,B|431:155|431:155|433:116|433:116|407:32,1,176.000005371094,2|2,1:1|1:0,0:1:0:0:
235,19,151151,6,0,L|220:118,1,88.0000026855468,2|2,1:1|1:1,0:0:0:0:
214,197,151800,1,2,1:0:0:0:
214,197,152124,1,2,1:0:0:0:
149,256,152448,2,2,P|68:266|15:196,1,176.000005371094,2|2,1:1|1:0,0:1:0:0:
98,42,153746,6,2,B|152:35|152:35|191:64|191:64|275:75,1,176.000005371094,6|0,1:2|0:0,0:1:0:0:
347,47,154719,1,10,2:2:0:0:
426,84,155043,2,2,P|461:130|455:218,1,132.00000402832,6|6,1:2|1:0,0:1:0:0:
426,329,156016,1,10,0:0:0:0:
347,368,156340,6,0,P|306:371|256:342,1,88.0000026855468,6|2,1:1|1:0,0:0:0:0:
209,289,156989,1,2,1:1:0:0:
209,289,157313,1,2,1:0:0:0:
247,210,157637,2,2,P|262:169|259:124,1,88.0000026855468,6|6,1:2|1:2,2:1:0:0:
218,47,158286,2,0,L|125:36,1,88.0000026855468,8|4,0:3|0:3,0:0:0:0:
53,84,158935,6,0,P|38:125|40:169,1,88.0000026855468,6|2,1:1|1:0,0:0:0:0:
66,258,159583,1,2,1:1:0:0:
66,258,159908,1,2,1:1:0:0:
149,229,160232,2,2,P|200:213|323:245,1,176.000005371094,2|2,1:1|1:0,0:1:0:0:
479,306,161529,6,0,P|494:259|488:217,1,88.0000026855468,2|2,1:1|1:1,0:0:0:0:
446,150,162178,1,2,1:0:0:0:
446,150,162502,1,2,1:0:0:0:
371,197,162827,2,2,B|287:226|287:226|201:166,1,176.000005371094,2|2,1:1|1:0,0:1:0:0:
100,42,164124,6,2,B|80:31|52:30|52:30|29:65|30:135,1,154.000004699707,6|0,1:2|0:0,0:1:0:0:
32,240,165097,1,10,2:2:0:0:
79,313,165421,2,2,P|122:335|207:324,1,132.00000402832,6|6,1:2|1:0,0:1:0:0:
321,267,166394,1,10,0:0:0:0:
253,210,166719,6,0,P|229:175|228:113,1,88.0000026855468,6|2,1:1|1:0,0:0:0:0:
232,43,167367,1,2,1:1:0:0:
232,43,167692,1,2,1:0:0:0:
315,14,168016,2,2,L|412:22,1,88.0000026855468,6|14,1:2|2:2,2:1:0:0:
467,80,168664,2,0,P|482:117|469:177,1,88.0000026855468,8|4,0:3|0:3,0:0:0:0:
421,232,169313,6,0,B|361:213|361:213|328:225|328:225|253:206,1,160,6|10,1:2|0:2,0:0:0:0:
202,54,170610,1,2,0:0:0:0:
36,81,171259,1,10,0:0:0:0:
7,159,171583,1,8,0:3:0:0:
17,242,171908,6,0,B|-1:314|41:350|41:350|95:331,1,160,6|10,1:2|0:0,0:0:0:0:
244,300,173205,1,2,1:2:0:0:
196,138,173854,1,14,0:0:0:0:
341,39,174502,6,2,B|378:17|425:26|425:26|454:64,1,132.00000402832,6|6,1:2|1:0,0:1:0:0:
511,180,175475,1,10,2:2:0:0:
457,249,175800,2,2,B|430:271|390:268|390:268|369:239|336:216,1,132.00000402832,6|6,1:2|1:0,0:1:0:0:
241,146,176773,1,10,0:0:0:0:
191,218,177097,6,0,B|179:239|179:239|176:268|176:268|153:306,1,88.0000026855468,6|2,1:1|1:0,0:0:0:0:
103,367,177746,1,2,1:1:0:0:
103,367,178070,1,2,1:0:0:0:
40,305,178394,2,2,P|30:258|38:209,1,88.0000026855468,6|6,1:2|1:2,2:1:0:0:
87,147,179043,2,0,L|181:139,1,88.0000026855468,8|4,0:3|0:3,0:0:0:0:
255,174,179692,6,0,B|299:212|299:212|356:210|386:138,1,176.000005371094,6|2,1:0|1:0,0:0:0:0:
429,29,180827,1,6,1:2:0:0:
429,29,182286,6,0,P|391:45|335:42,1,88.0000026855468,6|2,1:1|1:2,0:0:0:0:
259,23,182935,1,2,1:0:0:0:
181,129,183421,2,2,P|165:164|181:259,1,132.00000402832,10|0,0:1|1:0,0:1:0:0:
232,328,184232,1,2,1:1:0:0:
232,328,184556,1,2,1:2:0:0:
308,365,184881,2,0,L|448:347,1,132.00000402832,6|10,1:1|0:1,0:0:0:0:
499,284,185692,1,10,0:0:0:0:
476,199,186016,2,0,B|460:121|460:121|463:103|463:103|446:17,1,176.000005371094,14|10,0:1|0:1,0:0:0:0:
232,73,187475,6,0,P|212:137|222:164,1,88.0000026855468,6|2,0:1|1:2,0:0:0:0:
260,231,188124,1,2,1:2:0:0:
171,328,188610,2,0,P|123:339|48:294,1,132.00000402832,10|2,0:1|1:2,0:0:0:0:
14,228,189421,1,2,1:1:0:0:
14,228,189746,1,6,1:2:0:0:
74,163,190070,6,0,P|91:124|82:24,2,132.00000402832,6|8|2,1:1|0:0|1:2,0:0:0:0:
14,228,191367,2,0,P|1:269|0:318,1,88.0000026855468,2|4,1:1|1:2,0:0:0:0:
64,373,192016,2,0,L|157:358,1,88.0000026855468,2|4,1:1|1:2,0:0:0:0:
236,338,192664,6,0,B|328:313|311:379|412:353,1,176.000005371094,6|4,1:0|1:2,0:0:0:0:
497,203,193962,2,0,L|505:58,1,132.00000402832,6|2,1:1|0:1,0:0:0:0:
430,22,194773,2,0,P|392:51|316:31,1,132.00000402832,10|6,0:1|0:2,0:0:0:0:
71,112,196556,5,6,1:2:0:0:
0,306,197854,2,0,P|26:287|145:284,1,151.999995941162,6|6,1:2|1:2,0:0:0:0:
281,341,199151,2,0,B|352:360|352:360|431:342,1,151.999995941162,8|2,0:3|1:2,0:0:0:0:
483,175,200448,6,2,B|493:131|491:89|491:89|479:64|460:41,1,132.00000402832,6|6,1:2|1:0,0:1:0:0:
341,11,201421,1,10,2:2:0:0:
302,89,201746,2,2,B|288:131|288:131|294:168|294:168|273:233,1,132.00000402832,6|6,1:2|1:0,0:1:0:0:
235,340,202719,1,10,0:0:0:0:
151,368,203043,6,0,P|106:368|65:337,1,88.0000026855468,6|2,1:1|1:0,0:0:0:0:
15,276,203692,1,2,1:1:0:0:
15,276,204016,1,2,1:0:0:0:
32,189,204340,2,2,L|51:92,1,88.0000026855468,6|6,1:2|1:2,2:1:0:0:
118,47,204989,2,0,P|160:38|212:47,1,88.0000026855468,8|4,0:3|0:3,0:0:0:0:
285,88,205637,6,0,B|324:100|324:100|372:87,1,88.0000026855468,6|2,1:1|1:0,0:0:0:0:
444,41,206286,1,2,1:1:0:0:
444,41,206610,1,2,1:1:0:0:
487,117,206935,2,2,B|498:160|498:160|467:307,1,176.000005371094,2|2,1:1|1:0,0:1:0:0:
307,353,208232,6,0,B|276:345|276:345|257:349|257:349|214:337,1,88.0000026855468,2|2,1:1|1:1,0:0:0:0:
163,273,208881,1,2,1:0:0:0:
163,273,209205,1,2,1:0:0:0:
230,216,209529,2,2,P|252:151|216:33,1,176.000005371094,2|2,1:1|1:0,0:1:0:0:
53,24,210827,6,2,B|13:44|13:44|21:131,1,132.00000402832,6|6,1:2|1:0,0:1:0:0:
30,263,211800,1,10,2:2:0:0:
75,338,212124,2,2,P|112:352|209:310,1,132.00000402832,6|6,1:2|1:0,0:1:0:0:
304,247,213097,1,10,0:0:0:0:
272,164,213421,6,0,P|262:129|270:78,1,88.0000026855468,6|2,1:1|1:0,0:0:0:0:
344,30,214070,1,2,1:1:0:0:
344,30,214394,1,2,1:0:0:0:
426,62,214719,6,2,P|444:93|450:144,1,88.0000026855468,6|14,1:2|2:2,2:1:0:0:
472,228,215367,2,0,P|475:265|456:320,1,88.0000026855468,8|4,0:3|0:3,0:0:0:0:
392,362,216016,6,0,B|333:349|333:349|301:363|301:363|228:347,1,160,6|10,1:2|0:2,0:0:0:0:
82,310,217313,1,2,0:0:0:0:
183,186,217962,1,10,0:0:0:0:
255,224,218286,1,8,0:3:0:0:
329,260,218610,2,0,P|401:274|472:210,1,160,6|10,1:2|0:0,0:0:0:0:
507,65,219908,1,2,1:2:0:0:
356,11,220556,1,14,0:0:0:0:
297,177,221205,6,2,B|288:216|288:216|296:251|296:251|281:313,1,132.00000402832,6|6,1:2|1:0,0:1:0:0:
165,365,222178,1,10,2:2:0:0:
85,327,222502,2,2,P|71:264|84:198,1,132.00000402832,6|6,1:2|1:0,0:1:0:0:
134,76,223475,1,10,0:0:0:0:
216,105,223800,6,0,P|253:110|307:96,1,88.0000026855468,6|2,1:1|1:0,0:0:0:0:
378,53,224448,1,2,1:1:0:0:
378,53,224773,1,2,1:0:0:0:
458,88,225097,2,2,P|483:124|474:184,1,88.0000026855468,6|6,1:2|1:2,2:1:0:0:
425,234,225746,2,0,L|328:253,1,88.0000026855468,8|4,0:3|0:3,0:0:0:0:
276,312,226394,6,0,B|258:329|235:334|235:334|164:301|165:224,1,176.000005371094,6|2,1:0|1:0,0:0:0:0:
178,114,227529,1,6,1:2:0:0:
178,114,228989,6,0,P|154:50|64:68,1,160,6|2,1:2|1:2,0:0:0:0:
6,164,230124,1,10,0:0:0:0:
6,164,230448,1,10,0:0:0:0:
43,240,230773,2,0,B|97:267|97:267|152:236,1,120,8|2,0:0|1:0,0:0:0:0:
216,186,231583,6,0,B|197:159|194:127|194:127|211:67|254:44,1,160,6|2,1:2|1:2,0:0:0:0:
373,35,232719,2,0,B|416:28|416:28|453:42|453:42|460:73|476:86|476:86|479:129|457:157,1,200,10|2,0:0|1:1,0:0:0:0:
407,214,233854,1,2,1:2:0:0:
335,168,234178,6,0,B|266:129|266:129|185:156,1,160,6|2,0:2|1:2,0:0:0:0:
72,205,235313,1,10,0:0:0:0:
72,205,235637,1,10,0:0:0:0:
91,287,235962,2,0,P|119:319|194:324,1,120,8|6,0:0|1:2,0:0:0:0:
268,286,236773,6,0,L|286:202,1,79.9999999999999,6|2,1:2|1:2,0:0:0:0:
306,125,237421,1,2,1:2:0:0:
399,38,237908,2,2,B|432:17|478:24|478:24|472:61|491:81|491:81|468:114|468:114|499:146|499:220,1,280,6|10,1:1|1:2,0:1:0:0:
455,277,239367,6,0,B|394:291|394:291|377:314|377:314|307:331,1,160,6|2,1:2|1:2,0:0:0:0:
194,376,240502,1,10,0:0:0:0:
194,376,240827,1,10,0:0:0:0:
135,315,241151,2,0,P|129:271|154:189,1,120,8|2,0:0|1:0,0:0:0:0:
222,158,241962,6,0,B|272:162|272:162|301:192|301:192|373:205,1,160,6|2,1:2|1:2,0:0:0:0:
477,138,243097,2,0,B|498:94|491:49|457:28|457:28|432:60|395:71,1,200,10|2,0:0|1:1,0:0:0:0:
306,72,244232,1,2,1:2:0:0:
222,44,244556,6,0,B|162:23|162:23|79:102,1,160,6|2,0:2|1:2,0:0:0:0:
2,185,245692,1,10,0:0:0:0:
2,185,246016,1,10,0:0:0:0:
61,244,246340,2,0,P|114:257|183:236,1,120,8|6,0:0|1:2,0:0:0:0:
243,188,247151,6,0,L|255:106,1,79.9999999999999,6|2,1:2|1:2,0:0:0:0:
273,25,247800,1,2,1:2:0:0:
379,64,248286,2,2,P|433:71|472:37,1,107.999996704102,6|4,1:1|2:2,0:1:0:0:
