osu file format v14

[General]
AudioFilename: audio.mp3
AudioLeadIn: 0
PreviewTime: 65448
Countdown: 0
SampleSet: Soft
StackLeniency: 0.7
Mode: 0
LetterboxInBreaks: 0
WidescreenStoryboard: 1

[Editor]
Bookmarks: 5854,11043,21421,31800,42178,52556,62935,65529,75908,86286,91475,99259,112232,114827,125205,135583,145962,148556,158935,169313,174502,182286,195259,200448,205637,210827,216016,221205,228989,239367,248286,248773
DistanceSpacing: 2.08
BeatDivisor: 4
GridSize: 32
TimelineZoom: 1.6

[Metadata]
Title:Girl meets Love
TitleUnicode:Girl meets Love
Artist:Katakiri Rekka & Suzuyu
ArtistUnicode:片霧烈火&鈴湯
Creator:Lasse
Version:Affection
Source:花咲ワークスプリング!
Tags:hana saki spring work! hanasaki Saga Planets rizia kawaiwkyik 7ka -nanaka- shurelia karen suiyu eroge visual novel opening full version japanese pop rock
BeatmapID:2451203
BeatmapSetID:1175182

[Difficulty]
HPDrainRate:6.4
CircleSize:4.2
OverallDifficulty:8.7
ApproachRate:9.3
SliderMultiplier:2.4
SliderTickRate:1

[Events]
//Background and Video events
0,0,"ye.jpg",0,0
//Break Periods
//Storyboard Layer 0 (Background)
//Storyboard Layer 1 (Fail)
//Storyboard Layer 2 (Pass)
//Storyboard Layer 3 (Foreground)
//Storyboard Layer 4 (Overlay)
//Storyboard Sound Samples

[TimingPoints]
665,324.324324324324,4,2,1,45,1,0
665,-200,4,2,1,45,0,0
5854,-153.846153846153,4,2,1,50,0,0
9583,-133.333333333333,4,2,1,52,0,0
11043,-116.279069767442,4,2,1,55,0,0
19962,-100,4,2,1,58,0,0
21421,-100,4,2,1,60,0,0
22556,-66.6666666666667,4,2,1,60,0,0
23692,-100,4,2,1,60,0,0
25151,-66.6666666666667,4,2,1,60,0,0
25800,-80,4,2,1,60,0,0
26286,-100,4,2,1,60,0,0
26610,-100,4,2,1,60,0,0
27746,-66.6666666666667,4,2,1,60,0,0
29205,-133.333333333333,4,2,1,55,0,0
31475,-133.333333333333,4,2,1,50,0,0
31800,-161.290322580645,4,2,1,48,0,0
35692,-133.333333333333,4,2,1,50,0,0
36340,-133.333333333333,4,2,1,47,0,0
36827,-133.333333333333,4,2,1,50,0,0
41043,-200,4,2,1,50,0,0
41692,-200,4,2,1,40,0,0
41773,-200,4,2,1,5,0,0
41854,-100,4,2,43,50,0,0
42097,-100,4,2,43,10,0,0
42178,-142.857142857143,4,2,1,50,0,0
47205,-133.333333333333,4,2,1,50,0,0
51908,-133.333333333333,4,2,1,52,0,0
52232,-133.333333333333,4,2,1,54,0,0
52556,-99.9999999999999,4,2,1,60,0,0
56448,-83.3333333333333,4,2,1,60,0,0
57421,-111.111111111111,4,2,1,60,0,0
57746,-111.111111111111,4,2,1,60,0,0
60340,-100,4,2,1,60,0,0
61313,-83.3333333333333,4,2,1,60,0,0
61962,-100,4,2,1,60,0,0
62935,-90.9090909090909,4,2,1,60,0,0
64556,-90.9090909090909,4,2,1,50,0,0
64881,-90.9090909090909,4,2,1,54,0,0
65205,-90.9090909090909,4,2,1,58,0,0
65529,-80,4,2,1,70,0,1
70394,-66.6666666666667,4,2,1,70,0,1
70719,-100,4,2,1,70,0,1
71205,-80,4,2,1,70,0,1
71692,-133.333333333333,4,2,1,70,0,1
72016,-100,4,2,1,70,0,1
72502,-80,4,2,1,70,0,1
72989,-133.333333333333,4,2,1,70,0,1
73313,-100,4,2,1,70,0,1
75259,-100,4,2,1,70,0,0
75908,-80,4,2,1,70,0,1
80773,-66.6666666666667,4,2,1,70,0,1
81097,-100,4,2,1,70,0,1
81583,-80,4,2,1,70,0,1
82070,-133.333333333333,4,2,1,70,0,1
82394,-100,4,2,1,70,0,1
82881,-80,4,2,1,70,0,1
83367,-133.333333333333,4,2,1,70,0,1
83692,-100,4,2,1,70,0,1
85637,-100,4,2,1,65,0,1
86286,-133.333333333333,4,2,1,62,0,0
90827,-100,4,2,1,62,0,0
91475,-100,4,2,1,70,0,1
91962,-80,4,2,1,70,0,1
92448,-133.333333333333,4,2,1,70,0,1
92773,-100,4,2,1,70,0,1
93259,-80,4,2,1,70,0,1
93746,-133.333333333333,4,2,1,70,0,1
94070,-100,4,2,1,70,0,1
95367,-100,4,2,1,70,0,1
96016,-100,4,2,1,65,0,1
96664,-90.9090909090909,4,2,1,70,0,1
97800,-90.9090909090909,4,2,1,65,0,0
98124,-90.9090909090909,4,2,1,60,0,0
98610,-90.9090909090909,4,2,1,62,0,0
98935,-90.9090909090909,4,2,43,64,0,0
99259,-111.111111111111,4,2,1,58,0,0
108178,-100,4,2,1,60,0,0
109637,-100,4,2,1,62,0,0
110773,-66.6666666666667,4,2,1,62,0,0
111908,-100,4,2,1,62,0,0
112232,-100,4,2,1,55,0,0
114016,-133.333333333333,4,2,1,55,0,0
114502,-133.333333333333,4,2,1,50,0,0
114827,-161.290322580645,4,2,1,48,0,0
118719,-133.333333333333,4,2,1,50,0,0
119367,-133.333333333333,4,2,1,47,0,0
119854,-133.333333333333,4,2,1,50,0,0
124070,-200,4,2,1,50,0,0
124719,-200,4,2,1,40,0,0
124800,-200,4,2,1,5,0,0
124881,-100,4,2,43,50,0,0
125124,-100,4,2,43,10,0,0
125205,-142.857142857143,4,2,1,50,0,0
130232,-133.333333333333,4,2,1,50,0,0
134935,-133.333333333333,4,2,1,52,0,0
135259,-133.333333333333,4,2,1,54,0,0
135583,-99.9999999999999,4,2,1,60,0,0
139475,-83.3333333333333,4,2,1,60,0,0
140448,-111.111111111111,4,2,1,60,0,0
140773,-111.111111111111,4,2,1,60,0,0
143367,-100,4,2,1,60,0,0
144340,-83.3333333333333,4,2,1,60,0,0
144989,-100,4,2,1,60,0,0
145962,-90.9090909090909,4,2,1,60,0,0
147583,-200,4,2,1,50,0,0
147746,-200,4,2,1,30,0,0
147908,-166.666666666667,4,2,1,54,0,0
148070,-166.666666666667,4,2,1,30,0,0
148232,-142.857142857143,4,2,1,58,0,0
148394,-142.857142857143,4,2,1,30,0,0
148556,-80,4,2,1,70,0,1
153421,-66.6666666666667,4,2,1,70,0,1
153746,-100,4,2,1,70,0,1
154232,-80,4,2,1,70,0,1
154719,-133.333333333333,4,2,1,70,0,1
155043,-100,4,2,1,70,0,1
155529,-80,4,2,1,70,0,1
156016,-133.333333333333,4,2,1,70,0,1
156340,-100,4,2,1,70,0,1
158286,-100,4,2,1,70,0,0
158935,-80,4,2,1,70,0,1
163800,-66.6666666666667,4,2,1,70,0,1
164124,-100,4,2,1,70,0,1
164610,-80,4,2,1,70,0,1
165097,-133.333333333333,4,2,1,70,0,1
165421,-100,4,2,1,70,0,1
165908,-80,4,2,1,70,0,1
166394,-133.333333333333,4,2,1,70,0,1
166719,-100,4,2,1,70,0,1
168664,-100,4,2,1,65,0,1
169313,-133.333333333333,4,2,1,62,0,0
173854,-100,4,2,1,62,0,0
174502,-100,4,2,1,70,0,1
174989,-80,4,2,1,70,0,1
175475,-133.333333333333,4,2,1,70,0,1
175800,-100,4,2,1,70,0,1
176286,-80,4,2,1,70,0,1
176773,-133.333333333333,4,2,1,70,0,1
177097,-100,4,2,1,70,0,1
178394,-100,4,2,1,70,0,1
179043,-100,4,2,1,65,0,1
179692,-90.9090909090909,4,2,1,70,0,1
180827,-90.9090909090909,4,2,1,65,0,0
181151,-90.9090909090909,4,2,1,60,0,0
181637,-90.9090909090909,4,2,1,62,0,0
181962,-90.9090909090909,4,2,43,64,0,0
182286,-86.9565217391304,4,2,1,65,0,0
191367,-86.9565217391304,4,2,1,68,0,0
192827,-86.9565217391304,4,2,1,65,0,0
193962,-86.9565217391304,4,2,1,70,0,0
195097,-86.9565217391304,4,2,1,60,0,0
195259,-200,4,2,1,50,0,0
196556,-147.058823529412,4,2,1,54,0,0
197529,-147.058823529412,4,2,43,54,0,0
197854,-133.333333333333,4,2,1,56,0,0
199151,-133.333333333333,4,2,1,58,0,0
199475,-133.333333333333,4,2,1,52,0,0
199637,-133.333333333333,4,2,1,58,0,0
200124,-133.333333333333,4,2,43,60,0,0
200448,-100,4,2,1,70,0,1
200935,-80,4,2,1,70,0,1
201421,-133.333333333333,4,2,1,70,0,1
201746,-100,4,2,1,70,0,1
202232,-80,4,2,1,70,0,1
202719,-133.333333333333,4,2,1,70,0,1
203043,-100,4,2,1,70,0,1
204989,-100,4,2,1,70,0,0
205637,-80,4,2,1,70,0,1
210502,-66.6666666666667,4,2,1,70,0,1
210827,-100,4,2,1,70,0,1
211313,-80,4,2,1,70,0,1
211800,-133.333333333333,4,2,1,70,0,1
212124,-100,4,2,1,70,0,1
212610,-80,4,2,1,70,0,1
213097,-133.333333333333,4,2,1,70,0,1
213421,-100,4,2,1,70,0,1
215367,-100,4,2,1,65,0,1
216016,-133.333333333333,4,2,1,62,0,0
220556,-100,4,2,1,62,0,0
221205,-100,4,2,1,70,0,1
221692,-80,4,2,1,70,0,1
222178,-133.333333333333,4,2,1,70,0,1
222502,-100,4,2,1,70,0,1
222989,-80,4,2,1,70,0,1
223475,-133.333333333333,4,2,1,70,0,1
223800,-100,4,2,1,70,0,1
225097,-100,4,2,1,70,0,1
225746,-100,4,2,1,65,0,1
226394,-90.9090909090909,4,2,1,70,0,1
227529,-90.9090909090909,4,2,1,65,0,0
227854,-90.9090909090909,4,2,1,60,0,0
228340,-90.9090909090909,4,2,1,62,0,0
228664,-90.9090909090909,4,2,43,64,0,0
228989,-104.166666666667,4,2,1,60,0,0
237908,-94.3396226415097,4,2,1,62,0,0
238556,-83.3333333333333,4,2,1,60,0,0
238881,-83.3333333333333,4,2,43,60,0,0
239043,-83.3333333333333,4,2,43,65,0,0
239205,-83.3333333333333,4,2,43,55,0,0
239367,-90.9090909090909,4,2,1,62,0,0
248286,-114.942528735632,4,2,1,60,0,0
248306,-114.942528735632,4,2,43,50,0,0
248448,-114.942528735632,4,2,43,5,0,0
248773,-114.942528735632,4,2,99,15,0,0

[Colours]
Combo1 : 250,180,240
Combo2 : 120,200,230
Combo3 : 255,150,150
Combo4 : 160,230,150

[HitObjects]
153,51,665,6,0,B|108:37|70:74|70:74|95:41,1,120,6|0,0:2|3:0,0:0:0:0:
132,129,1151,1,0,3:0:0:0:
132,129,1313,2,0,P|134:188|205:196,1,120,2|0,0:0|3:0,0:0:0:0:
277,152,1800,2,0,L|284:73,1,60,2|0,0:0|0:0,0:0:0:0:
274,94,2124,2,0,L|287:172,1,60,2|0,0:0|3:0,0:0:0:0:
365,203,2448,1,0,3:0:0:0:
365,203,2610,2,0,P|417:182|417:126,1,120,2|0,0:0|3:0,0:0:0:0:
509,335,3259,6,0,P|469:309|385:309,1,120,2|0,0:0|3:0,0:0:0:0:
338,361,3746,1,0,3:0:0:0:
338,361,3908,2,0,P|298:335|214:335,1,120,2|0,0:0|3:0,0:0:0:0:
126,370,4394,1,2,0:0:0:0:
126,370,4475,1,2,0:0:0:0:
126,370,4556,2,0,L|135:294,1,60,2|0,0:0|0:0,0:0:0:0:
227,331,4881,2,0,L|218:255,1,60,2|0,3:2|3:0,0:0:0:0:
116,148,5205,6,2,B|136:177|122:209|122:209|94:196|104:156,1,120,2|0,0:0|3:0,0:1:0:0:
102,162,5854,6,0,P|179:164|191:242,1,155.999992858887,6|0,1:2|2:0,0:0:0:0:
239,317,6340,1,0,2:0:0:0:
191,241,6502,2,0,P|175:189|199:81,1,155.999992858887,6|0,1:2|2:0,0:0:0:0:
361,184,7151,6,0,P|378:108|359:34,1,155.999992858887,6|0,1:2|0:0,0:0:0:0:
276,1,7637,1,0,0:0:0:0:
349,40,7800,2,0,P|370:109|443:108,1,155.999992858887,6|0,1:2|0:0,0:0:0:0:
300,331,8448,5,6,1:2:0:0:
149,291,8610,1,2,0:0:0:0:
259,180,8773,1,14,0:0:0:0:
212,354,8935,5,8,0:0:0:0:
212,354,9016,1,8,0:0:0:0:
212,354,9097,1,10,0:0:0:0:
172,203,9259,1,8,0:3:0:0:
323,243,9421,1,4,0:3:0:0:
417,101,9583,6,0,P|414:184|494:206,1,180.000006866455,6|0,1:2|1:0,0:0:0:0:
401,13,10070,1,0,1:0:0:0:
401,13,10232,1,0,1:0:0:0:
324,98,10394,5,2,1:2:0:0:
295,116,10475,1,2,1:2:0:0:
263,123,10556,1,2,1:2:0:0:
229,117,10637,1,2,1:2:0:0:
201,100,10719,1,2,1:2:0:0:
173,83,10800,1,2,1:2:0:0:
139,77,10881,1,2,1:2:0:0:
107,84,10962,1,2,1:2:0:0:
78,102,11043,6,0,L|58:214,1,103.200001574707,6|8,1:2|0:0,0:0:0:0:
103,356,11367,1,0,1:2:0:0:
292,211,11529,1,8,0:0:0:0:
292,211,11610,1,8,0:0:0:0:
292,211,11692,2,0,L|273:109,1,103.200001574707,2|8,1:2|0:0,0:0:0:0:
374,32,12016,1,0,1:0:0:0:
292,211,12178,6,0,P|243:231|159:231,1,103.200001574707,10|0,0:0|1:0,0:0:0:0:
382,384,12502,2,0,P|333:364|249:364,1,103.200001574707,10|0,0:0|1:0,0:0:0:0:
512,239,12827,1,8,0:0:0:0:
512,239,12908,1,8,0:0:0:0:
512,239,12989,2,0,P|460:233|413:214,1,103.200001574707,2|8,1:2|0:0,0:0:0:0:
299,98,13313,2,2,B|317:52|317:52|303:-5,1,103.200001574707,2|8,1:0|0:0,0:1:0:0:
85,74,13637,6,0,B|72:126|72:126|90:172,1,103.200001574707,6|8,1:2|0:0,0:0:0:0:
233,322,13962,1,0,1:0:0:0:
218,172,14124,1,8,0:0:0:0:
218,172,14205,1,8,0:0:0:0:
218,172,14286,1,2,1:2:0:0:
95,326,14448,1,8,0:0:0:0:
218,172,14610,1,0,1:0:0:0:
335,361,14773,6,0,B|382:377|382:377|442:357,1,103.200001574707,10|0,0:0|1:0,0:0:0:0:
310,189,15097,1,10,0:0:0:0:
216,374,15259,1,6,1:2:0:0:
88,236,15421,1,10,0:2:0:0:
88,236,15502,1,8,0:0:0:0:
88,236,15583,2,0,B|132:259|132:259|194:248,1,103.200001574707,2|8,1:1|0:0,0:0:0:0:
430,91,15908,5,2,1:2:0:0:
409,132,15989,5,2,1:2:0:0:
364,144,16070,5,10,1:2:0:0:
320,127,16151,5,2,1:2:0:0:
296,87,16232,6,0,B|252:64|252:64|190:75,1,103.200001574707,6|8,0:2|0:0,0:0:0:0:
250,286,16556,1,0,1:0:0:0:
450,226,16719,1,8,0:0:0:0:
450,226,16800,1,8,0:0:0:0:
450,226,16881,1,2,1:2:0:0:
323,360,17043,1,8,0:0:0:0:
174,227,17205,1,0,1:0:0:0:
271,295,17367,6,0,P|320:309|385:279,1,103.200001574707,10|0,0:0|1:0,0:0:0:0:
102,289,17692,2,0,P|65:324|58:395,1,103.200001574707,10|0,0:0|1:0,0:0:0:0:
191,145,18016,1,8,0:0:0:0:
191,145,18097,1,8,0:0:0:0:
191,145,18178,2,0,P|178:95|120:54,1,103.200001574707,2|8,1:2|0:0,0:0:0:0:
271,295,18502,2,2,B|320:312|320:312|367:294,1,103.200001574707,6|8,1:2|0:0,0:1:0:0:
512,134,18827,5,6,1:2:0:0:
295,48,18989,1,8,0:0:0:0:
446,227,19151,1,2,1:2:0:0:
411,0,19313,1,8,0:0:0:0:
411,0,19394,1,8,0:0:0:0:
411,0,19475,1,2,1:2:0:0:
364,274,19637,1,8,0:3:0:0:
295,48,19800,1,4,0:3:0:0:
196,133,19962,6,2,P|179:24|69:23,1,240,6|2,1:1|1:2,0:1:0:0:
198,262,20448,1,10,0:2:0:0:
41,186,20610,1,8,0:3:0:0:
41,186,20692,1,8,0:3:0:0:
41,186,20773,1,8,0:3:0:0:
73,370,20935,1,4,0:3:0:0:
73,370,21016,1,4,0:3:0:0:
73,370,21097,1,10,0:0:0:0:
196,133,21259,1,2,0:0:0:0:
346,311,21421,6,0,B|300:301|300:301|278:311|278:311|206:291,1,120,6|8,1:0|0:0,0:0:0:0:
437,122,21746,2,0,P|430:179|469:222,1,120,2|8,1:2|0:0,0:0:0:0:
469,222,21989,1,8,0:0:0:0:
469,222,22070,1,2,1:2:0:0:
392,29,22232,1,8,0:0:0:0:
307,215,22394,1,2,1:2:0:0:
224,60,22556,6,2,B|142:86|142:86|55:45,1,180.000006866455,14|0,2:2|1:0,0:1:0:0:
307,215,22881,6,2,B|389:189|389:189|475:229,1,180.000006866455,14|0,2:2|1:0,0:1:0:0:
227,354,23205,5,10,0:2:0:0:
227,354,23286,1,8,0:0:0:0:
227,354,23367,2,2,B|145:380|145:380|59:340,1,180.000006866455,4|8,1:2|0:0,0:1:0:0:
179,268,23692,5,2,1:2:0:0:
265,121,23854,1,8,0:2:0:0:
126,0,24016,5,6,1:2:0:0:
113,181,24178,1,8,0:0:0:0:
265,121,24340,1,2,1:2:0:0:
30,90,24502,5,8,0:0:0:0:
30,90,24583,1,8,0:0:0:0:
30,90,24664,1,2,1:2:0:0:
242,214,24827,1,8,0:0:0:0:
221,0,24989,1,2,1:2:0:0:
113,181,25151,6,2,P|70:259|84:349,1,180.000006866455,14|0,1:2|1:0,0:1:0:0:
435,384,25475,2,2,P|447:296|405:218,1,180.000006866455,14|0,1:2|1:0,0:1:0:0:
182,327,25800,1,10,0:1:0:0:
182,327,25962,2,2,L|343:332,1,150,6|8,1:2|0:0,0:1:0:0:
512,158,26286,5,2,1:2:0:0:
488,185,26367,5,2,1:2:0:0:
452,192,26448,5,10,1:2:0:0:
416,185,26529,5,2,1:2:0:0:
387,163,26610,6,0,L|369:30,1,120,6|8,1:1|0:0,0:0:0:0:
225,238,26935,2,0,L|241:119,1,120,0|8,1:0|0:0,0:0:0:0:
241,119,27178,1,8,0:0:0:0:
241,119,27259,1,2,1:2:0:0:
396,264,27421,1,8,0:0:0:0:
483,93,27583,1,2,1:2:0:0:
243,18,27746,6,2,B|233:74|285:86|285:86|371:58,1,180.000006866455,14|0,0:2|1:0,0:1:0:0:
488,318,28070,6,2,B|497:374|445:386|445:386|359:358,1,180.000006866455,14|0,0:0|1:0,0:1:0:0:
185,211,28394,5,10,0:0:0:0:
185,211,28475,1,8,0:0:0:0:
185,211,28556,2,2,B|176:267|228:279|228:279|314:251,1,180.000006866455,4|8,1:2|0:0,0:1:0:0:
186,77,28881,5,2,1:2:0:0:
131,353,29043,5,8,0:0:0:0:
0,192,29205,5,6,1:2:0:0:
256,352,29854,5,6,1:2:0:0:
512,192,30340,5,14,2:2:0:0:
256,352,30664,5,12,0:2:0:0:
0,192,30989,5,12,0:2:0:0:
109,279,31151,6,2,B|211:262|141:203|256:192,1,180.000006866455,14|8,0:2|0:3,0:1:0:0:
256,192,31800,6,0,L|423:200,1,148.79999409668,6|0,1:2|1:0,0:0:0:0:
304,105,32448,2,0,P|314:50|237:20,1,148.79999409668,10|0,0:0|1:0,0:0:0:0:
157,68,32935,5,2,1:2:0:0:
157,68,33016,1,0,1:0:0:0:
157,68,33097,2,0,L|146:144,1,74.39999704834,0|8,1:0|0:0,0:0:0:0:
98,208,33421,2,0,P|31:190|33:121,1,148.79999409668,0|8,1:0|0:0,0:0:0:0:
179,220,33908,1,2,0:0:0:0:
179,220,34070,2,0,P|219:214|256:229,1,74.39999704834,0|0,1:0|0:0,0:0:0:0:
335,315,34394,6,0,B|407:341|407:341|481:306,1,148.79999409668,2|0,1:2|1:0,0:0:0:0:
472,310,35043,2,0,L|462:203,1,74.39999704834,10|0,0:0|0:0,0:0:0:0:
390,213,35367,1,2,1:2:0:0:
509,138,35529,5,0,1:0:0:0:
509,138,35610,1,0,1:0:0:0:
509,138,35692,2,0,P|463:149|421:125,1,90.0000034332277,14|0,0:0|1:0,0:0:0:0:
220,170,36016,2,0,P|260:188|302:177,1,90.0000034332277,12|0,0:0|1:0,0:0:0:0:
219,37,36340,5,0,1:0:0:0:
200,56,36421,1,0,1:0:0:0:
175,67,36502,1,0,1:0:0:0:
148,66,36583,1,0,1:0:0:0:
129,66,36664,1,0,1:0:0:0:
129,66,36746,1,0,1:0:0:0:
129,66,36827,6,0,P|63:81|68:204,1,180.000006866455,6|0,1:2|1:0,0:0:0:0:
153,284,37313,1,10,0:0:0:0:
0,314,37475,1,2,0:0:0:0:
135,381,37637,1,2,1:2:0:0:
135,381,37800,1,0,1:0:0:0:
153,284,37962,1,8,0:0:0:0:
312,254,38124,6,0,P|308:169|228:139,1,180.000006866455,6|0,1:2|1:0,0:0:0:0:
154,284,38610,1,10,0:0:0:0:
288,384,38773,1,2,0:0:0:0:
382,311,38935,1,2,1:2:0:0:
382,311,39097,1,0,1:2:0:0:
454,370,39259,1,8,0:0:0:0:
315,267,39421,6,0,P|397:246|409:162,1,180.000006866455,6|0,0:2|1:0,0:0:0:0:
326,16,39908,1,10,0:0:0:0:
298,162,40070,1,2,0:0:0:0:
307,35,40232,1,2,1:2:0:0:
227,223,40394,1,2,1:2:0:0:
285,51,40556,1,10,0:2:0:0:
136,247,40719,1,6,1:2:0:0:
508,224,41692,2,0,L|454:211,1,30,0|0,1:0|0:0,0:0:0:0:
407,244,41854,2,0,B|376:279|365:335|384:363|384:363|392:335|367:301,1,180,10|0,0:0|0:0,0:0:0:0:
310,273,42178,6,0,B|281:294|283:331|283:331|341:355|377:311,1,167.999994873047,6|8,1:2|0:0,0:0:0:0:
248,131,42827,5,2,1:2:0:0:
202,189,42989,1,0,1:0:0:0:
133,216,43151,1,8,0:0:0:0:
59,204,43313,6,0,P|43:173|43:112,1,83.9999974365235,2|0,1:2|0:0,0:0:0:0:
172,93,43637,2,0,P|182:59|225:16,1,83.9999974365235,2|8,1:2|0:0,0:0:0:0:
330,94,43962,2,0,P|361:78|422:78,1,83.9999974365235,2|0,1:2|0:0,0:0:0:0:
441,206,44286,2,0,P|474:216|517:259,1,83.9999974365235,2|8,1:2|0:0,0:0:0:0:
460,354,44610,5,2,0:0:0:0:
460,354,44773,2,0,P|368:320|263:326,1,167.999994873047,0|8,1:2|0:2,0:2:0:0:
23,370,45421,5,2,1:2:0:0:
96,353,45583,1,0,1:0:0:0:
150,301,45746,1,8,0:0:0:0:
170,227,45908,6,0,P|171:186|162:145,1,83.9999974365235,2|0,1:2|0:0,0:0:0:0:
55,23,46232,2,0,P|46:63|47:105,1,83.9999974365235,2|8,1:2|0:0,0:0:0:0:
226,11,46556,1,2,1:2:0:0:
282,127,46719,1,0,1:0:0:0:
282,127,46800,1,0,1:0:0:0:
282,127,46881,1,0,1:0:0:0:
282,127,46962,1,0,1:0:0:0:
282,127,47043,1,0,1:0:0:0:
459,19,47205,6,0,B|461:72|405:94|405:94|384:57|341:49,1,180.000006866455,6|0,1:2|1:0,0:0:0:0:
173,148,47692,1,10,0:0:0:0:
282,127,47854,1,2,0:0:0:0:
201,277,48016,1,2,1:2:0:0:
201,277,48178,1,0,1:0:0:0:
173,148,48340,1,8,0:0:0:0:
314,260,48502,6,0,B|394:300|394:300|477:266,1,180.000006866455,6|0,1:2|1:0,0:0:0:0:
282,127,48989,1,10,0:0:0:0:
201,277,49151,1,2,0:0:0:0:
178,152,49313,1,2,1:2:0:0:
178,152,49475,1,0,1:0:0:0:
314,260,49637,1,8,0:0:0:0:
121,368,49800,6,0,B|58:353|58:353|88:232,1,180.000006866455,6|0,1:2|1:0,0:0:0:0:
135,54,50286,1,10,0:0:0:0:
247,203,50448,1,2,0:0:0:0:
135,54,50610,1,2,1:2:0:0:
85,241,50773,1,2,1:2:0:0:
135,54,50935,1,10,0:0:0:0:
157,154,51097,5,6,1:2:0:0:
503,108,51421,1,4,1:2:0:0:
446,21,51583,5,10,1:2:0:0:
438,53,51664,1,0,1:0:0:0:
412,74,51746,1,0,1:0:0:0:
379,74,51827,1,0,1:0:0:0:
352,55,51908,5,10,0:0:0:0:
425,197,52070,1,8,0:3:0:0:
339,25,52232,5,4,0:3:0:0:
311,248,52394,1,4,0:3:0:0:
122,115,52556,6,0,L|257:96,1,120,14|0,1:1|1:0,0:0:0:0:
512,210,52881,2,0,L|377:191,1,120,8|0,0:0|1:0,0:0:0:0:
124,348,53205,2,0,L|259:329,1,120,10|0,0:1|1:0,0:0:0:0:
360,384,53529,1,8,0:0:0:0:
401,201,53692,5,2,1:2:0:0:
401,201,53773,1,0,1:0:0:0:
401,201,53854,1,8,0:1:0:0:
242,331,54016,1,2,1:2:0:0:
102,260,54178,2,0,P|83:204|86:134,1,120,10|0,2:1|1:0,0:0:0:0:
382,84,54502,2,0,P|401:140|400:200,1,120,10|0,2:0|1:0,0:0:0:0:
232,90,54827,1,8,2:0:0:0:
112,270,54989,5,2,1:2:0:0:
112,270,55070,1,0,1:0:0:0:
112,270,55151,1,8,0:0:0:0:
328,238,55313,1,2,1:2:0:0:
185,205,55475,5,10,0:0:0:0:
398,307,55637,1,0,1:0:0:0:
258,374,55800,5,10,0:0:0:0:
456,196,55962,1,0,1:0:0:0:
338,149,56124,5,10,0:0:0:0:
495,363,56286,1,0,1:0:0:0:
338,149,56448,6,2,P|320:84|342:-18,1,143.999995605469,14|0,0:2|1:0,0:1:0:0:
174,235,56773,2,2,P|192:300|170:402,1,143.999995605469,14|0,0:2|1:0,0:1:0:0:
365,146,57097,2,2,P|347:81|369:-21,1,143.999995605469,14|0,0:2|1:0,0:1:0:0:
198,248,57421,5,2,1:2:0:0:
227,271,57502,5,2,1:2:0:0:
264,277,57583,5,2,1:2:0:0:
301,273,57664,5,2,1:2:0:0:
301,273,57746,6,0,P|355:252|419:259,1,107.999996704102,14|0,0:1|1:0,0:0:0:0:
137,152,58070,2,0,P|128:209|90:261,1,107.999996704102,8|0,0:0|1:0,0:0:0:0:
335,80,58394,2,0,P|289:43|263:-15,1,107.999996704102,10|0,0:1|1:0,0:0:0:0:
301,273,58719,1,8,0:0:0:0:
423,177,58881,5,2,1:2:0:0:
423,177,58962,1,0,1:0:0:0:
423,177,59043,1,8,0:0:0:0:
227,215,59205,1,2,1:2:0:0:
411,360,59367,2,0,L|377:233,1,107.999996704102,10|0,0:1|1:0,0:0:0:0:
113,338,59692,2,0,L|147:211,1,107.999996704102,10|0,2:1|1:0,0:0:0:0:
216,7,60016,5,14,0:2:0:0:
139,84,60178,1,0,1:0:0:0:
139,84,60259,1,0,1:0:0:0:
139,84,60340,2,0,P|144:158|3:153,1,240,6|8,1:2|0:0,0:0:0:0:
150,384,60827,1,0,1:0:0:0:
150,384,60908,1,0,1:0:0:0:
150,384,60989,2,0,L|169:257,1,120,10|0,0:2|1:0,0:0:0:0:
474,342,61313,6,2,B|409:369|409:369|341:341,1,143.999995605469,10|0,0:0|1:0,0:1:0:0:
167,265,61637,2,2,B|102:292|102:292|34:264,1,143.999995605469,10|0,0:0|1:0,0:1:0:0:
190,173,61962,5,10,0:1:0:0:
295,124,62124,1,0,1:0:0:0:
295,124,62205,1,0,1:0:0:0:
295,124,62286,2,0,P|310:87|290:6,1,120,8|0,2:2|1:0,2:0:0:0:
33,151,62610,2,0,P|18:188|38:269,1,120,14|0,0:2|1:0,0:0:0:0:
305,327,62935,5,14,2:1:0:0:
57,378,63097,1,2,1:2:0:0:
136,137,63259,1,2,1:2:0:0:
207,327,63421,5,14,2:1:0:0:
376,137,63583,1,2,1:2:0:0:
455,378,63746,1,2,1:2:0:0:
256,192,63908,5,10,0:1:0:0:
256,192,63989,1,8,0:0:0:0:
256,192,64070,1,8,0:0:0:0:
256,192,64151,1,8,0:0:0:0:
256,192,64232,1,4,1:2:0:0:
187,236,64556,5,2,0:1:0:0:
91,211,64881,5,2,0:1:0:0:
26,137,65205,5,2,0:1:0:0:
42,15,65529,6,0,P|74:18|142:0,1,75,6|0,1:1|0:0,0:0:0:0:
221,54,65692,2,0,P|258:55|294:46,1,75,8|0,0:0|0:0,0:0:0:0:
126,121,65854,2,0,P|70:142|77:225,1,150,2|8,1:0|0:0,0:0:0:0:
232,165,66097,1,8,0:0:0:0:
232,165,66178,2,0,P|288:186|281:269,1,150,2|8,1:1|0:0,0:0:0:0:
132,372,66502,2,0,B|96:362|96:362|39:372,1,75,2|0,1:1|0:0,0:0:0:0:
235,348,66664,2,0,B|272:341|272:341|308:351,1,75,8|0,0:0|0:0,0:0:0:0:
446,384,66827,6,2,P|476:276|315:217,1,300,2|0,1:1|1:0,0:1:0:0:
177,26,67313,1,10,2:2:0:0:
154,64,67394,1,8,2:2:0:0:
116,83,67475,2,0,P|81:80|39:49,1,75,2|0,1:0|0:0,0:0:0:0:
261,56,67637,2,0,P|281:27|328:6,1,75,8|0,0:0|0:0,0:0:0:0:
211,195,67800,2,0,P|225:226|220:278,1,75,0|0,1:1|0:0,0:0:0:0:
135,251,67962,5,8,0:2:0:0:
135,251,68043,1,8,0:2:0:0:
135,251,68124,2,0,L|44:245,1,75,2|0,1:1|0:0,0:0:0:0:
317,299,68286,2,0,L|315:373,1,75,8|0,0:0|0:0,0:0:0:0:
457,228,68448,2,0,P|463:168|381:139,1,150,2|8,1:1|0:0,0:0:0:0:
264,93,68692,1,8,0:0:0:0:
264,93,68773,2,0,P|263:22|330:0,1,150,2|8,1:0|0:0,0:0:0:0:
153,109,69097,2,0,P|136:146|146:187,1,75,2|0,1:0|0:0,0:0:0:0:
248,253,69259,2,0,P|265:216|255:175,1,75,8|0,0:0|0:0,0:0:0:0:
14,294,69421,6,2,B|191:241|134:402|303:345,1,300,2|0,1:1|1:0,0:1:0:0:
160,0,69908,1,10,0:2:0:0:
176,33,69989,1,8,0:2:0:0:
204,56,70070,2,0,B|242:63|242:63|299:35,1,75,2|0,1:0|0:0,0:0:0:0:
357,101,70232,2,0,B|395:108|395:108|452:80,1,75,8|0,0:0|0:0,0:0:0:0:
512,311,70394,2,2,P|516:242|409:210,1,180.000006866455,6|8,1:2|0:0,0:1:0:0:
271,354,70719,6,2,L|436:344,1,120,6|8,1:2|0:3,0:1:0:0:
391,347,70962,1,8,0:3:0:0:
391,347,71043,1,8,0:3:0:0:
294,243,71205,6,2,P|226:272|191:101,1,300,6|0,1:0|1:0,0:1:0:0:
272,50,71692,6,2,P|276:61|273:45,1,90.0000034332277,10|0,2:2|1:0,0:1:0:0:
257,162,72016,6,2,L|276:28,1,120,6|8,1:2|0:3,0:1:0:0:
273,43,72259,1,8,0:3:0:0:
273,43,72340,1,8,0:3:0:0:
366,284,72502,6,2,P|497:294|485:163,1,300,6|0,1:0|1:0,0:1:0:0:
425,61,72989,6,2,P|421:72|424:56,1,90.0000034332277,10|0,0:0|1:0,0:1:0:0:
153,187,73313,5,6,1:1:0:0:
245,0,73475,1,8,0:0:0:0:
361,173,73637,1,2,1:0:0:0:
253,120,73800,5,8,0:0:0:0:
253,120,73881,1,8,0:0:0:0:
253,120,73962,1,2,1:1:0:0:
374,37,74124,5,8,0:2:0:0:
262,267,74286,1,2,1:0:0:0:
119,53,74448,1,8,0:2:0:0:
361,173,74610,6,2,B|420:186|420:186|473:161,1,120,6|8,1:2|1:2,2:1:0:0:
274,379,74935,2,2,B|288:321|288:321|262:266,1,120,6|8,1:2|0:0,0:1:0:0:
123,108,75259,5,8,0:3:0:0:
103,143,75340,1,8,0:3:0:0:
68,123,75421,1,8,0:3:0:0:
88,88,75502,1,8,0:3:0:0:
107,122,75583,5,4,0:3:0:0:
88,127,75664,1,4,0:3:0:0:
83,108,75746,1,4,0:3:0:0:
102,103,75827,1,4,0:3:0:0:
95,115,75908,6,0,P|58:116|17:104,1,75,6|0,1:1|0:0,0:0:0:0:
176,18,76070,2,0,P|212:8|249:9,1,75,8|0,0:0|0:0,0:0:0:0:
357,99,76232,2,0,B|351:172|420:158|406:233,1,150,2|8,1:0|0:0,0:0:0:0:
443,108,76475,1,8,0:0:0:0:
443,108,76556,2,0,P|499:87|492:4,1,150,2|8,1:1|0:0,0:0:0:0:
329,220,76881,2,0,P|295:211|245:222,1,75,2|0,1:1|0:0,0:0:0:0:
186,272,77043,2,0,P|152:263|102:274,1,75,8|0,0:0|0:0,0:0:0:0:
19,384,77205,6,2,B|102:239|-90:257|18:95,1,300,2|0,1:1|1:0,0:1:0:0:
335,26,77692,1,10,2:2:0:0:
358,64,77773,1,8,2:2:0:0:
396,83,77854,2,0,P|431:80|473:49,1,75,2|0,1:0|0:0,0:0:0:0:
251,56,78016,2,0,P|231:27|184:6,1,75,8|0,0:0|0:0,0:0:0:0:
301,195,78178,2,0,P|287:226|292:278,1,75,0|0,1:1|0:0,0:0:0:0:
402,250,78340,5,8,0:0:0:0:
402,250,78421,1,8,0:0:0:0:
402,250,78502,2,0,L|490:261,1,75,2|0,1:1|0:0,0:0:0:0:
286,306,78664,2,0,L|274:387,1,75,8|0,0:0|0:0,0:0:0:0:
177,222,78827,2,0,P|155:154|85:153,1,150,2|8,1:1|0:0,0:0:0:0:
0,329,79070,1,8,0:0:0:0:
0,329,79151,2,0,P|-1:258|66:236,1,150,2|8,1:0|0:0,0:0:0:0:
275,380,79475,2,0,B|238:388|238:388|198:376,1,75,2|0,1:0|0:0,0:0:0:0:
387,334,79637,2,0,B|424:326|424:326|464:338,1,75,8|0,0:0|0:0,0:0:0:0:
288,253,79800,6,2,B|245:206|245:206|282:140|282:140|290:137|290:137|334:53|334:53|294:11,1,300,2|0,1:1|1:0,0:1:0:0:
15,141,80286,1,10,0:2:0:0:
32,173,80367,1,8,0:2:0:0:
56,201,80448,2,0,B|91:209|91:209|148:193,1,75,2|0,1:0|0:0,0:0:0:0:
216,256,80610,2,0,B|251:264|251:264|308:248,1,75,8|0,0:0|0:0,0:0:0:0:
488,114,80773,5,6,1:2:0:0:
503,155,80854,5,2,1:2:0:0:
489,196,80935,5,10,1:2:0:0:
451,219,81016,5,2,1:2:0:0:
407,212,81097,6,2,L|389:71,1,120,6|8,1:2|0:3,0:1:0:0:
391,93,81340,1,8,0:3:0:0:
391,93,81421,1,8,0:3:0:0:
194,0,81583,6,2,P|198:132|65:121,1,300,6|0,1:0|1:0,0:1:0:0:
10,62,82070,6,2,B|53:71|53:71|89:43,1,90.0000034332277,10|0,2:2|1:0,0:1:0:0:
105,306,82394,6,2,L|123:165,1,120,6|8,1:2|0:3,0:1:0:0:
121,187,82637,1,8,0:3:0:0:
121,187,82719,1,8,0:3:0:0:
317,93,82881,6,2,P|313:226|446:215,1,300,6|0,1:0|1:0,0:1:0:0:
507,157,83367,6,2,B|464:166|464:166|427:138,1,90.0000034332277,10|0,0:0|1:0,0:1:0:0:
256,0,83692,5,6,1:1:0:0:
454,61,83854,1,8,0:0:0:0:
256,160,84016,1,2,1:0:0:0:
344,85,84178,5,8,0:0:0:0:
344,85,84259,1,8,0:0:0:0:
344,85,84340,1,2,1:1:0:0:
446,215,84502,5,8,0:2:0:0:
171,117,84664,1,2,1:0:0:0:
454,61,84827,1,8,0:2:0:0:
339,351,84989,6,2,B|332:315|332:315|338:282|338:282|325:225,1,120,6|8,1:2|1:2,2:1:0:0:
184,0,85313,2,2,B|172:48|172:48|178:81|178:81|171:117,1,120,14|8,2:2|0:0,0:1:0:0:
117,172,85556,5,8,0:0:0:0:
117,172,85637,1,8,0:3:0:0:
177,291,85800,5,8,0:3:0:0:
292,211,85962,5,4,0:3:0:0:
418,248,86124,5,4,0:3:0:0:
371,126,86286,6,0,P|370:42|289:27,1,180.000006866455,6|0,1:2|1:0,0:0:0:0:
174,205,86773,1,0,1:2:0:0:
174,205,86935,2,0,P|174:121|255:106,1,180.000006866455,10|0,0:2|1:0,0:0:0:0:
302,195,87421,2,0,P|285:231|289:291,1,90.0000034332277,8|0,0:0|0:0,0:0:0:0:
412,369,87746,5,8,0:0:0:0:
412,369,87908,2,0,P|429:333|425:273,1,90.0000034332277,2|0,1:2|0:0,0:0:0:0:
264,280,88232,2,0,P|262:235|281:195,1,90.0000034332277,10|0,0:0|0:0,0:0:0:0:
399,102,88556,5,8,0:3:0:0:
399,102,88719,1,8,0:3:0:0:
265,24,88881,6,0,B|178:48|178:48|80:8,1,180.000006866455,6|8,1:2|0:0,0:0:0:0:
43,73,89367,1,0,1:0:0:0:
172,168,89529,2,0,L|180:73,1,90.0000034332277,10|0,0:0|0:0,0:0:0:0:
42,209,89854,5,8,1:3:0:0:
170,264,90016,1,8,0:0:0:0:
68,294,90178,5,2,1:2:0:0:
172,168,90340,1,8,0:0:0:0:
209,371,90502,1,2,1:2:0:0:
508,250,90827,6,0,P|454:262|402:227,1,120,14|0,0:0|1:0,0:0:0:0:
261,120,91151,5,2,1:2:0:0:
274,131,91232,5,2,1:2:0:0:
290,138,91313,5,2,1:2:0:0:
307,140,91394,5,2,1:2:0:0:
324,142,91475,6,2,P|344:101|322:3,1,120,6|8,1:2|0:3,0:1:0:0:
337,28,91719,1,8,0:3:0:0:
337,28,91800,1,8,0:3:0:0:
156,101,91962,6,2,L|492:81,1,300,6|0,1:0|1:0,0:1:0:0:
425,183,92448,6,2,P|466:172|526:185,1,90.0000034332277,10|0,2:2|1:0,0:1:0:0:
238,269,92773,6,2,P|218:310|240:408,1,120,6|8,1:2|0:3,0:1:0:0:
225,383,93016,1,8,0:3:0:0:
225,383,93097,1,8,0:3:0:0:
401,298,93259,6,2,L|65:318,1,300,6|0,1:0|1:0,0:1:0:0:
135,219,93746,6,2,P|94:230|34:217,1,90.0000034332277,10|0,0:0|1:0,0:1:0:0:
233,45,94070,5,6,1:1:0:0:
427,138,94232,1,8,0:0:0:0:
233,45,94394,1,2,1:0:0:0:
330,91,94556,5,8,0:0:0:0:
330,91,94637,1,8,0:0:0:0:
330,91,94719,1,2,1:1:0:0:
188,118,94881,5,8,0:2:0:0:
472,64,95043,1,2,1:0:0:0:
188,118,95205,1,8,0:2:0:0:
367,288,95367,6,2,P|384:232|369:175,1,120,6|8,1:2|1:2,2:1:0:0:
66,266,95692,2,2,P|48:322|63:379,1,120,6|8,1:2|0:0,0:1:0:0:
368,174,96016,5,8,0:3:0:0:
388,209,96097,1,8,0:3:0:0:
423,189,96178,1,8,0:3:0:0:
403,154,96259,1,8,0:3:0:0:
384,188,96340,5,4,0:3:0:0:
403,193,96421,1,4,0:3:0:0:
408,174,96502,1,4,0:3:0:0:
389,169,96583,1,4,0:3:0:0:
396,181,96664,6,0,P|450:188|446:88,1,132.00000402832,6|8,1:0|0:0,0:0:0:0:
381,2,96989,1,2,1:2:0:0:
261,208,97151,1,8,0:0:0:0:
261,208,97232,1,8,0:0:0:0:
261,208,97313,1,2,1:0:0:0:
270,32,97475,1,0,1:0:0:0:
415,214,97637,1,10,0:1:0:0:
175,102,97800,5,6,1:2:0:0:
0,320,98124,5,2,0:2:0:0:
186,276,98286,1,2,0:0:0:0:
351,370,98448,1,2,0:0:0:0:
164,278,98610,5,2,0:2:0:0:
405,244,98773,1,2,1:2:0:0:
141,282,98935,5,10,0:2:0:0:
440,335,99097,1,2,0:0:0:0:
498,218,99259,6,0,L|484:104,1,107.999996704102,6|8,1:2|0:0,0:0:0:0:
361,7,99583,1,0,1:2:0:0:
261,161,99746,1,8,0:0:0:0:
261,161,99827,1,8,0:0:0:0:
261,161,99908,2,0,B|296:157|296:157|314:168|314:168|374:165,1,107.999996704102,2|8,1:2|0:0,0:0:0:0:
198,33,100232,1,0,1:0:0:0:
96,157,100394,6,0,P|83:205|94:298,1,107.999996704102,10|0,0:0|1:0,0:0:0:0:
268,381,100719,2,0,P|281:333|270:240,1,107.999996704102,10|0,0:0|1:0,0:0:0:0:
71,157,101043,1,8,0:0:0:0:
71,157,101124,1,8,0:0:0:0:
71,157,101205,2,0,P|57:209|59:262,1,107.999996704102,2|8,1:2|0:0,0:0:0:0:
290,383,101529,2,2,B|304:336|304:336|296:276,1,107.999996704102,2|8,1:0|0:0,0:1:0:0:
33,352,101854,6,0,B|141:342,1,107.999996704102,6|8,1:2|0:0,0:0:0:0:
290,383,102178,1,0,1:0:0:0:
224,183,102340,1,8,0:0:0:0:
224,183,102421,1,8,0:0:0:0:
224,183,102502,1,2,1:2:0:0:
141,342,102664,1,8,0:0:0:0:
224,183,102827,1,0,1:0:0:0:
359,291,102989,6,0,P|406:301|460:273,1,107.999996704102,10|0,0:0|1:0,0:0:0:0:
313,135,103313,1,10,0:0:0:0:
234,335,103475,1,6,1:2:0:0:
92,226,103637,1,10,0:2:0:0:
92,226,103719,1,8,0:0:0:0:
92,226,103800,2,0,P|85:160|111:105,1,107.999996704102,2|8,1:1|0:0,0:0:0:0:
280,46,104124,5,2,1:2:0:0:
303,90,104205,5,2,1:2:0:0:
348,102,104286,5,10,1:2:0:0:
392,85,104367,5,2,1:2:0:0:
416,44,104448,6,0,B|456:15|456:15|522:32,1,107.999996704102,6|8,0:2|0:0,0:0:0:0:
417,197,104773,1,0,1:0:0:0:
290,57,104935,1,8,0:0:0:0:
290,57,105016,1,8,0:0:0:0:
290,57,105097,1,2,1:2:0:0:
263,254,105259,1,8,0:0:0:0:
290,57,105421,1,0,1:0:0:0:
156,154,105583,6,0,P|103:143|66:105,1,107.999996704102,10|0,0:0|1:0,0:0:0:0:
290,57,105908,2,0,P|323:18|386:5,1,107.999996704102,10|0,0:0|1:0,0:0:0:0:
307,221,106232,1,8,0:0:0:0:
307,221,106313,1,8,0:0:0:0:
307,221,106394,2,0,P|324:269|303:330,1,107.999996704102,2|8,1:2|0:0,0:0:0:0:
156,154,106719,2,2,B|103:146|103:146|66:105,1,107.999996704102,6|8,1:2|0:0,0:1:0:0:
290,57,107043,5,6,1:2:0:0:
202,288,107205,1,8,0:0:0:0:
156,154,107367,1,2,1:2:0:0:
401,264,107529,1,8,0:0:0:0:
401,264,107610,1,8,0:0:0:0:
401,264,107692,1,2,1:2:0:0:
233,383,107854,1,8,0:3:0:0:
337,143,108016,1,4,0:3:0:0:
216,23,108178,6,2,B|214:95|130:110|130:110|101:58|28:53,1,240,6|2,1:1|1:2,0:1:0:0:
178,227,108664,1,10,0:2:0:0:
0,314,108827,1,8,0:3:0:0:
0,314,108908,1,8,0:3:0:0:
0,314,108989,1,8,0:3:0:0:
113,141,109151,1,4,0:3:0:0:
113,141,109232,1,4,0:3:0:0:
113,141,109313,1,10,0:0:0:0:
164,373,109475,1,2,0:0:0:0:
342,261,109637,6,0,B|340:311|293:325|293:325|243:295,1,120,6|8,1:0|0:0,0:0:0:0:
376,98,109962,2,0,B|378:48|425:34|425:34|453:50,1,120,2|8,1:2|0:0,0:0:0:0:
453,50,110205,1,8,0:0:0:0:
453,50,110286,1,2,1:2:0:0:
446,234,110448,1,8,0:0:0:0:
276,111,110610,1,2,1:2:0:0:
213,311,110773,6,2,P|281:339|271:265,1,180.000006866455,14|0,2:2|1:0,0:1:0:0:
80,132,111097,6,2,P|11:160|22:87,1,180.000006866455,14|0,2:2|1:0,0:1:0:0:
373,57,111421,5,10,0:2:0:0:
373,57,111502,1,8,0:0:0:0:
373,57,111583,2,2,P|442:85|431:12,1,180.000006866455,4|8,1:2|0:0,0:1:0:0:
256,160,111908,5,2,1:2:0:0:
473,267,112070,5,8,0:0:0:0:
256,384,112232,5,6,1:2:0:0:
39,267,112881,5,6,1:2:0:0:
256,160,113367,5,14,2:2:0:0:
473,267,113692,5,12,0:2:0:0:
256,384,114016,5,12,0:2:0:0:
200,276,114178,6,2,B|239:322|305:300|305:300|318:268|292:235,1,180.000006866455,14|8,0:2|0:3,0:1:0:0:
295,239,114827,6,0,P|272:179|301:81,1,148.79999409668,6|2,1:2|0:0,0:0:0:0:
164,0,115475,2,0,P|181:71|157:140,1,148.79999409668,10|0,0:0|1:0,0:0:0:0:
96,202,115962,5,2,1:2:0:0:
96,202,116043,1,0,1:0:0:0:
96,202,116124,2,0,L|0:193,1,74.39999704834,0|8,1:0|0:0,0:0:0:0:
84,284,116448,2,0,P|15:297|17:366,1,148.79999409668,0|8,1:0|0:0,0:0:0:0:
147,330,116935,1,2,0:0:0:0:
147,330,117097,2,0,B|182:322|182:322|223:334,1,74.39999704834,0|0,1:0|0:0,0:0:0:0:
351,373,117421,6,0,P|349:304|282:292,1,148.79999409668,2|0,1:2|1:0,0:0:0:0:
281,292,118070,2,0,L|290:205,1,74.39999704834,10|0,0:0|0:0,0:0:0:0:
355,173,118394,1,2,1:2:0:0:
232,125,118556,5,0,1:0:0:0:
232,125,118637,1,0,1:0:0:0:
232,125,118719,2,0,B|188:138|188:138|144:112,1,90.0000034332277,14|0,0:0|1:0,0:0:0:0:
355,173,119043,2,0,B|399:186|399:186|443:160,1,90.0000034332277,12|0,0:0|1:0,0:0:0:0:
217,257,119367,5,0,1:0:0:0:
191,249,119448,1,0,1:0:0:0:
169,265,119529,1,0,1:0:0:0:
142,260,119610,1,0,1:0:0:0:
125,280,119692,1,0,1:0:0:0:
125,280,119773,1,0,1:0:0:0:
125,280,119854,6,0,P|52:273|49:177,1,180.000006866455,6|0,1:2|1:0,0:0:0:0:
154,48,120340,1,10,0:0:0:0:
210,160,120502,1,2,0:0:0:0:
250,0,120664,1,2,1:2:0:0:
250,0,120827,1,0,1:0:0:0:
154,48,120989,1,8,0:0:0:0:
312,120,121151,6,0,B|398:147|398:147|485:110,1,180.000006866455,6|0,1:2|1:0,0:0:0:0:
370,242,121637,1,10,0:0:0:0:
508,313,121800,1,2,0:0:0:0:
353,361,121962,1,2,1:2:0:0:
353,361,122124,1,0,1:2:0:0:
370,242,122286,1,8,0:0:0:0:
260,185,122448,6,0,P|245:260|138:253,1,180.000006866455,6|0,0:2|1:0,0:0:0:0:
0,134,122935,1,10,0:0:0:0:
24,229,123097,1,2,0:0:0:0:
133,114,123259,1,2,1:2:0:0:
154,268,123421,1,2,1:2:0:0:
269,134,123583,1,10,0:2:0:0:
258,359,123746,1,6,1:2:0:0:
512,23,124719,2,0,L|458:10,1,30,0|0,1:0|0:0,0:0:0:0:
411,43,124881,2,0,B|380:78|369:134|388:162|388:162|396:134|371:100,1,180,10|0,0:0|0:0,0:0:0:0:
291,103,125205,6,0,B|304:170|369:167|369:167|381:149|379:111,1,167.999994873047,6|8,1:2|0:0,0:0:0:0:
235,7,125854,5,2,1:2:0:0:
216,80,126016,1,0,1:0:0:0:
163,133,126178,1,8,0:0:0:0:
90,152,126340,6,0,P|45:149|7:136,1,83.9999974365235,2|0,1:2|0:0,0:0:0:0:
216,80,126664,2,0,P|241:42|271:16,1,83.9999974365235,2|8,1:2|0:0,0:0:0:0:
215,225,126989,2,0,P|234:265|242:304,1,83.9999974365235,2|0,1:2|0:0,0:0:0:0:
90,152,127313,5,2,1:2:0:0:
216,80,127475,1,10,0:0:0:0:
335,180,127637,1,2,0:0:0:0:
335,180,127719,1,2,0:0:0:0:
335,180,127800,2,0,B|408:221|408:221|493:167,1,167.999994873047,2|8,1:2|0:2,0:2:0:0:
512,363,128448,5,2,1:2:0:0:
450,318,128610,1,0,1:0:0:0:
373,310,128773,1,8,0:0:0:0:
302,341,128935,6,0,P|265:361|207:366,1,83.9999974365235,2|0,1:2|0:0,0:0:0:0:
84,335,129259,2,0,P|53:305|30:252,1,83.9999974365235,2|8,1:2|0:0,0:0:0:0:
126,109,129583,1,2,1:2:0:0:
190,220,129746,1,0,1:0:0:0:
190,220,129827,1,0,1:0:0:0:
190,220,129908,1,0,1:0:0:0:
190,220,129989,1,0,1:0:0:0:
190,220,130070,1,0,1:0:0:0:
273,48,130232,6,0,B|256:128|335:144|335:144|355:125|390:113,1,180.000006866455,6|0,1:2|1:0,0:0:0:0:
317,276,130719,1,10,0:0:0:0:
510,228,130881,1,2,0:0:0:0:
405,366,131043,1,2,1:2:0:0:
405,366,131205,1,0,1:0:0:0:
317,276,131367,1,8,0:0:0:0:
439,182,131529,6,0,B|465:157|493:146|493:146|507:80|440:34,1,180.000006866455,6|0,1:2|1:0,0:0:0:0:
289,0,132016,1,10,0:0:0:0:
301,177,132178,1,2,0:0:0:0:
199,98,132340,1,2,1:2:0:0:
199,98,132502,1,0,1:0:0:0:
301,177,132664,1,8,0:0:0:0:
153,263,132827,6,0,B|122:263|95:242|95:242|83:187|125:121,1,180.000006866455,6|0,1:2|1:0,0:0:0:0:
245,10,133313,1,10,0:0:0:0:
301,177,133475,1,2,0:0:0:0:
245,10,133637,1,2,1:2:0:0:
119,130,133800,1,2,1:2:0:0:
245,10,133962,1,10,0:0:0:0:
200,192,134124,5,6,1:2:0:0:
512,357,134448,5,4,1:2:0:0:
342,325,134610,1,10,2:2:0:0:
346,199,134773,5,10,2:2:0:0:
346,199,134854,1,8,2:0:0:0:
346,199,134935,1,10,0:0:0:0:
432,305,135097,1,8,0:3:0:0:
434,138,135259,5,4,0:3:0:0:
280,267,135421,1,4,0:3:0:0:
177,122,135583,6,0,P|161:64|189:-11,1,120,14|0,1:1|1:0,0:0:0:0:
346,199,135908,2,0,P|404:214|455:275,1,120,8|0,0:0|1:0,0:0:0:0:
194,306,136232,2,0,P|151:348|72:362,1,120,10|0,0:1|1:0,0:0:0:0:
177,122,136556,1,8,0:0:0:0:
354,206,136719,5,2,1:2:0:0:
354,206,136800,1,0,1:0:0:0:
354,206,136881,1,8,0:1:0:0:
177,122,137043,1,2,1:2:0:0:
440,67,137205,6,0,B|463:56|463:56|368:46,1,120,10|0,2:1|1:0,0:0:0:0:
106,143,137529,2,0,B|83:131|83:131|177:122,1,120,10|0,2:0|1:0,0:0:0:0:
354,206,137854,1,8,2:0:0:0:
105,304,138016,5,2,1:2:0:0:
105,304,138097,1,0,1:0:0:0:
105,304,138178,1,8,0:0:0:0:
317,369,138340,1,2,1:2:0:0:
270,226,138502,5,10,0:0:0:0:
136,382,138664,1,0,1:0:0:0:
57,214,138827,5,10,0:0:0:0:
334,288,138989,1,0,1:0:0:0:
294,143,139151,5,10,0:0:0:0:
84,315,139313,1,0,1:0:0:0:
294,143,139475,6,2,B|342:110|319:34|319:34|292:70,1,143.999995605469,14|0,0:2|1:0,0:1:0:0:
336,311,139800,2,2,B|347:372|417:387|417:387|400:345,1,143.999995605469,14|0,0:2|1:0,0:1:0:0:
169,263,140124,2,2,B|110:242|62:295|62:295|107:301,1,143.999995605469,14|0,0:2|1:0,0:1:0:0:
336,311,140448,5,2,1:2:0:0:
365,288,140529,5,2,1:2:0:0:
402,282,140610,5,2,1:2:0:0:
443,286,140692,5,2,1:2:0:0:
443,286,140773,6,0,B|493:304|493:304|450:226,1,107.999996704102,14|0,0:1|1:0,0:0:0:0:
198,178,141097,2,0,B|148:196|148:196|174:147,1,107.999996704102,8|0,0:0|1:0,0:0:0:0:
421,91,141421,2,0,B|471:109|471:109|444:60,1,107.999996704102,10|0,0:1|1:0,0:0:0:0:
213,0,141746,1,8,0:0:0:0:
304,218,141908,5,2,1:2:0:0:
304,218,141989,1,0,1:0:0:0:
304,218,142070,1,8,0:0:0:0:
421,91,142232,1,2,1:2:0:0:
494,289,142394,2,0,P|496:218|464:169,1,107.999996704102,10|0,0:1|1:0,0:0:0:0:
170,371,142719,2,0,P|163:317|184:268,1,107.999996704102,10|0,2:1|1:0,0:0:0:0:
277,69,143043,5,14,0:2:0:0:
176,0,143205,1,0,1:0:0:0:
176,0,143286,1,0,1:0:0:0:
176,0,143367,2,0,B|199:98|110:139|110:139|36:83,1,240,6|8,1:2|0:0,0:0:0:0:
173,315,143854,1,0,1:0:0:0:
173,315,143935,1,0,1:0:0:0:
173,315,144016,2,0,B|191:269|191:269|187:248|187:248|208:192,1,120,10|0,0:2|1:0,0:0:0:0:
494,166,144340,6,2,B|429:193|429:193|361:165,1,143.999995605469,10|0,0:0|1:0,0:1:0:0:
186,97,144664,2,2,B|121:124|121:124|53:96,1,143.999995605469,10|0,0:0|1:0,0:1:0:0:
249,0,144989,5,10,0:1:0:0:
357,55,145151,1,0,1:0:0:0:
357,55,145232,1,0,1:0:0:0:
357,55,145313,2,0,P|378:94|352:173,1,120,8|0,2:2|1:0,2:0:0:0:
111,338,145637,2,0,P|90:299|116:220,1,120,14|0,0:2|1:0,0:0:0:0:
357,55,145962,5,14,2:1:0:0:
218,263,146124,1,2,1:2:0:0:
157,19,146286,1,2,1:2:0:0:
357,329,146448,5,14,2:1:0:0:
218,121,146610,1,2,1:2:0:0:
157,365,146773,1,2,1:2:0:0:
0,192,146935,5,10,0:1:0:0:
0,192,147016,1,8,0:0:0:0:
0,192,147097,1,8,0:0:0:0:
0,192,147178,1,8,0:0:0:0:
0,192,147259,1,4,1:2:0:0:
56,267,147583,6,2,P|86:269|114:259,1,60,2|2,0:1|0:1,0:1:0:0:
122,272,147908,6,2,P|88:282|53:280,1,71.9999978027344,2|2,0:1|0:1,0:1:0:0:
50,294,148232,6,2,P|91:296|131:282,1,83.9999974365235,2|2,0:1|0:1,0:1:0:0:
262,355,148556,6,0,B|298:344|298:344|336:351,1,75,6|0,1:1|0:0,0:0:0:0:
440,376,148719,2,0,B|476:365|476:365|514:372,1,75,8|0,0:0|0:0,0:0:0:0:
382,253,148881,2,0,B|304:240|336:193|250:185,1,150,2|8,1:0|0:0,0:0:0:0:
370,126,149124,1,8,0:0:0:0:
370,126,149205,2,0,P|376:77|480:67,1,150,2|8,1:1|0:0,0:0:0:0:
272,98,149529,2,0,P|243:103|197:106,1,75,2|0,1:1|0:0,0:0:0:0:
190,269,149692,2,0,P|227:271|264:277,1,75,8|0,0:0|0:0,0:0:0:0:
127,187,149854,6,2,B|89:217|41:206|41:206|4:91|120:25,1,300,2|0,1:1|1:0,0:1:0:0:
370,126,150340,1,10,2:2:0:0:
393,164,150421,1,8,2:2:0:0:
431,183,150502,2,0,P|466:180|508:149,1,75,2|0,1:0|0:0,0:0:0:0:
338,47,150664,2,0,P|317:18|270:-2,1,75,8|0,0:0|0:0,0:0:0:0:
267,196,150827,2,0,P|252:227|257:279,1,75,0|0,1:2|0:0,0:0:0:0:
359,328,150989,5,8,0:2:0:0:
359,328,151070,1,8,0:2:0:0:
359,328,151151,2,0,B|392:319|392:319|444:332,1,75,2|0,1:1|0:0,0:0:0:0:
228,379,151313,2,0,B|195:388|195:388|143:375,1,75,8|0,0:0|0:0,0:0:0:0:
73,307,151475,2,0,P|5:292|4:222,1,150,2|8,1:1|0:0,0:0:0:0:
225,182,151719,1,8,0:0:0:0:
225,182,151800,2,0,P|224:251|156:264,1,150,2|8,1:0|0:0,0:0:0:0:
144,0,152124,2,0,B|157:38|157:38|146:71,1,75,2|0,1:0|0:0,0:0:0:0:
54,120,152286,2,0,B|41:82|41:82|51:48,1,75,8|0,0:0|0:0,0:0:0:0:
259,18,152448,6,2,B|432:21|332:151|520:150,1,300,2|0,1:1|1:0,0:1:0:0:
316,317,152935,1,10,0:2:0:0:
332,350,153016,1,8,0:2:0:0:
360,373,153097,2,0,B|397:381|397:381|430:364,1,75,2|0,1:0|0:0,0:0:0:0:
237,327,153259,2,0,B|203:310|203:310|166:318,1,75,8|0,0:0|0:0,0:0:0:0:
427,245,153421,2,2,P|513:227|502:143,1,180.000006866455,6|8,1:2|0:0,0:1:0:0:
339,0,153746,6,2,L|329:165,1,120,6|8,1:2|0:3,0:1:0:0:
331,119,153989,1,8,0:3:0:0:
331,119,154070,1,8,0:3:0:0:
144,69,154232,6,2,P|128:201|261:200,1,300,6|0,1:0|1:0,0:1:0:0:
316,39,154719,6,2,B|274:54|274:54|232:35,1,90.0000034332277,10|0,2:2|1:0,0:1:0:0:
65,131,155043,6,2,L|75:296,1,120,6|8,1:2|0:3,0:1:0:0:
73,250,155286,1,8,0:3:0:0:
73,250,155367,1,8,0:3:0:0:
260,200,155529,6,2,P|276:332|143:331,1,300,6|0,1:0|1:0,0:1:0:0:
88,170,156016,6,2,B|130:185|130:185|171:166,1,90.0000034332277,10|0,0:0|1:0,0:1:0:0:
512,115,156340,5,6,1:1:0:0:
362,260,156502,1,8,0:0:0:0:
311,58,156664,1,2,1:0:0:0:
395,144,156827,5,8,0:0:0:0:
395,144,156908,1,8,0:0:0:0:
395,144,156989,1,2,1:1:0:0:
435,0,157151,5,8,0:2:0:0:
252,178,157313,1,2,1:0:0:0:
498,249,157475,1,8,0:2:0:0:
311,58,157637,6,2,B|256:29|256:29|190:47,1,120,6|8,1:2|1:2,2:1:0:0:
188,312,157962,2,2,B|242:340|242:340|299:325,1,120,6|8,1:2|0:0,0:1:0:0:
36,148,158286,5,8,0:3:0:0:
3,170,158367,1,8,0:3:0:0:
24,204,158448,1,8,0:3:0:0:
58,182,158529,1,8,0:3:0:0:
23,165,158610,5,4,0:3:0:0:
19,184,158692,1,4,0:3:0:0:
39,188,158773,1,4,0:3:0:0:
43,169,158854,1,4,0:3:0:0:
31,178,158935,6,0,P|18:229|31:269,1,75,6|0,1:1|0:0,0:0:0:0:
121,384,159097,2,0,P|133:348|129:311,1,75,8|0,0:0|0:0,0:0:0:0:
255,171,159259,2,0,P|258:235|335:256,1,150,2|8,1:0|0:0,0:0:0:0:
477,107,159502,1,8,0:0:0:0:
477,107,159583,2,0,P|473:171|397:192,1,150,2|8,1:1|0:0,0:0:0:0:
176,34,159908,2,0,B|137:40|137:40|86:25,1,75,2|0,1:1|0:0,0:0:0:0:
268,77,160070,2,0,B|307:83|307:83|358:68,1,75,8|0,0:0|0:0,0:0:0:0:
144,165,160232,6,2,P|22:197|48:355,1,300,2|0,1:1|1:0,0:1:0:0:
314,319,160719,1,10,2:2:0:0:
337,357,160800,1,8,2:2:0:0:
375,376,160881,2,0,P|408:379|460:353,1,75,2|0,1:0|0:0,0:0:0:0:
291,192,161043,2,0,P|271:219|268:277,1,75,8|0,0:0|0:0,0:0:0:0:
492,211,161205,2,0,P|478:180|429:148,1,75,0|0,1:2|0:0,0:0:0:0:
359,72,161367,5,8,0:0:0:0:
359,72,161448,1,8,0:0:0:0:
359,72,161529,2,0,L|364:160,1,75,2|0,1:1|0:0,0:0:0:0:
212,19,161692,2,0,L|294:13,1,75,8|0,0:0|0:0,0:0:0:0:
158,185,161854,2,0,P|170:110|240:109,1,150,2|8,1:1|0:0,0:0:0:0:
326,279,162097,1,8,0:0:0:0:
326,279,162178,2,0,P|314:204|244:203,1,150,2|8,1:0|0:0,0:0:0:0:
95,365,162502,2,0,B|58:375|58:375|18:361,1,75,2|0,1:0|0:0,0:0:0:0:
206,345,162664,2,0,B|243:355|243:355|283:341,1,75,8|0,0:0|0:0,0:0:0:0:
67,257,162827,6,2,B|27:243|6:195|6:195|16:80|120:15,1,300,2|0,1:1|1:0,0:1:0:0:
397,163,163313,1,10,0:2:0:0:
420,133,163394,1,8,0:2:0:0:
435,98,163475,2,0,P|434:67|407:21,1,75,2|0,1:0|0:0,0:0:0:0:
269,161,163637,2,0,P|271:198|289:230,1,75,8|0,0:0|0:0,0:0:0:0:
480,283,163800,5,6,1:2:0:0:
491,325,163881,5,2,1:2:0:0:
473,364,163962,5,10,1:2:0:0:
433,384,164043,5,2,1:2:0:0:
390,373,164124,6,2,L|397:231,1,120,6|8,1:2|0:3,0:1:0:0:
395,253,164367,1,8,0:3:0:0:
395,253,164448,1,8,0:3:0:0:
185,200,164610,6,2,P|175:334|298:303,1,300,6|0,1:0|1:0,0:1:0:0:
402,260,165097,6,2,P|393:287|399:258,1,90.0000034332277,10|0,2:2|1:0,0:1:0:0:
185,200,165421,6,2,L|178:58,1,120,6|8,1:2|0:3,0:1:0:0:
179,80,165664,1,8,0:3:0:0:
179,80,165746,1,8,0:3:0:0:
393,32,165908,6,2,P|403:166|280:135,1,300,6|0,1:0|1:0,0:1:0:0:
186,87,166394,6,2,P|194:114|189:85,1,90.0000034332277,10|0,0:0|1:0,0:1:0:0:
49,13,166719,5,6,1:1:0:0:
76,228,166881,1,8,0:0:0:0:
282,139,167043,1,2,1:0:0:0:
229,5,167205,5,8,0:0:0:0:
229,5,167286,1,8,0:0:0:0:
229,5,167367,1,2,1:1:0:0:
62,107,167529,5,8,0:2:0:0:
332,54,167692,1,2,1:0:0:0:
49,13,167854,1,8,0:2:0:0:
282,139,168016,6,2,B|341:153|341:153|405:131,1,120,6|8,1:2|1:2,2:1:0:0:
132,260,168340,2,2,B|75:240|75:240|16:254,1,120,14|8,2:2|0:0,0:1:0:0:
0,329,168583,5,8,0:0:0:0:
0,329,168664,1,8,0:3:0:0:
154,384,168827,5,8,0:3:0:0:
279,343,168989,5,4,0:3:0:0:
380,384,169151,5,4,0:3:0:0:
491,297,169313,6,0,P|496:210|409:198,1,180.000006866455,6|0,1:2|1:0,0:0:0:0:
239,242,169800,1,0,1:2:0:0:
239,242,169962,2,0,P|234:155|321:143,1,180.000006866455,10|0,0:2|1:0,0:0:0:0:
344,254,170448,2,0,B|330:297|330:297|341:340,1,90.0000034332277,8|0,0:0|0:0,0:0:0:0:
489,384,170773,5,8,0:0:0:0:
489,384,170935,2,0,B|503:341|503:341|491:297,1,90.0000034332277,2|0,1:2|0:0,0:0:0:0:
329,334,171259,2,0,B|315:291|315:291|326:247,1,90.0000034332277,10|0,0:0|0:0,0:0:0:0:
435,171,171583,5,8,0:3:0:0:
435,171,171746,1,8,0:3:0:0:
334,70,171908,6,0,P|252:101|161:64,1,180.000006866455,6|8,1:2|0:0,0:0:0:0:
201,140,172394,1,0,1:0:0:0:
107,33,172556,2,0,P|70:16|12:18,1,90.0000034332277,10|0,0:0|0:0,0:0:0:0:
201,140,172881,5,8,1:3:0:0:
10,187,173043,1,8,0:0:0:0:
98,113,173205,5,2,1:2:0:0:
240,236,173367,1,8,0:0:0:0:
295,85,173529,1,2,1:2:0:0:
512,274,173854,6,0,B|469:267|469:267|444:280|444:280|396:270,1,120,14|0,0:0|1:0,0:0:0:0:
226,358,174178,5,2,1:2:0:0:
239,369,174259,5,2,1:2:0:0:
255,376,174340,5,2,1:2:0:0:
272,378,174421,5,2,1:2:0:0:
289,380,174502,6,2,P|308:335|290:243,1,120,6|8,1:2|0:3,0:1:0:0:
301,265,174746,1,8,0:3:0:0:
301,265,174827,1,8,0:3:0:0:
116,256,174989,6,2,L|415:238,1,300,6|0,1:0|1:0,0:1:0:0:
426,149,175475,6,2,B|470:159|470:159|520:142,1,90.0000034332277,10|0,2:2|1:0,0:1:0:0:
289,0,175800,6,2,P|308:45|290:137,1,120,6|8,1:2|0:3,0:1:0:0:
301,115,176043,1,8,0:3:0:0:
301,115,176124,1,8,0:3:0:0:
127,132,176286,6,2,L|426:149,1,300,6|0,1:0|1:0,0:1:0:0:
426,241,176773,6,2,B|470:231|470:231|520:248,1,90.0000034332277,10|0,0:0|1:0,0:1:0:0:
251,374,177097,5,6,1:1:0:0:
464,345,177259,1,8,0:0:0:0:
251,374,177421,1,2,1:0:0:0:
342,280,177583,5,8,0:0:0:0:
342,280,177664,1,8,0:0:0:0:
342,280,177746,1,2,1:1:0:0:
173,200,177908,5,8,0:2:0:0:
426,241,178070,1,2,1:0:0:0:
173,200,178232,1,8,0:2:0:0:
359,117,178394,6,2,B|377:62|377:62|357:3,1,120,6|8,1:2|1:2,2:1:0:0:
83,145,178719,2,2,B|63:204|63:204|81:259,1,120,6|8,1:2|0:0,0:1:0:0:
359,117,179043,5,8,0:3:0:0:
379,152,179124,1,8,0:3:0:0:
414,132,179205,1,8,0:3:0:0:
394,97,179286,1,8,0:3:0:0:
375,131,179367,5,4,0:3:0:0:
394,136,179448,1,4,0:3:0:0:
399,117,179529,1,4,0:3:0:0:
380,112,179610,1,4,0:3:0:0:
387,124,179692,6,0,B|451:148|451:148|506:108,1,132.00000402832,6|8,1:0|0:0,0:0:0:0:
352,28,180016,1,2,1:2:0:0:
265,204,180178,1,8,0:0:0:0:
265,204,180259,1,8,0:0:0:0:
265,204,180340,1,2,1:0:0:0:
354,7,180502,1,0,1:0:0:0:
402,247,180664,1,10,0:1:0:0:
242,48,180827,5,6,1:2:0:0:
3,217,181151,5,2,0:2:0:0:
192,272,181313,1,2,0:0:0:0:
381,327,181475,1,2,0:0:0:0:
165,277,181637,5,2,0:2:0:0:
402,247,181800,1,2,1:2:0:0:
138,282,181962,5,10,0:2:0:0:
392,167,182124,1,2,0:0:0:0:
218,25,182286,6,0,B|211:69|211:69|221:98|221:98|211:159,1,138.000002632141,6|8,1:1|0:0,0:0:0:0:
47,332,182610,2,0,B|40:288|40:288|50:259|50:259|40:198,1,138.000002632141,2|8,1:2|0:0,0:0:0:0:
26,124,182854,1,8,0:0:0:0:
26,124,182935,1,2,1:0:0:0:
138,282,183097,1,8,0:0:0:0:
210,159,183259,1,2,1:2:0:0:
343,315,183421,6,2,B|394:384|495:355|495:355|497:294|452:260,1,276.000005264282,10|8,0:1|0:0,0:1:0:0:
386,93,183908,2,0,P|403:157|366:218,1,138.000002632141,0|8,1:0|0:0,0:0:0:0:
302,251,184151,1,8,0:0:0:0:
302,251,184232,1,2,1:1:0:0:
217,46,184394,1,8,0:0:0:0:
171,279,184556,1,2,1:2:0:0:
217,46,184719,1,8,0:0:0:0:
84,58,184881,5,6,1:1:0:0:
309,150,185043,1,8,0:0:0:0:
84,58,185205,1,2,1:2:0:0:
309,150,185367,1,10,0:1:0:0:
309,150,185448,1,8,0:0:0:0:
309,150,185529,1,0,1:0:0:0:
129,347,185692,2,0,P|94:289|112:224,1,138.000002632141,10|0,0:0|1:0,0:0:0:0:
224,53,186016,5,14,0:1:0:0:
224,53,186097,1,8,0:0:0:0:
224,53,186178,1,0,1:0:0:0:
335,234,186340,1,8,0:0:0:0:
351,21,186502,1,2,1:2:0:0:
212,184,186664,1,10,0:1:0:0:
212,184,186746,1,8,0:0:0:0:
212,184,186827,1,0,1:0:0:0:
308,127,186989,1,8,0:0:0:0:
420,133,187151,1,0,1:0:0:0:
497,233,187313,5,8,0:0:0:0:
497,233,187394,1,8,0:0:0:0:
497,233,187475,2,0,B|525:169|525:169|500:103,1,138.000002632141,6|8,0:1|0:0,0:0:0:0:
212,184,187800,2,0,B|188:248|188:248|216:311,1,138.000002632141,2|8,1:2|0:0,0:0:0:0:
286,367,188043,1,8,0:0:0:0:
286,367,188124,2,0,L|438:356,1,138.000002632141,2|8,1:2|0:0,0:0:0:0:
212,184,188448,1,2,1:2:0:0:
66,309,188610,5,10,0:1:0:0:
66,309,188692,1,8,0:1:0:0:
66,309,188773,1,0,1:0:0:0:
304,253,188935,1,8,0:0:0:0:
62,204,189097,1,2,1:2:0:0:
304,253,189259,1,8,0:0:0:0:
304,253,189340,1,8,0:0:0:0:
304,253,189421,1,2,1:1:0:0:
108,114,189583,1,10,0:2:0:0:
304,253,189746,1,6,1:2:0:0:
412,161,189908,5,8,0:0:0:0:
412,161,189989,1,8,0:0:0:0:
412,161,190070,2,0,P|431:100|396:21,1,138.000002632141,6|8,1:1|0:0,0:0:0:0:
45,52,190394,2,0,P|26:113|61:192,1,138.000002632141,2|8,1:2|0:0,0:0:0:0:
120,237,190637,1,8,0:0:0:0:
120,237,190719,2,0,B|187:219|187:219|254:233,1,138.000002632141,2|8,1:1|0:0,0:0:0:0:
378,362,191043,2,0,B|445:344|445:344|512:358,1,138.000002632141,2|8,1:2|0:0,0:0:0:0:
412,161,191367,6,0,P|431:100|396:21,1,138.000002632141,2|8,1:1|0:0,0:0:0:0:
337,6,191610,1,10,0:1:0:0:
337,6,191692,2,0,B|302:11|302:11|269:1,1,69.0000013160706,4|0,1:2|0:0,0:0:0:0:
205,35,191854,2,0,B|170:40|170:40|137:30,1,69.0000013160706,10|8,0:1|0:0,0:0:0:0:
45,52,192016,6,0,P|26:113|61:192,1,138.000002632141,2|8,1:1|0:0,0:0:0:0:
114,230,192259,1,10,0:1:0:0:
114,230,192340,2,0,B|149:225|149:225|181:234,1,69.0000013160706,4|0,1:2|0:0,0:0:0:0:
251,205,192502,2,0,B|286:200|286:200|318:209,1,69.0000013160706,10|8,0:1|0:0,0:0:0:0:
417,383,192664,6,0,P|418:326|339:299,1,138.000002632141,6|8,1:0|0:0,0:0:0:0:
56,186,192989,2,0,P|55:129|134:102,1,138.000002632141,0|8,1:0|0:0,0:0:0:0:
190,137,193232,1,8,0:0:0:0:
190,137,193313,1,4,1:2:0:0:
278,0,193475,1,8,0:0:0:0:
335,188,193637,1,0,1:2:0:0:
278,0,193800,1,8,0:0:0:0:
477,95,193962,5,6,1:1:0:0:
190,137,194124,1,2,1:1:0:0:
488,292,194286,1,2,1:1:0:0:
236,384,194448,2,0,L|244:244,1,138.000002632141,2|8,0:1|0:0,0:0:0:0:
338,191,194692,5,8,0:0:0:0:
338,191,194773,2,0,L|326:105,1,69.0000013160706,10|8,0:1|0:0,0:0:0:0:
254,34,194935,2,0,B|243:84|190:98|190:98|133:67,1,138.000002632141,10|0,0:1|1:0,0:0:0:0:
34,132,195259,6,0,B|-50:267|82:371|82:371|105:336|159:314,1,360,6|0,0:2|0:0,0:0:0:0:
458,384,196556,6,0,L|450:281,1,81.6000004980469,6|8,1:2|0:3,0:0:0:0:
451,302,196800,1,8,0:3:0:0:
451,302,196881,1,8,0:3:0:0:
382,335,197043,5,8,0:3:0:0:
306,323,197205,5,4,0:3:0:0:
252,269,197367,5,4,0:3:0:0:
238,194,197529,5,8,0:3:0:0:
264,122,197692,5,8,0:3:0:0:
423,146,197854,6,0,P|426:63|345:49,1,180.000006866455,6|0,1:2|0:0,0:0:0:0:
41,225,198502,6,0,P|37:142|118:128,1,180.000006866455,6|0,1:2|0:0,0:0:0:0:
271,341,199151,5,8,0:3:0:0:
271,341,199232,1,8,0:3:0:0:
271,341,199313,2,0,L|161:329,1,90.0000034332277,8|12,0:3|0:0,0:0:0:0:
309,243,199637,1,8,0:0:0:0:
309,243,199719,1,8,0:0:0:0:
309,243,199800,1,2,1:2:0:0:
366,384,199962,1,0,1:0:0:0:
502,223,200124,5,10,2:2:0:0:
512,259,200205,5,2,2:2:0:0:
499,295,200286,5,2,2:2:0:0:
466,315,200367,5,2,2:2:0:0:
428,309,200448,6,2,L|408:186,1,120,6|8,1:2|0:3,0:1:0:0:
408,190,200692,1,8,0:3:0:0:
408,190,200773,1,8,0:3:0:0:
204,256,200935,6,2,P|193:123|325:130,1,300,6|0,1:0|1:0,0:1:0:0:
415,197,201421,6,2,B|459:208|459:208|428:175,1,90.0000034332277,10|0,2:2|1:0,0:1:0:0:
344,11,201746,6,2,L|324:134,1,120,6|8,1:2|0:3,0:1:0:0:
324,130,201989,1,8,0:3:0:0:
324,130,202070,1,8,0:3:0:0:
120,64,202232,6,2,P|109:196|241:189,1,300,6|0,1:0|1:0,0:1:0:0:
331,137,202719,6,2,B|375:126|375:126|347:161,1,90.0000034332277,10|0,0:0|1:0,0:1:0:0:
255,378,203043,5,6,1:1:0:0:
229,170,203205,1,8,0:0:0:0:
421,251,203367,1,2,1:0:0:0:
301,266,203529,5,8,0:0:0:0:
301,266,203610,1,8,0:0:0:0:
301,266,203692,1,2,1:1:0:0:
357,130,203854,5,8,0:2:0:0:
388,384,204016,1,2,1:0:0:0:
153,283,204178,1,8,0:2:0:0:
421,251,204340,6,2,B|480:266|480:266|533:235,1,120,6|8,1:2|1:2,2:1:0:0:
199,170,204664,2,2,B|140:155|140:155|87:186,1,120,6|8,1:2|0:0,0:1:0:0:
468,105,204989,5,8,0:3:0:0:
503,85,205070,1,8,0:3:0:0:
483,50,205151,1,8,0:3:0:0:
448,70,205232,1,8,0:3:0:0:
482,89,205313,5,4,0:3:0:0:
487,70,205394,1,4,0:3:0:0:
468,65,205475,1,4,0:3:0:0:
463,84,205556,1,4,0:3:0:0:
475,77,205637,6,0,P|485:42|469:-5,1,75,6|0,1:1|0:0,0:0:0:0:
354,135,205800,2,0,P|344:170|360:217,1,75,8|0,0:0|0:0,0:0:0:0:
250,52,205962,2,0,B|169:31|187:97|107:70,1,150,2|8,1:0|0:0,0:0:0:0:
79,162,206205,1,8,0:0:0:0:
79,162,206286,2,0,P|21:177|30:272,1,150,2|8,1:1|0:0,0:0:0:0:
213,354,206610,2,0,B|248:343|248:343|285:352,1,75,2|0,1:1|0:0,0:0:0:0:
366,383,206773,2,0,B|403:373|403:373|438:384,1,75,8|0,0:0|0:0,0:0:0:0:
512,286,206935,6,2,P|495:148|357:130,1,300,2|0,1:1|1:0,0:1:0:0:
129,31,207421,1,10,2:2:0:0:
106,69,207502,1,8,2:2:0:0:
68,88,207583,2,0,P|30:88|-8:57,1,75,2|0,1:0|0:0,0:0:0:0:
223,52,207746,2,0,P|242:19|287:1,1,75,8|0,0:0|0:0,0:0:0:0:
176,204,207908,2,0,P|195:236|187:285,1,75,0|0,1:1|0:0,0:0:0:0:
94,327,208070,5,8,0:0:0:0:
94,327,208151,1,8,0:0:0:0:
94,327,208232,2,0,B|57:317|57:317|6:328,1,75,2|0,1:1|0:0,0:0:0:0:
209,380,208394,2,0,B|246:390|246:390|297:379,1,75,8|0,0:0|0:0,0:0:0:0:
440,248,208556,2,0,P|431:328|361:329,1,150,2|8,1:1|0:0,0:0:0:0:
258,183,208800,1,8,0:0:0:0:
258,183,208881,2,0,P|267:263|337:264,1,150,2|8,1:0|0:0,0:0:0:0:
483,28,209205,2,0,B|447:40|447:40|408:29,1,75,2|0,1:0|0:0,0:0:0:0:
334,75,209367,2,0,B|298:87|298:87|259:76,1,75,8|0,0:0|0:0,0:0:0:0:
122,0,209529,6,2,B|46:60|112:130|123:127|134:123|193:200|111:267,1,300,2|0,1:1|1:0,0:1:0:0:
408,316,210016,1,10,0:2:0:0:
415,352,210097,1,8,0:2:0:0:
441,378,210178,2,0,P|477:382|522:351,1,75,2|0,1:0|0:0,0:0:0:0:
326,279,210340,2,0,P|293:262|256:266,1,75,8|0,0:0|0:0,0:0:0:0:
402,112,210502,5,6,1:2:0:0:
402,155,210583,5,2,1:2:0:0:
425,191,210664,5,10,1:2:0:0:
463,214,210746,5,2,1:2:0:0:
507,207,210827,6,2,L|496:72,1,120,6|8,1:2|0:3,0:1:0:0:
497,87,211070,1,8,0:3:0:0:
497,87,211151,1,8,0:3:0:0:
342,0,211313,6,2,P|346:132|213:121,1,300,6|0,1:0|1:0,0:1:0:0:
156,35,211800,6,2,P|187:45|161:27,1,90.0000034332277,10|0,2:2|1:0,0:1:0:0:
0,234,212124,6,2,L|11:99,1,120,6|8,1:2|0:3,0:1:0:0:
10,114,212367,1,8,0:3:0:0:
10,114,212448,1,8,0:3:0:0:
165,27,212610,6,2,P|161:159|294:148,1,300,6|0,1:0|1:0,0:1:0:0:
343,57,213097,6,2,P|311:67|337:49,1,90.0000034332277,10|0,0:0|1:0,0:1:0:0:
165,27,213421,5,6,1:1:0:0:
371,148,213583,1,8,0:0:0:0:
143,222,213746,1,2,1:0:0:0:
244,142,213908,5,8,0:0:0:0:
244,142,213989,1,8,0:0:0:0:
244,142,214070,1,2,1:1:0:0:
402,269,214232,5,8,0:2:0:0:
143,222,214394,1,2,1:0:0:0:
394,137,214556,1,8,0:2:0:0:
319,384,214719,6,2,B|310:353|310:353|316:317|316:317|301:262,1,120,6|8,1:2|1:2,2:1:0:0:
9,239,215043,2,2,B|18:208|18:208|12:172|12:172|27:117,1,120,14|8,2:2|0:0,0:1:0:0:
51,51,215286,5,8,0:0:0:0:
51,51,215367,1,8,0:3:0:0:
174,132,215529,5,8,0:3:0:0:
289,96,215692,5,4,0:3:0:0:
374,154,215854,5,4,0:3:0:0:
493,114,216016,6,0,P|492:30|407:24,1,180.000006866455,6|0,1:2|1:0,0:0:0:0:
268,172,216502,1,0,1:2:0:0:
268,172,216664,2,0,P|269:88|354:82,1,180.000006866455,10|0,0:2|1:0,0:0:0:0:
439,242,217151,2,0,P|395:226|338:243,1,90.0000034332277,8|0,0:0|0:0,0:0:0:0:
252,353,217475,5,8,0:0:0:0:
252,353,217637,2,0,P|296:369|353:352,1,90.0000034332277,2|0,1:2|0:0,0:0:0:0:
244,253,217962,2,0,P|259:211|252:167,1,90.0000034332277,10|0,0:0|0:0,0:0:0:0:
169,87,218286,5,8,0:3:0:0:
169,87,218448,1,8,0:3:0:0:
283,23,218610,6,0,B|329:26|369:46|369:46|402:20|450:9,1,180.000006866455,6|8,1:2|0:0,0:0:0:0:
512,60,219097,1,0,1:0:0:0:
390,173,219259,2,0,B|384:147|384:147|386:129|386:129|376:84,1,90.0000034332277,10|0,0:0|0:0,0:0:0:0:
283,23,219583,5,8,1:3:0:0:
234,164,219746,1,8,0:0:0:0:
169,87,219908,5,2,1:2:0:0:
183,244,220070,1,8,0:0:0:0:
51,142,220232,1,2,1:2:0:0:
148,370,220556,6,0,P|202:382|254:347,1,120,14|0,0:0|1:0,0:0:0:0:
404,248,220881,5,2,1:2:0:0:
391,259,220962,5,2,1:2:0:0:
375,266,221043,5,2,1:2:0:0:
358,268,221124,5,2,1:2:0:0:
341,270,221205,6,2,P|321:229|343:131,1,120,6|8,1:2|0:3,0:1:0:0:
328,156,221448,1,8,0:3:0:0:
328,156,221529,1,8,0:3:0:0:
512,129,221692,6,2,L|212:111,1,300,6|0,1:0|1:0,0:1:0:0:
170,37,222178,6,2,P|122:42|68:21,1,90.0000034332277,10|0,2:2|1:0,0:1:0:0:
220,129,222502,6,2,P|240:170|218:268,1,120,6|8,1:2|0:3,0:1:0:0:
233,243,222746,1,8,0:3:0:0:
233,243,222827,1,8,0:3:0:0:
49,270,222989,6,2,L|348:287,1,300,6|0,1:0|1:0,0:1:0:0:
391,362,223475,6,2,P|439:357|493:378,1,90.0000034332277,10|0,0:0|1:0,0:1:0:0:
244,254,223800,5,6,1:1:0:0:
449,156,223962,1,8,0:0:0:0:
244,254,224124,1,2,1:0:0:0:
347,205,224286,5,8,0:0:0:0:
347,205,224367,1,8,0:0:0:0:
347,205,224448,1,2,1:1:0:0:
200,161,224610,5,8,0:2:0:0:
488,264,224773,1,2,1:0:0:0:
200,161,224935,1,8,0:2:0:0:
474,132,225097,6,2,B|503:100|503:100|471:19,1,120,6|8,1:2|1:2,2:1:0:0:
215,274,225421,2,2,B|186:306|186:306|218:387,1,120,6|8,1:2|0:0,0:1:0:0:
319,198,225746,5,8,0:3:0:0:
339,233,225827,1,8,0:3:0:0:
374,213,225908,1,8,0:3:0:0:
354,178,225989,1,8,0:3:0:0:
335,212,226070,5,4,0:3:0:0:
354,217,226151,1,4,0:3:0:0:
359,198,226232,1,4,0:3:0:0:
340,193,226313,1,4,0:3:0:0:
347,205,226394,6,0,B|409:236|409:236|455:192,1,132.00000402832,6|8,1:0|0:0,0:0:0:0:
294,68,226719,1,2,1:2:0:0:
222,281,226881,1,8,0:0:0:0:
222,281,226962,1,8,0:0:0:0:
222,281,227043,1,2,1:0:0:0:
131,86,227205,1,0,1:0:0:0:
64,262,227367,1,10,0:1:0:0:
0,18,227529,5,6,1:2:0:0:
198,189,227854,5,2,0:2:0:0:
368,88,228016,1,2,0:0:0:0:
511,224,228178,1,2,0:0:0:0:
358,64,228340,5,2,0:2:0:0:
446,305,228502,1,2,1:2:0:0:
348,40,228664,5,10,0:2:0:0:
342,351,228827,1,2,0:0:0:0:
216,212,228989,6,0,B|259:205|259:205|280:215|280:215|353:205,1,115.2000028125,6|8,1:2|0:0,0:0:0:0:
193,31,229313,1,0,1:2:0:0:
71,170,229475,1,8,0:0:0:0:
71,170,229556,1,8,0:0:0:0:
70,170,229637,2,0,P|54:224|73:277,1,115.2000028125,2|8,1:2|0:0,0:0:0:0:
188,384,229962,1,0,1:0:0:0:
383,317,230124,6,0,B|340:310|340:310|319:320|319:320|246:310,1,115.2000028125,10|0,0:0|1:0,0:0:0:0:
70,170,230448,2,0,B|113:163|113:163|134:173|134:173|207:163,1,115.2000028125,10|0,0:0|1:0,0:0:0:0:
385,48,230773,1,8,0:0:0:0:
385,48,230854,1,8,0:0:0:0:
385,48,230935,2,0,B|342:41|342:41|321:51|321:51|248:41,1,115.2000028125,2|8,1:2|0:0,0:0:0:0:
502,243,231259,2,2,P|488:187|505:133,1,115.2000028125,2|8,1:0|0:0,0:1:0:0:
340,341,231583,6,0,P|353:285|336:231,1,115.2000028125,6|8,1:2|0:0,0:0:0:0:
215,132,231908,1,0,1:0:0:0:
153,340,232070,1,8,0:0:0:0:
153,340,232151,1,8,0:0:0:0:
153,340,232232,1,2,1:2:0:0:
215,132,232394,1,8,0:0:0:0:
253,294,232556,1,0,1:0:0:0:
48,186,232719,6,0,P|30:131|44:76,1,115.2000028125,10|0,0:0|1:0,0:0:0:0:
217,0,233043,1,10,0:0:0:0:
317,202,233205,1,6,1:2:0:0:
483,160,233367,1,10,0:2:0:0:
483,160,233448,1,8,0:0:0:0:
483,160,233529,2,0,P|500:105|486:50,1,115.2000028125,2|8,1:1|0:0,0:0:0:0:
296,182,233854,5,2,1:2:0:0:
286,230,233935,5,2,1:2:0:0:
306,274,234016,5,10,1:2:0:0:
348,298,234097,5,2,1:2:0:0:
396,298,234178,6,0,B|446:279|446:279|510:296,1,115.2000028125,6|8,0:2|0:0,0:0:0:0:
329,384,234502,1,0,1:0:0:0:
388,170,234664,1,8,0:0:0:0:
388,170,234746,1,8,0:0:0:0:
388,170,234827,1,2,1:2:0:0:
461,376,234989,1,8,0:0:0:0:
388,170,235151,1,0,1:0:0:0:
152,253,235313,6,0,P|94:256|46:227,1,115.2000028125,10|0,0:0|1:0,0:0:0:0:
252,135,235637,2,0,P|278:83|327:56,1,115.2000028125,10|0,0:0|1:0,0:0:0:0:
304,280,235962,1,8,0:0:0:0:
304,280,236043,1,8,0:0:0:0:
304,280,236124,2,0,P|334:324|330:392,1,115.2000028125,2|8,1:2|0:0,0:0:0:0:
152,253,236448,2,2,B|94:258|94:258|36:222,1,115.2000028125,6|8,1:2|0:0,0:1:0:0:
233,33,236773,5,6,1:2:0:0:
457,185,236935,1,8,0:0:0:0:
421,41,237097,1,2,1:2:0:0:
191,156,237259,1,8,0:0:0:0:
191,156,237340,1,8,0:0:0:0:
191,156,237421,1,2,1:2:0:0:
457,185,237583,1,8,0:3:0:0:
233,33,237746,1,4,0:3:0:0:
368,239,237908,6,2,B|393:293|470:305|470:305|498:247|457:185,1,254.400000388184,6|2,1:1|1:2,0:1:0:0:
249,7,238394,1,10,0:2:0:0:
109,117,238556,1,8,0:3:0:0:
88,153,238637,1,8,0:3:0:0:
85,195,238719,1,4,0:3:0:0:
99,234,238800,1,4,0:3:0:0:
113,272,238881,1,8,0:3:0:0:
109,314,238962,1,8,0:3:0:0:
89,350,239043,2,0,B|74:383|31:385|31:385|38:343|75:335,1,143.999995605469,10|0,1:2|0:0,0:0:0:0:
299,255,239367,6,0,B|302:316|358:323|358:323|403:280,1,132.00000402832,6|8,1:2|0:0,0:0:0:0:
512,195,239692,1,0,1:2:0:0:
390,33,239854,1,8,0:0:0:0:
390,33,239935,1,8,0:0:0:0:
390,33,240016,2,0,B|387:94|331:101|331:101|307:78,1,132.00000402832,2|8,1:2|0:0,0:0:0:0:
206,0,240340,1,0,1:0:0:0:
46,103,240502,6,0,P|24:161|38:231,1,132.00000402832,10|0,0:0|1:0,0:0:0:0:
248,316,240827,2,0,P|271:255|258:191,1,132.00000402832,10|0,0:0|1:0,0:0:0:0:
17,105,241151,1,8,0:0:0:0:
17,105,241232,1,8,0:0:0:0:
17,105,241313,2,0,P|-6:165|6:229,1,132.00000402832,2|8,1:2|0:0,0:0:0:0:
272,323,241637,2,2,B|296:263|296:263|279:198,1,132.00000402832,2|8,1:0|0:0,0:1:0:0:
22,338,241962,6,0,B|73:330|73:330|93:339|93:339|172:326,1,132.00000402832,6|8,1:2|0:0,0:0:0:0:
372,384,242286,1,0,1:0:0:0:
287,206,242448,1,8,0:0:0:0:
287,206,242529,1,8,0:0:0:0:
287,206,242610,1,2,1:2:0:0:
372,384,242773,1,8,0:0:0:0:
460,215,242935,1,0,1:0:0:0:
381,33,243097,6,0,P|398:95|375:155,1,132.00000402832,10|0,0:0|1:0,0:0:0:0:
173,276,243421,1,10,0:0:0:0:
230,51,243583,1,6,1:2:0:0:
347,282,243746,1,10,0:2:0:0:
347,282,243827,1,8,0:0:0:0:
347,282,243908,2,0,B|401:315|401:315|449:229,1,132.00000402832,2|8,1:1|0:0,0:0:0:0:
256,40,244232,5,2,1:2:0:0:
233,84,244313,5,2,1:2:0:0:
188,96,244394,5,10,1:2:0:0:
144,79,244475,5,2,1:2:0:0:
120,38,244556,6,0,B|66:3|66:3|7:38,1,132.00000402832,6|8,0:2|0:0,0:0:0:0:
95,202,244881,1,0,1:0:0:0:
267,51,245043,1,8,0:0:0:0:
267,51,245124,1,8,0:0:0:0:
267,51,245205,1,2,1:2:0:0:
290,265,245367,1,8,0:0:0:0:
267,51,245529,1,0,1:0:0:0:
392,190,245692,6,0,P|455:202|508:167,1,132.00000402832,10|0,0:0|1:0,0:0:0:0:
267,51,246016,2,0,P|320:15|383:28,1,132.00000402832,10|0,0:0|1:0,0:0:0:0:
252,263,246340,1,8,0:0:0:0:
252,263,246421,1,8,0:0:0:0:
252,263,246502,2,0,P|295:307|359:309,1,132.00000402832,2|8,1:2|0:0,0:0:0:0:
499,214,246827,2,2,B|506:174|506:174|497:152|497:152|512:71,1,132.00000402832,6|8,1:2|0:0,0:1:0:0:
76,11,247151,5,6,1:2:0:0:
278,315,247313,1,8,0:0:0:0:
186,70,247475,1,2,1:2:0:0:
165,352,247637,1,8,0:0:0:0:
165,352,247719,1,8,0:0:0:0:
165,352,247800,1,2,1:2:0:0:
299,125,247962,1,8,0:3:0:0:
36,381,248124,1,4,0:3:0:0:
409,185,248286,6,2,B|418:223|442:247|486:244|486:244|522:177|486:95|412:70,1,313.200002628479,6|4,1:1|2:2,0:1:0:0:
