osu file format v14

[General]
AudioFilename: audio.mp3
AudioLeadIn: 0
PreviewTime: 41675
Countdown: 1
SampleSet: Normal
StackLeniency: 0.7
Mode: 1
LetterboxInBreaks: 0
WidescreenStoryboard: 0

[Editor]
Bookmarks: 22773,32373,41973,61173,70773,80373,89973,109173,118773,128375,139175,158375,169175
DistanceSpacing: 0.1
BeatDivisor: 6
GridSize: 32
TimelineZoom: 3.599998

[Metadata]
Title:Kahen reishiki zettai kyomei hakai kosen
TitleUnicode:花片零式絶対共鳴破壊光線
Artist:Katagiri feat. Hanacco
ArtistUnicode:かたぎりとゆかいなはなこたち
Creator:HiroK
Version:Resonance
Source:
Tags:kitajimayn yuni skull kid skid breakcore hatsune miku hibikase ripple out
BeatmapID:2005234
BeatmapSetID:957806

[Difficulty]
HPDrainRate:5.5
CircleSize:5
OverallDifficulty:7
ApproachRate:5
SliderMultiplier:1.4
SliderTickRate:1

[Events]
//Background and Video events
0,0,"__hatsune_miku_vocaloid_drawn_by_eiku__b467d61b0f6f64b484c049b2e4a18786.jpg",0,50
//Break Periods
//Storyboard Layer 0 (Background)
//Storyboard Layer 1 (Fail)
//Storyboard Layer 2 (Pass)
//Storyboard Layer 3 (Foreground)
//Storyboard Layer 4 (Overlay)
//Storyboard Sound Samples

[TimingPoints]
-25,300,4,1,0,80,1,0
8075,-83.3333333333333,4,1,0,70,0,0
8375,-125,4,1,0,100,0,0
8675,-123.079346793291,4,1,0,100,0,0
8825,-122.140984896046,4,1,0,100,0,0
8975,-121.216969890917,4,1,0,100,0,0
9275,-119.409971449076,4,1,0,100,0,0
9425,-118.526525643806,4,1,0,100,0,0
9725,-116.798278860563,4,1,0,100,0,0
9875,-115.952918476982,4,1,0,100,0,0
10025,-115.119707227561,4,1,0,100,0,0
10175,-114.298515719475,4,1,0,100,0,0
10475,-112.690531516161,4,1,0,100,0,0
10775,-111.127162812406,4,1,0,100,0,0
11075,-109.606578148394,4,1,0,100,0,0
11225,-108.861784723643,4,1,0,100,0,0
11375,-108.127161867443,4,1,0,100,0,0
11675,-106.687036778222,4,1,0,100,0,0
11825,-105.981264632038,4,1,0,100,0,0
11975,-105.284768978896,4,1,0,100,0,0
12125,-104.597368121023,4,1,0,100,0,0
12425,-103.249147420165,4,1,0,100,0,0
12575,-102.58809239494,4,1,0,100,0,0
12875,-101.290850600047,4,1,0,100,0,0
13175,-100.026006761758,4,1,0,100,0,0
17975,-100,4,1,0,100,0,0
18275,-98.3634292639071,4,1,0,100,0,0
18425,-97.565068583365,4,1,0,100,0,0
18500,-97.1707756948682,4,1,0,100,0,0
18575,-96.779563253187,4,1,0,100,0,0
18650,-96.3915811593015,4,1,0,100,0,0
18800,-95.624783648927,4,1,0,100,0,0
18875,-95.2459870484507,4,1,0,100,0,0
19025,-94.497236900793,4,1,0,100,0,0
19175,-93.7601671181219,4,1,0,100,0,0
19250,-93.3958836698231,4,1,0,100,0,0
19325,-93.0345064984603,4,1,0,100,0,0
19400,-92.6759151051547,4,1,0,100,0,0
19475,-92.3199921712647,4,1,0,100,0,0
19550,-91.9668772095042,4,1,0,100,0,0
19700,-91.2686062462409,4,1,0,100,0,0
19775,-90.9233906787158,4,1,0,100,0,0
19925,-90.2408166432943,4,1,0,100,0,0
20000,-89.9033987979916,4,1,0,100,0,0
20075,-89.5684948193583,4,1,0,100,0,0
20225,-88.9060378757502,4,1,0,100,0,0
20375,-88.2533081752569,4,1,0,100,0,0
20525,-87.6100930331578,4,1,0,100,0,0
20600,-87.2919505473642,4,1,0,100,0,0
20675,-86.976185920295,4,1,0,100,0,0
20825,-86.351386241979,4,1,0,100,0,0
20900,-86.0423775918115,4,1,0,100,0,0
20975,-85.7354991263553,4,1,0,100,0,0
21050,-85.4308748890466,4,1,0,100,0,0
21125,-85.1283352217636,4,1,0,100,0,0
21175,-84.9278537882069,4,1,0,100,0,0
21225,-84.7283144233857,4,1,0,100,0,0
21275,-84.5297105026475,4,1,0,100,0,0
21350,-84.233579716554,4,1,0,100,0,0
21425,-83.9395165419605,4,1,0,100,0,0
21500,-83.6474294308462,4,1,0,100,0,0
21575,-83.3574375256845,4,1,0,100,0,0
22775,-100,4,1,0,100,0,0
31925,-102.564102564103,4,1,0,100,0,0
32075,-105.263157894737,4,1,0,100,0,0
32375,-100,4,1,0,100,0,0
41975,-83.3333333333333,4,1,0,100,0,1
59975,-83.3333333333333,4,1,0,100,0,1
60025,-83.9130325330827,4,1,0,100,0,1
60075,-84.5008534586199,4,1,0,100,0,1
60125,-85.0969679950303,4,1,0,100,0,1
60200,-86.0071523547898,4,1,0,100,0,1
60275,-86.936942027839,4,1,0,100,0,1
60350,-87.8870545884074,4,1,0,100,0,1
60425,-88.8581637105037,4,1,0,100,0,1
60500,-89.8510539079368,4,1,0,100,0,1
60575,-90.8663011418259,4,1,0,100,0,1
60650,-91.9047535895699,4,1,0,100,0,1
60725,-92.9672160409353,4,1,0,100,0,1
60800,-94.0546193985771,4,1,0,100,0,1
60875,-95.1676711614358,4,1,0,100,0,1
61175,-99.8965072185216,4,1,0,100,0,0
69575,-98.0392156862745,4,1,0,100,0,0
69625,-96.1538461538461,4,1,0,100,0,0
69675,-94.3396226415094,4,1,0,100,0,0
69725,-92.5925925925926,4,1,0,100,0,0
69800,-90.9090909090909,4,1,0,100,0,0
69875,-89.2857142857143,4,1,0,100,0,0
69925,-87.719298245614,4,1,0,100,0,0
69975,-86.2068965517241,4,1,0,100,0,0
70025,-84.7457627118644,4,1,0,100,0,0
70175,-83.3333333333333,4,1,0,100,0,0
70325,-105.263157894737,4,1,0,70,0,0
70775,-100,4,1,0,100,0,0
87575,-100,4,1,0,100,0,0
87725,-98.5957014246093,4,1,0,100,0,0
87800,-97.9081914888409,4,1,0,100,0,0
87875,-97.2302032014017,4,1,0,100,0,0
87950,-96.5616333593406,4,1,0,100,0,0
88025,-95.9021031331217,4,1,0,100,0,0
88100,-95.251521166793,4,1,0,100,0,0
88175,-94.6097960875065,4,1,0,100,0,0
88250,-93.97657164069,4,1,0,100,0,0
88325,-93.3517671956289,4,1,0,100,0,0
88400,-92.7353019183224,4,1,0,100,0,0
88475,-92.1268402336337,4,1,0,100,0,0
88550,-91.5263110686429,4,1,0,100,0,0
88625,-90.9336429926989,4,1,0,100,0,0
88775,-89.7708777886201,4,1,0,100,0,0
88850,-89.200655089611,4,1,0,100,0,0
88925,-88.6375521853588,4,1,0,100,0,0
89000,-88.0815141564609,4,1,0,100,0,0
89075,-87.5324854936788,4,1,0,100,0,0
89150,-86.9901831578306,4,1,0,100,0,0
89225,-86.4545590514897,4,1,0,100,0,0
89300,-85.9255644020698,4,1,0,100,0,0
89375,-85.4029310285929,4,1,0,100,0,0
89450,-84.8866169457456,4,1,0,100,0,0
89525,-84.3765794240961,4,1,0,100,0,0
89600,-83.8725640262186,4,1,0,100,0,0
89675,-83.3745342490081,4,1,0,100,0,0
89975,-95.2380952380952,4,1,0,100,0,0
99575,-90.9090909090909,4,1,0,100,0,1
109175,-100,4,1,0,100,0,0
118775,-100,4,1,0,100,0,0
119075,-102.557265413075,4,1,0,100,0,0
119375,-105.248755433467,4,1,0,100,0,0
119675,-108.085322553624,4,1,0,100,0,0
119975,-111.079021615978,4,1,0,100,0,0
120275,-114.243281067032,4,1,0,100,0,0
120575,-117.593104340361,4,1,0,100,0,0
120875,-121.145307739368,4,1,0,100,0,0
121025,-123.003196853086,4,1,0,100,0,0
121175,-124.918958825462,4,1,0,100,0,0
123575,-125,4,1,0,100,0,0
123875,-121.216969890917,4,1,0,100,0,0
124025,-119.409971449076,4,1,0,100,0,0
124175,-117.656056051345,4,1,0,100,0,0
124400,-115.119707227561,4,1,0,100,0,0
124475,-114.298515719475,4,1,0,100,0,0
124625,-112.690531516161,4,1,0,100,0,0
124775,-111.127162812406,4,1,0,100,0,0
125075,-108.127161867443,4,1,0,100,0,0
125225,-106.687036778222,4,1,0,100,0,0
125375,-105.284768978896,4,1,0,100,0,0
125450,-104.597368121023,4,1,0,100,0,0
125525,-103.918885075066,4,1,0,100,0,0
125600,-103.249147420165,4,1,0,100,0,0
125675,-102.58809239494,4,1,0,100,0,0
125825,-101.290850600047,4,1,0,100,0,0
125975,-100.026006761758,4,1,0,100,0,0
126275,-97.5888717457771,4,1,0,100,0,0
126425,-96.4142573547206,4,1,0,100,0,0
126575,-95.2675828232548,4,1,0,100,0,0
126650,-94.7044133203651,4,1,0,100,0,0
126725,-94.147862984732,4,1,0,100,0,0
126800,-93.5978158013705,4,1,0,100,0,0
126875,-93.0542450416045,4,1,0,100,0,0
126950,-92.5168658246398,4,1,0,100,0,0
127025,-91.9856575962676,4,1,0,100,0,0
127175,-90.9413337456007,4,1,0,100,0,0
127325,-89.9204563643002,4,1,0,100,0,0
127400,-89.4185647247339,4,1,0,100,0,0
127475,-88.9223236825935,4,1,0,100,0,0
127525,-88.5944403444906,4,1,0,100,0,0
127575,-88.269044046253,4,1,0,100,0,0
127625,-87.946029280751,4,1,0,100,0,0
127700,-87.4658773745892,4,1,0,100,0,0
127775,-86.9909398936101,4,1,0,100,0,0
127850,-86.5211323539718,4,1,0,100,0,0
127925,-86.0563720870994,4,1,0,100,0,0
128000,-85.5966514589949,4,1,0,100,0,0
128075,-85.1417439753702,4,1,0,100,0,0
128225,-84.246282211566,4,1,0,100,0,0
128300,-83.8055777640337,4,1,0,100,0,0
128375,-83.3694600993764,4,1,0,100,0,0
128450,-125,4,1,0,50,0,0
132800,-83.3333333333333,4,1,0,70,0,0
133100,-111.111111111111,4,1,0,80,0,0
138800,-71.4285714285714,4,1,0,80,0,0
138950,-100,4,1,0,80,0,0
139175,-90.9090909090909,4,1,0,80,0,1
158375,-90.9090909090909,4,1,0,100,0,0
169175,-100,4,1,0,100,0,0
177575,-111.111111111111,4,1,0,80,0,0

[HitObjects]
256,192,725,12,0,3425,0:0:0:0:
217,165,3575,5,2,0:0:0:0:
145,114,4025,1,2,0:0:0:0:
145,114,4175,1,2,0:0:0:0:
145,116,4625,1,2,0:0:0:0:
145,116,4925,1,2,0:0:0:0:
145,116,5225,1,2,0:0:0:0:
145,116,5375,1,2,0:0:0:0:
145,116,5975,1,2,0:0:0:0:
145,116,6425,1,2,0:0:0:0:
145,116,6575,1,2,0:0:0:0:
145,116,7025,1,2,0:0:0:0:
166,46,7325,1,2,0:0:0:0:
181,52,7625,1,2,0:0:0:0:
145,116,7775,1,2,0:0:0:0:
145,116,8075,1,12,0:0:0:0:
145,116,8375,1,0,0:0:0:0:
145,116,8675,1,2,0:0:0:0:
145,116,8825,1,0,0:0:0:0:
145,116,8975,1,0,0:0:0:0:
145,117,9275,1,2,0:0:0:0:
145,117,9425,1,0,0:0:0:0:
145,117,9725,1,0,0:0:0:0:
145,117,9875,1,2,0:0:0:0:
145,117,10025,1,0,0:0:0:0:
145,117,10175,1,0,0:0:0:0:
145,118,10475,1,2,0:0:0:0:
145,118,10775,1,0,0:0:0:0:
145,118,11075,1,2,0:0:0:0:
145,118,11225,1,0,0:0:0:0:
145,118,11375,1,0,0:0:0:0:
145,118,11675,1,2,0:0:0:0:
145,118,11825,1,2,0:0:0:0:
145,118,11975,1,0,0:0:0:0:
145,118,12125,1,2,0:0:0:0:
145,119,12425,1,2,0:0:0:0:
145,119,12575,1,0,0:0:0:0:
133,103,12875,1,2,0:0:0:0:
145,119,13175,1,4,0:0:0:0:
145,119,13475,1,0,0:0:0:0:
145,119,13625,1,2,0:0:0:0:
145,119,13700,1,2,0:0:0:0:
145,119,13775,1,0,0:0:0:0:
132,94,13850,1,0,0:0:0:0:
132,118,14000,1,2,0:0:0:0:
131,116,14075,1,0,0:0:0:0:
132,118,14225,1,2,0:0:0:0:
132,118,14375,1,0,0:0:0:0:
140,77,14450,1,0,0:0:0:0:
140,77,14525,1,2,0:0:0:0:
132,118,14600,1,2,0:0:0:0:
132,118,14675,1,0,0:0:0:0:
140,77,14750,1,2,0:0:0:0:
132,118,14900,1,2,0:0:0:0:
132,118,14975,1,0,0:0:0:0:
160,119,15125,1,0,0:0:0:0:
160,126,15200,1,2,0:0:0:0:
132,101,15275,1,0,0:0:0:0:
132,101,15425,1,2,0:0:0:0:
164,103,15575,1,0,0:0:0:0:
179,119,15725,1,2,0:0:0:0:
173,106,16025,1,2,0:0:0:0:
173,106,16175,1,0,0:0:0:0:
161,106,16250,1,0,0:0:0:0:
161,106,16325,1,2,0:0:0:0:
161,106,16400,1,2,0:0:0:0:
161,106,16475,1,0,0:0:0:0:
161,106,16550,1,0,0:0:0:0:
161,106,16625,1,2,0:0:0:0:
141,86,16700,1,0,0:0:0:0:
141,86,16775,1,2,0:0:0:0:
141,86,17075,1,2,0:0:0:0:
165,83,17225,1,0,0:0:0:0:
186,102,17375,1,0,0:0:0:0:
186,102,17450,1,0,0:0:0:0:
186,102,17525,1,2,0:0:0:0:
186,102,17600,1,0,0:0:0:0:
186,102,17675,1,0,0:0:0:0:
187,107,17750,1,0,0:0:0:0:
187,109,17825,1,2,0:0:0:0:
145,119,17975,1,4,0:0:0:0:
145,119,18275,1,0,0:0:0:0:
145,119,18425,1,2,0:0:0:0:
145,119,18500,1,2,0:0:0:0:
145,119,18575,1,0,0:0:0:0:
132,94,18650,1,0,0:0:0:0:
132,118,18800,1,2,0:0:0:0:
131,116,18875,1,0,0:0:0:0:
132,118,19025,1,2,0:0:0:0:
132,118,19175,1,0,0:0:0:0:
140,77,19250,1,0,0:0:0:0:
140,77,19325,1,2,0:0:0:0:
132,118,19400,1,2,0:0:0:0:
132,118,19475,1,0,0:0:0:0:
140,77,19550,1,2,0:0:0:0:
132,118,19700,1,2,0:0:0:0:
132,118,19775,1,0,0:0:0:0:
160,119,19925,1,0,0:0:0:0:
160,126,20000,1,2,0:0:0:0:
132,101,20075,1,0,0:0:0:0:
132,101,20225,1,2,0:0:0:0:
164,103,20375,1,0,0:0:0:0:
159,92,20525,1,0,0:0:0:0:
159,92,20600,1,2,0:0:0:0:
159,92,20675,1,0,0:0:0:0:
173,106,20825,1,2,0:0:0:0:
159,92,20900,1,2,0:0:0:0:
173,106,20975,1,0,0:0:0:0:
161,106,21050,1,0,0:0:0:0:
161,106,21125,1,2,0:0:0:0:
185,92,21175,1,2,0:0:0:0:
185,92,21225,1,2,0:0:0:0:
161,106,21275,1,0,0:0:0:0:
161,106,21350,1,0,0:0:0:0:
161,106,21425,1,2,0:0:0:0:
141,86,21500,1,0,0:0:0:0:
141,86,21575,1,2,0:0:0:0:
194,61,21725,1,0,0:0:0:0:
194,61,21800,1,0,0:0:0:0:
141,86,21875,1,2,0:0:0:0:
165,83,22025,1,0,0:0:0:0:
194,61,22175,1,2,0:0:0:0:
191,77,22250,1,0,0:0:0:0:
191,79,22325,1,0,0:0:0:0:
191,79,22400,1,2,0:0:0:0:
167,72,22625,1,2,0:0:0:0:
191,77,22775,1,4,0:0:0:0:
191,77,22925,1,8,0:0:0:0:
191,77,23000,1,8,0:0:0:0:
191,77,23075,1,0,0:0:0:0:
195,82,23225,1,0,0:0:0:0:
197,84,23300,1,0,0:0:0:0:
199,86,23375,1,8,0:0:0:0:
201,88,23450,1,8,0:0:0:0:
203,90,23525,1,0,0:0:0:0:
203,93,23600,1,8,0:0:0:0:
205,95,23675,1,0,0:0:0:0:
201,88,23825,1,8,0:0:0:0:
201,88,23975,1,0,0:0:0:0:
201,88,24125,1,0,0:0:0:0:
201,88,24200,1,0,0:0:0:0:
201,88,24275,1,8,0:0:0:0:
207,91,24425,1,8,0:0:0:0:
210,91,24500,1,0,0:0:0:0:
213,94,24575,1,8,0:0:0:0:
216,94,24650,1,8,0:0:0:0:
219,94,24725,1,0,0:0:0:0:
219,94,24800,1,8,0:0:0:0:
219,94,24950,1,8,0:0:0:0:
219,94,25025,1,0,0:0:0:0:
223,99,25175,1,0,0:0:0:0:
227,104,25325,1,0,0:0:0:0:
229,106,25400,1,8,0:0:0:0:
231,108,25475,1,8,0:0:0:0:
231,114,25625,1,0,0:0:0:0:
232,117,25700,1,0,0:0:0:0:
233,120,25775,1,8,0:0:0:0:
235,122,25850,1,0,0:0:0:0:
237,124,25925,1,8,0:0:0:0:
237,124,26000,1,8,0:0:0:0:
237,127,26075,1,0,0:0:0:0:
246,130,26225,1,8,0:0:0:0:
241,135,26375,1,0,0:0:0:0:
232,117,26525,1,8,0:0:0:0:
237,127,26600,1,0,0:0:0:0:
237,127,26675,1,8,0:0:0:0:
243,128,26825,1,0,0:0:0:0:
249,129,26975,1,8,0:0:0:0:
249,129,27050,1,0,0:0:0:0:
249,129,27125,1,0,0:0:0:0:
249,129,27200,1,8,0:0:0:0:
249,129,27275,1,0,0:0:0:0:
249,129,27350,1,0,0:0:0:0:
249,129,27425,1,8,0:0:0:0:
249,135,27575,1,0,0:0:0:0:
248,141,27725,1,8,0:0:0:0:
247,144,27800,1,8,0:0:0:0:
247,147,27875,1,0,0:0:0:0:
247,154,28025,1,0,0:0:0:0:
247,154,28100,1,8,0:0:0:0:
247,154,28175,1,0,0:0:0:0:
247,154,28250,1,0,0:0:0:0:
247,154,28325,1,8,0:0:0:0:
244,151,28400,1,8,0:0:0:0:
241,148,28475,1,0,0:0:0:0:
247,147,28625,1,8,0:0:0:0:
253,146,28775,1,0,0:0:0:0:
247,154,28925,1,0,0:0:0:0:
247,154,29000,1,0,0:0:0:0:
247,154,29075,1,8,0:0:0:0:
247,154,29225,1,8,0:0:0:0:
245,150,29300,1,8,0:0:0:0:
244,151,29375,1,0,0:0:0:0:
241,148,29450,1,8,0:0:0:0:
239,151,29525,1,8,0:0:0:0:
239,151,29600,1,0,0:0:0:0:
244,151,29750,1,0,0:0:0:0:
247,150,29825,1,8,0:0:0:0:
247,154,29975,1,0,0:0:0:0:
247,154,30125,1,0,0:0:0:0:
247,154,30200,1,8,0:0:0:0:
245,150,30275,1,8,0:0:0:0:
246,156,30425,1,8,0:0:0:0:
246,156,30500,1,8,0:0:0:0:
246,156,30575,1,0,0:0:0:0:
249,157,30650,1,0,0:0:0:0:
255,159,30800,1,8,0:0:0:0:
258,160,30875,1,0,0:0:0:0:
255,159,31025,1,8,0:0:0:0:
250,163,31175,1,0,0:0:0:0:
258,160,31250,1,0,0:0:0:0:
246,156,31400,1,0,0:0:0:0:
246,156,31475,1,8,0:0:0:0:
246,156,31550,1,0,0:0:0:0:
249,157,31625,1,8,0:0:0:0:
255,159,31700,1,8,0:0:0:0:
255,159,31775,1,0,0:0:0:0:
255,159,31925,1,0,0:0:0:0:
250,163,32075,1,8,0:0:0:0:
250,163,32125,1,8,0:0:0:0:
250,163,32175,1,8,0:0:0:0:
258,160,32225,1,0,0:0:0:0:
256,192,32375,1,12,0:0:0:0:
256,192,32525,1,0,0:0:0:0:
256,192,32600,1,0,0:0:0:0:
256,192,32675,1,8,0:0:0:0:
256,192,32825,1,0,0:0:0:0:
256,192,32975,1,8,0:0:0:0:
256,192,33125,1,0,0:0:0:0:
256,192,33200,1,8,0:0:0:0:
256,192,33350,1,0,0:0:0:0:
256,192,33425,1,8,0:0:0:0:
256,192,33500,1,8,0:0:0:0:
256,192,33575,1,0,0:0:0:0:
256,192,33625,1,8,0:0:0:0:
256,192,33675,1,8,0:0:0:0:
256,192,33725,1,0,0:0:0:0:
256,192,33800,1,0,0:0:0:0:
256,192,33875,1,8,0:0:0:0:
256,192,34025,1,0,0:0:0:0:
256,192,34175,1,8,0:0:0:0:
256,192,34250,1,8,0:0:0:0:
256,192,34325,1,0,0:0:0:0:
256,192,34400,1,8,0:0:0:0:
256,192,34475,1,0,0:0:0:0:
256,192,34550,1,0,0:0:0:0:
256,192,34625,1,8,0:0:0:0:
256,192,34700,1,8,0:0:0:0:
256,192,34775,1,0,0:0:0:0:
256,192,34925,1,8,0:0:0:0:
256,192,35000,1,0,0:0:0:0:
256,192,35075,1,8,0:0:0:0:
256,192,35225,1,0,0:0:0:0:
256,192,35375,1,8,0:0:0:0:
256,192,35450,1,8,0:0:0:0:
256,192,35525,1,0,0:0:0:0:
256,192,35600,1,8,0:0:0:0:
256,192,35675,1,0,0:0:0:0:
256,192,35725,1,8,0:0:0:0:
256,192,35775,1,8,0:0:0:0:
256,192,35825,1,0,0:0:0:0:
256,192,35900,1,0,0:0:0:0:
256,192,35975,1,8,0:0:0:0:
256,192,36125,1,0,0:0:0:0:
256,192,36200,1,8,0:0:0:0:
256,192,36275,1,8,0:0:0:0:
256,192,36425,1,8,0:0:0:0:
256,192,36575,1,0,0:0:0:0:
256,192,36725,1,8,0:0:0:0:
256,192,36800,1,0,0:0:0:0:
256,192,36875,1,8,0:0:0:0:
256,192,36950,1,8,0:0:0:0:
256,192,37025,1,0,0:0:0:0:
256,192,37100,1,0,0:0:0:0:
256,192,37175,1,12,0:0:0:0:
256,192,37325,1,0,0:0:0:0:
256,192,37400,1,0,0:0:0:0:
256,192,37475,1,8,0:0:0:0:
256,192,37625,1,0,0:0:0:0:
256,192,37775,1,8,0:0:0:0:
256,192,37925,1,0,0:0:0:0:
256,192,38000,1,8,0:0:0:0:
256,192,38150,1,0,0:0:0:0:
256,192,38225,1,8,0:0:0:0:
256,192,38300,1,8,0:0:0:0:
256,192,38375,1,0,0:0:0:0:
256,192,38450,1,8,0:0:0:0:
256,192,38525,1,0,0:0:0:0:
256,192,38575,1,8,0:0:0:0:
256,192,38625,1,8,0:0:0:0:
256,192,38675,1,0,0:0:0:0:
256,192,38825,1,0,0:0:0:0:
256,192,38975,1,8,0:0:0:0:
256,192,39125,1,0,0:0:0:0:
256,192,39200,1,0,0:0:0:0:
256,192,39275,1,8,0:0:0:0:
256,192,39325,1,0,0:0:0:0:
256,192,39375,1,0,0:0:0:0:
256,192,39425,1,8,0:0:0:0:
256,192,39500,1,8,0:0:0:0:
256,192,39575,1,0,0:0:0:0:
256,192,39725,1,8,0:0:0:0:
256,192,39775,1,8,0:0:0:0:
256,192,39825,1,0,0:0:0:0:
256,192,39875,1,0,0:0:0:0:
256,192,40025,1,0,0:0:0:0:
256,192,40175,1,8,0:0:0:0:
256,192,40325,1,0,0:0:0:0:
256,192,40400,1,8,0:0:0:0:
256,192,40550,1,0,0:0:0:0:
256,192,40625,1,8,0:0:0:0:
256,192,40700,1,8,0:0:0:0:
256,192,40775,1,0,0:0:0:0:
256,192,40850,1,8,0:0:0:0:
256,192,40925,1,0,0:0:0:0:
256,192,41000,1,0,0:0:0:0:
256,192,41075,1,8,0:0:0:0:
256,192,41150,1,0,0:0:0:0:
256,192,41300,1,0,0:0:0:0:
256,192,41375,1,8,0:0:0:0:
256,192,41450,1,8,0:0:0:0:
256,192,41525,1,0,0:0:0:0:
256,192,41600,1,8,0:0:0:0:
256,192,41750,1,0,0:0:0:0:
256,192,41825,1,8,0:0:0:0:
187,163,41975,5,4,0:0:0:0:
187,163,42125,1,0,0:0:0:0:
187,165,42275,1,2,0:0:0:0:
187,165,42425,1,0,0:0:0:0:
155,151,42500,1,0,0:0:0:0:
185,139,42575,1,2,0:0:0:0:
185,146,42650,1,0,0:0:0:0:
170,96,42725,1,0,0:0:0:0:
171,107,42800,1,2,0:0:0:0:
179,129,42875,1,0,0:0:0:0:
186,148,43025,1,2,0:0:0:0:
185,146,43100,1,2,0:0:0:0:
186,148,43175,1,0,0:0:0:0:
185,146,43325,1,0,0:0:0:0:
185,146,43475,1,2,0:0:0:0:
185,146,43550,1,2,0:0:0:0:
185,146,43625,1,0,0:0:0:0:
186,153,43700,1,0,0:0:0:0:
186,153,43775,1,2,0:0:0:0:
186,153,43850,1,0,0:0:0:0:
186,153,44000,1,0,0:0:0:0:
186,153,44075,1,2,0:0:0:0:
186,153,44150,1,0,0:0:0:0:
186,153,44225,1,2,0:0:0:0:
186,153,44300,1,2,0:0:0:0:
186,153,44375,1,0,0:0:0:0:
187,151,44675,1,2,0:0:0:0:
187,151,44825,1,0,0:0:0:0:
187,151,44975,1,0,0:0:0:0:
187,151,45050,1,0,0:0:0:0:
187,151,45125,1,2,0:0:0:0:
182,126,45200,1,2,0:0:0:0:
187,151,45275,1,0,0:0:0:0:
182,126,45350,1,2,0:0:0:0:
182,126,45425,1,2,0:0:0:0:
187,151,45500,1,2,0:0:0:0:
187,151,45575,1,0,0:0:0:0:
186,117,45725,1,0,0:0:0:0:
179,126,45875,1,2,0:0:0:0:
185,137,45950,1,2,0:0:0:0:
185,136,46025,1,0,0:0:0:0:
185,137,46100,1,0,0:0:0:0:
179,126,46175,1,2,0:0:0:0:
179,126,46250,1,0,0:0:0:0:
179,126,46400,1,0,0:0:0:0:
179,126,46475,1,2,0:0:0:0:
169,78,46550,1,0,0:0:0:0:
169,78,46625,1,2,0:0:0:0:
179,126,46700,1,2,0:0:0:0:
156,122,46775,1,0,0:0:0:0:
187,165,47075,1,2,0:0:0:0:
191,123,47225,1,0,0:0:0:0:
155,151,47300,1,0,0:0:0:0:
185,139,47375,1,2,0:0:0:0:
191,123,47450,1,2,0:0:0:0:
170,96,47525,1,0,0:0:0:0:
171,107,47600,1,2,0:0:0:0:
179,129,47675,1,0,0:0:0:0:
191,123,47750,1,0,0:0:0:0:
186,148,47825,1,2,0:0:0:0:
185,146,47900,1,2,0:0:0:0:
186,148,47975,1,0,0:0:0:0:
185,146,48125,1,0,0:0:0:0:
185,146,48275,1,2,0:0:0:0:
245,130,48350,1,0,0:0:0:0:
245,130,48425,1,2,0:0:0:0:
245,130,48500,1,2,0:0:0:0:
245,130,48575,1,0,0:0:0:0:
245,130,48650,1,0,0:0:0:0:
245,130,48725,1,2,0:0:0:0:
257,69,48800,1,0,0:0:0:0:
249,56,48875,1,2,0:0:0:0:
249,56,48925,1,2,0:0:0:0:
249,56,48975,1,2,0:0:0:0:
249,56,49025,1,0,0:0:0:0:
301,62,49100,1,2,0:0:0:0:
153,91,49175,1,0,0:0:0:0:
163,29,49325,1,2,0:0:0:0:
167,37,49400,1,2,0:0:0:0:
167,37,49475,1,0,0:0:0:0:
151,74,49550,1,2,0:0:0:0:
170,69,49625,1,0,0:0:0:0:
169,75,49700,1,0,0:0:0:0:
169,75,49775,1,2,0:0:0:0:
137,64,49925,1,2,0:0:0:0:
137,64,50000,1,0,0:0:0:0:
137,64,50075,1,2,0:0:0:0:
185,111,50150,1,0,0:0:0:0:
137,71,50225,1,2,0:0:0:0:
184,108,50300,1,2,0:0:0:0:
175,66,50375,1,0,0:0:0:0:
137,71,50450,1,0,0:0:0:0:
137,71,50525,1,2,0:0:0:0:
179,126,50675,1,2,0:0:0:0:
231,54,50725,1,2,0:0:0:0:
231,54,50775,1,2,0:0:0:0:
185,136,50825,1,0,0:0:0:0:
185,137,50900,1,0,0:0:0:0:
179,126,50975,1,2,0:0:0:0:
171,15,51125,1,0,0:0:0:0:
160,41,51275,1,2,0:0:0:0:
150,48,51350,1,2,0:0:0:0:
150,48,51425,1,0,0:0:0:0:
160,41,51500,1,2,0:0:0:0:
155,75,51575,1,0,0:0:0:0:
136,52,51725,1,0,0:0:0:0:
136,52,51875,1,2,0:0:0:0:
207,30,52025,1,2,0:0:0:0:
207,30,52175,1,0,0:0:0:0:
185,146,52250,1,0,0:0:0:0:
188,51,52400,1,2,0:0:0:0:
188,51,52475,1,0,0:0:0:0:
175,55,52525,1,0,0:0:0:0:
175,55,52575,1,0,0:0:0:0:
175,55,52625,1,2,0:0:0:0:
171,63,52700,1,2,0:0:0:0:
186,148,52775,1,0,0:0:0:0:
185,146,52925,1,0,0:0:0:0:
185,146,53075,1,2,0:0:0:0:
185,146,53150,1,2,0:0:0:0:
180,125,53225,1,0,0:0:0:0:
186,153,53300,1,0,0:0:0:0:
186,153,53375,1,2,0:0:0:0:
180,125,53450,1,0,0:0:0:0:
151,67,53600,1,0,0:0:0:0:
110,76,53675,1,2,0:0:0:0:
186,153,53825,1,2,0:0:0:0:
205,27,53900,1,2,0:0:0:0:
186,153,53975,1,0,0:0:0:0:
181,41,54125,1,0,0:0:0:0:
187,151,54275,1,2,0:0:0:0:
163,63,54350,1,0,0:0:0:0:
187,151,54425,1,0,0:0:0:0:
205,27,54575,1,2,0:0:0:0:
186,117,54650,1,2,0:0:0:0:
170,67,54725,1,2,0:0:0:0:
170,68,54800,1,0,0:0:0:0:
163,60,54950,1,0,0:0:0:0:
163,59,55025,1,2,0:0:0:0:
170,42,55100,1,2,0:0:0:0:
187,151,55175,1,0,0:0:0:0:
186,117,55325,1,0,0:0:0:0:
179,126,55475,1,2,0:0:0:0:
170,69,55550,1,0,0:0:0:0:
170,69,55625,1,2,0:0:0:0:
172,65,55700,1,2,0:0:0:0:
167,66,55775,1,0,0:0:0:0:
182,62,55925,1,0,0:0:0:0:
182,62,56000,1,2,0:0:0:0:
160,104,56150,1,2,0:0:0:0:
159,108,56225,1,0,0:0:0:0:
152,97,56300,1,0,0:0:0:0:
162,31,56375,1,2,0:0:0:0:
187,165,56675,1,2,0:0:0:0:
191,123,56825,1,0,0:0:0:0:
125,254,56900,1,0,0:0:0:0:
159,189,56975,1,2,0:0:0:0:
159,189,57050,1,0,0:0:0:0:
159,189,57125,1,2,0:0:0:0:
201,198,57200,1,2,0:0:0:0:
179,129,57275,1,0,0:0:0:0:
201,198,57350,1,0,0:0:0:0:
186,148,57425,1,2,0:0:0:0:
170,71,57500,1,2,0:0:0:0:
170,71,57575,1,0,0:0:0:0:
185,146,57725,1,0,0:0:0:0:
185,146,57875,1,2,0:0:0:0:
180,50,57950,1,0,0:0:0:0:
180,50,58025,1,2,0:0:0:0:
180,50,58100,1,2,0:0:0:0:
147,50,58250,1,0,0:0:0:0:
147,50,58325,1,2,0:0:0:0:
147,50,58400,1,0,0:0:0:0:
224,47,58475,1,2,0:0:0:0:
224,47,58525,1,2,0:0:0:0:
224,47,58575,1,2,0:0:0:0:
224,47,58625,1,0,0:0:0:0:
206,98,58700,1,2,0:0:0:0:
186,153,58775,1,0,0:0:0:0:
161,50,58925,1,0,0:0:0:0:
161,50,59000,1,2,0:0:0:0:
150,47,59075,1,0,0:0:0:0:
161,76,59150,1,0,0:0:0:0:
161,76,59225,1,2,0:0:0:0:
167,36,59300,1,0,0:0:0:0:
167,36,59375,1,2,0:0:0:0:
165,70,59525,1,2,0:0:0:0:
162,54,59600,1,0,0:0:0:0:
176,38,59675,1,0,0:0:0:0:
176,38,59750,1,0,0:0:0:0:
150,47,59825,1,2,0:0:0:0:
150,47,59900,1,2,0:0:0:0:
175,66,59975,1,0,0:0:0:0:
179,113,60025,1,0,0:0:0:0:
172,107,60075,1,0,0:0:0:0:
172,107,60125,1,2,0:0:0:0:
241,118,60200,1,0,0:0:0:0:
241,118,60275,1,2,0:0:0:0:
185,46,60350,1,2,0:0:0:0:
171,97,60425,1,0,0:0:0:0:
170,71,60500,1,0,0:0:0:0:
170,71,60575,1,2,0:0:0:0:
167,62,60650,1,0,0:0:0:0:
167,64,60725,1,2,0:0:0:0:
167,36,60800,1,0,0:0:0:0:
167,36,60875,1,2,0:0:0:0:
167,36,61175,1,4,0:0:0:0:
174,42,61400,1,0,0:0:0:0:
176,44,61475,1,8,0:0:0:0:
179,50,61625,1,8,0:0:0:0:
180,53,61700,1,8,0:0:0:0:
182,55,61775,1,0,0:0:0:0:
180,57,61850,1,0,0:0:0:0:
188,62,62000,1,8,0:0:0:0:
190,64,62075,1,0,0:0:0:0:
195,68,62225,1,8,0:0:0:0:
199,72,62375,1,0,0:0:0:0:
198,80,62425,1,0,0:0:0:0:
206,79,62475,1,0,0:0:0:0:
204,80,62525,1,8,0:0:0:0:
206,82,62675,1,8,0:0:0:0:
206,84,62725,1,8,0:0:0:0:
206,86,62775,1,8,0:0:0:0:
205,91,62825,1,0,0:0:0:0:
208,93,62975,1,8,0:0:0:0:
207,94,63012,1,8,0:0:0:0:
216,95,63125,1,8,0:0:0:0:
216,95,63162,1,8,0:0:0:0:
220,98,63275,1,0,0:0:0:0:
220,100,63425,1,8,0:0:0:0:
223,106,63575,1,0,0:0:0:0:
226,112,63725,1,0,0:0:0:0:
229,133,63800,1,0,0:0:0:0:
229,118,63875,1,8,0:0:0:0:
229,124,64025,1,8,0:0:0:0:
229,127,64100,1,8,0:0:0:0:
229,130,64175,1,0,0:0:0:0:
229,142,64250,1,0,0:0:0:0:
229,139,64400,1,0,0:0:0:0:
232,139,64475,1,8,0:0:0:0:
235,139,64550,1,8,0:0:0:0:
234,143,64625,1,0,0:0:0:0:
234,143,64775,1,8,0:0:0:0:
228,147,64925,1,0,0:0:0:0:
230,147,65075,1,8,0:0:0:0:
234,143,65125,1,8,0:0:0:0:
234,143,65175,1,0,0:0:0:0:
239,147,65225,1,0,0:0:0:0:
222,126,65375,1,0,0:0:0:0:
218,126,65450,1,0,0:0:0:0:
214,126,65525,1,8,0:0:0:0:
214,126,65600,1,8,0:0:0:0:
214,126,65675,1,0,0:0:0:0:
214,126,65825,1,8,0:0:0:0:
215,118,65975,1,4,0:0:0:0:
221,126,66200,1,0,0:0:0:0:
223,128,66275,1,8,0:0:0:0:
227,133,66425,1,8,0:0:0:0:
229,135,66500,1,8,0:0:0:0:
231,137,66575,1,0,0:0:0:0:
233,139,66650,1,0,0:0:0:0:
237,144,66800,1,8,0:0:0:0:
239,146,66875,1,0,0:0:0:0:
243,151,67025,1,8,0:0:0:0:
243,151,67175,1,0,0:0:0:0:
241,152,67225,1,0,0:0:0:0:
239,153,67275,1,0,0:0:0:0:
237,154,67325,1,8,0:0:0:0:
237,154,67475,1,0,0:0:0:0:
229,159,67525,1,8,0:0:0:0:
229,159,67575,1,8,0:0:0:0:
229,159,67625,1,0,0:0:0:0:
237,144,67775,1,8,0:0:0:0:
238,145,67812,1,8,0:0:0:0:
242,147,67925,1,8,0:0:0:0:
243,147,67962,1,8,0:0:0:0:
243,151,68075,1,0,0:0:0:0:
254,157,68150,1,0,0:0:0:0:
241,152,68225,1,8,0:0:0:0:
237,154,68375,1,0,0:0:0:0:
243,154,68525,1,8,0:0:0:0:
246,154,68600,1,8,0:0:0:0:
249,154,68675,1,0,0:0:0:0:
254,157,68825,1,0,0:0:0:0:
254,157,68900,1,8,0:0:0:0:
243,151,68975,1,0,0:0:0:0:
243,151,69050,1,0,0:0:0:0:
241,152,69125,1,8,0:0:0:0:
241,152,69200,1,8,0:0:0:0:
242,150,69275,1,0,0:0:0:0:
243,154,69425,1,8,0:0:0:0:
246,154,69575,1,0,0:0:0:0:
246,154,69625,1,0,0:0:0:0:
249,154,69675,1,0,0:0:0:0:
254,157,69725,1,8,0:0:0:0:
254,157,69800,1,0,0:0:0:0:
257,156,69875,1,8,0:0:0:0:
243,151,69925,1,0,0:0:0:0:
243,151,69975,1,0,0:0:0:0:
243,151,70025,1,8,0:0:0:0:
248,151,70175,1,12,0:0:0:0:
243,154,70400,1,0,0:0:0:0:
254,157,70550,5,8,0:0:0:0:
256,192,70775,1,4,0:0:0:0:
256,192,70925,1,8,0:0:0:0:
256,192,71000,1,8,0:0:0:0:
256,192,71075,1,0,0:0:0:0:
256,192,71225,1,8,0:0:0:0:
256,192,71375,1,0,0:0:0:0:
256,192,71450,1,8,0:0:0:0:
256,192,71525,1,0,0:0:0:0:
256,192,71600,1,0,0:0:0:0:
256,192,71675,1,8,0:0:0:0:
256,192,71825,1,8,0:0:0:0:
256,192,71975,1,0,0:0:0:0:
256,192,72125,1,8,0:0:0:0:
256,192,72200,1,0,0:0:0:0:
256,192,72275,1,8,0:0:0:0:
256,192,72425,1,0,0:0:0:0:
256,192,72500,1,0,0:0:0:0:
256,192,72575,1,8,0:0:0:0:
256,192,72650,1,8,0:0:0:0:
256,192,72725,1,0,0:0:0:0:
256,192,72800,1,8,0:0:0:0:
256,192,72950,1,0,0:0:0:0:
256,192,73025,1,8,0:0:0:0:
256,192,73175,1,0,0:0:0:0:
256,192,73325,1,8,0:0:0:0:
256,192,73400,1,0,0:0:0:0:
256,192,73475,1,8,0:0:0:0:
256,192,73625,1,0,0:0:0:0:
256,192,73700,1,0,0:0:0:0:
256,192,73775,1,8,0:0:0:0:
256,192,73850,1,0,0:0:0:0:
256,192,73925,1,8,0:0:0:0:
256,192,74000,1,8,0:0:0:0:
256,192,74075,1,0,0:0:0:0:
256,192,74225,1,8,0:0:0:0:
256,192,74375,1,0,0:0:0:0:
256,192,74525,1,8,0:0:0:0:
256,192,74600,1,8,0:0:0:0:
256,192,74675,1,0,0:0:0:0:
256,192,74750,1,0,0:0:0:0:
256,192,74825,1,8,0:0:0:0:
256,192,74975,1,0,0:0:0:0:
256,192,75125,1,8,0:0:0:0:
256,192,75200,1,0,0:0:0:0:
256,192,75350,1,0,0:0:0:0:
256,192,75425,1,8,0:0:0:0:
256,192,75475,1,8,0:0:0:0:
256,192,75525,1,8,0:0:0:0:
256,192,75575,1,0,0:0:0:0:
256,192,75725,1,8,0:0:0:0:
256,192,75800,1,8,0:0:0:0:
256,192,75875,1,0,0:0:0:0:
256,192,76025,1,8,0:0:0:0:
256,192,76175,1,0,0:0:0:0:
256,192,76250,1,8,0:0:0:0:
256,192,76325,1,0,0:0:0:0:
256,192,76400,1,0,0:0:0:0:
256,192,76475,1,8,0:0:0:0:
256,192,76625,1,8,0:0:0:0:
256,192,76775,1,0,0:0:0:0:
256,192,76925,1,8,0:0:0:0:
256,192,77000,1,0,0:0:0:0:
256,192,77075,1,8,0:0:0:0:
256,192,77225,1,0,0:0:0:0:
256,192,77375,1,8,0:0:0:0:
256,192,77450,1,8,0:0:0:0:
256,192,77525,1,0,0:0:0:0:
256,192,77600,1,8,0:0:0:0:
256,192,77675,1,0,0:0:0:0:
256,192,77750,1,0,0:0:0:0:
256,192,77825,1,8,0:0:0:0:
256,192,77900,1,8,0:0:0:0:
256,192,77975,1,0,0:0:0:0:
256,192,78125,1,8,0:0:0:0:
256,192,78200,1,0,0:0:0:0:
256,192,78275,1,8,0:0:0:0:
256,192,78425,1,0,0:0:0:0:
256,192,78500,1,0,0:0:0:0:
256,192,78575,1,8,0:0:0:0:
256,192,78650,1,0,0:0:0:0:
256,192,78725,1,8,0:0:0:0:
256,192,78800,1,8,0:0:0:0:
256,192,78875,1,0,0:0:0:0:
256,192,79025,1,8,0:0:0:0:
256,192,79175,1,0,0:0:0:0:
256,192,79325,1,8,0:0:0:0:
256,192,79400,1,0,0:0:0:0:
256,192,79475,1,8,0:0:0:0:
256,192,79550,1,8,0:0:0:0:
256,192,79625,1,0,0:0:0:0:
256,192,79700,1,8,0:0:0:0:
256,192,79775,1,0,0:0:0:0:
256,192,79850,1,0,0:0:0:0:
256,192,79925,1,8,0:0:0:0:
256,192,80000,1,8,0:0:0:0:
256,192,80075,1,4,0:0:0:0:
256,192,80225,1,8,0:0:0:0:
174,100,80375,5,4,0:0:0:0:
171,22,80525,1,0,0:0:0:0:
171,22,80600,1,2,0:0:0:0:
171,22,80675,1,0,0:0:0:0:
171,22,80750,1,0,0:0:0:0:
171,27,80825,1,2,0:0:0:0:
191,194,80975,1,2,0:0:0:0:
191,198,81050,1,2,0:0:0:0:
191,198,81125,1,0,0:0:0:0:
191,194,81200,1,2,0:0:0:0:
191,198,81275,1,0,0:0:0:0:
191,198,81350,1,0,0:0:0:0:
191,194,81425,1,2,0:0:0:0:
221,83,81500,1,2,0:0:0:0:
191,198,81575,1,0,0:0:0:0:
177,55,81725,1,2,0:0:0:0:
179,62,81800,1,0,0:0:0:0:
196,148,81875,1,2,0:0:0:0:
152,67,81950,1,2,0:0:0:0:
173,87,82025,1,0,0:0:0:0:
166,34,82100,1,0,0:0:0:0:
179,53,82175,1,2,0:0:0:0:
180,55,82225,1,2,0:0:0:0:
181,57,82275,1,2,0:0:0:0:
181,57,82325,1,0,0:0:0:0:
179,53,82400,1,0,0:0:0:0:
182,127,82475,1,2,0:0:0:0:
140,82,82625,1,0,0:0:0:0:
140,82,82700,1,2,0:0:0:0:
204,135,82775,1,0,0:0:0:0:
170,77,82925,1,0,0:0:0:0:
156,108,83000,1,2,0:0:0:0:
159,59,83150,1,2,0:0:0:0:
159,59,83225,1,0,0:0:0:0:
156,108,83375,1,0,0:0:0:0:
156,108,83525,1,2,0:0:0:0:
171,137,83600,1,2,0:0:0:0:
152,102,83675,1,2,0:0:0:0:
152,102,83750,1,2,0:0:0:0:
164,118,83825,1,0,0:0:0:0:
164,126,83975,1,0,0:0:0:0:
149,140,84125,1,2,0:0:0:0:
152,102,84200,1,2,0:0:0:0:
190,181,84275,1,2,0:0:0:0:
149,140,84350,1,0,0:0:0:0:
149,151,84425,1,2,0:0:0:0:
270,49,84475,1,0,0:0:0:0:
270,49,84525,1,0,0:0:0:0:
152,102,84575,1,2,0:0:0:0:
149,151,84725,1,0,0:0:0:0:
149,151,84800,1,0,0:0:0:0:
173,103,84875,1,2,0:0:0:0:
173,103,84912,1,2,0:0:0:0:
149,151,85025,1,0,0:0:0:0:
173,103,85062,1,0,0:0:0:0:
163,63,85175,1,4,0:0:0:0:
170,89,85325,1,2,0:0:0:0:
168,85,85400,1,0,0:0:0:0:
170,89,85475,1,2,0:0:0:0:
170,89,85550,1,2,0:0:0:0:
168,85,85625,1,0,0:0:0:0:
182,104,85775,1,0,0:0:0:0:
181,103,85850,1,2,0:0:0:0:
180,96,86000,1,0,0:0:0:0:
180,97,86075,1,2,0:0:0:0:
181,38,86150,1,2,0:0:0:0:
181,38,86225,1,0,0:0:0:0:
181,45,86300,1,2,0:0:0:0:
181,45,86375,1,0,0:0:0:0:
181,45,86525,1,2,0:0:0:0:
181,45,86600,1,0,0:0:0:0:
181,45,86675,1,0,0:0:0:0:
181,45,86750,1,0,0:0:0:0:
151,62,86825,1,2,0:0:0:0:
151,62,86900,1,0,0:0:0:0:
151,62,86975,1,2,0:0:0:0:
151,62,87050,1,2,0:0:0:0:
152,67,87125,1,0,0:0:0:0:
181,50,87200,1,0,0:0:0:0:
181,50,87275,1,2,0:0:0:0:
191,183,87350,1,2,0:0:0:0:
173,193,87425,1,2,0:0:0:0:
181,50,87500,1,0,0:0:0:0:
181,50,87575,1,2,0:0:0:0:
161,63,87725,1,0,0:0:0:0:
206,113,87800,1,2,0:0:0:0:
206,113,87875,1,0,0:0:0:0:
206,113,87950,1,0,0:0:0:0:
206,113,88025,1,2,0:0:0:0:
161,63,88100,1,2,0:0:0:0:
176,70,88175,1,0,0:0:0:0:
161,78,88250,1,0,0:0:0:0:
161,78,88325,1,2,0:0:0:0:
161,78,88400,1,0,0:0:0:0:
161,78,88475,1,2,0:0:0:0:
176,67,88550,1,2,0:0:0:0:
176,71,88625,1,0,0:0:0:0:
177,78,88775,1,0,0:0:0:0:
157,80,88850,1,0,0:0:0:0:
157,80,88925,1,2,0:0:0:0:
177,78,89000,1,0,0:0:0:0:
154,126,89075,1,2,0:0:0:0:
154,126,89150,1,2,0:0:0:0:
154,126,89225,1,0,0:0:0:0:
156,87,89300,1,2,0:0:0:0:
177,77,89375,1,0,0:0:0:0:
154,126,89450,1,2,0:0:0:0:
154,126,89525,1,0,0:0:0:0:
157,81,89600,1,0,0:0:0:0:
190,77,89675,1,2,0:0:0:0:
254,51,89825,1,0,0:0:0:0:
253,57,89975,1,4,0:0:0:0:
252,63,90125,1,0,0:0:0:0:
251,66,90200,1,0,0:0:0:0:
250,69,90275,1,8,0:0:0:0:
250,75,90425,1,8,0:0:0:0:
249,78,90500,1,8,0:0:0:0:
248,81,90575,1,0,0:0:0:0:
247,84,90650,1,8,0:0:0:0:
246,87,90725,1,0,0:0:0:0:
244,90,90800,1,0,0:0:0:0:
242,93,90875,1,8,0:0:0:0:
243,99,91025,1,8,0:0:0:0:
243,99,91175,1,0,0:0:0:0:
245,105,91325,1,0,0:0:0:0:
242,107,91400,1,0,0:0:0:0:
239,109,91475,1,8,0:0:0:0:
241,111,91550,1,8,0:0:0:0:
243,113,91625,1,0,0:0:0:0:
247,118,91775,1,0,0:0:0:0:
249,120,91850,1,8,0:0:0:0:
253,125,92000,1,8,0:0:0:0:
252,128,92075,1,0,0:0:0:0:
251,131,92150,1,0,0:0:0:0:
250,134,92225,1,8,0:0:0:0:
250,134,92300,1,8,0:0:0:0:
250,134,92375,1,0,0:0:0:0:
243,137,92525,1,0,0:0:0:0:
238,142,92675,1,8,0:0:0:0:
238,142,92825,1,0,0:0:0:0:
238,142,92900,1,8,0:0:0:0:
238,142,92975,1,0,0:0:0:0:
237,151,93125,1,0,0:0:0:0:
237,151,93200,1,0,0:0:0:0:
240,151,93275,1,8,0:0:0:0:
237,148,93350,1,8,0:0:0:0:
237,151,93425,1,8,0:0:0:0:
237,151,93500,1,8,0:0:0:0:
237,151,93575,1,0,0:0:0:0:
242,154,93725,1,0,0:0:0:0:
247,157,93875,1,8,0:0:0:0:
252,160,94025,1,0,0:0:0:0:
252,160,94100,1,0,0:0:0:0:
252,160,94175,1,8,0:0:0:0:
255,160,94250,1,8,0:0:0:0:
252,160,94325,1,0,0:0:0:0:
248,159,94400,1,8,0:0:0:0:
252,160,94550,1,0,0:0:0:0:
243,156,94625,1,8,0:0:0:0:
241,159,94675,1,8,0:0:0:0:
249,166,94725,1,8,0:0:0:0:
229,159,94775,1,0,0:0:0:0:
252,160,94925,1,0,0:0:0:0:
249,166,95075,1,8,0:0:0:0:
252,160,95225,1,0,0:0:0:0:
252,160,95300,1,0,0:0:0:0:
248,159,95375,1,8,0:0:0:0:
241,159,95450,1,0,0:0:0:0:
241,159,95525,1,8,0:0:0:0:
243,156,95600,1,8,0:0:0:0:
241,159,95675,1,0,0:0:0:0:
249,166,95750,1,8,0:0:0:0:
252,160,95825,1,0,0:0:0:0:
258,161,95975,1,4,0:0:0:0:
252,160,96125,1,8,0:0:0:0:
252,160,96275,1,4,0:0:0:0:
252,160,96425,1,8,0:0:0:0:
254,161,96475,1,0,0:0:0:0:
255,162,96525,1,0,0:0:0:0:
256,163,96575,1,8,0:0:0:0:
241,159,96650,1,0,0:0:0:0:
252,160,96800,1,8,0:0:0:0:
258,161,96875,1,0,0:0:0:0:
260,159,96925,1,8,0:0:0:0:
262,157,96975,1,8,0:0:0:0:
252,160,97025,1,0,0:0:0:0:
241,159,97175,1,12,0:0:0:0:
246,162,97325,1,12,0:0:0:0:
258,161,97475,1,0,0:0:0:0:
258,161,97550,1,0,0:0:0:0:
261,160,97625,1,8,0:0:0:0:
263,159,97675,1,8,0:0:0:0:
265,158,97725,1,0,0:0:0:0:
267,157,97775,1,8,0:0:0:0:
260,159,97925,1,0,0:0:0:0:
258,161,98000,1,8,0:0:0:0:
241,159,98150,1,8,0:0:0:0:
246,162,98225,1,0,0:0:0:0:
251,165,98375,1,8,0:0:0:0:
248,165,98425,1,8,0:0:0:0:
241,159,98475,1,8,0:0:0:0:
241,159,98525,1,0,0:0:0:0:
245,163,98675,1,8,0:0:0:0:
265,158,98750,1,8,0:0:0:0:
260,159,98825,1,0,0:0:0:0:
260,159,98900,1,0,0:0:0:0:
258,161,98975,1,8,0:0:0:0:
246,162,99125,1,8,0:0:0:0:
251,165,99275,1,0,0:0:0:0:
251,165,99325,1,8,0:0:0:0:
250,162,99375,1,8,0:0:0:0:
253,165,99425,1,0,0:0:0:0:
254,157,99575,1,4,0:0:0:0:
254,163,99725,1,8,0:0:0:0:
260,159,99875,1,4,0:0:0:0:
251,165,100025,1,8,0:0:0:0:
251,165,100175,1,8,0:0:0:0:
251,165,100250,1,0,0:0:0:0:
251,165,100325,1,0,0:0:0:0:
253,165,100400,1,8,0:0:0:0:
254,157,100475,1,0,0:0:0:0:
254,157,100550,1,0,0:0:0:0:
254,163,100625,1,8,0:0:0:0:
254,163,100675,1,8,0:0:0:0:
254,163,100725,1,8,0:0:0:0:
260,159,100775,1,0,0:0:0:0:
251,165,100925,1,8,0:0:0:0:
251,165,101000,1,8,0:0:0:0:
251,165,101075,1,0,0:0:0:0:
251,165,101125,1,0,0:0:0:0:
251,165,101175,1,0,0:0:0:0:
254,157,101225,1,8,0:0:0:0:
251,165,101300,1,8,0:0:0:0:
253,165,101375,1,0,0:0:0:0:
254,157,101450,1,8,0:0:0:0:
254,163,101600,1,0,0:0:0:0:
256,164,101675,1,8,0:0:0:0:
257,165,101712,1,8,0:0:0:0:
261,168,101825,1,0,0:0:0:0:
262,169,101862,1,0,0:0:0:0:
267,167,101975,1,8,0:0:0:0:
265,160,102125,1,0,0:0:0:0:
264,156,102200,1,0,0:0:0:0:
276,164,102275,1,8,0:0:0:0:
276,164,102425,1,0,0:0:0:0:
279,162,102500,1,0,0:0:0:0:
256,164,102575,1,8,0:0:0:0:
256,164,102650,1,8,0:0:0:0:
248,160,102725,1,8,0:0:0:0:
244,159,102800,1,8,0:0:0:0:
244,159,102875,1,0,0:0:0:0:
256,164,102950,1,0,0:0:0:0:
256,164,103025,1,8,0:0:0:0:
265,160,103075,1,8,0:0:0:0:
256,164,103125,1,8,0:0:0:0:
248,160,103175,1,0,0:0:0:0:
248,160,103325,1,8,0:0:0:0:
248,160,103475,1,0,0:0:0:0:
256,164,103550,1,8,0:0:0:0:
252,162,103700,1,8,0:0:0:0:
248,160,103775,1,0,0:0:0:0:
244,159,103850,1,8,0:0:0:0:
256,164,104000,1,8,0:0:0:0:
248,160,104075,1,8,0:0:0:0:
248,160,104150,1,0,0:0:0:0:
248,160,104225,1,8,0:0:0:0:
251,158,104300,1,8,0:0:0:0:
244,159,104375,1,0,0:0:0:0:
244,159,104525,1,8,0:0:0:0:
250,159,104675,1,8,0:0:0:0:
252,162,104725,1,0,0:0:0:0:
248,160,104775,1,0,0:0:0:0:
244,159,104825,1,8,0:0:0:0:
256,164,104975,1,0,0:0:0:0:
248,160,105125,1,0,0:0:0:0:
250,157,105200,1,8,0:0:0:0:
244,151,105350,1,8,0:0:0:0:
247,151,105425,1,0,0:0:0:0:
239,151,105500,1,0,0:0:0:0:
241,144,105575,1,0,0:0:0:0:
250,141,105725,1,0,0:0:0:0:
253,140,105800,1,0,0:0:0:0:
253,140,105875,1,8,0:0:0:0:
254,136,105950,1,8,0:0:0:0:
259,142,106025,1,0,0:0:0:0:
262,143,106100,1,8,0:0:0:0:
263,136,106250,1,8,0:0:0:0:
263,132,106325,1,0,0:0:0:0:
253,140,106400,1,0,0:0:0:0:
250,141,106475,1,8,0:0:0:0:
250,141,106525,1,8,0:0:0:0:
248,139,106575,1,0,0:0:0:0:
248,139,106625,1,0,0:0:0:0:
253,140,106775,1,8,0:0:0:0:
259,142,106925,1,0,0:0:0:0:
255,141,107000,1,8,0:0:0:0:
255,144,107075,1,0,0:0:0:0:
255,151,107225,1,8,0:0:0:0:
255,151,107375,1,0,0:0:0:0:
255,151,107525,1,8,0:0:0:0:
258,151,107600,1,8,0:0:0:0:
258,151,107675,1,0,0:0:0:0:
255,151,107825,1,8,0:0:0:0:
255,141,107975,1,0,0:0:0:0:
255,144,108050,1,0,0:0:0:0:
255,151,108125,1,8,0:0:0:0:
255,141,108175,1,0,0:0:0:0:
255,151,108225,1,0,0:0:0:0:
255,141,108275,1,8,0:0:0:0:
255,141,108325,1,0,0:0:0:0:
252,141,108375,1,0,0:0:0:0:
255,141,108425,1,8,0:0:0:0:
255,141,108500,1,8,0:0:0:0:
255,141,108575,1,0,0:0:0:0:
255,141,108650,1,0,0:0:0:0:
255,141,108725,1,8,0:0:0:0:
255,141,108800,1,0,0:0:0:0:
255,141,108875,1,8,0:0:0:0:
256,192,109175,1,4,0:0:0:0:
256,192,109475,1,0,0:0:0:0:
256,192,109775,1,8,0:0:0:0:
256,192,110075,1,0,0:0:0:0:
256,192,110225,1,8,0:0:0:0:
256,192,110300,1,8,0:0:0:0:
256,192,110375,1,0,0:0:0:0:
256,192,110525,1,0,0:0:0:0:
256,192,110675,1,8,0:0:0:0:
256,192,110825,1,0,0:0:0:0:
256,192,110900,1,0,0:0:0:0:
256,192,110975,1,8,0:0:0:0:
256,192,111050,1,0,0:0:0:0:
256,192,111125,1,8,0:0:0:0:
256,192,111200,1,8,0:0:0:0:
256,192,111275,1,0,0:0:0:0:
256,192,111425,1,8,0:0:0:0:
256,192,111575,1,4,0:0:0:0:
256,192,111875,1,0,0:0:0:0:
256,192,112175,1,8,0:0:0:0:
256,192,112400,1,0,0:0:0:0:
256,192,112475,1,8,0:0:0:0:
256,192,112625,1,8,0:0:0:0:
256,192,112775,1,0,0:0:0:0:
256,192,112850,1,8,0:0:0:0:
256,192,113000,1,0,0:0:0:0:
256,192,113075,1,8,0:0:0:0:
256,192,113150,1,8,0:0:0:0:
256,192,113225,1,0,0:0:0:0:
256,192,113300,1,8,0:0:0:0:
256,192,113375,1,0,0:0:0:0:
256,192,113525,1,8,0:0:0:0:
256,192,113600,1,8,0:0:0:0:
256,192,113675,1,0,0:0:0:0:
256,192,113825,1,8,0:0:0:0:
256,192,113975,1,4,0:0:0:0:
256,192,114275,1,0,0:0:0:0:
256,192,114575,1,8,0:0:0:0:
256,192,114875,1,0,0:0:0:0:
256,192,115025,1,8,0:0:0:0:
256,192,115100,1,8,0:0:0:0:
256,192,115175,1,0,0:0:0:0:
256,192,115325,1,0,0:0:0:0:
256,192,115475,1,8,0:0:0:0:
256,192,115625,1,0,0:0:0:0:
256,192,115700,1,0,0:0:0:0:
256,192,115775,1,8,0:0:0:0:
256,192,115850,1,8,0:0:0:0:
256,192,115925,1,0,0:0:0:0:
256,192,116075,1,8,0:0:0:0:
256,192,116125,1,8,0:0:0:0:
256,192,116175,1,8,0:0:0:0:
256,192,116225,1,8,0:0:0:0:
256,192,116375,1,4,0:0:0:0:
256,192,116675,1,0,0:0:0:0:
256,192,116975,1,8,0:0:0:0:
256,192,117200,1,0,0:0:0:0:
256,192,117275,1,8,0:0:0:0:
256,192,117425,1,8,0:0:0:0:
256,192,117575,1,0,0:0:0:0:
256,192,117725,1,8,0:0:0:0:
256,192,117800,1,0,0:0:0:0:
256,192,117875,1,8,0:0:0:0:
256,192,117950,1,8,0:0:0:0:
256,192,118025,1,0,0:0:0:0:
256,192,118100,1,8,0:0:0:0:
256,192,118175,1,0,0:0:0:0:
256,192,118250,1,0,0:0:0:0:
256,192,118325,1,8,0:0:0:0:
256,192,118400,1,8,0:0:0:0:
256,192,118475,1,0,0:0:0:0:
186,60,118775,5,0,0:0:0:0:
170,188,119075,1,0,0:0:0:0:
170,188,119375,1,0,0:0:0:0:
170,188,119675,1,0,0:0:0:0:
170,188,119975,1,0,0:0:0:0:
170,188,120275,1,0,0:0:0:0:
170,188,120575,1,0,0:0:0:0:
170,188,120875,1,0,0:0:0:0:
186,60,121025,1,0,0:0:0:0:
170,188,121175,1,0,0:0:0:0:
171,181,121475,1,2,0:0:0:0:
171,181,121775,1,0,0:0:0:0:
170,121,122075,1,0,0:0:0:0:
171,181,122375,1,0,0:0:0:0:
171,181,122675,1,2,0:0:0:0:
170,121,122975,1,2,0:0:0:0:
171,181,123125,1,0,0:0:0:0:
172,77,123275,1,0,0:0:0:0:
172,77,123325,1,0,0:0:0:0:
172,77,123375,1,0,0:0:0:0:
171,181,123425,1,0,0:0:0:0:
171,181,123575,1,4,0:0:0:0:
171,183,123875,1,2,0:0:0:0:
171,183,124025,1,0,0:0:0:0:
160,132,124175,5,2,0:0:0:0:
160,145,124400,1,2,0:0:0:0:
146,98,124475,1,0,0:0:0:0:
148,151,124625,1,2,0:0:0:0:
158,113,124775,1,4,0:0:0:0:
158,122,125075,1,2,0:0:0:0:
158,122,125225,1,0,0:0:0:0:
158,122,125375,1,2,0:0:0:0:
187,60,125450,1,2,0:0:0:0:
187,60,125525,1,0,0:0:0:0:
158,122,125600,1,0,0:0:0:0:
158,122,125675,1,2,0:0:0:0:
158,122,125825,1,0,0:0:0:0:
158,122,125975,1,4,0:0:0:0:
158,126,126275,1,2,0:0:0:0:
158,126,126425,1,0,0:0:0:0:
158,126,126575,1,2,0:0:0:0:
185,45,126650,1,2,0:0:0:0:
187,62,126725,1,0,0:0:0:0:
153,138,126800,1,2,0:0:0:0:
153,138,126875,1,0,0:0:0:0:
153,138,126950,1,0,0:0:0:0:
153,138,127025,1,2,0:0:0:0:
153,138,127175,1,4,0:0:0:0:
200,55,127325,1,0,0:0:0:0:
153,138,127400,1,0,0:0:0:0:
153,138,127475,1,2,0:0:0:0:
171,68,127525,1,2,0:0:0:0:
171,68,127575,1,2,0:0:0:0:
153,138,127625,1,0,0:0:0:0:
152,143,127700,1,0,0:0:0:0:
152,143,127775,1,2,0:0:0:0:
160,102,127850,1,2,0:0:0:0:
159,112,127925,1,0,0:0:0:0:
158,115,128000,1,0,0:0:0:0:
157,119,128075,1,2,0:0:0:0:
185,45,128225,1,0,0:0:0:0:
185,45,128300,1,0,0:0:0:0:
160,102,128375,1,8,0:0:0:0:
178,111,128825,1,8,0:0:0:0:
184,114,128975,1,8,0:0:0:0:
202,124,129425,1,8,0:0:0:0:
214,130,129725,1,8,0:0:0:0:
226,136,130025,1,8,0:0:0:0:
226,136,130175,1,8,0:0:0:0:
226,136,130775,1,8,0:0:0:0:
226,136,131225,1,8,0:0:0:0:
232,133,131375,1,8,0:0:0:0:
232,133,131825,1,8,0:0:0:0:
232,133,132125,1,8,0:0:0:0:
232,133,132425,1,8,0:0:0:0:
232,133,132575,1,8,0:0:0:0:
241,142,132875,1,12,0:0:0:0:
232,133,133175,1,0,0:0:0:0:
241,142,133475,1,8,0:0:0:0:
245,146,133625,1,0,0:0:0:0:
249,150,133775,1,0,0:0:0:0:
249,150,134075,1,8,0:0:0:0:
254,154,134225,1,0,0:0:0:0:
254,154,134525,1,0,0:0:0:0:
254,154,134675,1,8,0:0:0:0:
254,154,134825,1,0,0:0:0:0:
254,154,134975,1,0,0:0:0:0:
254,154,135275,1,8,0:0:0:0:
254,154,135575,1,0,0:0:0:0:
267,154,135875,1,8,0:0:0:0:
267,154,136025,1,0,0:0:0:0:
267,154,136175,1,0,0:0:0:0:
267,154,136475,1,8,0:0:0:0:
267,154,136625,1,0,0:0:0:0:
273,157,136925,1,0,0:0:0:0:
267,160,137075,1,8,0:0:0:0:
273,157,137225,1,0,0:0:0:0:
267,160,137375,1,8,0:0:0:0:
260,160,137525,1,8,0:0:0:0:
253,160,137675,1,8,0:0:0:0:
273,157,137825,1,8,0:0:0:0:
273,157,138875,1,12,0:0:0:0:
256,192,139175,1,4,0:0:0:0:
256,192,139325,1,8,0:0:0:0:
256,192,139400,1,8,0:0:0:0:
256,192,139475,1,0,0:0:0:0:
256,192,139625,1,8,0:0:0:0:
256,192,139775,1,0,0:0:0:0:
256,192,139850,1,8,0:0:0:0:
256,192,139925,1,0,0:0:0:0:
256,192,140000,1,0,0:0:0:0:
256,192,140075,1,8,0:0:0:0:
256,192,140150,1,8,0:0:0:0:
256,192,140225,1,8,0:0:0:0:
256,192,140300,1,8,0:0:0:0:
256,192,140375,1,0,0:0:0:0:
256,192,140525,1,8,0:0:0:0:
256,192,140600,1,0,0:0:0:0:
256,192,140675,1,8,0:0:0:0:
256,192,140825,1,0,0:0:0:0:
256,192,140900,1,0,0:0:0:0:
256,192,140975,1,8,0:0:0:0:
256,192,141050,1,8,0:0:0:0:
256,192,141125,1,0,0:0:0:0:
256,192,141200,1,8,0:0:0:0:
256,192,141275,1,0,0:0:0:0:
256,192,141350,1,0,0:0:0:0:
256,192,141425,1,8,0:0:0:0:
256,192,141500,1,8,0:0:0:0:
256,192,141575,1,0,0:0:0:0:
256,192,141725,1,8,0:0:0:0:
256,192,141800,1,8,0:0:0:0:
256,192,141875,1,0,0:0:0:0:
256,192,142025,1,8,0:0:0:0:
256,192,142175,1,0,0:0:0:0:
256,192,142250,1,8,0:0:0:0:
256,192,142400,1,0,0:0:0:0:
256,192,142475,1,8,0:0:0:0:
256,192,142550,1,8,0:0:0:0:
256,192,142625,1,0,0:0:0:0:
256,192,142700,1,8,0:0:0:0:
256,192,142775,1,0,0:0:0:0:
256,192,142925,1,8,0:0:0:0:
256,192,143000,1,8,0:0:0:0:
256,192,143075,1,0,0:0:0:0:
256,192,143150,1,0,0:0:0:0:
256,192,143225,1,8,0:0:0:0:
256,192,143375,1,0,0:0:0:0:
256,192,143450,1,8,0:0:0:0:
256,192,143525,1,0,0:0:0:0:
256,192,143600,1,0,0:0:0:0:
256,192,143675,1,8,0:0:0:0:
256,192,143750,1,8,0:0:0:0:
256,192,143825,1,8,0:0:0:0:
256,192,143900,1,8,0:0:0:0:
256,192,143975,1,4,0:0:0:0:
256,192,144125,1,8,0:0:0:0:
256,192,144200,1,8,0:0:0:0:
256,192,144275,1,0,0:0:0:0:
256,192,144425,1,8,0:0:0:0:
256,192,144500,1,0,0:0:0:0:
256,192,144575,1,8,0:0:0:0:
256,192,144625,1,8,0:0:0:0:
256,192,144675,1,8,0:0:0:0:
256,192,144725,1,0,0:0:0:0:
256,192,144800,1,0,0:0:0:0:
256,192,144875,1,8,0:0:0:0:
256,192,144925,1,0,0:0:0:0:
256,192,144975,1,0,0:0:0:0:
256,192,145025,1,8,0:0:0:0:
256,192,145100,1,8,0:0:0:0:
256,192,145175,1,0,0:0:0:0:
256,192,145250,1,8,0:0:0:0:
256,192,145325,1,0,0:0:0:0:
256,192,145475,1,8,0:0:0:0:
256,192,145550,1,0,0:0:0:0:
256,192,145625,1,8,0:0:0:0:
256,192,145700,1,8,0:0:0:0:
256,192,145775,1,0,0:0:0:0:
256,192,145850,1,8,0:0:0:0:
256,192,146000,1,8,0:0:0:0:
256,192,146150,1,0,0:0:0:0:
256,192,146225,1,8,0:0:0:0:
256,192,146300,1,8,0:0:0:0:
256,192,146375,1,0,0:0:0:0:
256,192,146525,1,8,0:0:0:0:
256,192,146575,1,8,0:0:0:0:
256,192,146625,1,0,0:0:0:0:
256,192,146675,1,0,0:0:0:0:
256,192,146825,1,8,0:0:0:0:
256,192,146900,1,8,0:0:0:0:
256,192,146975,1,0,0:0:0:0:
256,192,147125,1,8,0:0:0:0:
256,192,147200,1,0,0:0:0:0:
256,192,147350,1,8,0:0:0:0:
256,192,147425,1,0,0:0:0:0:
256,192,147500,1,0,0:0:0:0:
256,192,147575,1,8,0:0:0:0:
256,192,147650,1,8,0:0:0:0:
256,192,147725,1,0,0:0:0:0:
256,192,147775,1,8,0:0:0:0:
256,192,147825,1,8,0:0:0:0:
256,192,147875,1,0,0:0:0:0:
256,192,147950,1,0,0:0:0:0:
256,192,148025,1,8,0:0:0:0:
256,192,148100,1,0,0:0:0:0:
256,192,148175,1,8,0:0:0:0:
256,192,148250,1,8,0:0:0:0:
256,192,148325,1,0,0:0:0:0:
256,192,148400,1,8,0:0:0:0:
256,192,148475,1,0,0:0:0:0:
256,192,148525,1,0,0:0:0:0:
256,192,148575,1,0,0:0:0:0:
256,192,148625,1,8,0:0:0:0:
256,192,148700,1,8,0:0:0:0:
256,192,148775,1,4,0:0:0:0:
256,192,148925,1,8,0:0:0:0:
256,192,149000,1,8,0:0:0:0:
256,192,149075,1,0,0:0:0:0:
256,192,149150,1,0,0:0:0:0:
256,192,149225,1,8,0:0:0:0:
256,192,149300,1,0,0:0:0:0:
256,192,149375,1,8,0:0:0:0:
256,192,149450,1,8,0:0:0:0:
256,192,149525,1,0,0:0:0:0:
256,192,149600,1,8,0:0:0:0:
256,192,149750,1,0,0:0:0:0:
256,192,149825,1,8,0:0:0:0:
256,192,149875,1,8,0:0:0:0:
256,192,149925,1,8,0:0:0:0:
256,192,149975,1,0,0:0:0:0:
256,192,150050,1,0,0:0:0:0:
256,192,150125,1,8,0:0:0:0:
256,192,150200,1,0,0:0:0:0:
256,192,150275,1,8,0:0:0:0:
256,192,150350,1,8,0:0:0:0:
256,192,150425,1,0,0:0:0:0:
256,192,150500,1,8,0:0:0:0:
256,192,150575,1,0,0:0:0:0:
256,192,150650,1,8,0:0:0:0:
256,192,150800,1,0,0:0:0:0:
256,192,150875,1,8,0:0:0:0:
256,192,151025,1,0,0:0:0:0:
256,192,151100,1,8,0:0:0:0:
256,192,151175,1,0,0:0:0:0:
256,192,151225,1,8,0:0:0:0:
256,192,151275,1,8,0:0:0:0:
256,192,151325,1,0,0:0:0:0:
256,192,151400,1,0,0:0:0:0:
256,192,151475,1,8,0:0:0:0:
256,192,151625,1,0,0:0:0:0:
256,192,151700,1,8,0:0:0:0:
256,192,151775,1,0,0:0:0:0:
256,192,151850,1,0,0:0:0:0:
256,192,151925,1,8,0:0:0:0:
256,192,152000,1,8,0:0:0:0:
256,192,152075,1,0,0:0:0:0:
256,192,152150,1,8,0:0:0:0:
256,192,152225,1,0,0:0:0:0:
256,192,152375,1,8,0:0:0:0:
256,192,152450,1,8,0:0:0:0:
256,192,152525,1,0,0:0:0:0:
256,192,152575,1,8,0:0:0:0:
256,192,152625,1,8,0:0:0:0:
256,192,152675,1,0,0:0:0:0:
256,192,152750,1,0,0:0:0:0:
256,192,152825,1,8,0:0:0:0:
256,192,152900,1,0,0:0:0:0:
256,192,152975,1,8,0:0:0:0:
256,192,153050,1,8,0:0:0:0:
256,192,153125,1,0,0:0:0:0:
256,192,153200,1,8,0:0:0:0:
256,192,153275,1,0,0:0:0:0:
256,192,153350,1,0,0:0:0:0:
256,192,153425,1,8,0:0:0:0:
256,192,153475,1,8,0:0:0:0:
256,192,153525,1,8,0:0:0:0:
256,192,153575,1,0,0:0:0:0:
256,192,153725,1,8,0:0:0:0:
256,192,153800,1,0,0:0:0:0:
256,192,153875,1,8,0:0:0:0:
256,192,153950,1,8,0:0:0:0:
256,192,154025,1,0,0:0:0:0:
256,192,154100,1,8,0:0:0:0:
256,192,154175,1,0,0:0:0:0:
256,192,154250,1,0,0:0:0:0:
256,192,154325,1,8,0:0:0:0:
256,192,154400,1,8,0:0:0:0:
256,192,154475,1,0,0:0:0:0:
256,192,154625,1,8,0:0:0:0:
256,192,154700,1,8,0:0:0:0:
256,192,154775,1,0,0:0:0:0:
256,192,154850,1,0,0:0:0:0:
256,192,154925,1,8,0:0:0:0:
256,192,155000,1,0,0:0:0:0:
256,192,155075,1,8,0:0:0:0:
256,192,155150,1,8,0:0:0:0:
256,192,155225,1,0,0:0:0:0:
256,192,155300,1,8,0:0:0:0:
256,192,155450,1,0,0:0:0:0:
256,192,155525,1,8,0:0:0:0:
256,192,155575,1,8,0:0:0:0:
256,192,155625,1,8,0:0:0:0:
256,192,155675,1,0,0:0:0:0:
256,192,155750,1,0,0:0:0:0:
256,192,155825,1,8,0:0:0:0:
256,192,155900,1,0,0:0:0:0:
256,192,155975,1,8,0:0:0:0:
256,192,156050,1,8,0:0:0:0:
256,192,156125,1,0,0:0:0:0:
256,192,156275,1,8,0:0:0:0:
256,192,156325,1,8,0:0:0:0:
256,192,156375,1,0,0:0:0:0:
256,192,156425,1,0,0:0:0:0:
256,192,156575,1,8,0:0:0:0:
256,192,156650,1,8,0:0:0:0:
256,192,156725,1,0,0:0:0:0:
256,192,156875,1,8,0:0:0:0:
256,192,156925,1,8,0:0:0:0:
256,192,156975,1,0,0:0:0:0:
256,192,157025,1,0,0:0:0:0:
256,192,157175,1,8,0:0:0:0:
256,192,157325,1,0,0:0:0:0:
256,192,157375,1,8,0:0:0:0:
256,192,157425,1,8,0:0:0:0:
256,192,157475,1,0,0:0:0:0:
256,192,157550,1,0,0:0:0:0:
256,192,157625,1,8,0:0:0:0:
256,192,157700,1,8,0:0:0:0:
256,192,157775,1,0,0:0:0:0:
256,192,157925,1,0,0:0:0:0:
256,192,158075,1,12,0:0:0:0:
236,185,158375,5,4,0:0:0:0:
236,185,158525,1,2,0:0:0:0:
236,185,158600,1,2,0:0:0:0:
236,185,158675,1,2,0:0:0:0:
236,185,158825,1,0,0:0:0:0:
236,185,158975,1,2,0:0:0:0:
279,139,159050,1,2,0:0:0:0:
279,139,159125,1,0,0:0:0:0:
182,82,159200,1,0,0:0:0:0:
279,139,159275,1,2,0:0:0:0:
224,107,159325,1,2,0:0:0:0:
224,107,159375,1,2,0:0:0:0:
224,107,159425,1,0,0:0:0:0:
181,72,159575,1,0,0:0:0:0:
183,84,159725,1,0,0:0:0:0:
181,72,159800,1,0,0:0:0:0:
181,72,159875,1,2,0:0:0:0:
183,84,159950,1,2,0:0:0:0:
171,64,160025,1,2,0:0:0:0:
184,82,160100,1,2,0:0:0:0:
171,64,160175,1,0,0:0:0:0:
181,82,160250,1,0,0:0:0:0:
181,30,160325,1,2,0:0:0:0:
181,30,160400,1,0,0:0:0:0:
185,32,160475,1,2,0:0:0:0:
181,82,160625,1,2,0:0:0:0:
181,82,160700,1,2,0:0:0:0:
181,82,160775,1,0,0:0:0:0:
181,82,160850,1,0,0:0:0:0:
181,82,160925,1,0,0:0:0:0:
181,82,161000,1,0,0:0:0:0:
181,82,161075,1,2,0:0:0:0:
181,82,161225,1,2,0:0:0:0:
181,82,161375,1,0,0:0:0:0:
228,66,161425,1,0,0:0:0:0:
228,66,161475,1,0,0:0:0:0:
228,66,161525,1,2,0:0:0:0:
265,54,161600,1,2,0:0:0:0:
266,60,161675,1,2,0:0:0:0:
268,57,161825,1,0,0:0:0:0:
266,60,161900,1,0,0:0:0:0:
268,57,161975,1,0,0:0:0:0:
263,57,162275,1,2,0:0:0:0:
299,39,162425,1,2,0:0:0:0:
196,57,162500,1,2,0:0:0:0:
196,57,162575,1,0,0:0:0:0:
292,51,162625,1,0,0:0:0:0:
276,64,162675,1,0,0:0:0:0:
276,66,162725,1,2,0:0:0:0:
317,35,162800,1,0,0:0:0:0:
317,35,162875,1,2,0:0:0:0:
317,35,162950,1,2,0:0:0:0:
317,35,163025,1,0,0:0:0:0:
317,35,163175,1,0,0:0:0:0:
181,37,163475,1,2,0:0:0:0:
181,37,163550,1,2,0:0:0:0:
181,37,163625,1,0,0:0:0:0:
181,37,163700,1,0,0:0:0:0:
181,37,163775,1,0,0:0:0:0:
181,37,163850,1,0,0:0:0:0:
176,46,163925,1,2,0:0:0:0:
161,40,164000,1,2,0:0:0:0:
161,42,164075,1,0,0:0:0:0:
161,42,164150,1,0,0:0:0:0:
325,42,164225,1,2,0:0:0:0:
325,42,164375,1,0,0:0:0:0:
274,44,164425,1,0,0:0:0:0:
274,44,164475,1,0,0:0:0:0:
175,77,164525,1,2,0:0:0:0:
156,69,164675,1,2,0:0:0:0:
156,69,164750,1,2,0:0:0:0:
203,72,164825,1,0,0:0:0:0:
166,42,164900,1,0,0:0:0:0:
142,97,164975,1,2,0:0:0:0:
335,61,165025,1,2,0:0:0:0:
335,61,165075,1,0,0:0:0:0:
335,61,165125,1,2,0:0:0:0:
328,43,165175,1,0,0:0:0:0:
328,43,165225,1,0,0:0:0:0:
152,18,165275,1,2,0:0:0:0:
165,39,165350,1,2,0:0:0:0:
165,44,165425,1,0,0:0:0:0:
147,63,165575,1,0,0:0:0:0:
158,62,165725,1,0,0:0:0:0:
171,176,165800,1,0,0:0:0:0:
171,176,165875,1,2,0:0:0:0:
171,176,165950,1,2,0:0:0:0:
172,183,166025,1,0,0:0:0:0:
174,188,166100,1,0,0:0:0:0:
174,188,166175,1,2,0:0:0:0:
174,188,166325,1,2,0:0:0:0:
174,188,166400,1,2,0:0:0:0:
174,188,166475,1,2,0:0:0:0:
174,188,166625,1,0,0:0:0:0:
175,193,166775,1,0,0:0:0:0:
200,177,166925,1,2,0:0:0:0:
200,177,167000,1,0,0:0:0:0:
200,177,167075,1,0,0:0:0:0:
200,177,167225,1,2,0:0:0:0:
230,133,167300,1,2,0:0:0:0:
200,177,167375,1,0,0:0:0:0:
200,177,167450,1,0,0:0:0:0:
200,177,167525,1,2,0:0:0:0:
142,127,167600,1,0,0:0:0:0:
146,133,167675,1,2,0:0:0:0:
146,135,167750,1,2,0:0:0:0:
147,137,167825,1,0,0:0:0:0:
230,133,167900,1,2,0:0:0:0:
147,137,167975,1,0,0:0:0:0:
146,135,168125,1,2,0:0:0:0:
147,137,168200,1,0,0:0:0:0:
146,135,168275,1,2,0:0:0:0:
146,135,168350,1,2,0:0:0:0:
147,137,168425,1,0,0:0:0:0:
146,135,168500,1,2,0:0:0:0:
146,135,168575,1,0,0:0:0:0:
147,137,168650,1,2,0:0:0:0:
146,141,168725,1,0,0:0:0:0:
144,141,168800,1,0,0:0:0:0:
144,141,168875,1,2,0:0:0:0:
156,147,169175,1,4,0:0:0:0:
166,150,169400,1,0,0:0:0:0:
169,151,169475,1,8,0:0:0:0:
175,152,169625,1,8,0:0:0:0:
178,153,169700,1,8,0:0:0:0:
181,154,169775,1,0,0:0:0:0:
184,155,169850,1,0,0:0:0:0:
190,157,170000,1,8,0:0:0:0:
193,157,170075,1,0,0:0:0:0:
199,159,170225,1,8,0:0:0:0:
205,161,170375,1,0,0:0:0:0:
208,159,170425,1,0,0:0:0:0:
211,158,170475,1,0,0:0:0:0:
213,157,170525,1,8,0:0:0:0:
218,165,170675,1,8,0:0:0:0:
218,165,170725,1,8,0:0:0:0:
218,165,170775,1,8,0:0:0:0:
218,165,170825,1,0,0:0:0:0:
224,166,170975,1,8,0:0:0:0:
224,167,171012,1,8,0:0:0:0:
226,171,171125,1,0,0:0:0:0:
229,171,171200,1,8,0:0:0:0:
226,168,171275,1,0,0:0:0:0:
238,171,171425,1,8,0:0:0:0:
235,171,171575,1,0,0:0:0:0:
241,168,171800,1,0,0:0:0:0:
244,167,171875,1,8,0:0:0:0:
249,162,172025,1,8,0:0:0:0:
252,161,172100,1,8,0:0:0:0:
249,162,172175,1,0,0:0:0:0:
249,162,172250,1,0,0:0:0:0:
249,162,172400,1,0,0:0:0:0:
249,162,172475,1,8,0:0:0:0:
249,162,172550,1,8,0:0:0:0:
249,162,172625,1,0,0:0:0:0:
254,157,172775,1,8,0:0:0:0:
260,158,172925,1,0,0:0:0:0:
266,159,173075,1,8,0:0:0:0:
249,162,173150,1,0,0:0:0:0:
272,160,173225,1,8,0:0:0:0:
275,160,173300,1,8,0:0:0:0:
278,160,173375,1,0,0:0:0:0:
281,160,173450,1,0,0:0:0:0:
284,160,173525,1,8,0:0:0:0:
281,162,173600,1,0,0:0:0:0:
281,162,173675,1,8,0:0:0:0:
260,158,173750,1,8,0:0:0:0:
260,158,173825,1,8,0:0:0:0:
272,160,173975,1,4,0:0:0:0:
272,160,174200,1,0,0:0:0:0:
275,160,174275,1,8,0:0:0:0:
269,164,174425,1,8,0:0:0:0:
269,164,174500,1,8,0:0:0:0:
269,164,174575,1,0,0:0:0:0:
269,164,174650,1,0,0:0:0:0:
275,160,174800,1,8,0:0:0:0:
275,160,174875,1,0,0:0:0:0:
275,160,175025,1,8,0:0:0:0:
277,166,175175,1,0,0:0:0:0:
275,167,175225,1,0,0:0:0:0:
273,168,175275,1,0,0:0:0:0:
271,169,175325,1,8,0:0:0:0:
264,172,175475,1,0,0:0:0:0:
264,172,175525,1,8,0:0:0:0:
264,172,175575,1,8,0:0:0:0:
264,172,175625,1,0,0:0:0:0:
275,160,175775,1,8,0:0:0:0:
275,160,175812,1,8,0:0:0:0:
269,161,175925,1,8,0:0:0:0:
267,161,175962,1,8,0:0:0:0:
264,172,176075,1,0,0:0:0:0:
264,172,176225,1,8,0:0:0:0:
264,172,176375,1,0,0:0:0:0:
270,169,176525,1,8,0:0:0:0:
273,168,176600,1,8,0:0:0:0:
276,167,176675,1,0,0:0:0:0:
275,160,176825,1,8,0:0:0:0:
269,161,176900,1,0,0:0:0:0:
267,161,176975,1,8,0:0:0:0:
264,172,177050,1,8,0:0:0:0:
264,172,177200,1,8,0:0:0:0:
264,172,177275,1,0,0:0:0:0:
270,169,177425,1,8,0:0:0:0:
275,160,177725,1,0,0:0:0:0:
267,161,177950,1,0,0:0:0:0:
264,172,178025,1,0,0:0:0:0:
264,172,178175,1,0,0:0:0:0:
277,169,178475,1,4,0:0:0:0:
