osu file format v14

[General]
AudioFilename: audio.mp3
AudioLeadIn: 0
PreviewTime: 48852
Countdown: 1
SampleSet: Soft
StackLeniency: 0.7
Mode: 1
LetterboxInBreaks: 0
WidescreenStoryboard: 0

[Editor]
Bookmarks: 21132,28812,36492,44172,51852,59412,67212,74892,82572,89292,94092,97932,105612,113292,120972,129612,137292,144972,152652,160332,168012,175692,183372,191052,198732,206412,214092,221532
DistanceSpacing: 1
BeatDivisor: 4
GridSize: 32
TimelineZoom: 3.350002

[Metadata]
Title:Soundcloud, do not die!
TitleUnicode:SoundCloud しなないで!
Artist:Katagiri
ArtistUnicode:かたぎり
Creator:Rafael Nadal
Version:Ura Oni!
Source:
Tags:
BeatmapID:1487040
BeatmapSetID:702806

[Difficulty]
HPDrainRate:4.5
CircleSize:4
OverallDifficulty:7
ApproachRate:9
SliderMultiplier:1.4
SliderTickRate:1

[Events]
//Background and Video events
0,0,"zz-abstract-wallpapers-black-themed-awesome-wallpaper-dark.jpg",0,0
//Break Periods
2,17466,18453
//Storyboard Layer 0 (Background)
//Storyboard Layer 1 (Fail)
//Storyboard Layer 2 (Pass)
//Storyboard Layer 3 (Foreground)
//Storyboard Sound Samples

[TimingPoints]
482.235294117647,357.142857142857,4,2,0,90,1,0
21132,240,4,2,0,90,1,0
36492,-100,4,2,0,80,0,0
50892,-68.9655172413793,4,2,0,60,0,0
51852,-95.2380952380952,4,2,0,80,0,1
58572,-80,4,2,0,60,0,0
59532,-95.2380952380952,4,2,0,80,0,1
62412,-105.263157894737,4,2,0,50,0,0
63372,-95.2380952380952,4,2,0,80,0,1
67212,-100,4,2,0,80,0,0
74892,-95.2380952380952,4,2,0,80,0,1
82572,-100,4,2,0,80,0,0
89412,-90.9090909090909,4,2,0,80,0,1
90252,-100,4,2,0,80,0,0
97932,-95.2380952380952,4,2,0,80,0,1
113292,-100,4,2,0,80,0,0
129612,-95.2380952380952,4,2,0,80,0,1
144972,-100,4,2,0,80,0,0
160332,-95.2380952380952,4,2,0,80,0,1
175692,-100,4,2,0,80,0,0
191052,-95.2380952380952,4,2,0,80,0,1
206052,-66.6666666666667,4,2,0,80,0,1
206292,-100,4,2,0,80,0,0
220782,-90.9090909090909,4,2,0,80,0,1
220842,-100,4,2,0,80,0,0
220902,-90.9090909090909,4,2,0,80,0,1
220962,-100,4,2,0,80,0,0
221022,-90.9090909090909,4,2,0,80,0,1
221082,-100,4,2,0,80,0,0
221142,-90.9090909090909,4,2,0,80,0,1
221202,-100,4,2,0,80,0,0
221262,-90.9090909090909,4,2,0,80,0,1
221322,-100,4,2,0,80,0,0
221412,-66.6666666666667,4,2,0,100,0,1
221652,-100,4,2,0,80,0,0

[HitObjects]
256,192,482,5,0,0:0:0:0:
256,192,663,1,0,0:0:0:0:
256,192,842,1,8,0:0:0:0:
256,192,1020,1,0,0:0:0:0:
256,192,1110,1,8,0:0:0:0:
256,192,1199,1,0,0:0:0:0:
256,192,1288,1,8,0:0:0:0:
256,192,1378,1,0,0:0:0:0:
256,192,1556,1,8,0:0:0:0:
256,192,1735,1,8,0:0:0:0:
256,192,1824,1,0,0:0:0:0:
256,192,1913,1,0,0:0:0:0:
256,192,2092,1,0,0:0:0:0:
256,192,2270,1,8,0:0:0:0:
256,192,2449,1,0,0:0:0:0:
256,192,2538,1,8,0:0:0:0:
256,192,2628,1,0,0:0:0:0:
256,192,2717,1,8,0:0:0:0:
256,192,2806,1,0,0:0:0:0:
256,192,2895,1,0,0:0:0:0:
256,192,2985,1,8,0:0:0:0:
256,192,3074,1,0,0:0:0:0:
256,192,3163,1,8,0:0:0:0:
256,192,3253,1,8,0:0:0:0:
256,192,3342,1,0,0:0:0:0:
256,192,3520,1,0,0:0:0:0:
256,192,3699,1,8,0:0:0:0:
256,192,3878,1,8,0:0:0:0:
256,192,3967,1,8,0:0:0:0:
256,192,4056,1,0,0:0:0:0:
256,192,4145,1,8,0:0:0:0:
256,192,4235,1,0,0:0:0:0:
256,192,4413,1,8,0:0:0:0:
256,192,4592,1,0,0:0:0:0:
256,192,4681,1,8,0:0:0:0:
256,192,4770,1,0,0:0:0:0:
256,192,4949,1,0,0:0:0:0:
256,192,5038,1,0,0:0:0:0:
256,192,5128,1,8,0:0:0:0:
256,192,5306,1,8,0:0:0:0:
256,192,5395,1,0,0:0:0:0:
256,192,5574,1,8,0:0:0:0:
256,192,5663,1,0,0:0:0:0:
256,192,5753,1,0,0:0:0:0:
256,192,5842,1,8,0:0:0:0:
256,192,6020,1,0,0:0:0:0:
256,192,6110,1,8,0:0:0:0:
256,192,6199,1,0,0:0:0:0:
256,192,6378,1,0,0:0:0:0:
256,192,6556,1,8,0:0:0:0:
256,192,6735,1,0,0:0:0:0:
256,192,6824,1,0,0:0:0:0:
256,192,6913,1,0,0:0:0:0:
256,192,7003,1,8,0:0:0:0:
256,192,7092,1,0,0:0:0:0:
256,192,7270,1,8,0:0:0:0:
256,192,7449,1,0,0:0:0:0:
256,192,7538,1,8,0:0:0:0:
256,192,7628,1,0,0:0:0:0:
256,192,7806,1,0,0:0:0:0:
256,192,7985,1,8,0:0:0:0:
256,192,8163,1,8,0:0:0:0:
256,192,8253,1,0,0:0:0:0:
256,192,8342,1,0,0:0:0:0:
256,192,8431,1,8,0:0:0:0:
256,192,8610,1,0,0:0:0:0:
256,192,8699,1,8,0:0:0:0:
256,192,8878,1,8,0:0:0:0:
256,192,8967,1,8,0:0:0:0:
256,192,9056,1,0,0:0:0:0:
256,192,9235,1,0,0:0:0:0:
256,192,9413,1,8,0:0:0:0:
256,192,9592,1,0,0:0:0:0:
256,192,9681,1,8,0:0:0:0:
256,192,9770,1,8,0:0:0:0:
256,192,9860,1,8,0:0:0:0:
256,192,9949,1,0,0:0:0:0:
256,192,10038,1,0,0:0:0:0:
256,192,10128,1,8,0:0:0:0:
256,192,10306,1,8,0:0:0:0:
256,192,10395,1,0,0:0:0:0:
256,192,10485,1,0,0:0:0:0:
256,192,10663,1,0,0:0:0:0:
256,192,10753,1,0,0:0:0:0:
256,192,10842,1,8,0:0:0:0:
256,192,11020,1,8,0:0:0:0:
256,192,11110,1,8,0:0:0:0:
256,192,11199,1,0,0:0:0:0:
256,192,11378,1,0,0:0:0:0:
256,192,11556,1,8,0:0:0:0:
256,192,11735,1,8,0:0:0:0:
256,192,11913,1,0,0:0:0:0:
256,192,12092,1,0,0:0:0:0:
256,192,12270,1,8,0:0:0:0:
256,192,12449,1,8,0:0:0:0:
256,192,12538,1,0,0:0:0:0:
256,192,12628,1,0,0:0:0:0:
256,192,13339,1,4,0:0:0:0:
192,192,13517,2,0,L|320:192,14,105
256,192,19053,12,0,20839,0:0:0:0:
256,192,21132,5,4,0:0:0:0:
256,192,21252,1,0,0:0:0:0:
256,192,21312,1,0,0:0:0:0:
256,192,21372,1,8,0:0:0:0:
256,192,21492,1,0,0:0:0:0:
256,192,21552,1,0,0:0:0:0:
256,192,21612,1,0,0:0:0:0:
256,192,21672,1,8,0:0:0:0:
256,192,21732,1,0,0:0:0:0:
256,192,21852,1,8,0:0:0:0:
256,192,21912,1,0,0:0:0:0:
256,192,21972,1,8,0:0:0:0:
256,192,22032,1,8,0:0:0:0:
256,192,22092,1,0,0:0:0:0:
256,192,22212,1,0,0:0:0:0:
256,192,22332,1,8,0:0:0:0:
256,192,22452,1,8,0:0:0:0:
256,192,22512,1,8,0:0:0:0:
256,192,22572,1,0,0:0:0:0:
256,192,22632,1,0,0:0:0:0:
256,192,22692,1,8,0:0:0:0:
256,192,22812,1,8,0:0:0:0:
256,192,22872,1,0,0:0:0:0:
256,192,22932,1,8,0:0:0:0:
256,192,22992,1,8,0:0:0:0:
256,192,23052,1,0,0:0:0:0:
256,192,23172,1,0,0:0:0:0:
256,192,23292,1,8,0:0:0:0:
256,192,23412,1,0,0:0:0:0:
256,192,23472,1,8,0:0:0:0:
256,192,23532,1,0,0:0:0:0:
256,192,23592,1,8,0:0:0:0:
256,192,23652,1,8,0:0:0:0:
256,192,23772,1,8,0:0:0:0:
256,192,23832,1,0,0:0:0:0:
256,192,23892,1,0,0:0:0:0:
256,192,23952,1,8,0:0:0:0:
256,192,24012,1,0,0:0:0:0:
256,192,24132,1,0,0:0:0:0:
256,192,24252,1,8,0:0:0:0:
256,192,24372,1,0,0:0:0:0:
256,192,24432,1,0,0:0:0:0:
256,192,24492,1,0,0:0:0:0:
256,192,24552,1,8,0:0:0:0:
256,192,24612,1,8,0:0:0:0:
256,192,24732,1,8,0:0:0:0:
256,192,24852,1,4,0:0:0:0:
256,192,24972,1,4,0:0:0:0:
256,192,25212,1,8,0:0:0:0:
256,192,25332,1,0,0:0:0:0:
256,192,25392,1,8,0:0:0:0:
256,192,25452,1,8,0:0:0:0:
256,192,25512,1,0,0:0:0:0:
256,192,25572,1,8,0:0:0:0:
256,192,25692,1,0,0:0:0:0:
256,192,25752,1,8,0:0:0:0:
256,192,25812,1,8,0:0:0:0:
256,192,25872,1,8,0:0:0:0:
256,192,25932,1,0,0:0:0:0:
256,192,26052,1,0,0:0:0:0:
256,192,26172,1,8,0:0:0:0:
256,192,26292,1,0,0:0:0:0:
256,192,26352,1,8,0:0:0:0:
256,192,26412,1,8,0:0:0:0:
256,192,26472,1,0,0:0:0:0:
256,192,26532,1,8,0:0:0:0:
256,192,26592,1,8,0:0:0:0:
256,192,26652,1,8,0:0:0:0:
256,192,26772,1,0,0:0:0:0:
256,192,26892,1,4,0:0:0:0:
256,192,27132,1,12,0:0:0:0:
256,192,27372,1,4,0:0:0:0:
256,192,27612,1,12,0:0:0:0:
256,192,27852,1,4,0:0:0:0:
256,192,28092,1,12,0:0:0:0:
256,192,28332,1,0,0:0:0:0:
256,192,28452,1,0,0:0:0:0:
256,192,28572,1,8,0:0:0:0:
256,192,28632,1,8,0:0:0:0:
256,192,28692,1,0,0:0:0:0:
256,192,28752,1,0,0:0:0:0:
256,192,28812,1,0,0:0:0:0:
256,192,29052,1,8,0:0:0:0:
256,192,29292,1,0,0:0:0:0:
256,192,29532,1,8,0:0:0:0:
256,192,29772,1,0,0:0:0:0:
256,192,30012,1,8,0:0:0:0:
256,192,30252,1,0,0:0:0:0:
256,192,30492,1,8,0:0:0:0:
256,192,30732,1,0,0:0:0:0:
256,192,30972,1,8,0:0:0:0:
256,192,31212,1,0,0:0:0:0:
256,192,31452,1,8,0:0:0:0:
256,192,31692,1,0,0:0:0:0:
256,192,31932,1,8,0:0:0:0:
256,192,32172,1,0,0:0:0:0:
256,192,32412,1,8,0:0:0:0:
256,192,32532,1,0,0:0:0:0:
256,192,32652,1,0,0:0:0:0:
256,192,32772,1,0,0:0:0:0:
256,192,32892,1,8,0:0:0:0:
256,192,33012,1,8,0:0:0:0:
256,192,33132,1,0,0:0:0:0:
256,192,33252,1,0,0:0:0:0:
256,192,33372,1,8,0:0:0:0:
256,192,33492,1,8,0:0:0:0:
256,192,33612,1,0,0:0:0:0:
256,192,33732,1,0,0:0:0:0:
256,192,33852,1,8,0:0:0:0:
256,192,33972,1,8,0:0:0:0:
256,192,34092,1,0,0:0:0:0:
256,192,34212,1,0,0:0:0:0:
256,192,34332,1,8,0:0:0:0:
256,192,34452,1,8,0:0:0:0:
256,192,34572,1,0,0:0:0:0:
256,192,34632,1,8,0:0:0:0:
256,192,34692,1,8,0:0:0:0:
256,192,34752,1,8,0:0:0:0:
256,192,34812,1,0,0:0:0:0:
256,192,34872,1,8,0:0:0:0:
256,192,34932,1,8,0:0:0:0:
256,192,34992,1,8,0:0:0:0:
256,192,35052,1,0,0:0:0:0:
256,192,35112,1,8,0:0:0:0:
256,192,35172,1,8,0:0:0:0:
256,192,35232,1,0,0:0:0:0:
256,192,35292,1,0,0:0:0:0:
256,192,35352,1,8,0:0:0:0:
256,192,35412,1,8,0:0:0:0:
256,192,35472,1,0,0:0:0:0:
256,192,35532,1,0,0:0:0:0:
256,192,35652,1,0,0:0:0:0:
256,192,35712,1,8,0:0:0:0:
256,192,35772,1,8,0:0:0:0:
256,192,35892,1,0,0:0:0:0:
256,192,35952,1,8,0:0:0:0:
256,192,36012,1,0,0:0:0:0:
256,192,36072,1,0,0:0:0:0:
256,192,36132,1,8,0:0:0:0:
256,192,36252,1,0,0:0:0:0:
256,192,36372,1,8,0:0:0:0:
256,192,36492,1,0,0:0:0:0:
256,192,36612,1,8,0:0:0:0:
256,192,36672,1,8,0:0:0:0:
256,192,36732,1,0,0:0:0:0:
256,192,36852,1,8,0:0:0:0:
256,192,36912,1,8,0:0:0:0:
256,192,36972,1,0,0:0:0:0:
256,192,37092,1,8,0:0:0:0:
256,192,37152,1,8,0:0:0:0:
256,192,37212,1,0,0:0:0:0:
256,192,37332,1,8,0:0:0:0:
256,192,37392,1,8,0:0:0:0:
256,192,37452,1,0,0:0:0:0:
256,192,37572,1,8,0:0:0:0:
256,192,37632,1,8,0:0:0:0:
256,192,37692,1,0,0:0:0:0:
256,192,37812,1,8,0:0:0:0:
256,192,37872,1,8,0:0:0:0:
256,192,37932,1,0,0:0:0:0:
256,192,38052,1,8,0:0:0:0:
256,192,38112,1,8,0:0:0:0:
256,192,38172,1,0,0:0:0:0:
256,192,38232,1,0,0:0:0:0:
256,192,38292,1,8,0:0:0:0:
256,192,38352,1,8,0:0:0:0:
256,192,38412,1,0,0:0:0:0:
256,192,38532,1,8,0:0:0:0:
256,192,38592,1,0,0:0:0:0:
256,192,38652,1,0,0:0:0:0:
256,192,38772,1,8,0:0:0:0:
256,192,38832,1,0,0:0:0:0:
256,192,38892,1,0,0:0:0:0:
256,192,39012,1,8,0:0:0:0:
256,192,39072,1,0,0:0:0:0:
256,192,39132,1,0,0:0:0:0:
256,192,39252,1,8,0:0:0:0:
256,192,39312,1,0,0:0:0:0:
256,192,39372,1,0,0:0:0:0:
256,192,39492,1,8,0:0:0:0:
256,192,39552,1,0,0:0:0:0:
256,192,39612,1,0,0:0:0:0:
256,192,39732,1,8,0:0:0:0:
256,192,39792,1,0,0:0:0:0:
256,192,39852,1,0,0:0:0:0:
256,192,39972,1,8,0:0:0:0:
256,192,40032,1,0,0:0:0:0:
256,192,40092,1,0,0:0:0:0:
256,192,40152,1,8,0:0:0:0:
256,192,40212,1,8,0:0:0:0:
256,192,40272,1,8,0:0:0:0:
256,192,40332,1,0,0:0:0:0:
256,192,40452,1,8,0:0:0:0:
256,192,40512,1,8,0:0:0:0:
256,192,40572,1,0,0:0:0:0:
256,192,40692,1,8,0:0:0:0:
256,192,40752,1,8,0:0:0:0:
256,192,40812,1,0,0:0:0:0:
256,192,40932,1,8,0:0:0:0:
256,192,40992,1,8,0:0:0:0:
256,192,41052,1,0,0:0:0:0:
256,192,41172,1,8,0:0:0:0:
256,192,41292,1,0,0:0:0:0:
256,192,41412,1,8,0:0:0:0:
256,192,41472,1,8,0:0:0:0:
256,192,41532,1,0,0:0:0:0:
256,192,41652,1,8,0:0:0:0:
256,192,41712,1,8,0:0:0:0:
256,192,41772,1,0,0:0:0:0:
256,192,41892,1,8,0:0:0:0:
256,192,41952,1,8,0:0:0:0:
256,192,42012,1,0,0:0:0:0:
256,192,42132,1,8,0:0:0:0:
256,192,42252,1,0,0:0:0:0:
256,192,42372,1,0,0:0:0:0:
256,192,42432,1,8,0:0:0:0:
256,192,42492,1,0,0:0:0:0:
256,192,42612,1,0,0:0:0:0:
256,192,42672,1,8,0:0:0:0:
256,192,42732,1,0,0:0:0:0:
256,192,42852,1,0,0:0:0:0:
256,192,42912,1,8,0:0:0:0:
256,192,42972,1,0,0:0:0:0:
256,192,43092,1,0,0:0:0:0:
256,192,43152,1,8,0:0:0:0:
256,192,43212,1,0,0:0:0:0:
256,192,43332,1,0,0:0:0:0:
256,192,43392,1,8,0:0:0:0:
256,192,43452,1,0,0:0:0:0:
256,192,43572,1,0,0:0:0:0:
256,192,43632,1,8,0:0:0:0:
256,192,43692,1,0,0:0:0:0:
256,192,43812,1,0,0:0:0:0:
256,192,43872,1,8,0:0:0:0:
256,192,43932,1,0,0:0:0:0:
256,192,43992,1,8,0:0:0:0:
256,192,44052,1,8,0:0:0:0:
256,192,44112,1,0,0:0:0:0:
256,192,44172,1,8,0:0:0:0:
256,192,44412,1,8,0:0:0:0:
256,192,44652,1,8,0:0:0:0:
256,192,44772,1,0,0:0:0:0:
256,192,44832,1,0,0:0:0:0:
256,192,44892,1,8,0:0:0:0:
256,192,45012,1,0,0:0:0:0:
256,192,45132,1,8,0:0:0:0:
256,192,45372,1,8,0:0:0:0:
256,192,45612,1,8,0:0:0:0:
256,192,45732,1,0,0:0:0:0:
256,192,45792,1,0,0:0:0:0:
256,192,45852,1,8,0:0:0:0:
256,192,45972,1,0,0:0:0:0:
256,192,46092,1,8,0:0:0:0:
256,192,46212,1,0,0:0:0:0:
256,192,46272,1,8,0:0:0:0:
256,192,46332,1,8,0:0:0:0:
256,192,46452,1,0,0:0:0:0:
256,192,46572,1,8,0:0:0:0:
256,192,46692,1,0,0:0:0:0:
256,192,46812,1,8,0:0:0:0:
256,192,46872,1,8,0:0:0:0:
256,192,46932,1,0,0:0:0:0:
256,192,46992,1,0,0:0:0:0:
256,192,47052,1,8,0:0:0:0:
256,192,47172,1,0,0:0:0:0:
256,192,47292,1,8,0:0:0:0:
256,192,47352,1,8,0:0:0:0:
256,192,47412,1,0,0:0:0:0:
256,192,47532,1,0,0:0:0:0:
256,192,47592,1,8,0:0:0:0:
256,192,47652,1,0,0:0:0:0:
256,192,47712,1,0,0:0:0:0:
256,192,47772,1,8,0:0:0:0:
256,192,47892,1,8,0:0:0:0:
256,192,47952,1,0,0:0:0:0:
256,192,48012,1,8,0:0:0:0:
256,192,48132,1,0,0:0:0:0:
256,192,48252,1,8,0:0:0:0:
256,192,48372,1,0,0:0:0:0:
256,192,48492,1,8,0:0:0:0:
256,192,48612,1,0,0:0:0:0:
256,192,48732,1,8,0:0:0:0:
256,192,48852,1,0,0:0:0:0:
256,192,48972,1,12,0:0:0:0:
256,192,49092,1,0,0:0:0:0:
256,192,49152,1,0,0:0:0:0:
256,192,49212,1,0,0:0:0:0:
256,192,49332,1,0,0:0:0:0:
256,192,49452,1,12,0:0:0:0:
256,192,49572,1,0,0:0:0:0:
256,192,49632,1,0,0:0:0:0:
256,192,49692,1,0,0:0:0:0:
256,192,49812,1,0,0:0:0:0:
256,192,49932,1,12,0:0:0:0:
256,192,50052,1,0,0:0:0:0:
256,192,50172,1,8,0:0:0:0:
256,192,50232,1,8,0:0:0:0:
256,192,50292,1,8,0:0:0:0:
256,192,50352,1,8,0:0:0:0:
256,192,50412,1,8,0:0:0:0:
256,192,50472,1,8,0:0:0:0:
256,192,50532,1,8,0:0:0:0:
256,192,50592,1,8,0:0:0:0:
256,192,50652,1,8,0:0:0:0:
256,192,50712,1,8,0:0:0:0:
256,192,50772,1,8,0:0:0:0:
256,192,50832,1,8,0:0:0:0:
256,192,50892,1,0,0:0:0:0:
256,192,51012,1,0,0:0:0:0:
256,192,51132,1,0,0:0:0:0:
256,192,51252,1,0,0:0:0:0:
256,192,51372,1,0,0:0:0:0:
256,192,51492,1,0,0:0:0:0:
256,192,51612,1,12,0:0:0:0:
256,192,51732,1,12,0:0:0:0:
256,192,51852,1,0,0:0:0:0:
256,192,51912,1,0,0:0:0:0:
256,192,51972,1,0,0:0:0:0:
256,192,52032,1,8,0:0:0:0:
256,192,52092,1,8,0:0:0:0:
256,192,52152,1,8,0:0:0:0:
256,192,52212,1,0,0:0:0:0:
256,192,52332,1,0,0:0:0:0:
256,192,52392,1,8,0:0:0:0:
256,192,52452,1,0,0:0:0:0:
256,192,52512,1,8,0:0:0:0:
256,192,52572,1,8,0:0:0:0:
256,192,52632,1,0,0:0:0:0:
256,192,52692,1,0,0:0:0:0:
256,192,52812,1,8,0:0:0:0:
256,192,52872,1,0,0:0:0:0:
256,192,52932,1,0,0:0:0:0:
256,192,52992,1,8,0:0:0:0:
256,192,53112,1,0,0:0:0:0:
256,192,53172,1,0,0:0:0:0:
256,192,53292,1,8,0:0:0:0:
256,192,53352,1,8,0:0:0:0:
256,192,53412,1,0,0:0:0:0:
256,192,53472,1,8,0:0:0:0:
256,192,53592,1,8,0:0:0:0:
256,192,53652,1,0,0:0:0:0:
256,192,53772,1,8,0:0:0:0:
256,192,53832,1,0,0:0:0:0:
256,192,53892,1,0,0:0:0:0:
256,192,53952,1,8,0:0:0:0:
256,192,54012,1,8,0:0:0:0:
256,192,54072,1,0,0:0:0:0:
256,192,54132,1,0,0:0:0:0:
256,192,54252,1,8,0:0:0:0:
256,192,54312,1,0,0:0:0:0:
256,192,54372,1,8,0:0:0:0:
256,192,54432,1,8,0:0:0:0:
256,192,54492,1,0,0:0:0:0:
256,192,54552,1,8,0:0:0:0:
256,192,54612,1,0,0:0:0:0:
256,192,54732,1,0,0:0:0:0:
256,192,54792,1,8,0:0:0:0:
256,192,54912,1,0,0:0:0:0:
256,192,54972,1,8,0:0:0:0:
256,192,55092,1,0,0:0:0:0:
256,192,55212,1,8,0:0:0:0:
256,192,55272,1,0,0:0:0:0:
256,192,55392,1,8,0:0:0:0:
256,192,55452,1,0,0:0:0:0:
256,192,55572,1,8,0:0:0:0:
256,192,55692,1,0,0:0:0:0:
256,192,55752,1,8,0:0:0:0:
256,192,55812,1,8,0:0:0:0:
256,192,55872,1,0,0:0:0:0:
256,192,55932,1,8,0:0:0:0:
256,192,55992,1,8,0:0:0:0:
256,192,56052,1,0,0:0:0:0:
256,192,56172,1,8,0:0:0:0:
256,192,56232,1,0,0:0:0:0:
256,192,56292,1,8,0:0:0:0:
256,192,56352,1,0,0:0:0:0:
256,192,56412,1,0,0:0:0:0:
256,192,56472,1,8,0:0:0:0:
256,192,56532,1,0,0:0:0:0:
256,192,56652,1,8,0:0:0:0:
256,192,56712,1,8,0:0:0:0:
256,192,56772,1,0,0:0:0:0:
256,192,56832,1,8,0:0:0:0:
256,192,56952,1,0,0:0:0:0:
256,192,57012,1,0,0:0:0:0:
256,192,57132,1,8,0:0:0:0:
256,192,57192,1,0,0:0:0:0:
256,192,57252,1,0,0:0:0:0:
256,192,57312,1,8,0:0:0:0:
256,192,57432,1,8,0:0:0:0:
256,192,57492,1,0,0:0:0:0:
256,192,57612,1,8,0:0:0:0:
256,192,57672,1,0,0:0:0:0:
256,192,57732,1,0,0:0:0:0:
256,192,57792,1,8,0:0:0:0:
256,192,57852,1,8,0:0:0:0:
256,192,57912,1,0,0:0:0:0:
256,192,57972,1,0,0:0:0:0:
256,192,58092,1,8,0:0:0:0:
256,192,58152,1,8,0:0:0:0:
256,192,58212,1,0,0:0:0:0:
256,192,58272,1,0,0:0:0:0:
256,192,58332,1,8,0:0:0:0:
256,192,58392,1,0,0:0:0:0:
256,192,58452,1,8,0:0:0:0:
256,192,58812,1,12,0:0:0:0:
256,192,58932,1,12,0:0:0:0:
256,192,59052,1,4,0:0:0:0:
256,192,59292,1,12,0:0:0:0:
256,192,59532,1,0,0:0:0:0:
256,192,59592,1,0,0:0:0:0:
256,192,59652,1,8,0:0:0:0:
256,192,59712,1,0,0:0:0:0:
256,192,59772,1,8,0:0:0:0:
256,192,59832,1,8,0:0:0:0:
256,192,59892,1,0,0:0:0:0:
256,192,60012,1,8,0:0:0:0:
256,192,60072,1,0,0:0:0:0:
256,192,60132,1,8,0:0:0:0:
256,192,60192,1,0,0:0:0:0:
256,192,60252,1,0,0:0:0:0:
256,192,60312,1,8,0:0:0:0:
256,192,60372,1,8,0:0:0:0:
256,192,60492,1,8,0:0:0:0:
256,192,60552,1,8,0:0:0:0:
256,192,60612,1,0,0:0:0:0:
256,192,60672,1,8,0:0:0:0:
256,192,60792,1,0,0:0:0:0:
256,192,60852,1,0,0:0:0:0:
256,192,60972,1,8,0:0:0:0:
256,192,61032,1,0,0:0:0:0:
256,192,61092,1,0,0:0:0:0:
256,192,61152,1,8,0:0:0:0:
256,192,61272,1,8,0:0:0:0:
256,192,61332,1,0,0:0:0:0:
256,192,61452,1,8,0:0:0:0:
256,192,61512,1,0,0:0:0:0:
256,192,61572,1,0,0:0:0:0:
256,192,61632,1,0,0:0:0:0:
256,192,61692,1,8,0:0:0:0:
256,192,61752,1,8,0:0:0:0:
256,192,61812,1,0,0:0:0:0:
256,192,61932,1,8,0:0:0:0:
256,192,61992,1,8,0:0:0:0:
256,192,62052,1,8,0:0:0:0:
256,192,62112,1,0,0:0:0:0:
256,192,62172,1,8,0:0:0:0:
256,192,62232,1,0,0:0:0:0:
256,192,62292,1,0,0:0:0:0:
256,192,62412,1,12,0:0:0:0:
256,192,62532,8,0,63132,0:0:0:0:
256,192,63372,5,8,0:0:0:0:
256,192,63432,1,0,0:0:0:0:
256,192,63492,1,8,0:0:0:0:
256,192,63552,1,8,0:0:0:0:
256,192,63612,1,0,0:0:0:0:
256,192,63672,1,8,0:0:0:0:
256,192,63732,1,0,0:0:0:0:
256,192,63852,1,8,0:0:0:0:
256,192,63912,1,0,0:0:0:0:
256,192,63972,1,0,0:0:0:0:
256,192,64032,1,8,0:0:0:0:
256,192,64092,1,0,0:0:0:0:
256,192,64152,1,8,0:0:0:0:
256,192,64212,1,0,0:0:0:0:
256,192,64332,1,8,0:0:0:0:
256,192,64392,1,8,0:0:0:0:
256,192,64452,1,0,0:0:0:0:
256,192,64512,1,0,0:0:0:0:
256,192,64632,1,0,0:0:0:0:
256,192,64692,1,8,0:0:0:0:
256,192,64812,1,0,0:0:0:0:
256,192,64872,1,0,0:0:0:0:
256,192,64932,1,8,0:0:0:0:
256,192,64992,1,8,0:0:0:0:
256,192,65112,1,8,0:0:0:0:
256,192,65172,1,0,0:0:0:0:
256,192,65292,1,0,0:0:0:0:
256,192,65352,1,8,0:0:0:0:
256,192,65412,1,0,0:0:0:0:
256,192,65472,1,8,0:0:0:0:
256,192,65532,1,8,0:0:0:0:
256,192,65592,1,0,0:0:0:0:
256,192,65652,1,0,0:0:0:0:
256,192,65772,1,8,0:0:0:0:
256,192,65832,1,0,0:0:0:0:
256,192,65892,1,0,0:0:0:0:
256,192,65952,1,8,0:0:0:0:
256,192,66012,1,8,0:0:0:0:
256,192,66072,1,8,0:0:0:0:
256,192,66132,1,0,0:0:0:0:
256,192,66252,1,8,0:0:0:0:
256,192,66312,1,8,0:0:0:0:
256,192,66372,1,8,0:0:0:0:
256,192,66432,1,8,0:0:0:0:
256,192,66492,1,8,0:0:0:0:
256,192,66552,1,8,0:0:0:0:
256,192,66612,1,8,0:0:0:0:
256,192,66672,1,8,0:0:0:0:
256,192,66732,1,0,0:0:0:0:
256,192,66852,1,0,0:0:0:0:
256,192,66972,1,12,0:0:0:0:
256,192,67212,1,4,0:0:0:0:
256,192,67332,1,0,0:0:0:0:
256,192,67452,1,8,0:0:0:0:
256,192,67572,1,0,0:0:0:0:
256,192,67632,1,8,0:0:0:0:
256,192,67692,1,0,0:0:0:0:
256,192,67752,1,0,0:0:0:0:
256,192,67812,1,0,0:0:0:0:
256,192,67932,1,8,0:0:0:0:
256,192,68052,1,0,0:0:0:0:
256,192,68172,1,8,0:0:0:0:
256,192,68292,1,0,0:0:0:0:
256,192,68412,1,8,0:0:0:0:
256,192,68472,1,0,0:0:0:0:
256,192,68532,1,0,0:0:0:0:
256,192,68592,1,0,0:0:0:0:
256,192,68652,1,8,0:0:0:0:
256,192,68712,1,8,0:0:0:0:
256,192,68772,1,0,0:0:0:0:
256,192,68832,1,0,0:0:0:0:
256,192,68892,1,8,0:0:0:0:
256,192,69012,1,8,0:0:0:0:
256,192,69132,1,0,0:0:0:0:
256,192,69252,1,0,0:0:0:0:
256,192,69312,1,0,0:0:0:0:
256,192,69372,1,8,0:0:0:0:
256,192,69492,1,0,0:0:0:0:
256,192,69552,1,8,0:0:0:0:
256,192,69612,1,0,0:0:0:0:
256,192,69672,1,8,0:0:0:0:
256,192,69732,1,8,0:0:0:0:
256,192,69792,1,0,0:0:0:0:
256,192,69852,1,8,0:0:0:0:
256,192,69972,1,0,0:0:0:0:
256,192,70092,1,8,0:0:0:0:
256,192,70212,1,0,0:0:0:0:
256,192,70272,1,8,0:0:0:0:
256,192,70332,1,8,0:0:0:0:
256,192,70452,1,0,0:0:0:0:
256,192,70512,1,8,0:0:0:0:
256,192,70572,1,8,0:0:0:0:
256,192,70632,1,0,0:0:0:0:
256,192,70692,1,0,0:0:0:0:
256,192,70752,1,8,0:0:0:0:
256,192,70812,1,8,0:0:0:0:
256,192,70932,1,0,0:0:0:0:
256,192,71052,1,8,0:0:0:0:
256,192,71172,1,0,0:0:0:0:
256,192,71232,1,0,0:0:0:0:
256,192,71292,1,8,0:0:0:0:
256,192,71412,1,0,0:0:0:0:
256,192,71472,1,8,0:0:0:0:
256,192,71532,1,8,0:0:0:0:
256,192,71592,1,8,0:0:0:0:
256,192,71652,1,0,0:0:0:0:
256,192,71712,1,0,0:0:0:0:
256,192,71772,1,8,0:0:0:0:
256,192,71892,1,8,0:0:0:0:
256,192,72012,1,0,0:0:0:0:
256,192,72132,1,0,0:0:0:0:
256,192,72192,1,0,0:0:0:0:
256,192,72252,1,8,0:0:0:0:
256,192,72312,1,0,0:0:0:0:
256,192,72372,1,8,0:0:0:0:
256,192,72432,1,0,0:0:0:0:
256,192,72492,1,0,0:0:0:0:
256,192,72552,1,8,0:0:0:0:
256,192,72612,1,8,0:0:0:0:
256,192,72672,1,0,0:0:0:0:
256,192,72732,1,8,0:0:0:0:
256,192,72852,1,0,0:0:0:0:
256,192,72972,1,8,0:0:0:0:
256,192,73092,1,0,0:0:0:0:
256,192,73152,1,8,0:0:0:0:
256,192,73212,1,8,0:0:0:0:
256,192,73332,1,0,0:0:0:0:
256,192,73392,1,0,0:0:0:0:
256,192,73452,1,8,0:0:0:0:
256,192,73512,1,0,0:0:0:0:
256,192,73572,1,8,0:0:0:0:
256,192,73632,1,0,0:0:0:0:
256,192,73692,1,8,0:0:0:0:
256,192,73812,1,0,0:0:0:0:
256,192,73932,1,8,0:0:0:0:
256,192,73992,1,8,0:0:0:0:
256,192,74052,1,0,0:0:0:0:
256,192,74112,1,0,0:0:0:0:
256,192,74172,1,8,0:0:0:0:
256,192,74232,1,0,0:0:0:0:
256,192,74292,1,0,0:0:0:0:
256,192,74352,1,8,0:0:0:0:
256,192,74412,1,8,0:0:0:0:
256,192,74472,1,0,0:0:0:0:
256,192,74532,1,0,0:0:0:0:
256,192,74592,1,8,0:0:0:0:
256,192,74652,1,8,0:0:0:0:
256,192,74892,1,4,0:0:0:0:
256,192,75132,1,8,0:0:0:0:
256,192,75192,1,8,0:0:0:0:
256,192,75252,1,0,0:0:0:0:
256,192,75312,1,0,0:0:0:0:
256,192,75372,1,8,0:0:0:0:
256,192,75432,1,8,0:0:0:0:
256,192,75492,1,0,0:0:0:0:
256,192,75552,1,0,0:0:0:0:
256,192,75612,1,8,0:0:0:0:
256,192,75672,1,8,0:0:0:0:
256,192,75732,1,0,0:0:0:0:
256,192,75792,1,0,0:0:0:0:
256,192,75852,1,8,0:0:0:0:
256,192,75912,1,0,0:0:0:0:
256,192,75972,1,0,0:0:0:0:
256,192,76032,1,0,0:0:0:0:
256,192,76092,1,8,0:0:0:0:
256,192,76152,1,0,0:0:0:0:
256,192,76212,1,0,0:0:0:0:
256,192,76272,1,0,0:0:0:0:
256,192,76332,1,8,0:0:0:0:
256,192,76392,1,0,0:0:0:0:
256,192,76452,1,8,0:0:0:0:
256,192,76512,1,0,0:0:0:0:
256,192,76572,1,8,0:0:0:0:
256,192,76812,1,4,0:0:0:0:
256,192,77052,1,8,0:0:0:0:
256,192,77112,1,0,0:0:0:0:
256,192,77172,1,8,0:0:0:0:
256,192,77232,1,8,0:0:0:0:
256,192,77292,1,8,0:0:0:0:
256,192,77352,1,0,0:0:0:0:
256,192,77412,1,0,0:0:0:0:
256,192,77472,1,0,0:0:0:0:
256,192,77532,1,8,0:0:0:0:
256,192,77592,1,8,0:0:0:0:
256,192,77652,1,0,0:0:0:0:
256,192,77712,1,0,0:0:0:0:
256,192,77772,1,8,0:0:0:0:
256,192,77832,1,8,0:0:0:0:
256,192,77892,1,0,0:0:0:0:
256,192,77952,1,0,0:0:0:0:
256,192,78012,1,8,0:0:0:0:
256,192,78072,1,0,0:0:0:0:
256,192,78132,1,0,0:0:0:0:
256,192,78192,1,8,0:0:0:0:
256,192,78252,1,8,0:0:0:0:
256,192,78312,1,0,0:0:0:0:
256,192,78372,1,8,0:0:0:0:
256,192,78432,1,0,0:0:0:0:
256,192,78492,1,8,0:0:0:0:
256,192,78732,1,0,0:0:0:0:
256,192,78852,1,8,0:0:0:0:
256,192,78912,1,8,0:0:0:0:
256,192,78972,1,0,0:0:0:0:
256,192,79092,1,8,0:0:0:0:
256,192,79152,1,8,0:0:0:0:
256,192,79212,1,0,0:0:0:0:
256,192,79332,1,8,0:0:0:0:
256,192,79392,1,8,0:0:0:0:
256,192,79452,1,0,0:0:0:0:
256,192,79572,1,8,0:0:0:0:
256,192,79632,1,0,0:0:0:0:
256,192,79692,1,8,0:0:0:0:
256,192,79812,1,0,0:0:0:0:
256,192,79872,1,8,0:0:0:0:
256,192,79932,1,8,0:0:0:0:
256,192,80052,1,0,0:0:0:0:
256,192,80112,1,8,0:0:0:0:
256,192,80172,1,8,0:0:0:0:
256,192,80292,1,0,0:0:0:0:
256,192,80352,1,8,0:0:0:0:
256,192,80412,1,8,0:0:0:0:
256,192,80532,1,0,0:0:0:0:
256,192,80652,1,8,0:0:0:0:
256,192,80772,1,0,0:0:0:0:
256,192,80892,1,8,0:0:0:0:
256,192,81012,1,0,0:0:0:0:
256,192,81132,1,8,0:0:0:0:
256,192,81252,1,0,0:0:0:0:
256,192,81372,1,8,0:0:0:0:
256,192,81492,1,0,0:0:0:0:
256,192,81612,1,8,0:0:0:0:
256,192,81732,1,8,0:0:0:0:
256,192,81792,1,8,0:0:0:0:
256,192,81852,1,0,0:0:0:0:
256,192,81912,1,8,0:0:0:0:
256,192,81972,1,0,0:0:0:0:
256,192,82092,1,8,0:0:0:0:
256,192,82212,1,0,0:0:0:0:
256,192,82272,1,0,0:0:0:0:
256,192,82332,1,8,0:0:0:0:
256,192,82392,1,0,0:0:0:0:
256,192,82452,1,8,0:0:0:0:
256,192,82572,1,4,0:0:0:0:
256,192,82812,1,8,0:0:0:0:
256,192,82932,1,8,0:0:0:0:
256,192,82992,1,8,0:0:0:0:
256,192,83052,1,0,0:0:0:0:
256,192,83112,1,8,0:0:0:0:
256,192,83172,1,0,0:0:0:0:
256,192,83232,1,8,0:0:0:0:
256,192,83292,1,0,0:0:0:0:
256,192,83412,1,0,0:0:0:0:
256,192,83532,1,8,0:0:0:0:
256,192,83652,1,0,0:0:0:0:
256,192,83772,1,8,0:0:0:0:
256,192,83832,1,8,0:0:0:0:
256,192,83892,1,0,0:0:0:0:
256,192,83952,1,8,0:0:0:0:
256,192,84012,1,0,0:0:0:0:
256,192,84072,1,8,0:0:0:0:
256,192,84132,1,0,0:0:0:0:
256,192,84192,1,8,0:0:0:0:
256,192,84252,1,8,0:0:0:0:
256,192,84372,1,0,0:0:0:0:
256,192,84492,1,8,0:0:0:0:
256,192,84612,1,0,0:0:0:0:
256,192,84732,1,8,0:0:0:0:
256,192,84792,1,8,0:0:0:0:
256,192,84852,1,8,0:0:0:0:
256,192,84912,1,0,0:0:0:0:
256,192,84972,1,8,0:0:0:0:
256,192,85032,1,0,0:0:0:0:
256,192,85092,1,0,0:0:0:0:
256,192,85152,1,8,0:0:0:0:
256,192,85212,1,8,0:0:0:0:
256,192,85332,1,8,0:0:0:0:
256,192,85452,1,0,0:0:0:0:
256,192,85572,1,8,0:0:0:0:
256,192,85632,1,0,0:0:0:0:
256,192,85692,1,8,0:0:0:0:
256,192,85812,1,0,0:0:0:0:
256,192,85872,1,8,0:0:0:0:
256,192,85932,1,0,0:0:0:0:
256,192,86052,1,0,0:0:0:0:
256,192,86172,1,8,0:0:0:0:
256,192,86212,1,0,0:0:0:0:
256,192,86252,1,0,0:0:0:0:
256,192,86292,1,0,0:0:0:0:
256,192,86412,1,12,0:0:0:0:
256,192,86652,1,8,0:0:0:0:
256,192,86772,1,0,0:0:0:0:
256,192,86832,1,8,0:0:0:0:
256,192,86892,1,8,0:0:0:0:
256,192,86952,1,8,0:0:0:0:
256,192,87012,1,0,0:0:0:0:
256,192,87072,1,0,0:0:0:0:
256,192,87132,1,8,0:0:0:0:
256,192,87252,1,0,0:0:0:0:
256,192,87372,1,8,0:0:0:0:
256,192,87492,1,0,0:0:0:0:
256,192,87612,1,8,0:0:0:0:
256,192,87672,1,0,0:0:0:0:
256,192,87732,1,0,0:0:0:0:
256,192,87792,1,8,0:0:0:0:
256,192,87852,1,8,0:0:0:0:
256,192,87912,1,8,0:0:0:0:
256,192,87972,1,0,0:0:0:0:
256,192,88032,1,0,0:0:0:0:
256,192,88092,1,8,0:0:0:0:
256,192,88212,1,0,0:0:0:0:
256,192,88332,1,8,0:0:0:0:
256,192,88452,1,0,0:0:0:0:
256,192,88572,1,8,0:0:0:0:
256,192,88632,1,0,0:0:0:0:
256,192,88692,1,0,0:0:0:0:
256,192,88752,1,8,0:0:0:0:
256,192,88812,1,0,0:0:0:0:
256,192,88872,1,8,0:0:0:0:
256,192,88932,1,8,0:0:0:0:
256,192,88992,1,0,0:0:0:0:
256,192,89052,1,8,0:0:0:0:
256,192,89172,1,8,0:0:0:0:
256,192,89292,1,4,0:0:0:0:
256,192,89532,1,12,0:0:0:0:
256,192,89652,1,12,0:0:0:0:
256,192,89772,1,12,0:0:0:0:
256,192,89892,1,12,0:0:0:0:
256,192,90012,1,12,0:0:0:0:
256,192,90132,1,12,0:0:0:0:
256,192,90252,1,0,0:0:0:0:
256,192,90372,1,0,0:0:0:0:
256,192,90432,1,0,0:0:0:0:
256,192,90492,1,8,0:0:0:0:
256,192,90612,1,0,0:0:0:0:
256,192,90672,1,8,0:0:0:0:
256,192,90732,1,8,0:0:0:0:
256,192,90792,1,0,0:0:0:0:
256,192,90852,1,0,0:0:0:0:
256,192,90912,1,0,0:0:0:0:
256,192,90972,1,8,0:0:0:0:
256,192,91092,1,8,0:0:0:0:
256,192,91212,1,0,0:0:0:0:
256,192,91332,1,8,0:0:0:0:
256,192,91392,1,0,0:0:0:0:
256,192,91452,1,8,0:0:0:0:
256,192,91572,1,8,0:0:0:0:
256,192,91632,1,8,0:0:0:0:
256,192,91692,1,0,0:0:0:0:
256,192,91752,1,0,0:0:0:0:
256,192,91812,1,0,0:0:0:0:
256,192,91872,1,8,0:0:0:0:
256,192,91932,1,8,0:0:0:0:
256,192,92052,1,8,0:0:0:0:
256,192,92172,1,0,0:0:0:0:
256,192,92292,1,8,0:0:0:0:
256,192,92412,1,8,0:0:0:0:
256,192,92472,1,8,0:0:0:0:
256,192,92532,1,0,0:0:0:0:
256,192,92592,1,8,0:0:0:0:
256,192,92652,1,8,0:0:0:0:
256,192,92712,1,8,0:0:0:0:
256,192,92772,1,0,0:0:0:0:
256,192,92832,1,0,0:0:0:0:
256,192,92892,1,8,0:0:0:0:
256,192,93012,1,0,0:0:0:0:
256,192,93132,1,0,0:0:0:0:
256,192,93252,1,0,0:0:0:0:
256,192,93372,1,8,0:0:0:0:
256,192,93432,1,8,0:0:0:0:
256,192,93492,1,0,0:0:0:0:
256,192,93552,1,0,0:0:0:0:
256,192,93612,1,0,0:0:0:0:
256,192,93672,1,8,0:0:0:0:
256,192,93732,1,8,0:0:0:0:
256,192,93792,1,0,0:0:0:0:
256,192,93852,1,8,0:0:0:0:
256,192,93972,1,8,0:0:0:0:
256,192,94092,1,0,0:0:0:0:
256,192,94212,1,8,0:0:0:0:
256,192,94332,1,0,0:0:0:0:
256,192,94392,1,8,0:0:0:0:
256,192,94452,1,0,0:0:0:0:
256,192,94512,1,8,0:0:0:0:
256,192,94572,1,8,0:0:0:0:
256,192,94632,1,0,0:0:0:0:
256,192,94692,1,0,0:0:0:0:
256,192,94752,1,8,0:0:0:0:
256,192,94812,1,8,0:0:0:0:
256,192,94932,1,0,0:0:0:0:
256,192,95052,1,8,0:0:0:0:
256,192,95172,1,0,0:0:0:0:
256,192,95292,1,8,0:0:0:0:
256,192,95352,1,0,0:0:0:0:
256,192,95412,1,0,0:0:0:0:
256,192,95472,1,8,0:0:0:0:
256,192,95532,1,0,0:0:0:0:
256,192,95592,1,8,0:0:0:0:
256,192,95652,1,0,0:0:0:0:
256,192,95712,1,8,0:0:0:0:
256,192,95772,1,8,0:0:0:0:
256,192,95892,1,0,0:0:0:0:
256,192,96012,1,8,0:0:0:0:
256,192,96072,1,8,0:0:0:0:
256,192,96132,1,0,0:0:0:0:
256,192,96192,1,0,0:0:0:0:
256,192,96252,1,8,0:0:0:0:
256,192,96312,1,8,0:0:0:0:
256,192,96372,1,0,0:0:0:0:
256,192,96432,1,0,0:0:0:0:
256,192,96492,1,8,0:0:0:0:
256,192,96552,1,0,0:0:0:0:
256,192,96612,1,0,0:0:0:0:
256,192,96672,1,0,0:0:0:0:
256,192,96732,1,8,0:0:0:0:
256,192,96792,1,8,0:0:0:0:
256,192,96852,1,8,0:0:0:0:
256,192,96912,1,8,0:0:0:0:
256,192,96972,1,0,0:0:0:0:
256,192,97092,1,0,0:0:0:0:
256,192,97152,1,0,0:0:0:0:
256,192,97212,1,8,0:0:0:0:
256,192,97332,1,0,0:0:0:0:
256,192,97392,1,8,0:0:0:0:
256,192,97452,1,8,0:0:0:0:
256,192,97512,1,0,0:0:0:0:
256,192,97572,1,0,0:0:0:0:
256,192,97692,1,8,0:0:0:0:
256,192,97732,1,8,0:0:0:0:
256,192,97772,1,8,0:0:0:0:
256,192,97812,1,0,0:0:0:0:
256,192,97932,1,12,0:0:0:0:
256,192,98052,1,0,0:0:0:0:
256,192,98112,1,0,0:0:0:0:
256,192,98172,1,8,0:0:0:0:
256,192,98292,1,0,0:0:0:0:
256,192,98352,1,0,0:0:0:0:
256,192,98412,1,8,0:0:0:0:
256,192,98472,1,8,0:0:0:0:
256,192,98532,1,0,0:0:0:0:
256,192,98592,1,0,0:0:0:0:
256,192,98652,1,8,0:0:0:0:
256,192,98772,1,0,0:0:0:0:
256,192,98892,1,8,0:0:0:0:
256,192,99012,1,8,0:0:0:0:
256,192,99072,1,0,0:0:0:0:
256,192,99132,1,8,0:0:0:0:
256,192,99252,1,0,0:0:0:0:
256,192,99312,1,0,0:0:0:0:
256,192,99372,1,8,0:0:0:0:
256,192,99432,1,0,0:0:0:0:
256,192,99492,1,0,0:0:0:0:
256,192,99552,1,8,0:0:0:0:
256,192,99612,1,8,0:0:0:0:
256,192,99732,1,0,0:0:0:0:
256,192,99852,1,8,0:0:0:0:
256,192,99972,1,0,0:0:0:0:
256,192,100032,1,8,0:0:0:0:
256,192,100092,1,0,0:0:0:0:
256,192,100212,1,0,0:0:0:0:
256,192,100272,1,8,0:0:0:0:
256,192,100332,1,0,0:0:0:0:
256,192,100392,1,0,0:0:0:0:
256,192,100452,1,8,0:0:0:0:
256,192,100512,1,0,0:0:0:0:
256,192,100572,1,8,0:0:0:0:
256,192,100692,1,8,0:0:0:0:
256,192,100752,1,8,0:0:0:0:
256,192,100812,1,0,0:0:0:0:
256,192,100932,1,0,0:0:0:0:
256,192,101052,1,8,0:0:0:0:
256,192,101172,1,0,0:0:0:0:
256,192,101232,1,0,0:0:0:0:
256,192,101292,1,8,0:0:0:0:
256,192,101352,1,0,0:0:0:0:
256,192,101412,1,8,0:0:0:0:
256,192,101472,1,8,0:0:0:0:
256,192,101532,1,8,0:0:0:0:
256,192,101652,1,0,0:0:0:0:
256,192,101772,1,8,0:0:0:0:
256,192,101892,1,0,0:0:0:0:
256,192,101952,1,0,0:0:0:0:
256,192,102012,1,8,0:0:0:0:
256,192,102072,1,8,0:0:0:0:
256,192,102132,1,8,0:0:0:0:
256,192,102192,1,0,0:0:0:0:
256,192,102252,1,8,0:0:0:0:
256,192,102372,1,0,0:0:0:0:
256,192,102492,1,8,0:0:0:0:
256,192,102552,1,8,0:0:0:0:
256,192,102612,1,8,0:0:0:0:
256,192,102672,1,0,0:0:0:0:
256,192,102732,1,0,0:0:0:0:
256,192,102852,1,0,0:0:0:0:
256,192,102972,1,8,0:0:0:0:
256,192,103092,1,0,0:0:0:0:
256,192,103152,1,0,0:0:0:0:
256,192,103212,1,0,0:0:0:0:
256,192,103272,1,8,0:0:0:0:
256,192,103332,1,8,0:0:0:0:
256,192,103392,1,0,0:0:0:0:
256,192,103452,1,8,0:0:0:0:
256,192,103572,1,0,0:0:0:0:
256,192,103692,1,8,0:0:0:0:
256,192,103752,1,0,0:0:0:0:
256,192,103812,1,0,0:0:0:0:
256,192,103872,1,8,0:0:0:0:
256,192,103932,1,8,0:0:0:0:
256,192,104052,1,0,0:0:0:0:
256,192,104172,1,8,0:0:0:0:
256,192,104232,1,8,0:0:0:0:
256,192,104292,1,0,0:0:0:0:
256,192,104352,1,8,0:0:0:0:
256,192,104412,1,0,0:0:0:0:
256,192,104532,1,8,0:0:0:0:
256,192,104652,1,8,0:0:0:0:
256,192,104712,1,8,0:0:0:0:
256,192,104772,1,0,0:0:0:0:
256,192,104832,1,0,0:0:0:0:
256,192,104892,1,8,0:0:0:0:
256,192,104952,1,0,0:0:0:0:
256,192,105012,1,8,0:0:0:0:
256,192,105132,1,0,0:0:0:0:
256,192,105252,1,8,0:0:0:0:
256,192,105372,1,0,0:0:0:0:
256,192,105432,1,8,0:0:0:0:
256,192,105492,1,8,0:0:0:0:
256,192,105552,1,8,0:0:0:0:
256,192,105612,1,0,0:0:0:0:
256,192,105732,1,8,0:0:0:0:
256,192,105792,1,8,0:0:0:0:
256,192,105852,1,0,0:0:0:0:
256,192,105972,1,8,0:0:0:0:
256,192,106032,1,8,0:0:0:0:
256,192,106092,1,0,0:0:0:0:
256,192,106212,1,0,0:0:0:0:
256,192,106332,1,8,0:0:0:0:
256,192,106392,1,0,0:0:0:0:
256,192,106452,1,8,0:0:0:0:
256,192,106512,1,8,0:0:0:0:
256,192,106572,1,0,0:0:0:0:
256,192,106692,1,0,0:0:0:0:
256,192,106752,1,8,0:0:0:0:
256,192,106812,1,8,0:0:0:0:
256,192,106932,1,8,0:0:0:0:
256,192,107052,1,0,0:0:0:0:
256,192,107112,1,8,0:0:0:0:
256,192,107172,1,8,0:0:0:0:
256,192,107232,1,0,0:0:0:0:
256,192,107292,1,0,0:0:0:0:
256,192,107412,1,0,0:0:0:0:
256,192,107532,1,8,0:0:0:0:
256,192,107592,1,0,0:0:0:0:
256,192,107652,1,8,0:0:0:0:
256,192,107772,1,0,0:0:0:0:
256,192,107892,1,0,0:0:0:0:
256,192,107952,1,8,0:0:0:0:
256,192,108012,1,0,0:0:0:0:
256,192,108072,1,8,0:0:0:0:
256,192,108132,1,0,0:0:0:0:
256,192,108252,1,8,0:0:0:0:
256,192,108312,1,8,0:0:0:0:
256,192,108372,1,0,0:0:0:0:
256,192,108492,1,8,0:0:0:0:
256,192,108612,1,0,0:0:0:0:
256,192,108672,1,8,0:0:0:0:
256,192,108732,1,0,0:0:0:0:
256,192,108852,1,0,0:0:0:0:
256,192,108972,1,8,0:0:0:0:
256,192,109032,1,0,0:0:0:0:
256,192,109092,1,0,0:0:0:0:
256,192,109152,1,8,0:0:0:0:
256,192,109212,1,8,0:0:0:0:
256,192,109332,1,0,0:0:0:0:
256,192,109452,1,8,0:0:0:0:
256,192,109572,1,0,0:0:0:0:
256,192,109692,1,8,0:0:0:0:
256,192,109812,1,0,0:0:0:0:
256,192,109932,1,8,0:0:0:0:
256,192,110052,1,0,0:0:0:0:
256,192,110172,1,8,0:0:0:0:
256,192,110292,1,0,0:0:0:0:
256,192,110412,1,8,0:0:0:0:
256,192,110532,1,0,0:0:0:0:
256,192,110592,1,0,0:0:0:0:
256,192,110652,1,8,0:0:0:0:
256,192,110772,1,0,0:0:0:0:
256,192,110832,1,0,0:0:0:0:
256,192,110892,1,8,0:0:0:0:
256,192,111012,1,0,0:0:0:0:
256,192,111072,1,0,0:0:0:0:
256,192,111132,1,8,0:0:0:0:
256,192,111252,1,0,0:0:0:0:
256,192,111372,1,8,0:0:0:0:
256,192,111432,1,8,0:0:0:0:
256,192,111492,1,0,0:0:0:0:
256,192,111552,1,0,0:0:0:0:
256,192,111612,1,8,0:0:0:0:
256,192,111672,1,8,0:0:0:0:
256,192,111732,1,0,0:0:0:0:
256,192,111792,1,0,0:0:0:0:
256,192,111852,1,8,0:0:0:0:
256,192,111912,1,8,0:0:0:0:
256,192,111972,1,0,0:0:0:0:
256,192,112032,1,0,0:0:0:0:
256,192,112092,1,8,0:0:0:0:
256,192,112152,1,8,0:0:0:0:
256,192,112212,1,8,0:0:0:0:
256,192,112272,1,0,0:0:0:0:
256,192,112332,1,8,0:0:0:0:
256,192,112572,1,0,0:0:0:0:
256,192,112812,1,0,0:0:0:0:
256,192,113052,1,12,0:0:0:0:
256,192,113292,1,4,0:0:0:0:
256,192,113412,1,8,0:0:0:0:
256,192,113472,1,0,0:0:0:0:
256,192,113592,1,8,0:0:0:0:
256,192,113652,1,0,0:0:0:0:
256,192,113772,1,8,0:0:0:0:
256,192,113832,1,0,0:0:0:0:
256,192,113892,1,0,0:0:0:0:
256,192,113952,1,8,0:0:0:0:
256,192,114012,1,0,0:0:0:0:
256,192,114072,1,8,0:0:0:0:
256,192,114132,1,8,0:0:0:0:
256,192,114192,1,0,0:0:0:0:
256,192,114252,1,8,0:0:0:0:
256,192,114372,1,0,0:0:0:0:
256,192,114432,1,0,0:0:0:0:
256,192,114552,1,8,0:0:0:0:
256,192,114612,1,0,0:0:0:0:
256,192,114732,1,8,0:0:0:0:
256,192,114792,1,8,0:0:0:0:
256,192,114852,1,0,0:0:0:0:
256,192,114912,1,0,0:0:0:0:
256,192,114972,1,8,0:0:0:0:
256,192,115032,1,0,0:0:0:0:
256,192,115092,1,8,0:0:0:0:
256,192,115152,1,8,0:0:0:0:
256,192,115212,1,0,0:0:0:0:
256,192,115332,1,8,0:0:0:0:
256,192,115392,1,0,0:0:0:0:
256,192,115512,1,8,0:0:0:0:
256,192,115572,1,0,0:0:0:0:
256,192,115692,1,8,0:0:0:0:
256,192,115812,1,0,0:0:0:0:
256,192,115872,1,8,0:0:0:0:
256,192,115992,1,0,0:0:0:0:
256,192,116052,1,8,0:0:0:0:
256,192,116172,1,0,0:0:0:0:
256,192,116292,1,8,0:0:0:0:
256,192,116352,1,8,0:0:0:0:
256,192,116472,1,0,0:0:0:0:
256,192,116532,1,0,0:0:0:0:
256,192,116652,1,0,0:0:0:0:
256,192,116712,1,8,0:0:0:0:
256,192,116772,1,8,0:0:0:0:
256,192,116832,1,0,0:0:0:0:
256,192,116892,1,8,0:0:0:0:
256,192,116952,1,0,0:0:0:0:
256,192,117012,1,8,0:0:0:0:
256,192,117132,1,0,0:0:0:0:
256,192,117252,1,8,0:0:0:0:
256,192,117312,1,0,0:0:0:0:
256,192,117432,1,8,0:0:0:0:
256,192,117492,1,0,0:0:0:0:
256,192,117612,1,8,0:0:0:0:
256,192,117672,1,8,0:0:0:0:
256,192,117732,1,0,0:0:0:0:
256,192,117792,1,0,0:0:0:0:
256,192,117852,1,8,0:0:0:0:
256,192,117912,1,8,0:0:0:0:
256,192,117972,1,8,0:0:0:0:
256,192,118032,1,0,0:0:0:0:
256,192,118092,1,8,0:0:0:0:
256,192,118212,1,8,0:0:0:0:
256,192,118272,1,8,0:0:0:0:
256,192,118392,1,0,0:0:0:0:
256,192,118452,1,0,0:0:0:0:
256,192,118572,1,8,0:0:0:0:
256,192,118632,1,0,0:0:0:0:
256,192,118692,1,0,0:0:0:0:
256,192,118752,1,8,0:0:0:0:
256,192,118812,1,0,0:0:0:0:
256,192,118872,1,0,0:0:0:0:
256,192,118932,1,8,0:0:0:0:
256,192,118992,1,8,0:0:0:0:
256,192,119052,1,0,0:0:0:0:
256,192,119172,1,0,0:0:0:0:
256,192,119232,1,8,0:0:0:0:
256,192,119352,1,0,0:0:0:0:
256,192,119412,1,8,0:0:0:0:
256,192,119532,1,0,0:0:0:0:
256,192,119652,1,8,0:0:0:0:
256,192,119712,1,0,0:0:0:0:
256,192,119832,1,8,0:0:0:0:
256,192,119892,1,0,0:0:0:0:
256,192,120012,1,8,0:0:0:0:
256,192,120132,1,0,0:0:0:0:
256,192,120192,1,0,0:0:0:0:
256,192,120312,1,0,0:0:0:0:
256,192,120372,1,0,0:0:0:0:
256,192,120492,1,8,0:0:0:0:
256,192,120552,1,8,0:0:0:0:
256,192,120612,1,8,0:0:0:0:
256,192,120672,1,0,0:0:0:0:
256,192,120732,1,8,0:0:0:0:
256,192,120792,1,0,0:0:0:0:
256,192,120852,1,0,0:0:0:0:
256,192,120912,1,8,0:0:0:0:
256,192,120972,1,0,0:0:0:0:
256,192,121092,1,8,0:0:0:0:
256,192,121152,1,0,0:0:0:0:
256,192,121272,1,8,0:0:0:0:
256,192,121332,1,8,0:0:0:0:
256,192,121452,1,0,0:0:0:0:
256,192,121512,1,8,0:0:0:0:
256,192,121572,1,8,0:0:0:0:
256,192,121632,1,0,0:0:0:0:
256,192,121692,1,8,0:0:0:0:
256,192,121752,1,0,0:0:0:0:
256,192,121812,1,0,0:0:0:0:
256,192,121872,1,8,0:0:0:0:
256,192,121932,1,0,0:0:0:0:
256,192,122052,1,8,0:0:0:0:
256,192,122112,1,8,0:0:0:0:
256,192,122172,1,0,0:0:0:0:
256,192,122232,1,0,0:0:0:0:
256,192,122292,1,8,0:0:0:0:
256,192,122412,1,0,0:0:0:0:
256,192,122472,1,8,0:0:0:0:
256,192,122592,1,8,0:0:0:0:
256,192,122652,1,0,0:0:0:0:
256,192,122892,1,8,0:0:0:0:
256,192,123012,1,0,0:0:0:0:
256,192,123072,1,0,0:0:0:0:
256,192,123192,1,8,0:0:0:0:
256,192,123252,1,0,0:0:0:0:
256,192,123372,1,0,0:0:0:0:
256,192,123492,1,8,0:0:0:0:
256,192,123552,1,8,0:0:0:0:
256,192,123672,1,0,0:0:0:0:
256,192,123732,1,8,0:0:0:0:
256,192,123852,1,0,0:0:0:0:
256,192,123972,1,8,0:0:0:0:
256,192,124032,1,0,0:0:0:0:
256,192,124152,1,8,0:0:0:0:
256,192,124212,1,8,0:0:0:0:
256,192,124332,1,0,0:0:0:0:
256,192,124392,1,8,0:0:0:0:
256,192,124512,1,0,0:0:0:0:
256,192,124572,1,8,0:0:0:0:
256,192,124632,1,0,0:0:0:0:
256,192,124692,1,8,0:0:0:0:
256,192,124812,1,0,0:0:0:0:
256,192,124932,1,0,0:0:0:0:
256,192,125052,1,8,0:0:0:0:
256,192,125172,1,8,0:0:0:0:
256,192,125292,1,0,0:0:0:0:
256,192,125412,1,0,0:0:0:0:
256,192,125532,1,8,0:0:0:0:
256,192,125652,1,8,0:0:0:0:
256,192,125772,1,0,0:0:0:0:
256,192,125892,1,0,0:0:0:0:
256,192,126012,1,8,0:0:0:0:
256,192,126132,1,8,0:0:0:0:
256,192,126252,1,0,0:0:0:0:
256,192,126372,1,0,0:0:0:0:
256,192,126492,1,8,0:0:0:0:
256,192,126612,1,8,0:0:0:0:
256,192,126732,1,0,0:0:0:0:
256,192,126792,1,8,0:0:0:0:
256,192,126852,1,8,0:0:0:0:
256,192,126912,1,8,0:0:0:0:
256,192,126972,1,0,0:0:0:0:
256,192,127032,1,8,0:0:0:0:
256,192,127092,1,8,0:0:0:0:
256,192,127152,1,8,0:0:0:0:
256,192,127212,1,0,0:0:0:0:
256,192,127272,1,0,0:0:0:0:
256,192,127332,1,0,0:0:0:0:
256,192,127392,1,8,0:0:0:0:
256,192,127452,1,8,0:0:0:0:
256,192,127512,1,0,0:0:0:0:
256,192,127572,1,8,0:0:0:0:
256,192,127632,1,8,0:0:0:0:
256,192,127692,1,0,0:0:0:0:
256,192,127812,12,0,128532,0:0:0:0:
256,192,128652,5,4,0:0:0:0:
256,192,129612,1,12,0:0:0:0:
256,192,129732,1,0,0:0:0:0:
256,192,129792,1,0,0:0:0:0:
256,192,129852,1,8,0:0:0:0:
256,192,129972,1,0,0:0:0:0:
256,192,130092,1,8,0:0:0:0:
256,192,130212,1,0,0:0:0:0:
256,192,130252,1,8,0:0:0:0:
256,192,130292,1,8,0:0:0:0:
256,192,130332,1,0,0:0:0:0:
256,192,130452,1,8,0:0:0:0:
256,192,130572,1,0,0:0:0:0:
256,192,130632,1,0,0:0:0:0:
256,192,130692,1,8,0:0:0:0:
256,192,130752,1,0,0:0:0:0:
256,192,130812,1,8,0:0:0:0:
256,192,130932,1,0,0:0:0:0:
256,192,131052,1,8,0:0:0:0:
256,192,131172,1,0,0:0:0:0:
256,192,131232,1,0,0:0:0:0:
256,192,131292,1,8,0:0:0:0:
256,192,131352,1,0,0:0:0:0:
256,192,131412,1,8,0:0:0:0:
256,192,131472,1,8,0:0:0:0:
256,192,131532,1,0,0:0:0:0:
256,192,131772,1,8,0:0:0:0:
256,192,131892,1,0,0:0:0:0:
256,192,132012,1,8,0:0:0:0:
256,192,132072,1,8,0:0:0:0:
256,192,132132,1,0,0:0:0:0:
256,192,132192,1,0,0:0:0:0:
256,192,132252,1,8,0:0:0:0:
256,192,132372,1,0,0:0:0:0:
256,192,132492,1,8,0:0:0:0:
256,192,132572,1,0,0:0:0:0:
256,192,132652,1,8,0:0:0:0:
256,192,132732,1,0,0:0:0:0:
256,192,132812,1,8,0:0:0:0:
256,192,132892,1,8,0:0:0:0:
256,192,132972,1,4,0:0:0:0:
256,192,133212,1,4,0:0:0:0:
256,192,133452,1,8,0:0:0:0:
256,192,133572,1,0,0:0:0:0:
256,192,133632,1,8,0:0:0:0:
256,192,133692,1,0,0:0:0:0:
256,192,133752,1,0,0:0:0:0:
256,192,133812,1,8,0:0:0:0:
256,192,133872,1,0,0:0:0:0:
256,192,133932,1,8,0:0:0:0:
256,192,134052,1,8,0:0:0:0:
256,192,134112,1,0,0:0:0:0:
256,192,134172,1,8,0:0:0:0:
256,192,134292,1,0,0:0:0:0:
256,192,134412,1,8,0:0:0:0:
256,192,134532,1,0,0:0:0:0:
256,192,134592,1,8,0:0:0:0:
256,192,134652,1,0,0:0:0:0:
256,192,134772,1,8,0:0:0:0:
256,192,134812,1,0,0:0:0:0:
256,192,134852,1,0,0:0:0:0:
256,192,134892,1,8,0:0:0:0:
256,192,134952,1,8,0:0:0:0:
256,192,135012,1,8,0:0:0:0:
256,192,135072,1,8,0:0:0:0:
256,192,135132,1,0,0:0:0:0:
256,192,135192,1,0,0:0:0:0:
256,192,135252,1,8,0:0:0:0:
256,192,135312,1,8,0:0:0:0:
256,192,135372,1,0,0:0:0:0:
256,192,135492,1,0,0:0:0:0:
256,192,135612,1,8,0:0:0:0:
256,192,135672,1,8,0:0:0:0:
256,192,135732,1,0,0:0:0:0:
256,192,135792,1,8,0:0:0:0:
256,192,135852,1,0,0:0:0:0:
256,192,135972,1,0,0:0:0:0:
256,192,136092,1,8,0:0:0:0:
256,192,136152,1,0,0:0:0:0:
256,192,136212,1,0,0:0:0:0:
256,192,136272,1,8,0:0:0:0:
256,192,136332,1,8,0:0:0:0:
256,192,136452,1,8,0:0:0:0:
256,192,136512,1,8,0:0:0:0:
256,192,136572,1,0,0:0:0:0:
256,192,136692,1,0,0:0:0:0:
256,192,136812,1,8,0:0:0:0:
256,192,136932,1,0,0:0:0:0:
256,192,136992,1,8,0:0:0:0:
256,192,137052,1,0,0:0:0:0:
256,192,137112,1,8,0:0:0:0:
256,192,137172,1,0,0:0:0:0:
256,192,137232,1,8,0:0:0:0:
256,192,137292,1,0,0:0:0:0:
256,192,137412,1,8,0:0:0:0:
256,192,137472,1,0,0:0:0:0:
256,192,137532,1,8,0:0:0:0:
256,192,137652,1,0,0:0:0:0:
256,192,137772,1,8,0:0:0:0:
256,192,137832,1,8,0:0:0:0:
256,192,137892,1,8,0:0:0:0:
256,192,137952,1,0,0:0:0:0:
256,192,138012,1,8,0:0:0:0:
256,192,138132,1,0,0:0:0:0:
256,192,138252,1,8,0:0:0:0:
256,192,138312,1,0,0:0:0:0:
256,192,138372,1,8,0:0:0:0:
256,192,138432,1,8,0:0:0:0:
256,192,138492,1,0,0:0:0:0:
256,192,138612,1,0,0:0:0:0:
256,192,138732,1,8,0:0:0:0:
256,192,138852,1,0,0:0:0:0:
256,192,138912,1,8,0:0:0:0:
256,192,138972,1,8,0:0:0:0:
256,192,139032,1,0,0:0:0:0:
256,192,139092,1,0,0:0:0:0:
256,192,139152,1,8,0:0:0:0:
256,192,139212,1,0,0:0:0:0:
256,192,139332,1,8,0:0:0:0:
256,192,139392,1,8,0:0:0:0:
256,192,139452,1,0,0:0:0:0:
256,192,139572,1,0,0:0:0:0:
256,192,139692,1,8,0:0:0:0:
256,192,139812,1,0,0:0:0:0:
256,192,139872,1,0,0:0:0:0:
256,192,139932,1,8,0:0:0:0:
256,192,139992,1,8,0:0:0:0:
256,192,140052,1,0,0:0:0:0:
256,192,140112,1,8,0:0:0:0:
256,192,140172,1,0,0:0:0:0:
256,192,140292,1,0,0:0:0:0:
256,192,140412,1,8,0:0:0:0:
256,192,140532,1,0,0:0:0:0:
256,192,140592,1,0,0:0:0:0:
256,192,140652,1,8,0:0:0:0:
256,192,140772,1,0,0:0:0:0:
256,192,140892,1,8,0:0:0:0:
256,192,140952,1,8,0:0:0:0:
256,192,141012,1,0,0:0:0:0:
256,192,141072,1,8,0:0:0:0:
256,192,141132,1,0,0:0:0:0:
256,192,141252,1,0,0:0:0:0:
256,192,141312,1,8,0:0:0:0:
256,192,141372,1,0,0:0:0:0:
256,192,141492,1,0,0:0:0:0:
256,192,141612,1,8,0:0:0:0:
256,192,141732,1,0,0:0:0:0:
256,192,141792,1,8,0:0:0:0:
256,192,141852,1,0,0:0:0:0:
256,192,141912,1,8,0:0:0:0:
256,192,141972,1,8,0:0:0:0:
256,192,142092,1,8,0:0:0:0:
256,192,142212,1,0,0:0:0:0:
256,192,142272,1,0,0:0:0:0:
256,192,142332,1,8,0:0:0:0:
256,192,142392,1,8,0:0:0:0:
256,192,142452,1,0,0:0:0:0:
256,192,142572,1,8,0:0:0:0:
256,192,142692,1,0,0:0:0:0:
256,192,142752,1,8,0:0:0:0:
256,192,142812,1,0,0:0:0:0:
256,192,142872,1,0,0:0:0:0:
256,192,142932,1,8,0:0:0:0:
256,192,142992,1,8,0:0:0:0:
256,192,143052,1,0,0:0:0:0:
256,192,143172,1,8,0:0:0:0:
256,192,143232,1,8,0:0:0:0:
256,192,143292,1,0,0:0:0:0:
256,192,143412,1,8,0:0:0:0:
256,192,143532,1,8,0:0:0:0:
256,192,143592,1,8,0:0:0:0:
256,192,143652,1,8,0:0:0:0:
256,192,143712,1,8,0:0:0:0:
256,192,143772,1,0,0:0:0:0:
256,192,143832,1,0,0:0:0:0:
256,192,143892,1,0,0:0:0:0:
256,192,143952,1,0,0:0:0:0:
256,192,144012,1,8,0:0:0:0:
256,192,144132,1,0,0:0:0:0:
256,192,144252,1,8,0:0:0:0:
256,192,144372,1,0,0:0:0:0:
256,192,144492,1,8,0:0:0:0:
256,192,144532,1,8,0:0:0:0:
256,192,144572,1,8,0:0:0:0:
256,192,144612,1,0,0:0:0:0:
256,192,144732,1,8,0:0:0:0:
256,192,144972,1,4,0:0:0:0:
256,192,145212,1,8,0:0:0:0:
256,192,145332,1,0,0:0:0:0:
256,192,145392,1,0,0:0:0:0:
256,192,145452,1,8,0:0:0:0:
256,192,145512,1,0,0:0:0:0:
256,192,145572,1,0,0:0:0:0:
256,192,145632,1,8,0:0:0:0:
256,192,145692,1,8,0:0:0:0:
256,192,145812,1,0,0:0:0:0:
256,192,145932,1,8,0:0:0:0:
256,192,145992,1,8,0:0:0:0:
256,192,146052,1,0,0:0:0:0:
256,192,146112,1,0,0:0:0:0:
256,192,146172,1,8,0:0:0:0:
256,192,146292,1,0,0:0:0:0:
256,192,146412,1,8,0:0:0:0:
256,192,146472,1,0,0:0:0:0:
256,192,146532,1,8,0:0:0:0:
256,192,146592,1,8,0:0:0:0:
256,192,146652,1,8,0:0:0:0:
256,192,146772,1,0,0:0:0:0:
256,192,146892,1,8,0:0:0:0:
256,192,147012,1,0,0:0:0:0:
256,192,147072,1,8,0:0:0:0:
256,192,147192,1,0,0:0:0:0:
256,192,147252,1,8,0:0:0:0:
256,192,147372,1,0,0:0:0:0:
256,192,147432,1,0,0:0:0:0:
256,192,147492,1,8,0:0:0:0:
256,192,147552,1,8,0:0:0:0:
256,192,147612,1,0,0:0:0:0:
256,192,147672,1,0,0:0:0:0:
256,192,147732,1,8,0:0:0:0:
256,192,147852,1,0,0:0:0:0:
256,192,147972,1,8,0:0:0:0:
256,192,148032,1,8,0:0:0:0:
256,192,148092,1,0,0:0:0:0:
256,192,148152,1,0,0:0:0:0:
256,192,148212,1,8,0:0:0:0:
256,192,148332,1,0,0:0:0:0:
256,192,148452,1,8,0:0:0:0:
256,192,148512,1,0,0:0:0:0:
256,192,148572,1,8,0:0:0:0:
256,192,148692,1,8,0:0:0:0:
256,192,148812,1,0,0:0:0:0:
256,192,148872,1,8,0:0:0:0:
256,192,148932,1,0,0:0:0:0:
256,192,148992,1,0,0:0:0:0:
256,192,149052,1,8,0:0:0:0:
256,192,149172,1,0,0:0:0:0:
256,192,149232,1,8,0:0:0:0:
256,192,149352,1,8,0:0:0:0:
256,192,149412,1,0,0:0:0:0:
256,192,149532,1,8,0:0:0:0:
256,192,149652,1,8,0:0:0:0:
256,192,149772,1,0,0:0:0:0:
256,192,149892,1,8,0:0:0:0:
256,192,149952,1,0,0:0:0:0:
256,192,150012,1,8,0:0:0:0:
256,192,150132,1,8,0:0:0:0:
256,192,150252,1,0,0:0:0:0:
256,192,150312,1,8,0:0:0:0:
256,192,150372,1,0,0:0:0:0:
256,192,150492,1,8,0:0:0:0:
256,192,150612,1,0,0:0:0:0:
256,192,150732,1,8,0:0:0:0:
256,192,150792,1,0,0:0:0:0:
256,192,150912,1,0,0:0:0:0:
256,192,150972,1,8,0:0:0:0:
256,192,151092,1,8,0:0:0:0:
256,192,151152,1,8,0:0:0:0:
256,192,151272,1,0,0:0:0:0:
256,192,151332,1,8,0:0:0:0:
256,192,151392,1,0,0:0:0:0:
256,192,151452,1,8,0:0:0:0:
256,192,151572,1,0,0:0:0:0:
256,192,151632,1,0,0:0:0:0:
256,192,151692,1,8,0:0:0:0:
256,192,151812,1,0,0:0:0:0:
256,192,151932,1,8,0:0:0:0:
256,192,152052,1,8,0:0:0:0:
256,192,152112,1,0,0:0:0:0:
256,192,152232,1,0,0:0:0:0:
256,192,152292,1,8,0:0:0:0:
256,192,152412,1,8,0:0:0:0:
256,192,152532,1,0,0:0:0:0:
256,192,152652,1,12,0:0:0:0:
256,192,152772,1,0,0:0:0:0:
256,192,152892,1,8,0:0:0:0:
256,192,152952,1,0,0:0:0:0:
256,192,153012,1,0,0:0:0:0:
256,192,153072,1,8,0:0:0:0:
256,192,153132,1,8,0:0:0:0:
256,192,153252,1,0,0:0:0:0:
256,192,153312,1,8,0:0:0:0:
256,192,153372,1,0,0:0:0:0:
256,192,153492,1,0,0:0:0:0:
256,192,153612,1,8,0:0:0:0:
256,192,153732,1,8,0:0:0:0:
256,192,153792,1,0,0:0:0:0:
256,192,153852,1,0,0:0:0:0:
256,192,153972,1,8,0:0:0:0:
256,192,154092,1,0,0:0:0:0:
256,192,154152,1,8,0:0:0:0:
256,192,154212,1,8,0:0:0:0:
256,192,154272,1,0,0:0:0:0:
256,192,154332,1,8,0:0:0:0:
256,192,154452,1,8,0:0:0:0:
256,192,154572,1,0,0:0:0:0:
256,192,154632,1,8,0:0:0:0:
256,192,154752,1,8,0:0:0:0:
256,192,154812,1,0,0:0:0:0:
256,192,154932,1,8,0:0:0:0:
256,192,155052,1,0,0:0:0:0:
256,192,155112,1,8,0:0:0:0:
256,192,155172,1,0,0:0:0:0:
256,192,155232,1,0,0:0:0:0:
256,192,155292,1,8,0:0:0:0:
256,192,155352,1,0,0:0:0:0:
256,192,155412,1,8,0:0:0:0:
256,192,155472,1,8,0:0:0:0:
256,192,155532,1,0,0:0:0:0:
256,192,155652,1,0,0:0:0:0:
256,192,155772,1,8,0:0:0:0:
256,192,155892,1,8,0:0:0:0:
256,192,155952,1,8,0:0:0:0:
256,192,156012,1,0,0:0:0:0:
256,192,156132,1,0,0:0:0:0:
256,192,156192,1,0,0:0:0:0:
256,192,156252,1,8,0:0:0:0:
256,192,156372,1,0,0:0:0:0:
256,192,156492,1,8,0:0:0:0:
256,192,156552,1,8,0:0:0:0:
256,192,156672,1,0,0:0:0:0:
256,192,156732,1,8,0:0:0:0:
256,192,156852,1,8,0:0:0:0:
256,192,156912,1,0,0:0:0:0:
256,192,157032,1,0,0:0:0:0:
256,192,157092,1,0,0:0:0:0:
256,192,157212,1,8,0:0:0:0:
256,192,157332,1,8,0:0:0:0:
256,192,157452,1,0,0:0:0:0:
256,192,157512,1,8,0:0:0:0:
256,192,157572,1,8,0:0:0:0:
256,192,157632,1,0,0:0:0:0:
256,192,157692,1,0,0:0:0:0:
256,192,157812,1,8,0:0:0:0:
256,192,157932,1,0,0:0:0:0:
256,192,157992,1,0,0:0:0:0:
256,192,158052,1,8,0:0:0:0:
256,192,158112,1,0,0:0:0:0:
256,192,158172,1,8,0:0:0:0:
256,192,158292,1,0,0:0:0:0:
256,192,158412,1,8,0:0:0:0:
256,192,158532,1,8,0:0:0:0:
256,192,158592,1,8,0:0:0:0:
256,192,158652,1,0,0:0:0:0:
256,192,158712,1,0,0:0:0:0:
256,192,158772,1,8,0:0:0:0:
256,192,158832,1,0,0:0:0:0:
256,192,158892,1,8,0:0:0:0:
256,192,159012,1,0,0:0:0:0:
256,192,159072,1,0,0:0:0:0:
256,192,159132,1,8,0:0:0:0:
256,192,159252,1,0,0:0:0:0:
256,192,159372,1,8,0:0:0:0:
256,192,159492,1,0,0:0:0:0:
256,192,159552,1,8,0:0:0:0:
256,192,159612,1,8,0:0:0:0:
256,192,159672,1,0,0:0:0:0:
256,192,159732,1,8,0:0:0:0:
256,192,159852,1,8,0:0:0:0:
256,192,159912,1,0,0:0:0:0:
256,192,159972,1,8,0:0:0:0:
256,192,160092,1,0,0:0:0:0:
256,192,160212,1,0,0:0:0:0:
256,192,160332,1,12,0:0:0:0:
256,192,160452,1,0,0:0:0:0:
256,192,160572,1,8,0:0:0:0:
256,192,160692,1,0,0:0:0:0:
256,192,160752,1,8,0:0:0:0:
256,192,160812,1,8,0:0:0:0:
256,192,160872,1,0,0:0:0:0:
256,192,160932,1,0,0:0:0:0:
256,192,160992,1,8,0:0:0:0:
256,192,161052,1,8,0:0:0:0:
256,192,161172,1,0,0:0:0:0:
256,192,161292,1,8,0:0:0:0:
256,192,161412,1,0,0:0:0:0:
256,192,161472,1,8,0:0:0:0:
256,192,161532,1,8,0:0:0:0:
256,192,161652,1,0,0:0:0:0:
256,192,161772,1,0,0:0:0:0:
256,192,161832,1,8,0:0:0:0:
256,192,161892,1,0,0:0:0:0:
256,192,161952,1,8,0:0:0:0:
256,192,162012,1,8,0:0:0:0:
256,192,162132,1,0,0:0:0:0:
256,192,162252,1,8,0:0:0:0:
256,192,162372,1,0,0:0:0:0:
256,192,162492,1,8,0:0:0:0:
256,192,162612,1,0,0:0:0:0:
256,192,162672,1,8,0:0:0:0:
256,192,162732,1,8,0:0:0:0:
256,192,162792,1,8,0:0:0:0:
256,192,162852,1,0,0:0:0:0:
256,192,162912,1,0,0:0:0:0:
256,192,162972,1,8,0:0:0:0:
256,192,163092,1,0,0:0:0:0:
256,192,163212,1,8,0:0:0:0:
256,192,163332,1,0,0:0:0:0:
256,192,163452,1,8,0:0:0:0:
256,192,163512,1,8,0:0:0:0:
256,192,163572,1,0,0:0:0:0:
256,192,163632,1,0,0:0:0:0:
256,192,163692,1,8,0:0:0:0:
256,192,163812,1,0,0:0:0:0:
256,192,163932,1,8,0:0:0:0:
256,192,163992,1,8,0:0:0:0:
256,192,164052,1,0,0:0:0:0:
256,192,164172,1,8,0:0:0:0:
256,192,164292,1,0,0:0:0:0:
256,192,164412,1,8,0:0:0:0:
256,192,164532,1,0,0:0:0:0:
256,192,164592,1,8,0:0:0:0:
256,192,164652,1,8,0:0:0:0:
256,192,164772,1,8,0:0:0:0:
256,192,164892,1,0,0:0:0:0:
256,192,164952,1,0,0:0:0:0:
256,192,165012,1,8,0:0:0:0:
256,192,165072,1,0,0:0:0:0:
256,192,165132,1,8,0:0:0:0:
256,192,165252,1,0,0:0:0:0:
256,192,165372,1,8,0:0:0:0:
256,192,165492,1,0,0:0:0:0:
256,192,165552,1,8,0:0:0:0:
256,192,165672,1,0,0:0:0:0:
256,192,165732,1,8,0:0:0:0:
256,192,165852,1,8,0:0:0:0:
256,192,165972,1,0,0:0:0:0:
256,192,166032,1,0,0:0:0:0:
256,192,166092,1,8,0:0:0:0:
256,192,166152,1,8,0:0:0:0:
256,192,166212,1,0,0:0:0:0:
256,192,166272,1,0,0:0:0:0:
256,192,166332,1,8,0:0:0:0:
256,192,166452,1,0,0:0:0:0:
256,192,166572,1,8,0:0:0:0:
256,192,166632,1,0,0:0:0:0:
256,192,166692,1,0,0:0:0:0:
256,192,166752,1,8,0:0:0:0:
256,192,166812,1,0,0:0:0:0:
256,192,166932,1,8,0:0:0:0:
256,192,167052,1,0,0:0:0:0:
256,192,167172,1,8,0:0:0:0:
256,192,167232,1,8,0:0:0:0:
256,192,167292,1,0,0:0:0:0:
256,192,167412,1,0,0:0:0:0:
256,192,167532,1,8,0:0:0:0:
256,192,167592,1,8,0:0:0:0:
256,192,167652,1,8,0:0:0:0:
256,192,167712,1,8,0:0:0:0:
256,192,167772,1,8,0:0:0:0:
256,192,168012,1,0,0:0:0:0:
256,192,168252,1,8,0:0:0:0:
256,192,168372,1,0,0:0:0:0:
256,192,168432,1,0,0:0:0:0:
256,192,168492,1,8,0:0:0:0:
256,192,168612,1,0,0:0:0:0:
256,192,168732,1,8,0:0:0:0:
256,192,168852,1,8,0:0:0:0:
256,192,168912,1,0,0:0:0:0:
256,192,168972,1,8,0:0:0:0:
256,192,169092,1,0,0:0:0:0:
256,192,169212,1,8,0:0:0:0:
256,192,169332,1,0,0:0:0:0:
256,192,169392,1,0,0:0:0:0:
256,192,169452,1,8,0:0:0:0:
256,192,169512,1,8,0:0:0:0:
256,192,169572,1,8,0:0:0:0:
256,192,169632,1,0,0:0:0:0:
256,192,169692,1,8,0:0:0:0:
256,192,169812,1,0,0:0:0:0:
256,192,169932,1,8,0:0:0:0:
256,192,169992,1,0,0:0:0:0:
256,192,170052,1,8,0:0:0:0:
256,192,170112,1,0,0:0:0:0:
256,192,170172,1,8,0:0:0:0:
256,192,170292,1,0,0:0:0:0:
256,192,170352,1,8,0:0:0:0:
256,192,170412,1,8,0:0:0:0:
256,192,170532,1,0,0:0:0:0:
256,192,170652,1,8,0:0:0:0:
256,192,170712,1,0,0:0:0:0:
256,192,170772,1,0,0:0:0:0:
256,192,170832,1,8,0:0:0:0:
256,192,170892,1,8,0:0:0:0:
256,192,171012,1,0,0:0:0:0:
256,192,171132,1,8,0:0:0:0:
256,192,171252,1,0,0:0:0:0:
256,192,171312,1,8,0:0:0:0:
256,192,171372,1,0,0:0:0:0:
256,192,171492,1,0,0:0:0:0:
256,192,171552,1,0,0:0:0:0:
256,192,171612,1,8,0:0:0:0:
256,192,171732,1,8,0:0:0:0:
256,192,171852,1,0,0:0:0:0:
256,192,172092,1,8,0:0:0:0:
256,192,172212,1,8,0:0:0:0:
256,192,172272,1,8,0:0:0:0:
256,192,172332,1,0,0:0:0:0:
256,192,172392,1,8,0:0:0:0:
256,192,172452,1,0,0:0:0:0:
256,192,172572,1,8,0:0:0:0:
256,192,172692,1,0,0:0:0:0:
256,192,172752,1,0,0:0:0:0:
256,192,172812,1,8,0:0:0:0:
256,192,172932,1,0,0:0:0:0:
256,192,173052,1,8,0:0:0:0:
256,192,173112,1,8,0:0:0:0:
256,192,173172,1,0,0:0:0:0:
256,192,173232,1,0,0:0:0:0:
256,192,173292,1,8,0:0:0:0:
256,192,173412,1,0,0:0:0:0:
256,192,173532,1,8,0:0:0:0:
256,192,173592,1,0,0:0:0:0:
256,192,173652,1,0,0:0:0:0:
256,192,173772,1,8,0:0:0:0:
256,192,173892,1,0,0:0:0:0:
256,192,174012,1,8,0:0:0:0:
256,192,174072,1,0,0:0:0:0:
256,192,174132,1,8,0:0:0:0:
256,192,174192,1,8,0:0:0:0:
256,192,174252,1,0,0:0:0:0:
256,192,174372,1,8,0:0:0:0:
256,192,174492,1,0,0:0:0:0:
256,192,174552,1,0,0:0:0:0:
256,192,174612,1,8,0:0:0:0:
256,192,174672,1,0,0:0:0:0:
256,192,174732,1,8,0:0:0:0:
256,192,174852,1,8,0:0:0:0:
256,192,174912,1,0,0:0:0:0:
256,192,174972,1,8,0:0:0:0:
256,192,175092,1,0,0:0:0:0:
256,192,175212,1,8,0:0:0:0:
256,192,175272,1,8,0:0:0:0:
256,192,175332,1,0,0:0:0:0:
256,192,175392,1,8,0:0:0:0:
256,192,175452,1,8,0:0:0:0:
256,192,175692,1,4,0:0:0:0:
256,192,175812,1,8,0:0:0:0:
256,192,175872,1,8,0:0:0:0:
256,192,175932,1,0,0:0:0:0:
256,192,176052,1,0,0:0:0:0:
256,192,176172,1,12,0:0:0:0:
256,192,176292,1,0,0:0:0:0:
256,192,176352,1,8,0:0:0:0:
256,192,176412,1,0,0:0:0:0:
256,192,176532,1,8,0:0:0:0:
256,192,176652,1,4,0:0:0:0:
256,192,176772,1,8,0:0:0:0:
256,192,176832,1,0,0:0:0:0:
256,192,176892,1,8,0:0:0:0:
256,192,177012,1,0,0:0:0:0:
256,192,177132,1,12,0:0:0:0:
256,192,177252,1,0,0:0:0:0:
256,192,177312,1,8,0:0:0:0:
256,192,177372,1,0,0:0:0:0:
256,192,177492,1,8,0:0:0:0:
256,192,177612,1,4,0:0:0:0:
256,192,177732,1,0,0:0:0:0:
256,192,177792,1,8,0:0:0:0:
256,192,177852,1,8,0:0:0:0:
256,192,177972,1,0,0:0:0:0:
256,192,178092,1,12,0:0:0:0:
256,192,178212,1,0,0:0:0:0:
256,192,178272,1,0,0:0:0:0:
256,192,178332,1,8,0:0:0:0:
256,192,178452,1,8,0:0:0:0:
256,192,178572,1,4,0:0:0:0:
256,192,178692,1,12,0:0:0:0:
256,192,178932,1,4,0:0:0:0:
256,192,179052,1,12,0:0:0:0:
256,192,179292,1,4,0:0:0:0:
256,192,179412,1,4,0:0:0:0:
256,192,179532,1,4,0:0:0:0:
256,192,179652,1,8,0:0:0:0:
256,192,179712,1,8,0:0:0:0:
256,192,179772,1,0,0:0:0:0:
256,192,179892,1,0,0:0:0:0:
256,192,180012,1,12,0:0:0:0:
256,192,180132,1,0,0:0:0:0:
256,192,180192,1,0,0:0:0:0:
256,192,180252,1,0,0:0:0:0:
256,192,180372,1,8,0:0:0:0:
256,192,180492,1,4,0:0:0:0:
256,192,180612,1,8,0:0:0:0:
256,192,180672,1,8,0:0:0:0:
256,192,180732,1,0,0:0:0:0:
256,192,180852,1,0,0:0:0:0:
256,192,180972,1,12,0:0:0:0:
256,192,181092,1,0,0:0:0:0:
256,192,181212,1,8,0:0:0:0:
256,192,181272,1,0,0:0:0:0:
256,192,181332,1,8,0:0:0:0:
256,192,181452,1,4,0:0:0:0:
256,192,181572,1,8,0:0:0:0:
256,192,181632,1,8,0:0:0:0:
256,192,181692,1,8,0:0:0:0:
256,192,181812,1,0,0:0:0:0:
256,192,181932,1,12,0:0:0:0:
256,192,182052,1,0,0:0:0:0:
256,192,182112,1,0,0:0:0:0:
256,192,182172,1,0,0:0:0:0:
256,192,182292,1,8,0:0:0:0:
256,192,182412,1,4,0:0:0:0:
256,192,182532,1,8,0:0:0:0:
256,192,182652,1,0,0:0:0:0:
256,192,182712,1,0,0:0:0:0:
256,192,182772,1,0,0:0:0:0:
256,192,182892,1,12,0:0:0:0:
256,192,183012,1,0,0:0:0:0:
256,192,183072,1,8,0:0:0:0:
256,192,183132,1,8,0:0:0:0:
256,192,183192,1,8,0:0:0:0:
256,192,183252,1,0,0:0:0:0:
256,192,183372,1,4,0:0:0:0:
256,192,183612,1,8,0:0:0:0:
256,192,183732,1,0,0:0:0:0:
256,192,183792,1,0,0:0:0:0:
256,192,183852,1,8,0:0:0:0:
256,192,183972,1,0,0:0:0:0:
256,192,184032,1,8,0:0:0:0:
256,192,184092,1,8,0:0:0:0:
256,192,184152,1,0,0:0:0:0:
256,192,184212,1,8,0:0:0:0:
256,192,184272,1,0,0:0:0:0:
256,192,184332,1,8,0:0:0:0:
256,192,184452,1,0,0:0:0:0:
256,192,184572,1,8,0:0:0:0:
256,192,184632,1,8,0:0:0:0:
256,192,184692,1,0,0:0:0:0:
256,192,184752,1,0,0:0:0:0:
256,192,184812,1,8,0:0:0:0:
256,192,184932,1,0,0:0:0:0:
256,192,185052,1,8,0:0:0:0:
256,192,185112,1,0,0:0:0:0:
256,192,185172,1,0,0:0:0:0:
256,192,185232,1,8,0:0:0:0:
256,192,185292,1,0,0:0:0:0:
256,192,185412,1,8,0:0:0:0:
256,192,185532,1,0,0:0:0:0:
256,192,185592,1,8,0:0:0:0:
256,192,185652,1,8,0:0:0:0:
256,192,185712,1,8,0:0:0:0:
256,192,185772,1,0,0:0:0:0:
256,192,185892,1,8,0:0:0:0:
256,192,186012,1,0,0:0:0:0:
256,192,186072,1,8,0:0:0:0:
256,192,186132,1,8,0:0:0:0:
256,192,186192,1,0,0:0:0:0:
256,192,186252,1,8,0:0:0:0:
256,192,186372,1,0,0:0:0:0:
256,192,186492,1,8,0:0:0:0:
256,192,186552,1,8,0:0:0:0:
256,192,186612,1,0,0:0:0:0:
256,192,186672,1,8,0:0:0:0:
256,192,186732,1,0,0:0:0:0:
256,192,186852,1,8,0:0:0:0:
256,192,186912,1,0,0:0:0:0:
256,192,186972,1,0,0:0:0:0:
256,192,187092,1,8,0:0:0:0:
256,192,187212,1,0,0:0:0:0:
256,192,187332,1,0,0:0:0:0:
256,192,187392,1,8,0:0:0:0:
256,192,187452,1,8,0:0:0:0:
256,192,187572,1,0,0:0:0:0:
256,192,187632,1,8,0:0:0:0:
256,192,187692,1,8,0:0:0:0:
256,192,187812,1,0,0:0:0:0:
256,192,187872,1,8,0:0:0:0:
256,192,187932,1,8,0:0:0:0:
256,192,188052,1,0,0:0:0:0:
256,192,188172,1,8,0:0:0:0:
256,192,188292,1,8,0:0:0:0:
256,192,188352,1,0,0:0:0:0:
256,192,188412,1,8,0:0:0:0:
256,192,188532,1,8,0:0:0:0:
256,192,188592,1,0,0:0:0:0:
256,192,188652,1,8,0:0:0:0:
256,192,188772,1,8,0:0:0:0:
256,192,188832,1,0,0:0:0:0:
256,192,188892,1,8,0:0:0:0:
256,192,189012,1,0,0:0:0:0:
256,192,189132,1,8,0:0:0:0:
256,192,189192,1,0,0:0:0:0:
256,192,189252,1,0,0:0:0:0:
256,192,189312,1,0,0:0:0:0:
256,192,189372,1,8,0:0:0:0:
256,192,189492,1,0,0:0:0:0:
256,192,189612,1,8,0:0:0:0:
256,192,189672,1,8,0:0:0:0:
256,192,189732,1,0,0:0:0:0:
256,192,189792,1,8,0:0:0:0:
256,192,189852,1,8,0:0:0:0:
256,192,189972,1,0,0:0:0:0:
256,192,190092,1,8,0:0:0:0:
256,192,190212,1,8,0:0:0:0:
256,192,190452,1,0,0:0:0:0:
256,192,190692,1,8,0:0:0:0:
256,192,190812,1,0,0:0:0:0:
256,192,191052,5,12,0:0:0:0:
256,192,191172,1,0,0:0:0:0:
256,192,191232,1,8,0:0:0:0:
256,192,191292,1,8,0:0:0:0:
256,192,191412,1,0,0:0:0:0:
256,192,191472,1,8,0:0:0:0:
256,192,191532,1,8,0:0:0:0:
256,192,191592,1,0,0:0:0:0:
256,192,191652,1,8,0:0:0:0:
256,192,191712,1,0,0:0:0:0:
256,192,191772,1,8,0:0:0:0:
256,192,191892,1,0,0:0:0:0:
256,192,192012,1,8,0:0:0:0:
256,192,192132,1,0,0:0:0:0:
256,192,192192,1,0,0:0:0:0:
256,192,192252,1,8,0:0:0:0:
256,192,192372,1,0,0:0:0:0:
256,192,192432,1,0,0:0:0:0:
256,192,192492,1,8,0:0:0:0:
256,192,192552,1,8,0:0:0:0:
256,192,192612,1,0,0:0:0:0:
256,192,192672,1,0,0:0:0:0:
256,192,192732,1,8,0:0:0:0:
256,192,192852,1,0,0:0:0:0:
256,192,192972,1,8,0:0:0:0:
256,192,193092,1,8,0:0:0:0:
256,192,193152,1,8,0:0:0:0:
256,192,193212,1,0,0:0:0:0:
256,192,193332,1,0,0:0:0:0:
256,192,193392,1,8,0:0:0:0:
256,192,193452,1,8,0:0:0:0:
256,192,193512,1,0,0:0:0:0:
256,192,193572,1,0,0:0:0:0:
256,192,193632,1,8,0:0:0:0:
256,192,193692,1,8,0:0:0:0:
256,192,193812,1,0,0:0:0:0:
256,192,193872,1,8,0:0:0:0:
256,192,193932,1,0,0:0:0:0:
256,192,194052,1,0,0:0:0:0:
256,192,194172,1,8,0:0:0:0:
256,192,194292,1,8,0:0:0:0:
256,192,194352,1,8,0:0:0:0:
256,192,194412,1,0,0:0:0:0:
256,192,194472,1,0,0:0:0:0:
256,192,194532,1,8,0:0:0:0:
256,192,194592,1,0,0:0:0:0:
256,192,194652,1,8,0:0:0:0:
256,192,194772,1,0,0:0:0:0:
256,192,194892,1,8,0:0:0:0:
256,192,195012,1,8,0:0:0:0:
256,192,195072,1,0,0:0:0:0:
256,192,195132,1,8,0:0:0:0:
256,192,195252,1,8,0:0:0:0:
256,192,195312,1,0,0:0:0:0:
256,192,195372,1,8,0:0:0:0:
256,192,195492,1,0,0:0:0:0:
256,192,195612,1,8,0:0:0:0:
256,192,195672,1,8,0:0:0:0:
256,192,195732,1,0,0:0:0:0:
256,192,195792,1,0,0:0:0:0:
256,192,195852,1,8,0:0:0:0:
256,192,195972,1,0,0:0:0:0:
256,192,196092,1,8,0:0:0:0:
256,192,196212,1,0,0:0:0:0:
256,192,196272,1,8,0:0:0:0:
256,192,196332,1,0,0:0:0:0:
256,192,196392,1,8,0:0:0:0:
256,192,196452,1,0,0:0:0:0:
256,192,196512,1,0,0:0:0:0:
256,192,196572,1,8,0:0:0:0:
256,192,196692,1,0,0:0:0:0:
256,192,196812,1,8,0:0:0:0:
256,192,196872,1,8,0:0:0:0:
256,192,196932,1,0,0:0:0:0:
256,192,197052,1,8,0:0:0:0:
256,192,197172,1,0,0:0:0:0:
256,192,197292,1,8,0:0:0:0:
256,192,197352,1,8,0:0:0:0:
256,192,197412,1,0,0:0:0:0:
256,192,197472,1,8,0:0:0:0:
256,192,197532,1,8,0:0:0:0:
256,192,197652,1,0,0:0:0:0:
256,192,197772,1,8,0:0:0:0:
256,192,197832,1,8,0:0:0:0:
256,192,197892,1,8,0:0:0:0:
256,192,197952,1,0,0:0:0:0:
256,192,198012,1,8,0:0:0:0:
256,192,198072,1,0,0:0:0:0:
256,192,198132,1,0,0:0:0:0:
256,192,198192,1,8,0:0:0:0:
256,192,198252,1,8,0:0:0:0:
256,192,198372,1,0,0:0:0:0:
256,192,198492,1,8,0:0:0:0:
256,192,198612,1,0,0:0:0:0:
256,192,198732,1,8,0:0:0:0:
256,192,198852,1,0,0:0:0:0:
256,192,198912,1,8,0:0:0:0:
256,192,198972,1,8,0:0:0:0:
256,192,199092,1,8,0:0:0:0:
256,192,199152,1,0,0:0:0:0:
256,192,199212,1,8,0:0:0:0:
256,192,199332,1,0,0:0:0:0:
256,192,199452,1,8,0:0:0:0:
256,192,199512,1,0,0:0:0:0:
256,192,199572,1,0,0:0:0:0:
256,192,199632,1,8,0:0:0:0:
256,192,199692,1,0,0:0:0:0:
256,192,199812,1,0,0:0:0:0:
256,192,199872,1,0,0:0:0:0:
256,192,199932,1,8,0:0:0:0:
256,192,200052,1,0,0:0:0:0:
256,192,200172,1,8,0:0:0:0:
256,192,200232,1,8,0:0:0:0:
256,192,200292,1,8,0:0:0:0:
256,192,200352,1,0,0:0:0:0:
256,192,200412,1,8,0:0:0:0:
256,192,200532,1,0,0:0:0:0:
256,192,200652,1,8,0:0:0:0:
256,192,200772,1,8,0:0:0:0:
256,192,200832,1,0,0:0:0:0:
256,192,200892,1,8,0:0:0:0:
256,192,201012,1,0,0:0:0:0:
256,192,201072,1,8,0:0:0:0:
256,192,201132,1,8,0:0:0:0:
256,192,201192,1,8,0:0:0:0:
256,192,201252,1,0,0:0:0:0:
256,192,201372,1,0,0:0:0:0:
256,192,201432,1,8,0:0:0:0:
256,192,201492,1,0,0:0:0:0:
256,192,201612,1,8,0:0:0:0:
256,192,201732,1,0,0:0:0:0:
256,192,201792,1,8,0:0:0:0:
256,192,201852,1,8,0:0:0:0:
256,192,201972,1,0,0:0:0:0:
256,192,202092,1,8,0:0:0:0:
256,192,202152,1,8,0:0:0:0:
256,192,202212,1,0,0:0:0:0:
256,192,202272,1,0,0:0:0:0:
256,192,202332,1,8,0:0:0:0:
256,192,202452,1,0,0:0:0:0:
256,192,202572,1,8,0:0:0:0:
256,192,202692,1,0,0:0:0:0:
256,192,202812,1,8,0:0:0:0:
256,192,202932,1,0,0:0:0:0:
256,192,203052,1,8,0:0:0:0:
256,192,203172,1,0,0:0:0:0:
256,192,203292,1,8,0:0:0:0:
256,192,203412,1,0,0:0:0:0:
256,192,203532,1,8,0:0:0:0:
256,192,203652,1,0,0:0:0:0:
256,192,203772,1,8,0:0:0:0:
256,192,203892,1,0,0:0:0:0:
256,192,204012,1,8,0:0:0:0:
256,192,204132,1,0,0:0:0:0:
256,192,204252,1,8,0:0:0:0:
256,192,204372,1,0,0:0:0:0:
256,192,204492,1,8,0:0:0:0:
256,192,204552,1,8,0:0:0:0:
256,192,204612,1,8,0:0:0:0:
256,192,204672,1,0,0:0:0:0:
256,192,204732,1,8,0:0:0:0:
256,192,204792,1,8,0:0:0:0:
256,192,204852,1,8,0:0:0:0:
256,192,204912,1,0,0:0:0:0:
256,192,204972,1,8,0:0:0:0:
256,192,205032,1,0,0:0:0:0:
256,192,205092,1,0,0:0:0:0:
256,192,205152,1,0,0:0:0:0:
256,192,205212,1,8,0:0:0:0:
256,192,205272,1,8,0:0:0:0:
256,192,205332,1,0,0:0:0:0:
256,192,205392,1,0,0:0:0:0:
256,192,205452,1,8,0:0:0:0:
256,192,205572,1,8,0:0:0:0:
256,192,205692,1,8,0:0:0:0:
256,192,205812,1,0,0:0:0:0:
256,192,205932,1,8,0:0:0:0:
256,192,206172,1,4,0:0:0:0:
256,192,206412,1,12,0:0:0:0:
256,192,206532,1,0,0:0:0:0:
256,192,206592,1,0,0:0:0:0:
256,192,206652,1,8,0:0:0:0:
256,192,206772,1,0,0:0:0:0:
256,192,206892,1,0,0:0:0:0:
256,192,206952,1,8,0:0:0:0:
256,192,207012,1,8,0:0:0:0:
256,192,207072,1,0,0:0:0:0:
256,192,207132,1,8,0:0:0:0:
256,192,207252,1,0,0:0:0:0:
256,192,207372,1,8,0:0:0:0:
256,192,207432,1,0,0:0:0:0:
256,192,207492,1,0,0:0:0:0:
256,192,207552,1,8,0:0:0:0:
256,192,207612,1,8,0:0:0:0:
256,192,207732,1,8,0:0:0:0:
256,192,207852,1,0,0:0:0:0:
256,192,207912,1,0,0:0:0:0:
256,192,207972,1,8,0:0:0:0:
256,192,208032,1,0,0:0:0:0:
256,192,208092,1,8,0:0:0:0:
256,192,208212,1,8,0:0:0:0:
256,192,208332,1,0,0:0:0:0:
256,192,208452,1,8,0:0:0:0:
256,192,208512,1,0,0:0:0:0:
256,192,208572,1,8,0:0:0:0:
256,192,208692,1,0,0:0:0:0:
256,192,208812,1,8,0:0:0:0:
256,192,208872,1,0,0:0:0:0:
256,192,208932,1,0,0:0:0:0:
256,192,208992,1,8,0:0:0:0:
256,192,209052,1,0,0:0:0:0:
256,192,209172,1,0,0:0:0:0:
256,192,209292,1,8,0:0:0:0:
256,192,209352,1,8,0:0:0:0:
256,192,209412,1,0,0:0:0:0:
256,192,209472,1,8,0:0:0:0:
256,192,209532,1,8,0:0:0:0:
256,192,209652,1,0,0:0:0:0:
256,192,209772,1,8,0:0:0:0:
256,192,209832,1,8,0:0:0:0:
256,192,209892,1,0,0:0:0:0:
256,192,209952,1,0,0:0:0:0:
256,192,210012,1,8,0:0:0:0:
256,192,210072,1,8,0:0:0:0:
256,192,210132,1,0,0:0:0:0:
256,192,210192,1,8,0:0:0:0:
256,192,210252,1,0,0:0:0:0:
256,192,210372,1,0,0:0:0:0:
256,192,210432,1,0,0:0:0:0:
256,192,210492,1,8,0:0:0:0:
256,192,210612,1,0,0:0:0:0:
256,192,210732,1,8,0:0:0:0:
256,192,210792,1,8,0:0:0:0:
256,192,210852,1,0,0:0:0:0:
256,192,210912,1,0,0:0:0:0:
256,192,210972,1,8,0:0:0:0:
256,192,211092,1,0,0:0:0:0:
256,192,211212,1,8,0:0:0:0:
256,192,211272,1,0,0:0:0:0:
256,192,211332,1,8,0:0:0:0:
256,192,211392,1,8,0:0:0:0:
256,192,211452,1,8,0:0:0:0:
256,192,211572,1,0,0:0:0:0:
256,192,211692,1,8,0:0:0:0:
256,192,211752,1,0,0:0:0:0:
256,192,211812,1,8,0:0:0:0:
256,192,211872,1,0,0:0:0:0:
256,192,211932,1,8,0:0:0:0:
256,192,212052,1,0,0:0:0:0:
256,192,212172,1,8,0:0:0:0:
256,192,212232,1,0,0:0:0:0:
256,192,212292,1,0,0:0:0:0:
256,192,212352,1,8,0:0:0:0:
256,192,212412,1,8,0:0:0:0:
256,192,212532,1,0,0:0:0:0:
256,192,212652,1,8,0:0:0:0:
256,192,212772,1,0,0:0:0:0:
256,192,212832,1,0,0:0:0:0:
256,192,212892,1,8,0:0:0:0:
256,192,213012,1,8,0:0:0:0:
256,192,213072,1,0,0:0:0:0:
256,192,213132,1,8,0:0:0:0:
256,192,213252,1,0,0:0:0:0:
256,192,213372,1,8,0:0:0:0:
256,192,213492,1,0,0:0:0:0:
256,192,213612,1,8,0:0:0:0:
256,192,213672,1,0,0:0:0:0:
256,192,213732,1,0,0:0:0:0:
256,192,213792,1,0,0:0:0:0:
256,192,213852,1,8,0:0:0:0:
256,192,213912,1,0,0:0:0:0:
256,192,213972,1,8,0:0:0:0:
256,192,214032,1,8,0:0:0:0:
256,192,214092,1,0,0:0:0:0:
256,192,214332,1,12,0:0:0:0:
256,192,214452,1,0,0:0:0:0:
256,192,214512,1,8,0:0:0:0:
256,192,214572,1,8,0:0:0:0:
256,192,214632,1,0,0:0:0:0:
256,192,214692,1,0,0:0:0:0:
256,192,214812,1,12,0:0:0:0:
256,192,214932,1,0,0:0:0:0:
256,192,215052,1,8,0:0:0:0:
256,192,215172,1,0,0:0:0:0:
256,192,215292,1,12,0:0:0:0:
256,192,215412,1,0,0:0:0:0:
256,192,215472,1,0,0:0:0:0:
256,192,215532,1,8,0:0:0:0:
256,192,215592,1,8,0:0:0:0:
256,192,215652,1,0,0:0:0:0:
256,192,215772,1,12,0:0:0:0:
256,192,215892,1,0,0:0:0:0:
256,192,216012,1,8,0:0:0:0:
256,192,216132,1,0,0:0:0:0:
256,192,216252,1,12,0:0:0:0:
256,192,216372,1,0,0:0:0:0:
256,192,216432,1,8,0:0:0:0:
256,192,216492,1,8,0:0:0:0:
256,192,216552,1,8,0:0:0:0:
256,192,216612,1,0,0:0:0:0:
256,192,216732,1,12,0:0:0:0:
256,192,216852,1,0,0:0:0:0:
256,192,216972,1,8,0:0:0:0:
256,192,217032,1,8,0:0:0:0:
256,192,217092,1,0,0:0:0:0:
256,192,217212,1,12,0:0:0:0:
256,192,217332,1,0,0:0:0:0:
256,192,217452,1,8,0:0:0:0:
256,192,217512,1,0,0:0:0:0:
256,192,217572,1,8,0:0:0:0:
256,192,217692,1,12,0:0:0:0:
256,192,217812,1,0,0:0:0:0:
256,192,217932,1,8,0:0:0:0:
256,192,218052,1,0,0:0:0:0:
256,192,218172,1,12,0:0:0:0:
256,192,218292,1,0,0:0:0:0:
256,192,218352,1,0,0:0:0:0:
256,192,218412,1,8,0:0:0:0:
256,192,218532,1,0,0:0:0:0:
256,192,218652,1,12,0:0:0:0:
256,192,218772,1,8,0:0:0:0:
256,192,218832,1,0,0:0:0:0:
256,192,218892,1,8,0:0:0:0:
256,192,219012,1,0,0:0:0:0:
256,192,219132,1,12,0:0:0:0:
256,192,219252,1,8,0:0:0:0:
256,192,219312,1,8,0:0:0:0:
256,192,219372,1,0,0:0:0:0:
256,192,219492,1,0,0:0:0:0:
256,192,219612,1,12,0:0:0:0:
256,192,219732,1,0,0:0:0:0:
256,192,219852,1,8,0:0:0:0:
256,192,219912,1,0,0:0:0:0:
256,192,219972,1,8,0:0:0:0:
256,192,220092,1,12,0:0:0:0:
256,192,220212,1,8,0:0:0:0:
256,192,220332,1,0,0:0:0:0:
256,192,220392,1,8,0:0:0:0:
256,192,220452,1,0,0:0:0:0:
256,192,220572,1,12,0:0:0:0:
256,192,220812,5,8,0:0:0:0:
256,192,220932,1,8,0:0:0:0:
256,192,221052,1,0,0:0:0:0:
256,192,221172,1,0,0:0:0:0:
256,192,221292,1,12,0:0:0:0:
256,192,221532,1,4,0:0:0:0:
