osu file format v14

[General]
AudioFilename: audio.mp3
AudioLeadIn: 0
PreviewTime: 57367
Countdown: 0
SampleSet: Soft
StackLeniency: 0.7
Mode: 0
LetterboxInBreaks: 0
WidescreenStoryboard: 1

[Editor]
Bookmarks: 9787,18436,27085,35733,90868,112502,121139,138436
DistanceSpacing: 0.2
BeatDivisor: 4
GridSize: 8
TimelineZoom: 2.799999

[Metadata]
Title:Reso*nyan*ce Fever
TitleUnicode:Reso*nyan*ce Fever
Artist:katagiri
ArtistUnicode:かたぎり
Creator:Snow Note
Version:RLC's Another
Source:
Tags:7odoa pw384 RLC kundi Kuki1537 bms of fighters ultimate BOFU2016 legendary again DANCECORE resonyance resonance xlni 384059043 Kuki edm hardcore mashcore hard core dance music 2016 Just Do It Shia LaBeouf Коробе́йники tetris KBC keyboard crasher キーボードクラッシャー スーパーマリオ Super Mario RPG Legend of the Seven Stars 森のキノコにご用心 forest maze 下村陽子 Yoko Shimomura サンドキャニオン 砂漠ステージ Sand Canyon Map Jun 石川淳 Ishikawa 星のカービィ3 Kirby's Dream Land 3 任天堂 nintento 侵略!イカ娘 shinryaku! ika musume invasion! squid girl Syamu Gimme Nightcore ABBA electronic instrumental japanese なまる ピ
BeatmapID:2952502
BeatmapSetID:779061

[Difficulty]
HPDrainRate:5
CircleSize:4
OverallDifficulty:8.5
ApproachRate:9.3
SliderMultiplier:1.8
SliderTickRate:2

[Events]
//Background and Video events
0,0,"BG.jpg",0,0
//Break Periods
2,33648,35191
//Storyboard Layer 0 (Background)
//Storyboard Layer 1 (Fail)
//Storyboard Layer 2 (Pass)
//Storyboard Layer 3 (Foreground)
//Storyboard Layer 4 (Overlay)
//Storyboard Sound Samples

[TimingPoints]
70,270.27027027027,4,2,1,20,1,0
813,-100,4,2,1,76,0,0
4394,-100,4,2,1,36,0,0
5136,-100,4,2,1,76,0,0
5205,-100,4,2,1,36,0,0
5272,-100,4,2,1,76,0,0
8718,-100,4,2,1,25,0,0
9529,-100,4,2,1,76,0,0
9799,-100,4,2,1,76,0,1
13853,-66.6666666666667,4,2,1,76,0,1
14124,-100,4,2,1,76,0,1
18448,-100,4,2,1,76,0,0
19799,-66.6666666666667,4,2,1,76,0,0
21151,-100,4,2,1,76,0,0
21691,-66.6666666666667,4,2,1,76,0,0
22772,-100,4,2,1,76,0,0
26421,-83.3333333333333,4,2,1,76,0,0
27097,-100,4,2,1,76,0,0
27907,-66.6666666666667,4,2,1,76,0,0
29259,-133.333333333333,4,2,1,76,0,0
29529,-66.6666666666667,4,2,1,76,0,0
29799,-57.1428571428571,4,2,1,76,0,0
30069,-100,4,2,1,76,0,0
32502,-66.6666666666667,4,2,1,76,0,0
32772,-100,4,2,1,76,0,0
35745,-100,4,2,1,76,0,0
40204,-100,4,2,1,50,0,0
40272,-100,4,2,1,76,0,0
40340,-100,4,2,1,50,0,0
40745,-100,4,2,1,30,0,0
41151,-100,4,2,1,76,0,0
45745,-66.6666666666667,4,2,1,76,0,0
46556,-100,4,2,1,76,0,0
46826,-66.6666666666667,4,2,1,76,0,0
47637,-100,4,2,1,76,0,1
51691,-66.6666666666667,4,2,1,76,0,1
51961,-100,4,2,1,76,0,1
56286,-100,4,2,1,76,0,0
60610,-57.1428571428571,4,2,1,76,0,0
61151,-100,4,2,1,76,0,0
61691,-57.1428571428571,4,2,1,76,0,0
62232,-100,4,2,1,76,0,0
64664,-50,4,2,1,76,0,0
64934,-100,4,2,1,76,0,0
70880,-66.6666666666667,4,2,1,76,0,0
71286,-100,4,2,1,76,0,0
73583,-100,4,2,1,76,0,0
75475,-200,4,2,1,76,0,0
77907,-100,4,2,1,76,0,0
82232,-100,4,2,1,76,0,1
85475,-100,4,2,1,76,0,0
86556,-100,4,2,1,76,0,1
90880,-100,4,2,1,76,0,0
94124,-80,4,2,1,76,0,0
95205,-100,4,2,1,76,0,0
103313,-66.6666666666667,4,2,1,76,0,0
103853,-66.6666666666667,4,2,1,76,0,1
104664,-100,4,2,1,76,0,1
108178,-66.6666666666667,4,2,1,76,0,1
108988,-100,4,2,1,76,0,1
112772,-66.6666666666667,4,2,1,76,0,0
113042,-100,4,2,1,76,0,0
113313,-66.6666666666667,4,2,1,76,0,0
113583,-100,4,2,1,76,0,0
113853,-66.6666666666667,4,2,1,76,0,0
114124,-100,4,2,1,76,0,0
114394,-66.6666666666667,4,2,1,76,0,0
114664,-100,4,2,1,76,0,0
114934,-57.1428571428571,4,2,1,76,0,0
115137,-100,4,2,1,76,0,0
115475,-50,4,2,1,76,0,0
115678,-100,4,2,1,76,0,0
116015,-44.4444444444445,4,2,1,76,0,0
116286,-66.6666666666667,4,2,1,76,0,0
116826,-66.6666666666667,4,2,1,76,0,1
120610,-66.6666666666667,4,2,1,25,0,0
121151,-100,4,2,1,76,0,0
124056,-66.6666666666667,4,2,1,76,0,0
124394,-100,4,2,1,76,0,0
129664,-133.333333333333,4,2,1,76,0,0
130069,-100,4,2,1,76,0,0
133042,-66.6666666666667,4,2,1,76,0,0
134124,-66.6666666666667,4,2,1,65,0,1
134596,-66.6666666666667,4,2,1,76,0,1
134664,-66.6666666666667,4,2,1,65,0,1
134867,-100,4,2,1,65,0,1
135001,-100,4,2,1,76,0,1
135069,-100,4,2,1,65,0,1
135475,-66.6666666666667,4,2,1,65,0,1
138042,-66.6666666666667,4,2,1,76,0,1
138110,-66.6666666666667,4,2,1,65,0,1
138245,-66.6666666666667,4,2,1,76,0,1
138313,-66.6666666666667,4,2,1,65,0,1
138448,-66.6666666666667,4,2,1,65,0,0
138515,-66.6666666666667,4,2,1,76,0,0

[Colours]
Combo1 : 0,128,0
Combo2 : 255,0,0
Combo3 : 246,246,246
Combo4 : 255,255,0

[HitObjects]
276,256,70,5,0,2:2:0:0:
276,256,205,1,0,2:2:0:0:
276,256,340,2,0,P|293:192|285:162,1,90,2|0,2:2|2:2,0:0:0:0:
278,49,610,1,0,2:2:0:0:
278,49,745,1,0,2:2:0:0:
459,138,880,1,0,1:1:0:0:
459,138,1151,6,0,B|381:146|381:146|366:165|366:165|276:172,1,180,4|8,3:1|1:1,0:0:0:0:
351,271,1556,2,0,L|162:260,1,180,0|0,3:3|1:1,0:0:0:0:
205,353,1961,1,8,3:1:0:0:
196,354,2029,1,0,1:1:0:0:
187,355,2097,1,0,1:1:0:0:
198,178,2232,6,0,L|180:370,1,180,4|8,3:1|1:1,0:0:0:0:
71,308,2637,2,0,L|61:216,1,90,0|0,3:3|1:1,0:0:0:0:
61,218,2840,1,0,1:1:0:0:
61,218,2907,1,0,1:1:0:0:
305,279,3042,2,0,L|315:371,1,90,8|0,3:1|3:3,0:0:0:0:
79,84,3313,22,0,B|121:112|121:112|257:84,1,180,4|8,3:1|1:1,0:0:0:0:
182,193,3718,2,0,B|253:199|253:199|274:222|274:222|368:230,1,180,0|0,3:3|1:1,0:0:0:0:
404,340,4124,2,0,L|456:333,2,45,8|0|0,3:1|1:1|1:1,0:0:0:0:
352,229,4394,5,0,1:1:0:0:
350,237,4529,1,0,1:1:0:0:
265,191,4664,5,0,1:1:0:0:
278,293,4799,1,0,1:1:0:0:
181,162,4934,21,0,1:1:0:0:
181,162,5002,1,0,1:1:0:0:
181,162,5069,2,0,L|172:219,1,45,0|0,1:1|0:0,0:0:0:0:
179,347,5205,1,0,1:1:0:0:
179,347,5272,1,0,0:0:0:0:
179,347,5340,2,0,L|188:290,1,45,0|0,1:1|0:0,0:0:0:0:
84,189,5475,5,4,3:1:0:0:
84,304,5610,1,0,1:1:0:0:
4,240,5745,1,8,1:1:0:0:
0,350,5880,1,0,3:3:0:0:
373,144,6151,5,0,1:1:0:0:
373,144,6218,1,0,0:0:0:0:
373,144,6286,2,0,L|430:137,2,45,8|0|0,3:1|1:1|1:1,0:0:0:0:
208,124,6556,21,4,3:1:0:0:
205,115,6624,1,0,0:0:0:0:
202,106,6691,1,0,1:1:0:0:
199,97,6759,1,0,1:1:0:0:
197,88,6826,1,8,1:1:0:0:
122,49,6961,1,0,3:3:0:0:
269,35,7097,1,0,1:1:0:0:
272,44,7165,1,0,1:1:0:0:
275,53,7232,1,0,1:1:0:0:
278,62,7300,1,0,0:0:0:0:
280,71,7367,2,0,L|376:78,1,90,8|0,3:1|3:3,0:0:0:0:
450,127,7637,5,4,3:1:0:0:
44,260,7907,1,8,1:1:0:0:
96,161,8042,2,0,L|74:349,1,180,0|0,3:3|1:1,0:0:0:0:
52,334,8380,2,0,L|58:382,1,45,0|0,0:0|1:1,0:0:0:0:
256,192,8718,12,0,9529,0:0:0:0:
471,138,9799,6,0,B|379:124|379:124|327:157,1,135,4|0,3:1|0:0,0:0:0:0:
270,114,10069,2,0,B|260:158|260:158|282:200,1,90,8|0,1:1|1:1,0:0:0:0:
298,287,10340,21,0,3:3:0:0:
52,223,10475,1,0,1:1:0:0:
52,223,10542,1,0,1:1:0:0:
52,223,10610,1,8,1:1:0:0:
111,153,10745,2,0,L|163:146,1,45,0|0,1:1|0:0,0:0:0:0:
190,176,10880,5,0,3:3:0:0:
33,118,11015,2,0,B|22:74|22:74|49:25,1,90,0|8,1:1|1:1,0:0:0:0:
119,23,11286,1,0,1:1:0:0:
345,127,11421,6,0,L|392:116,2,45,0|0|0,3:3|0:0|1:1,0:0:0:0:
428,15,11691,1,8,1:1:0:0:
428,15,11826,1,0,1:1:0:0:
453,184,11961,22,0,L|295:212,1,135,4|0,3:1|0:0,0:0:0:0:
250,174,12232,2,0,B|230:134|230:134|252:85,1,90,8|0,1:1|1:1,0:0:0:0:
320,207,12502,5,0,3:3:0:0:
256,344,12637,1,0,1:1:0:0:
256,344,12705,1,0,0:0:0:0:
256,344,12772,1,8,1:1:0:0:
192,207,12907,2,0,L|238:221,1,45,0|0,1:1|1:1,0:0:0:0:
396,260,13042,5,0,3:3:0:0:
116,260,13178,1,0,1:1:0:0:
313,291,13313,2,0,L|325:383,1,90,8|0,1:1|1:1,0:0:0:0:
192,207,13583,2,0,B|215:176|215:176|265:155|311:196,1,135,0|0,3:3|1:1,0:0:0:0:
332,221,13853,22,0,P|407:210|405:78,1,202.500007724762,8|0,1:1|0:0,0:0:0:0:
336,11,14124,6,0,L|347:118,1,90,4|0,3:1|1:1,0:0:0:0:
274,127,14326,1,0,0:0:0:0:
274,127,14394,2,0,B|230:110|230:110|188:122,1,90,8|0,1:1|0:0,0:0:0:0:
63,278,14664,5,0,3:3:0:0:
112,209,14799,1,0,1:1:0:0:
112,209,14867,1,0,0:0:0:0:
112,209,14934,1,8,1:1:0:0:
182,383,15069,2,0,L|187:336,1,45,0|0,1:1|1:1,0:0:0:0:
216,306,15205,21,0,3:3:0:0:
299,255,15340,2,0,L|359:263,2,45,0|0|8,1:1|0:0|1:1,0:0:0:0:
201,212,15610,1,0,1:1:0:0:
304,150,15745,5,0,3:3:0:0:
178,113,15880,2,0,L|236:105,1,45,0|0,1:1|0:0,0:0:0:0:
312,56,16015,1,8,1:1:0:0:
361,321,16286,6,0,L|372:223,1,90,4|0,3:1|0:0,0:0:0:0:
461,268,16556,2,0,L|472:170,1,90,8|0,1:1|0:0,0:0:0:0:
151,321,16826,2,0,L|140:223,1,90,0|0,3:3|0:0,0:0:0:0:
51,268,17096,2,0,L|40:170,1,90,8|0,1:1|0:0,0:0:0:0:
137,92,17367,21,0,1:1:0:0:
220,111,17502,1,0,0:0:0:0:
220,111,17637,1,0,1:1:0:0:
312,131,17772,1,0,1:1:0:0:
312,131,17840,1,0,1:1:0:0:
312,131,17907,1,0,1:1:0:0:
104,237,18042,1,0,1:1:0:0:
84,206,18110,1,0,1:1:0:0:
72,171,18178,2,0,P|67:121|69:79,1,90,0|0,1:1|1:1,0:0:0:0:
192,189,18448,6,0,P|191:243|144:335,1,135,4|0,3:1|0:0,0:0:0:0:
96,354,18718,1,8,1:1:0:0:
104,352,18786,1,0,1:1:0:0:
112,350,18853,1,0,1:1:0:0:
121,349,18921,1,0,1:1:0:0:
129,348,18988,2,0,B|217:336|217:336|265:363,1,135,0|0,3:3|0:0,0:0:0:0:
317,300,19259,2,0,B|357:322|357:322|445:310,1,135,8|0,1:1|1:1,0:0:0:0:
461,293,19529,6,0,L|510:303,2,45,0|0|0,3:3|0:0|1:1,0:0:0:0:
316,299,19799,2,0,P|306:224|407:227,1,202.500007724762,8|0,1:1|0:0,0:0:0:0:
461,293,20069,22,0,L|457:342,4,33.7500012874604,0|0|0|0|0,3:3|1:1|1:1|1:1|1:1,0:0:0:0:
473,188,20340,1,8,1:1:0:0:
473,188,20475,1,0,1:1:0:0:
393,86,20610,6,0,L|323:99,1,67.5000025749208,4|0,3:1|1:1,0:0:0:0:
259,212,20745,1,0,1:1:0:0:
259,212,20813,1,0,1:1:0:0:
259,212,20880,2,0,L|262:133,1,67.5000025749208,8|0,1:1|1:1,0:0:0:0:
360,66,21015,2,0,L|290:80,1,67.5000025749208,0|0,1:1|1:1,0:0:0:0:
171,158,21151,6,0,B|152:117|152:117|164:74,1,90,0|0,3:3|1:1,0:0:0:0:
76,180,21421,2,0,L|12:173,2,45,8|0|0,1:1|0:0|1:1,0:0:0:0:
219,375,21691,22,0,L|206:296,1,67.5000025749208,4|0,3:1|1:1,0:0:0:0:
149,240,21826,1,0,1:1:0:0:
149,240,21894,1,0,1:1:0:0:
149,240,21961,2,0,B|108:271|108:271|14:259,1,135.000005149842,8|0,1:1|1:1,0:0:0:0:
400,357,22232,6,0,B|416:324|416:324|406:272,1,67.5000025749208,4|0,3:1|1:1,0:0:0:0:
302,232,22367,1,0,1:1:0:0:
302,232,22435,1,0,1:1:0:0:
302,232,22502,2,0,L|284:390,1,135.000005149842,8|0,1:1|1:1,0:0:0:0:
300,121,22772,5,4,3:1:0:0:
371,75,22907,1,0,1:1:0:0:
473,202,23042,2,0,B|427:209|427:209|382:188,1,90,8|0,1:1|1:1,0:0:0:0:
383,178,23245,1,0,1:1:0:0:
378,165,23313,1,0,3:3:0:0:
449,300,23448,1,0,1:1:0:0:
316,306,23583,2,0,L|307:331,4,22.5,8|0|0|0|0,1:1|1:1|1:1|1:1|1:1,0:0:0:0:
204,59,23853,21,0,3:3:0:0:
113,85,23988,1,0,1:1:0:0:
180,180,24124,2,0,L|206:222,2,45,8|0|0,1:1|0:0|1:1,0:0:0:0:
72,226,24394,2,0,L|59:275,2,45,0|0|0,3:3|0:0|1:1,0:0:0:0:
184,323,24664,1,8,1:1:0:0:
31,373,24799,1,0,1:1:0:0:
193,187,24934,6,0,B|279:180|236:207|339:193,1,135,4|0,3:1|0:0,0:0:0:0:
399,245,25205,1,8,1:1:0:0:
412,232,25272,2,0,P|414:184|418:132,1,90,0|0,1:1|1:1,0:0:0:0:
311,56,25475,5,0,3:3:0:0:
311,56,25542,2,0,P|286:56|253:53,1,45,0|0,1:1|0:0,0:0:0:0:
235,39,25678,2,0,P|241:84|245:143,1,90,0|0,1:1|1:1,0:0:0:0:
175,179,25880,21,0,1:1:0:0:
175,179,25948,1,0,1:1:0:0:
175,179,26015,1,4,3:1:0:0:
384,265,26151,1,0,3:3:0:0:
17,338,26421,2,0,B|75:304|75:304|117:336|117:336|159:315|159:315|214:334,1,215.999993408203,0|0,3:3|3:3,0:0:0:0:
289,357,26759,1,0,3:3:0:0:
289,357,26826,2,0,L|285:297,1,53.9999983520508,0|0,3:3|3:3,0:0:0:0:
222,248,26961,2,0,L|226:188,1,53.9999983520508,0|0,3:3|3:3,0:0:0:0:
311,169,27097,6,0,P|283:190|246:94,1,180,4|0,3:1|1:1,0:0:0:0:
237,99,27502,2,0,L|178:108,1,45,0|0,1:1|0:0,0:0:0:0:
88,128,27637,5,8,1:1:0:0:
88,128,27705,1,0,1:1:0:0:
88,128,27772,1,0,1:1:0:0:
88,128,27840,1,0,1:1:0:0:
88,128,27907,2,0,B|68:258|122:196|93:335,1,202.500007724762,0|0,1:1|0:0,0:0:0:0:
86,350,28178,22,0,P|126:293|195:306,1,135.000005149841,0|0,3:3|1:1,0:0:0:0:
245,346,28381,1,0,0:0:0:0:
253,356,28448,2,0,P|288:352|317:329,1,67.5000025749208,0|0,1:1|0:0,0:0:0:0:
412,197,28583,1,0,1:1:0:0:
380,381,28718,6,0,P|343:302|338:158,1,202.500007724762,8|0,1:1|0:0,0:0:0:0:
250,164,28989,1,0,1:1:0:0:
295,164,29056,1,0,1:1:0:0:
337,142,29124,1,0,1:1:0:0:
355,98,29192,1,0,1:1:0:0:
354,50,29259,6,0,B|313:47|313:47|298:59|298:59|241:53,1,101.250003862381,0|0,3:3|0:0,0:0:0:0:
94,119,29529,22,0,B|72:102|72:102|152:112|152:112|169:123|169:123|245:130,1,202.500007724762,0|0,1:1|0:0,0:0:0:0:
419,190,29799,6,0,B|448:145|448:145|319:175|319:175|284:220,1,236.250002253056,8|0,1:1|0:0,0:0:0:0:
243,288,30069,5,0,1:1:0:0:
243,297,30137,1,0,1:1:0:0:
243,306,30205,1,0,1:1:0:0:
243,314,30272,1,0,1:1:0:0:
243,323,30340,22,0,L|242:371,1,45,0|0,1:1|0:0,0:0:0:0:
475,130,31421,6,0,B|387:105|436:153|334:134,1,135,4|0,3:1|0:0,0:0:0:0:
282,84,31691,2,0,P|276:43|238:9,1,90,0|0,1:1|1:1,0:0:0:0:
174,50,31894,1,0,0:0:0:0:
174,50,31961,2,0,P|180:91|218:125,1,90,8|0,1:1|1:1,0:0:0:0:
193,198,32164,1,0,0:0:0:0:
193,198,32232,2,0,P|172:186|142:177,1,45,0|0,1:1|1:1,0:0:0:0:
5,248,32367,2,0,P|23:222|46:207,1,45,0|0,1:1|1:1,0:0:0:0:
89,111,32502,6,0,B|130:162|130:162|117:261|117:261|84:287,1,202.500007724762,0|0,3:3|0:0,0:0:0:0:
15,324,32772,2,0,L|24:371,2,45,0|0|0,1:1|0:0|1:1,0:0:0:0:
50,204,33042,2,0,P|95:197|146:218,1,90,8|0,1:1|1:1,0:0:0:0:
196,264,33245,1,0,1:1:0:0:
196,264,33313,1,0,3:3:0:0:
314,115,33448,1,0,3:3:0:0:
301,135,35745,22,0,B|211:117|211:117|144:35,1,180,4|8,3:1|1:1,0:0:0:0:
252,262,36151,1,0,1:1:0:0:
252,262,36218,1,0,1:1:0:0:
252,262,36286,2,0,B|342:280|342:280|409:362,1,180,0|8,3:3|1:1,0:0:0:0:
402,335,36624,1,0,1:1:0:0:
413,327,36691,1,0,1:1:0:0:
426,327,36759,1,0,1:1:0:0:
438,330,36826,6,0,P|461:292|461:247,1,90,0|0,3:3|1:1,0:0:0:0:
438,54,37097,2,0,P|461:92|461:137,1,90,8|0,1:1|1:1,0:0:0:0:
371,222,37367,5,0,3:3:0:0:
301,177,37502,1,0,1:1:0:0:
361,128,37637,1,8,1:1:0:0:
314,273,37772,1,0,1:1:0:0:
225,128,37907,22,0,L|132:114,1,90,0|0,3:3|1:1,0:0:0:0:
225,256,38178,2,0,L|132:270,1,90,8|0,1:1|1:1,0:0:0:0:
16,192,38448,5,0,3:3:0:0:
16,192,38718,2,0,L|22:254,1,45,0|0,1:1|0:0,0:0:0:0:
397,349,38988,5,4,1:1:0:0:
397,349,39124,1,0,1:1:0:0:
307,273,39259,1,8,1:1:0:0:
307,273,39394,1,0,1:1:0:0:
329,158,39529,1,0,3:3:0:0:
329,158,39664,1,0,1:1:0:0:
419,231,39799,1,8,1:1:0:0:
240,353,39934,22,0,P|187:372|52:364,1,180,0|0,1:1|1:1,0:0:0:0:
64,368,40272,1,0,0:0:0:0:
64,368,40340,1,8,1:1:0:0:
26,283,40475,1,0,1:1:0:0:
34,278,40745,1,0,1:1:0:0:
42,273,41015,1,0,1:1:0:0:
134,192,41151,5,0,3:3:0:0:
229,276,41286,1,0,1:1:0:0:
229,276,41353,1,0,1:1:0:0:
229,276,41421,2,0,B|259:303|259:303|323:303,1,90,8|0,1:1|1:1,0:0:0:0:
416,279,41691,2,0,B|439:314|439:314|427:371,2,90,0|0|8,3:3|1:1|1:1,0:0:0:0:
350,218,42097,1,0,1:1:0:0:
350,218,42164,1,0,1:1:0:0:
350,218,42232,1,0,3:3:0:0:
450,74,42367,6,0,L|442:130,2,45,0|0|8,1:1|0:0|1:1,0:0:0:0:
315,347,42637,2,0,L|305:280,2,45,0|0|0,1:1|0:0|3:3,0:0:0:0:
202,159,42907,2,0,B|220:147|220:147|253:149,1,45,0|0,1:1|1:1,0:0:0:0:
394,213,43042,2,0,B|350:229|350:229|290:210,1,90,8|0,1:1|1:1,0:0:0:0:
84,52,43313,21,4,3:1:0:0:
84,52,43448,1,0,1:1:0:0:
114,160,43583,1,8,1:1:0:0:
114,160,43718,1,0,1:1:0:0:
29,223,43853,1,0,3:3:0:0:
29,223,43921,1,0,0:0:0:0:
29,223,43988,1,0,1:1:0:0:
117,286,44124,6,0,L|123:338,1,45,8|0,1:1|1:1,0:0:0:0:
212,96,44394,5,0,3:3:0:0:
220,94,44461,1,0,1:1:0:0:
229,94,44529,1,0,1:1:0:0:
237,96,44597,1,0,1:1:0:0:
245,99,44664,1,8,1:1:0:0:
324,79,44799,1,0,1:1:0:0:
330,85,44867,1,0,1:1:0:0:
337,89,44934,1,0,3:3:0:0:
345,92,45002,1,0,1:1:0:0:
352,95,45069,2,0,P|376:92|401:92,2,45,0|0|8,1:1|0:0|1:1,0:0:0:0:
483,52,45340,21,0,1:1:0:0:
483,52,45475,2,0,P|496:101|443:186,1,135,0|0,3:3|0:0,0:0:0:0:
473,268,45745,6,0,B|414:262|414:262|400:242|400:242|329:236,1,135.000005149842,8|0,1:1|1:1,0:0:0:0:
270,230,45948,1,0,1:1:0:0:
270,230,46015,2,0,B|241:249|241:249|278:257,1,67.5000025749208,0|0,3:3|0:0,0:0:0:0:
331,322,46151,5,0,1:1:0:0:
183,294,46286,1,8,1:1:0:0:
251,347,46421,1,0,1:1:0:0:
187,212,46556,22,0,L|196:360,1,135,0|0,3:3|0:0,0:0:0:0:
62,238,46826,6,0,B|24:179|24:179|94:113,1,135.000005149842,8|0,1:1|1:1,0:0:0:0:
136,92,47029,1,0,1:1:0:0:
136,92,47097,2,0,L|133:53,6,33.7500012874604,0|0|0|0|0|0|0,3:3|1:1|1:1|1:1|1:1|1:1|1:1,0:0:0:0:
331,91,47367,6,0,B|209:50|248:139|125:87,1,202.500007724762,8|0,1:1|0:0,0:0:0:0:
71,134,47637,22,0,P|75:191|76:240,1,90,4|0,3:1|1:1,0:0:0:0:
107,289,47840,1,0,1:1:0:0:
108,306,47907,1,8,1:1:0:0:
275,356,48042,2,0,P|273:317|273:302,1,45,0|0,1:1|0:0,0:0:0:0:
318,169,48178,2,0,P|321:135|322:116,2,45,0|0|0,3:3|0:0|1:1,0:0:0:0:
372,222,48380,1,0,0:0:0:0:
423,272,48448,2,0,P|427:323|430:363,1,90,8|0,1:1|1:1,0:0:0:0:
453,145,48718,5,0,3:3:0:0:
309,274,48853,2,0,P|307:314|307:328,2,45,0|0|8,1:1|0:0|1:1,0:0:0:0:
203,149,49124,1,0,1:1:0:0:
47,221,49259,2,0,L|40:155,2,45,0|0|0,3:3|0:0|1:1,0:0:0:0:
219,229,49529,2,0,P|217:285|216:326,1,90,8|0,1:1|1:1,0:0:0:0:
154,355,49732,1,0,0:0:0:0:
157,372,49799,1,4,3:1:0:0:
340,356,49934,2,0,P|344:323|347:302,2,45,0|0|8,1:1|1:1|1:1,0:0:0:0:
321,206,50205,1,0,1:1:0:0:
392,97,50340,5,0,3:3:0:0:
414,228,50475,1,0,1:1:0:0:
260,288,50610,1,8,1:1:0:0:
269,148,50745,1,0,1:1:0:0:
126,113,50880,22,0,P|130:161|135:202,1,90,8|0,3:1|0:0,0:0:0:0:
123,207,51083,2,0,P|120:252|115:302,1,90,8|0,3:1|0:0,0:0:0:0:
129,308,51286,2,0,P|130:336|133:360,1,45,8|0,3:1|0:0,0:0:0:0:
16,187,51421,1,8,3:1:0:0:
16,187,51691,2,0,P|53:135|123:160,1,135.000005149842,0|0,1:1|1:1,0:0:0:0:
126,167,51894,1,0,1:1:0:0:
136,182,51961,6,0,P|163:185|193:190,1,45,4|0,3:1|0:0,0:0:0:0:
210,217,52097,2,0,P|237:220|267:225,1,45,0|0,1:1|0:0,0:0:0:0:
368,266,52232,2,0,P|341:269|311:274,1,45,8|0,1:1|0:0,0:0:0:0:
294,301,52368,2,0,P|267:304|237:309,1,45,0|0,1:1|0:0,0:0:0:0:
281,176,52502,5,0,3:3:0:0:
357,352,52637,2,0,P|401:348|446:345,1,90,0|8,1:1|1:1,0:0:0:0:
155,352,52907,1,0,1:1:0:0:
155,352,52975,1,0,0:0:0:0:
155,352,53042,2,0,P|110:348|65:345,1,90,0|0,3:3|0:0,0:0:0:0:
51,331,53245,2,0,L|-2:335,2,45,0|0|0,1:1|0:0|0:0,0:0:0:0:
92,262,53448,1,0,1:1:0:0:
279,166,53583,2,0,P|331:171|473:180,1,180,0|8,3:3|1:1,0:0:0:0:
476,99,53988,1,0,1:1:0:0:
342,3,54124,22,0,P|351:49|358:99,1,90,4|0,3:1|1:1,0:0:0:0:
279,166,54394,1,8,1:1:0:0:
354,254,54529,1,0,1:1:0:0:
197,358,54664,6,0,P|198:305|197:262,1,90,0|0,3:3|1:1,0:0:0:0:
151,196,54934,1,8,1:1:0:0:
185,117,55069,1,0,1:1:0:0:
12,91,55205,5,8,3:1:0:0:
236,186,55407,1,8,3:1:0:0:
12,91,55610,1,8,3:1:0:0:
89,39,55745,22,0,P|103:86|94:127,1,90,8|0,3:1|1:1,0:0:0:0:
88,177,55948,1,0,0:0:0:0:
95,173,56015,1,0,1:1:0:0:
103,170,56083,1,0,1:1:0:0:
111,168,56151,1,0,1:1:0:0:
119,167,56218,1,0,1:1:0:0:
128,167,56286,6,0,B|209:160|209:160|225:170|225:170|312:162,1,180,4|0,3:1|1:1,0:0:0:0:
376,120,56691,1,0,0:0:0:0:
497,258,56826,2,0,L|395:251,1,90,8|0,1:1|0:0,0:0:0:0:
401,244,57029,1,8,1:1:0:0:
394,237,57097,2,0,L|383:346,1,90,0|8,0:0|1:1,0:0:0:0:
377,331,57299,1,8,1:1:0:0:
371,338,57367,6,0,B|290:349|290:349|277:362|277:362|190:374,1,180,4|8,3:1|1:1,0:0:0:0:
123,347,57772,1,0,1:1:0:0:
53,126,57907,1,0,3:3:0:0:
53,126,57975,1,0,1:1:0:0:
53,126,58042,2,0,L|109:133,1,45,0|0,1:1|1:1,0:0:0:0:
180,176,58178,1,8,1:1:0:0:
180,176,58246,1,0,1:1:0:0:
180,176,58313,2,0,L|173:232,1,45,0|0,1:1|1:1,0:0:0:0:
256,130,58448,22,0,B|270:87|270:87|247:40,1,90,4|0,3:1|1:1,0:0:0:0:
75,205,58718,2,0,B|61:248|61:248|84:295,1,90,8|0,1:1|0:0,0:0:0:0:
155,317,58921,1,0,1:1:0:0:
155,317,58988,2,0,L|253:304,1,90,0|0,3:3|1:1,0:0:0:0:
484,243,59259,2,0,L|489:195,2,45,8|0|0,1:1|0:0|1:1,0:0:0:0:
386,373,59529,5,0,3:3:0:0:
328,303,59664,1,0,1:1:0:0:
484,243,59799,2,0,L|390:253,1,90,8|0,1:1|1:1,0:0:0:0:
244,305,60069,6,0,L|251:254,1,45,0|0,3:3|1:1,0:0:0:0:
314,164,60205,2,0,L|307:215,1,45,0|0,1:1|1:1,0:0:0:0:
256,316,60340,22,0,L|263:265,1,45,8|0,3:1|1:1,0:0:0:0:
326,175,60476,2,0,L|319:226,1,45,0|0,3:3|1:1,0:0:0:0:
166,234,60610,6,0,B|98:234|98:234|79:246|79:246|-3:246,2,157.500001502037,4|0|8,1:1|1:1|1:1,0:0:0:0:
238,185,61015,1,0,0:0:0:0:
224,34,61151,6,0,P|192:43|174:48,1,45,0|0,3:3|1:1,0:0:0:0:
80,117,61286,2,0,P|112:108|130:103,1,45,0|0,1:1|1:1,0:0:0:0:
214,28,61421,22,0,P|182:37|164:42,1,45,8|0,1:1|1:1,0:0:0:0:
70,111,61556,2,0,P|102:102|120:97,1,45,0|0,1:1|1:1,0:0:0:0:
200,117,61691,6,0,B|268:117|268:117|287:129|287:129|369:129,2,157.500001502037,4|0|8,1:1|1:1|1:1,0:0:0:0:
142,180,62097,1,0,0:0:0:0:
225,221,62232,5,0,3:3:0:0:
225,221,62299,1,0,1:1:0:0:
225,221,62367,1,0,1:1:0:0:
181,362,62502,1,8,1:1:0:0:
84,250,62637,1,0,1:1:0:0:
166,279,62772,21,4,3:1:0:0:
166,279,62907,1,0,1:1:0:0:
166,279,63042,2,0,L|163:314,6,22.5,8|0|0|0|0|0|0,1:1|0:0|1:1|0:0|1:1|0:0|1:1,0:0:0:0:
277,344,63313,2,0,B|309:362|309:362|425:346,1,135,4|0,3:1|0:0,0:0:0:0:
480,359,63583,5,8,1:1:0:0:
432,343,63651,1,0,1:1:0:0:
406,300,63718,1,0,1:1:0:0:
413,250,63786,1,0,1:1:0:0:
450,217,63853,5,4,3:1:0:0:
325,272,63988,1,0,3:3:0:0:
504,285,64124,1,12,3:1:0:0:
372,169,64259,1,0,3:3:0:0:
474,28,64394,1,4,3:1:0:0:
294,90,64529,1,0,3:3:0:0:
294,90,64597,1,0,3:3:0:0:
294,90,64664,2,0,B|219:99|219:99|211:106|211:106|131:118|131:118|116:110,1,180,8|0,3:1|3:3,0:0:0:0:
28,33,64934,22,0,B|47:67|47:67|28:187,1,135,4|0,3:1|0:0,0:0:0:0:
91,222,65205,2,0,B|57:242|57:242|38:362,1,135,8|0,1:1|0:0,0:0:0:0:
42,336,65475,1,0,3:3:0:0:
172,194,65610,2,0,L|168:142,2,45,0|0|8,1:1|0:0|1:1,0:0:0:0:
233,360,65880,1,0,1:1:0:0:
155,315,66015,5,0,3:3:0:0:
288,295,66151,1,0,1:1:0:0:
233,360,66286,1,8,1:1:0:0:
366,340,66422,1,0,1:1:0:0:
391,344,66488,1,0,1:1:0:0:
417,349,66556,5,0,3:3:0:0:
433,256,66691,1,0,1:1:0:0:
288,295,66826,1,8,1:1:0:0:
304,202,66961,2,0,L|297:109,2,90,0|0|0,1:1|3:3|1:1,0:0:0:0:
171,76,67367,22,0,L|177:165,1,90,8|0,1:1|1:1,0:0:0:0:
82,203,67569,1,0,0:0:0:0:
82,203,67637,2,0,L|88:292,1,90,0|0,3:3|1:1,0:0:0:0:
216,244,67840,1,0,1:1:0:0:
216,244,67908,2,0,L|222:333,1,90,8|0,1:1|1:1,0:0:0:0:
450,119,68178,6,0,L|454:65,2,45,0|0|0,3:3|1:1|1:1,0:0:0:0:
346,253,68448,2,0,L|350:199,2,45,8|0|0,1:1|0:0|1:1,0:0:0:0:
288,95,68718,1,0,3:3:0:0:
290,77,68786,1,0,1:1:0:0:
292,59,68853,1,0,1:1:0:0:
431,316,68988,2,0,L|444:216,1,90,8|0,1:1|1:1,0:0:0:0:
275,286,69259,5,4,3:1:0:0:
168,151,69394,1,0,3:3:0:0:
39,269,69529,2,0,B|129:290|129:290|197:235,1,180,8|0,1:1|3:3,0:0:0:0:
284,375,69934,2,0,L|274:285,1,90,0|8,1:1|1:1,0:0:0:0:
419,214,70205,1,0,1:1:0:0:
419,214,70272,1,0,0:0:0:0:
419,214,70340,2,0,L|321:198,1,90,0|0,3:3|1:1,0:0:0:0:
254,181,70610,1,8,1:1:0:0:
303,115,70745,1,0,1:1:0:0:
419,214,70880,22,0,P|340:185|258:264,1,202.500007724762,0|0,3:3|0:0,0:0:0:0:
234,344,71151,1,8,1:1:0:0:
351,282,71286,6,0,B|275:275|275:275|251:291|251:291|166:283,1,180,0|0,1:1|1:1,0:0:0:0:
81,309,71691,2,0,B|63:265|63:265|76:216,1,90,8|0,1:1|1:1,0:0:0:0:
199,107,71961,2,0,L|214:211,1,90,0|0,3:3|1:1,0:0:0:0:
9,145,72232,2,0,B|51:123|51:123|100:132,1,90,8|0,1:1|1:1,0:0:0:0:
99,137,72434,1,0,0:0:0:0:
105,143,72502,6,0,L|205:135,1,90,0|0,3:3|1:1,0:0:0:0:
198,322,72772,2,0,L|298:314,1,90,8|0,1:1|1:1,0:0:0:0:
87,222,73042,2,0,L|137:219,1,45,0|0,3:3|3:3,0:0:0:0:
293,355,73245,2,0,L|343:352,1,45,0|8,3:3|3:1,0:0:0:0:
191,163,73448,2,0,L|241:160,1,45,0|0,3:3|3:3,0:0:0:0:
264,128,73583,21,4,3:1:0:0:
339,174,73718,1,0,1:1:0:0:
362,261,73853,1,8,1:1:0:0:
312,335,73988,1,0,1:1:0:0:
224,359,74124,2,0,P|161:356|34:346,1,180,0|8,3:3|1:1,0:0:0:0:
309,108,74664,2,0,P|372:111|499:121,1,180,0|8,3:3|1:1,0:0:0:0:
192,136,75069,5,0,1:1:0:0:
192,136,75137,1,0,0:0:0:0:
192,136,75205,1,0,3:3:0:0:
90,90,75340,1,0,0:0:0:0:
1,144,75475,2,0,P|2:192|3:228,1,67.5,8|0,1:1|0:0,0:0:0:0:
24,233,75745,5,0,3:3:0:0:
178,260,75880,1,0,1:1:0:0:
160,358,76015,2,0,P|164:317|166:281,1,67.5,8|0,1:1|0:0,0:0:0:0:
178,260,76286,21,0,3:3:0:0:
207,249,76353,1,0,1:1:0:0:
238,255,76421,1,0,1:1:0:0:
268,248,76488,1,0,1:1:0:0:
297,258,76556,2,0,L|289:176,1,67.5,8|0,1:1|0:0,0:0:0:0:
273,172,76826,5,0,3:3:0:0:
487,189,76961,1,0,1:1:0:0:
345,138,77097,1,8,1:1:0:0:
484,197,77232,1,0,1:1:0:0:
418,110,77367,1,0,3:3:0:0:
480,206,77502,1,0,1:1:0:0:
490,82,77637,1,8,1:1:0:0:
477,215,77772,1,0,1:1:0:0:
363,198,77907,6,0,P|352:243|371:293,1,90,4|0,3:1|1:1,0:0:0:0:
433,133,78178,2,0,L|454:88,2,45,8|0|0,1:1|1:1|1:1,0:0:0:0:
382,299,78448,22,0,P|328:293|282:314,1,90,0|0,3:3|1:1,0:0:0:0:
116,240,78718,5,8,1:1:0:0:
156,373,78853,1,0,1:1:0:0:
274,322,78988,2,0,P|296:265|281:141,2,180,0|8|0,3:3|1:1|3:3,0:0:0:0:
176,189,79664,1,0,0:0:0:0:
176,189,79732,1,0,1:1:0:0:
176,189,79799,2,0,P|124:190|78:189,1,90,8|0,1:1|1:1,0:0:0:0:
6,205,80069,5,0,3:3:0:0:
34,120,80205,1,0,1:1:0:0:
147,280,80340,1,8,1:1:0:0:
67,270,80475,1,0,1:1:0:0:
116,89,80610,1,0,3:3:0:0:
234,277,80745,21,0,1:1:0:0:
234,277,80813,1,0,0:0:0:0:
234,277,80880,2,0,P|280:280|336:286,1,90,8|0,1:1|1:1,0:0:0:0:
468,217,81151,1,0,3:3:0:0:
386,224,81286,1,0,1:1:0:0:
236,159,81421,2,0,P|282:162|338:168,1,90,8|0,1:1|1:1,0:0:0:0:
467,103,81691,1,0,3:3:0:0:
385,110,81826,2,0,L|383:80,4,22.5,0|0|0|0|8,1:1|1:1|1:1|1:1|3:1,0:0:0:0:
472,360,82097,2,0,L|481:314,1,45,0|0,3:3|1:1,0:0:0:0:
509,295,82232,5,4,3:1:0:0:
418,268,82367,1,0,1:1:0:0:
379,357,82502,1,8,1:1:0:0:
302,301,82637,1,0,1:1:0:0:
224,359,82772,2,0,P|161:356|34:346,1,180,0|8,3:3|1:1,0:0:0:0:
321,111,83313,6,0,P|358:112|403:119,2,60,0|0|0,3:3|1:1|1:1,0:0:0:0:
251,154,83583,2,0,P|192:176|131:159,1,120,8|0,1:1|1:1,0:0:0:0:
51,113,83853,2,0,P|93:80|192:86,1,135,0|0,3:3|1:1,0:0:0:0:
138,163,84124,2,0,B|134:201|134:201|141:215|141:215|136:262,1,90,8|0,1:1|1:1,0:0:0:0:
396,326,84394,22,0,L|303:329,1,90,0|0,3:3|1:1,0:0:0:0:
306,328,84597,1,0,0:0:0:0:
306,328,84664,1,8,1:1:0:0:
233,300,84799,1,0,1:1:0:0:
315,154,84934,2,0,L|251:221,1,90,0|0,3:3|1:1,0:0:0:0:
252,219,85137,1,0,0:0:0:0:
252,219,85204,1,8,1:1:0:0:
172,224,85340,1,0,1:1:0:0:
110,32,85475,6,0,L|118:179,1,135,0|0,1:1|1:1,0:0:0:0:
60,215,85745,1,0,1:1:0:0:
51,213,85813,1,0,0:0:0:0:
42,211,85880,1,0,1:1:0:0:
32,210,85948,1,0,1:1:0:0:
23,208,86015,6,0,B|12:233|12:233|22:261,1,45,0|0,3:3|1:1,0:0:0:0:
147,296,86151,2,0,B|152:312|152:312|141:337,1,45,0|0,3:3|1:1,0:0:0:0:
63,370,86286,1,0,3:3:0:0:
335,248,86421,21,0,3:3:0:0:
335,248,86488,1,0,0:0:0:0:
335,248,86556,1,4,3:1:0:0:
341,339,86691,1,0,3:3:0:0:
248,350,86826,1,8,3:1:0:0:
239,254,86961,1,0,1:1:0:0:
341,339,87097,2,0,P|386:340|439:343,1,90,0|0,3:3|0:0,0:0:0:0:
258,117,87367,5,8,1:1:0:0:
319,55,87502,1,0,1:1:0:0:
178,70,87637,2,0,P|181:115|185:160,1,90,0|0,3:3|0:0,0:0:0:0:
288,270,87907,5,8,1:1:0:0:
232,339,88042,1,0,1:1:0:0:
341,339,88178,2,0,P|386:340|439:343,1,90,0|0,3:3|1:1,0:0:0:0:
468,271,88380,1,0,1:1:0:0:
468,271,88448,2,0,B|490:228|490:228|476:177,1,90,8|0,1:1|1:1,0:0:0:0:
178,70,88718,22,0,P|181:115|185:160,1,90,0|0,3:3|0:0,0:0:0:0:
329,163,88988,1,8,1:1:0:0:
215,286,89124,1,0,1:1:0:0:
341,339,89259,2,0,P|386:340|439:343,2,90,0|0|8,3:3|0:0|1:1,0:0:0:0:
178,70,89664,5,0,1:1:0:0:
178,70,89732,1,0,0:0:0:0:
178,70,89799,2,0,P|181:115|185:160,1,90,0|0,3:3|0:0,0:0:0:0:
128,239,90069,2,0,P|130:283|134:328,1,90,8|0,1:1|1:1,0:0:0:0:
446,228,90340,2,0,P|386:215|343:206,1,90,0|0,3:3|1:1,0:0:0:0:
281,169,90610,1,8,3:1:0:0:
349,303,90745,1,0,3:3:0:0:
141,317,90880,6,0,P|185:251|291:278,1,180,4|8,3:1|1:1,0:0:0:0:
275,348,91286,1,0,1:1:0:0:
497,159,91421,2,0,P|453:225|347:198,1,180,0|8,3:3|1:1,0:0:0:0:
378,139,91826,1,0,1:1:0:0:
254,76,91961,22,0,P|259:132|267:222,1,135,0|0,3:3|0:0,0:0:0:0:
265,210,92232,1,8,1:1:0:0:
207,287,92367,1,0,1:1:0:0:
379,349,92502,2,0,P|377:292|380:202,1,135,0|0,3:3|0:0,0:0:0:0:
379,214,92772,1,8,1:1:0:0:
471,191,92907,1,0,1:1:0:0:
484,193,92975,1,0,0:0:0:0:
497,195,93042,5,0,3:3:0:0:
402,132,93178,1,0,1:1:0:0:
308,243,93313,2,0,L|246:237,1,45,8|0,1:1|0:0,0:0:0:0:
203,187,93448,1,0,1:1:0:0:
290,145,93583,5,0,3:3:0:0:
173,261,93718,1,0,1:1:0:0:
105,149,93853,2,0,L|97:244,1,90,8|0,1:1|1:1,0:0:0:0:
332,194,94124,22,0,L|310:67,1,112.5,0|0,3:3|3:3,0:0:0:0:
97,238,94394,2,0,L|119:365,1,112.5,8|0,3:1|3:3,0:0:0:0:
312,83,94664,6,0,L|441:68,1,112.5,0|0,3:3|3:3,0:0:0:0:
116,348,94934,2,0,L|-13:363,1,112.5,8|0,3:1|3:3,0:0:0:0:
275,298,95205,6,0,B|366:309|366:309|428:376,1,180,4|0,3:1|1:1,0:0:0:0:
256,192,95610,1,0,0:0:0:0:
237,86,95745,2,0,B|146:75|146:75|84:8,1,180,8|0,1:1|1:1,0:0:0:0:
256,192,96151,1,0,0:0:0:0:
364,186,96286,22,0,L|377:77,2,90,0|0|0,3:3|0:0|1:1,0:0:0:0:
148,198,96691,2,0,L|135:307,1,90,0|8,1:1|1:1,0:0:0:0:
163,116,96961,5,0,1:1:0:0:
137,287,97097,2,0,L|129:351,1,45,0|0,3:3|0:0,0:0:0:0:
221,353,97232,5,0,3:3:0:0:
221,353,97299,1,0,0:0:0:0:
221,353,97367,2,0,P|277:351|315:328,1,90,4|0,3:1|3:3,0:0:0:0:
330,262,97569,1,0,1:1:0:0:
330,262,97637,2,0,P|386:260|424:237,1,90,8|0,1:1|1:1,0:0:0:0:
282,188,97840,1,0,1:1:0:0:
282,188,97908,2,0,P|226:186|188:163,1,90,0|0,3:3|1:1,0:0:0:0:
196,68,98178,2,0,P|138:94|55:93,1,135,8|0,1:1|0:0,0:0:0:0:
100,268,98448,22,0,P|114:225|112:168,1,90,0|0,3:3|1:1,0:0:0:0:
114,180,98651,1,0,1:1:0:0:
114,180,98718,1,8,1:1:0:0:
208,205,98853,1,0,1:1:0:0:
208,205,98921,1,0,1:1:0:0:
208,205,98988,2,0,L|255:193,1,45,0|0,3:3|0:0,0:0:0:0:
336,136,99124,2,0,L|334:191,1,45,0|0,1:1|0:0,0:0:0:0:
273,272,99259,2,0,L|318:267,1,45,8|0,1:1|1:1,0:0:0:0:
397,235,99395,2,0,L|405:288,1,45,0|0,1:1|0:0,0:0:0:0:
414,349,99529,6,0,L|426:161,1,180,4|0,3:1|1:1,0:0:0:0:
256,192,99934,1,0,0:0:0:0:
98,35,100069,2,0,L|86:223,1,180,8|0,1:1|1:1,0:0:0:0:
256,192,100475,1,0,0:0:0:0:
150,311,100610,6,0,B|109:331|109:331|57:325,2,90,0|0|0,3:3|0:0|1:1,0:0:0:0:
332,71,101015,1,0,3:3:0:0:
332,71,101083,1,0,3:3:0:0:
332,71,101151,2,0,B|389:50|389:50|473:75,1,135,8|0,3:1|0:0,0:0:0:0:
498,42,101421,1,0,3:3:0:0:
484,84,101488,1,0,3:3:0:0:
497,127,101556,1,0,3:3:0:0:
478,168,101624,1,0,3:3:0:0:
490,210,101691,22,0,P|484:259|480:304,1,90,4|0,3:1|3:3,0:0:0:0:
403,263,101894,1,0,1:1:0:0:
403,263,101961,2,0,P|397:312|393:357,1,90,8|0,1:1|1:1,0:0:0:0:
287,254,102232,1,0,3:3:0:0:
388,181,102367,1,0,1:1:0:0:
225,179,102502,2,0,P|218:120|209:42,1,135,8|0,1:1|0:0,0:0:0:0:
307,17,102772,6,0,P|312:76|317:113,1,90,0|0,3:3|1:1,0:0:0:0:
316,106,102975,1,0,0:0:0:0:
316,106,103042,2,0,L|304:153,2,45,8|0|0,1:1|0:0|1:1,0:0:0:0:
489,167,103313,6,0,B|436:124|436:124|297:150,1,202.500007724762,0|0,3:3|0:0,0:0:0:0:
243,264,103583,2,0,B|296:307|296:307|435:281,1,202.500007724762,8|0,1:1|0:0,0:0:0:0:
332,221,103853,22,0,B|261:236|261:236|230:287|230:287|137:309|137:309|155:271,1,270.000010299683,4|8,3:1|1:1,0:0:0:0:
18,56,104259,1,0,1:1:0:0:
18,56,104326,1,0,1:1:0:0:
18,56,104394,2,0,P|56:125|72:269,1,202.500007724762,0|0,3:3|1:1,0:0:0:0:
155,271,104664,2,0,P|147:303|142:331,2,45,8|0|0,1:1|0:0|1:1,0:0:0:0:
149,175,104934,5,0,3:3:0:0:
299,126,105069,2,0,B|311:170|311:170|278:214,1,90,0|8,1:1|1:1,0:0:0:0:
149,175,105340,2,0,L|138:119,2,45,0|0|0,1:1|0:0|3:3,0:0:0:0:
263,330,105610,1,0,1:1:0:0:
263,330,105678,1,0,0:0:0:0:
263,330,105745,1,8,1:1:0:0:
343,288,105880,1,0,1:1:0:0:
423,334,106015,6,0,L|528:338,1,90,0|0,3:3|1:1,0:0:0:0:
420,166,106286,2,0,L|412:108,2,45,8|0|0,1:1|1:1|1:1,0:0:0:0:
427,177,106488,1,0,1:1:0:0:
432,189,106556,1,0,3:3:0:0:
501,136,106691,1,0,1:1:0:0:
335,178,106826,2,0,L|331:234,2,45,8|0|0,1:1|1:1|1:1,0:0:0:0:
308,46,107097,21,0,3:3:0:0:
239,120,107232,1,0,3:3:0:0:
280,33,107367,5,8,3:1:0:0:
230,148,107502,1,0,3:3:0:0:
258,21,107637,5,0,3:3:0:0:
259,258,107907,1,8,3:1:0:0:
259,258,107975,1,0,3:3:0:0:
259,258,108042,1,0,3:3:0:0:
259,258,108110,1,0,3:3:0:0:
259,258,108178,22,0,P|227:238|183:227,1,67.5000025749208,4|0,3:1|0:0,0:0:0:0:
122,264,108313,1,0,1:1:0:0:
378,241,108448,2,0,P|290:293|182:304,1,202.500007724762,8|0,1:1|0:0,0:0:0:0:
122,264,108718,5,0,3:3:0:0:
307,380,108853,1,0,1:1:0:0:
307,380,108921,1,0,1:1:0:0:
307,380,108988,2,0,L|353:369,2,45,8|0|0,1:1|0:0|1:1,0:0:0:0:
191,304,109259,6,0,P|198:277|197:248,1,45,0|0,3:3|1:1,0:0:0:0:
191,79,109394,2,0,P|211:99|237:112,1,45,0|0,1:1|1:1,0:0:0:0:
385,192,109529,1,8,1:1:0:0:
385,192,109597,1,0,1:1:0:0:
385,192,109664,2,0,P|358:199|333:215,1,45,0|0,1:1|1:1,0:0:0:0:
256,200,109799,2,0,L|264:176,4,22.5,0|0|0|0|0,3:3|1:1|1:1|1:1|1:1,0:0:0:0:
256,200,110069,2,0,B|168:185|195:220|114:200,1,135,8|0,1:1|0:0,0:0:0:0:
61,147,110340,22,0,B|35:188|35:188|48:234,1,90,0|0,3:3|1:1,0:0:0:0:
119,277,110542,1,0,0:0:0:0:
119,277,110610,2,0,L|103:373,1,90,8|0,1:1|1:1,0:0:0:0:
197,104,110880,2,0,L|192:55,2,45,0|0|0,3:3|1:1|1:1,0:0:0:0:
206,113,111083,1,0,0:0:0:0:
213,124,111151,1,8,1:1:0:0:
424,90,111286,1,0,1:1:0:0:
284,70,111421,5,0,3:3:0:0:
345,125,111556,2,0,B|361:152|361:152|351:228,1,90,0|8,1:1|1:1,0:0:0:0:
176,323,111826,1,0,1:1:0:0:
166,321,111894,1,0,1:1:0:0:
157,319,111961,2,0,L|123:365,1,45,0|0,3:3|1:1,0:0:0:0:
155,230,112097,2,0,L|101:234,1,45,0|0,1:1|1:1,0:0:0:0:
228,265,112232,1,8,3:1:0:0:
347,355,112367,5,0,3:3:0:0:
391,354,112434,1,0,1:1:0:0:
436,353,112502,2,0,B|495:369,3,45,0|0|0|0,3:3|1:1|0:0|1:1,0:0:0:0:
256,192,112772,22,0,P|236:154|300:91,1,135.000005149842,0|0,1:1|1:1,0:0:0:0:
362,121,112975,1,0,1:1:0:0:
362,121,113042,2,0,L|431:115,3,45,8|0|0|0,1:1|0:0|1:1|0:0,0:0:0:0:
256,192,113313,6,0,P|276:230|212:293,1,135.000005149842,0|0,1:1|1:1,0:0:0:0:
150,263,113515,1,0,0:0:0:0:
150,263,113583,2,0,L|81:269,3,45,0|0|0|0,3:3|0:0|1:1|0:0,0:0:0:0:
256,192,113853,6,0,B|279:105|240:144|267:49,1,135.000005149842,0|0,1:1|0:0,0:0:0:0:
354,17,114056,1,0,1:1:0:0:
354,17,114124,2,0,P|351:50|350:75,3,45,8|0|0|0,1:1|0:0|1:1|0:0,0:0:0:0:
256,192,114394,22,0,B|233:279|272:240|245:335,1,135.000005149842,0|0,3:3|3:3,0:0:0:0:
158,367,114597,1,0,0:0:0:0:
158,367,114664,2,0,P|161:334|162:309,3,45,0|0|0|0,3:3|1:1|0:0|1:1,0:0:0:0:
202,150,114934,6,0,L|381:138,1,157.500001502037,0|0,1:1|1:1,0:0:0:0:
427,175,115137,1,0,0:0:0:0:
427,175,115205,2,0,L|481:178,2,45,8|0|0,1:1|0:0|1:1,0:0:0:0:
121,184,115475,6,0,L|319:191,1,180,0|0,1:1|0:0,0:0:0:0:
367,234,115678,1,0,1:1:0:0:
367,234,115745,2,0,L|424:231,2,45,0|0|0,3:3|1:1|0:0,0:0:0:0:
35,174,116015,22,0,L|261:157,1,202.500007724762,0|0,1:1|3:3,0:0:0:0:
487,123,116218,1,0,1:1:0:0:
487,123,116286,6,0,B|459:163|468:228|468:228|417:137|300:105|300:105|328:148|312:198,1,405.000015449525,8|0,1:1|3:3,0:0:0:0:
189,186,116826,6,0,L|173:333,1,135.000005149842,4|0,3:1|3:3,0:0:0:0:
66,227,117097,2,0,L|50:374,1,135.000005149842,8|0,1:1|1:1,0:0:0:0:
323,186,117367,21,0,3:3:0:0:
446,227,117502,1,0,1:1:0:0:
446,227,117569,1,0,1:1:0:0:
446,227,117637,1,8,1:1:0:0:
337,320,117772,1,0,1:1:0:0:
460,361,117907,5,0,3:3:0:0:
251,349,118042,2,0,L|183:363,2,67.5000025749208,0|0|8,1:1|0:0|1:1,0:0:0:0:
460,361,118313,1,0,1:1:0:0:
267,257,118448,2,0,L|199:271,2,67.5000025749208,0|0|0,3:3|0:0|1:1,0:0:0:0:
446,113,118718,2,0,P|446:195|384:218,1,135.000005149842,8|0,1:1|1:1,0:0:0:0:
339,178,118921,1,0,0:0:0:0:
339,178,118988,6,0,B|294:150|294:150|190:169,1,135.000005149842,0|0,3:3|1:1,0:0:0:0:
75,130,119259,2,0,B|46:195|46:195|86:252,1,135.000005149842,8|0,1:1|1:1,0:0:0:0:
159,353,119461,1,0,1:1:0:0:
159,353,119529,2,0,B|166:292|166:292|159:269|159:269|180:242|180:242|173:216|173:216|179:160,1,202.500007724762,0|0,3:3|0:0,0:0:0:0:
156,84,119799,21,8,1:1:0:0:
183,131,119867,1,0,1:1:0:0:
232,150,119934,1,0,1:1:0:0:
285,139,120002,1,0,0:0:0:0:
321,100,120069,6,0,B|384:103|384:103|395:114|395:114|466:117,1,135.000005149842,0|0,3:3|1:1,0:0:0:0:
264,224,120340,2,0,B|267:287|267:287|278:298|278:298|281:369,1,135.000005149842,8|0,1:1|1:1,0:0:0:0:
357,201,120610,2,0,B|399:247|399:247|399:263|399:263|431:301|431:301|440:302|440:302|484:352,1,202.500007724762,0|0,1:1|1:1,0:0:0:0:
483,351,120880,1,0,1:1:0:0:
483,351,121151,6,0,L|377:356,1,90,4|0,3:1|1:1,0:0:0:0:
106,232,121421,2,0,L|212:227,1,90,8|0,1:1|1:1,0:0:0:0:
269,205,121624,1,0,1:1:0:0:
269,205,121691,2,0,B|285:249|285:249|271:297,1,90,0|0,3:3|1:1,0:0:0:0:
345,147,121961,1,8,1:1:0:0:
360,298,122097,2,0,L|355:359,2,45,0|0|0,1:1|1:1|3:3,0:0:0:0:
345,147,122367,1,0,1:1:0:0:
481,151,122502,21,8,1:1:0:0:
456,162,122569,1,0,1:1:0:0:
412,147,122637,1,0,1:1:0:0:
387,158,122704,1,0,1:1:0:0:
345,147,122772,2,0,L|282:153,2,45,0|0|0,3:3|0:0|1:1,0:0:0:0:
199,89,123042,1,8,1:1:0:0:
198,98,123110,1,0,1:1:0:0:
197,107,123178,1,0,1:1:0:0:
196,115,123245,1,0,1:1:0:0:
195,124,123313,6,0,B|173:155|173:155|184:226,1,90,0|0,3:3|1:1,0:0:0:0:
101,357,123583,2,0,B|123:326|123:326|112:255,1,90,8|0,1:1|1:1,0:0:0:0:
58,170,123853,1,0,3:3:0:0:
58,170,123921,1,0,1:1:0:0:
58,170,123988,2,0,L|4:177,1,45,0|0,1:1|1:1,0:0:0:0:
25,335,124124,2,0,B|164:320|164:320|222:360,1,202.500007724762,8|0,1:1|0:0,0:0:0:0:
311,326,124394,6,0,L|306:388,3,45,0|0|0|0,3:3|0:0|1:1|0:0,0:0:0:0:
428,381,124664,2,0,L|400:344,3,45,8|0|0|0,1:1|1:1|1:1|1:1,0:0:0:0:
395,263,124934,1,0,3:3:0:0:
395,263,125002,1,0,1:1:0:0:
395,263,125069,2,0,L|450:269,1,45,0|0,1:1|0:0,0:0:0:0:
479,161,125205,2,0,L|436:181,1,45,8|0,3:1|0:0,0:0:0:0:
351,160,125340,2,0,L|381:106,1,45,0|0,1:1|0:0,0:0:0:0:
406,35,125475,22,0,L|317:49,1,90,4|0,3:1|3:3,0:0:0:0:
106,35,125745,2,0,L|194:49,1,90,8|0,1:1|1:1,0:0:0:0:
317,49,126015,1,0,3:3:0:0:
188,150,126151,1,0,1:1:0:0:
195,49,126286,1,8,1:1:0:0:
324,150,126422,1,0,1:1:0:0:
324,150,126488,1,0,0:0:0:0:
324,150,126556,6,0,L|334:254,1,90,0|0,3:3|1:1,0:0:0:0:
99,222,126826,2,0,L|36:211,2,45,8|0|0,1:1|1:1|1:1,0:0:0:0:
187,365,127097,2,0,L|177:261,1,90,0|0,3:3|1:1,0:0:0:0:
220,207,127299,1,0,1:1:0:0:
220,207,127367,2,0,B|266:196|266:196|313:224,1,90,8|0,1:1|1:1,0:0:0:0:
482,330,127637,6,0,B|436:341|436:341|389:313,1,90,0|0,3:3|1:1,0:0:0:0:
416,238,127840,1,0,1:1:0:0:
416,238,127907,2,0,B|376:273|376:273|234:281,1,180,8|0,1:1|3:3,0:0:0:0:
66,242,128313,1,0,1:1:0:0:
56,207,128380,1,0,1:1:0:0:
73,175,128448,1,8,1:1:0:0:
180,186,128583,1,0,1:1:0:0:
190,221,128650,1,0,0:0:0:0:
173,253,128718,22,0,P|163:306|167:358,1,90,0|0,3:3|1:1,0:0:0:0:
73,175,128988,2,0,P|63:122|67:70,1,90,8|0,1:1|1:1,0:0:0:0:
188,75,129259,2,0,L|219:64,4,22.5,0|0|0|0|0,3:3|1:1|1:1|1:1|1:1,0:0:0:0:
188,75,129529,1,8,3:1:0:0:
383,217,129664,5,0,3:3:0:0:
399,195,129732,1,0,3:3:0:0:
412,171,129799,2,0,P|418:123|417:65,1,101.250003862381,0|0,1:1|1:1,0:0:0:0:
338,37,130069,6,0,P|288:66|258:85,1,90,12|0,1:1|1:1,0:0:0:0:
260,83,130272,1,0,1:1:0:0:
260,83,130340,2,0,P|221:59|182:36,1,90,0|0,3:3|1:1,0:0:0:0:
252,301,130610,2,0,P|290:324|329:347,1,90,8|0,1:1|1:1,0:0:0:0:
347,348,130813,1,0,1:1:0:0:
364,349,130880,22,0,L|416:341,1,45,0|0,3:3|1:1,0:0:0:0:
472,255,131015,2,0,L|411:265,1,45,0|0,1:1|1:1,0:0:0:0:
346,233,131151,2,0,P|326:192|374:120,1,135,8|0,1:1|0:0,0:0:0:0:
441,158,131421,5,0,3:3:0:0:
374,36,131556,1,0,1:1:0:0:
497,91,131691,1,8,1:1:0:0:
368,121,131826,1,0,1:1:0:0:
456,20,131961,1,4,3:1:0:0:
290,81,132097,5,0,1:1:0:0:
290,81,132164,1,0,1:1:0:0:
290,81,132232,2,0,L|239:79,1,45,8|0,1:1|1:1,0:0:0:0:
172,109,132367,2,0,L|121:107,1,45,0|0,1:1|1:1,0:0:0:0:
70,48,132502,1,0,3:3:0:0:
26,177,132637,1,0,1:1:0:0:
26,177,132704,1,0,0:0:0:0:
26,177,132772,2,0,L|77:175,1,45,8|0,1:1|1:1,0:0:0:0:
144,205,132907,2,0,L|195:203,1,45,0|0,1:1|1:1,0:0:0:0:
323,204,133042,22,0,B|351:269|351:269|325:332,1,135.000005149842,0|0,3:3|1:1,0:0:0:0:
185,328,133245,1,0,1:1:0:0:
185,328,133313,2,0,B|161:269|161:269|189:204,1,135.000005149842,8|0,1:1|1:1,0:0:0:0:
317,105,133583,6,0,B|325:231|325:231|243:274,1,202.500007724762,0|0,3:3|1:1,0:0:0:0:
189,204,133853,2,0,L|200:115,1,67.5000025749208,8|0,3:1|0:0,0:0:0:0:
256,40,133988,1,0,3:3:0:0:
35,135,134124,21,4,3:1:0:0:
35,135,134259,1,0,3:3:0:0:
35,135,134394,2,0,B|41:156|58:143|58:143|78:161|91:135|91:135|115:159|124:136|124:136|147:159|158:132|158:132|180:154|200:134|200:134,1,202.500007724762,8|0,3:1|0:0,0:0:0:0:
379,218,134664,38,0,B|330:170|330:170|255:218,1,135.000005149842,0|0,3:3|1:1,0:0:0:0:
205,230,134867,1,0,1:1:0:0:
205,230,134934,2,0,L|155:226,2,45,8|0|0,3:1|0:0|1:1,0:0:0:0:
94,278,135205,21,4,3:1:0:0:
264,292,135340,1,0,1:1:0:0:
97,295,135475,2,0,B|111:345|154:346|174:325|174:325|192:347|236:351|254:307,1,202.500007724762,8|0,3:1|1:1,0:0:0:0:
14,234,135745,2,0,B|-10:301|-10:301|29:376,1,135.000005149842,0|0,3:3|1:1,0:0:0:0:
260,217,136015,1,8,3:1:0:0:
275,186,136083,1,0,1:1:0:0:
275,152,136151,1,0,1:1:0:0:
256,124,136218,1,0,1:1:0:0:
224,111,136286,5,4,3:1:0:0:
163,170,136421,1,8,1:1:0:0:
163,51,136556,2,0,B|208:24|208:24|290:40,1,135.000005149842,8|8,3:1|1:1,0:0:0:0:
254,254,136826,1,8,3:1:0:0:
343,114,136961,1,8,1:1:0:0:
471,246,137097,2,0,B|426:273|426:273|344:257,1,135.000005149842,8|8,3:1|1:1,0:0:0:0:
50,138,137367,5,4,3:1:0:0:
53,150,137434,1,0,1:1:0:0:
56,163,137502,1,0,1:1:0:0:
60,175,137569,1,0,1:1:0:0:
81,205,137637,21,8,1:1:0:0:
78,217,137704,1,0,1:1:0:0:
75,230,137772,1,0,1:1:0:0:
71,242,137839,1,0,1:1:0:0:
46,274,137907,6,0,B|141:266|141:266|176:288,1,135.000005149842,12|0,1:1|0:0,0:0:0:0:
231,239,138110,2,0,B|264:260|264:260|359:252,1,135.000005149842,8|0,1:1|0:0,0:0:0:0:
439,225,138313,1,8,1:1:0:0:
439,225,138380,1,8,1:1:0:0:
439,225,138448,2,0,B|453:259|453:259|435:294,1,67.5000025749208,4|0,1:1|0:0,0:0:0:0:
