osu file format v14

[General]
AudioFilename: audio.mp3
AudioLeadIn: 0
PreviewTime: 57367
Countdown: 0
SampleSet: Normal
StackLeniency: 0.4
Mode: 0
LetterboxInBreaks: 0
WidescreenStoryboard: 1

[Editor]
Bookmarks: 9787,18436,27085,35733,90868,112502,121139,138436
DistanceSpacing: 1.1
BeatDivisor: 1
GridSize: 4
TimelineZoom: 2.3

[Metadata]
Title:Reso*nyan*ce Fever
TitleUnicode:Reso*nyan*ce Fever
Artist:katagiri
ArtistUnicode:かたぎり
Creator:Snow Note
Version:Hyper
Source:
Tags:7odoa pw384 RLC kundi Kuki1537 bms of fighters ultimate BOFU2016 legendary again DANCECORE resonyance resonance xlni 384059043 Kuki edm hardcore mashcore hard core dance music 2016 Just Do It Shia LaBeouf Коробе́йники tetris KBC keyboard crasher キーボードクラッシャー スーパーマリオ Super Mario RPG Legend of the Seven Stars 森のキノコにご用心 forest maze 下村陽子 Yoko Shimomura サンドキャニオン 砂漠ステージ Sand Canyon Map Jun 石川淳 Ishikawa 星のカービィ3 Kirby's Dream Land 3 任天堂 nintento 侵略!イカ娘 shinryaku! ika musume invasion! squid girl Syamu Gimme Nightcore ABBA electronic instrumental japanese なまる ピ
BeatmapID:2994734
BeatmapSetID:779061

[Difficulty]
HPDrainRate:5
CircleSize:3.6
OverallDifficulty:6.4
ApproachRate:8.4
SliderMultiplier:1.7
SliderTickRate:1

[Events]
//Background and Video events
0,0,"BG.jpg",0,0
//Break Periods
2,33648,35033
//Storyboard Layer 0 (Background)
//Storyboard Layer 1 (Fail)
//Storyboard Layer 2 (Pass)
//Storyboard Layer 3 (Foreground)
//Storyboard Layer 4 (Overlay)
//Storyboard Sound Samples

[TimingPoints]
70,270.27027027027,4,2,1,80,1,0
4394,-100,4,2,1,50,0,0
5475,-100,4,2,1,80,0,0
9799,-86.9565217391304,4,2,1,80,0,1
18448,-86.9565217391304,4,2,1,80,0,0
27097,-133.333333333333,4,2,1,80,0,0
31421,-100,4,2,1,80,0,0
32502,-80,4,2,1,80,0,0
32772,-100,4,2,1,80,0,0
40340,-133.333333333333,4,2,1,80,0,0
41151,-100,4,2,1,80,0,0
47637,-86.9565217391304,4,2,1,80,0,1
56286,-133.333333333333,4,2,1,80,0,0
57367,-100,4,2,1,80,0,0
77367,-76.9230769230769,4,2,1,80,0,0
77907,-100,4,2,1,80,0,0
82232,-100,4,2,1,80,0,1
85475,-100,4,2,1,80,0,0
86556,-100,4,2,1,80,0,1
90880,-100,4,2,1,80,0,0
95205,-125,4,2,1,80,0,0
97367,-100,4,2,1,80,0,0
99529,-125,4,2,1,80,0,0
101691,-100,4,2,1,80,0,0
103853,-100,4,2,1,80,0,1
112772,-200,4,2,1,80,0,0
116826,-100,4,2,1,80,0,1
120610,-200,4,2,1,80,0,0
121151,-100,4,2,1,80,0,0
134124,-86.9565217391304,4,2,1,80,0,1
138448,-100,4,2,1,80,0,0

[Colours]
Combo1 : 0,128,0
Combo2 : 255,0,0
Combo3 : 246,246,246
Combo4 : 255,255,0

[HitObjects]
256,32,880,5,0,1:1:0:0:
214,345,1151,6,0,P|150:378|45:352,1,170,4|8,3:1|1:1,0:0:0:0:
40,240,1556,2,0,P|112:208|200:224,1,170,0|0,3:3|1:1,0:0:0:0:
298,345,1961,2,0,L|213:345,1,85,8|0,3:1|1:1,0:0:0:0:
314,226,2232,6,0,P|395:206|472:240,1,170,4|8,3:1|1:1,0:0:0:0:
454,361,2637,2,0,P|373:380|298:345,1,170,0|0,3:3|1:1,0:0:0:0:
256,252,3042,1,8,3:1:0:0:
256,148,3178,1,0,3:3:0:0:
168,96,3313,6,0,P|120:208|152:272,1,170,4|8,3:1|1:1,0:0:0:0:
378,247,3718,2,0,P|390:164|343:95,1,170,0|0,3:3|1:1,0:0:0:0:
256,252,4124,2,0,L|256:340,1,85,8|0,3:1|1:1,0:0:0:0:
344,360,4394,6,0,L|344:272,1,85,0|0,1:1|1:1,0:0:0:0:
168,275,4664,2,0,L|168:360,1,85,0|0,1:1|1:1,0:0:0:0:
256,252,4934,2,0,L|256:167,2,85,0|0|0,1:1|1:1|1:1,0:0:0:0:
16,152,5475,6,0,P|16:72|120:32,1,170,4|8,3:1|1:1,0:0:0:0:
160,72,5880,2,0,L|336:72,1,170,0|0,3:3|1:1,0:0:0:0:
416,56,6286,2,0,L|424:8,2,42.5,8|0|0,3:1|1:1|1:1,0:0:0:0:
400,136,6556,5,4,3:1:0:0:
376,216,6691,2,0,L|368:264,2,42.5,0|0|8,1:1|1:1|1:1,0:0:0:0:
460,204,6961,1,0,3:3:0:0:
480,120,7097,2,0,L|488:72,2,42.5,0|0|0,1:1|1:1|1:1,0:0:0:0:
460,204,7367,1,8,3:1:0:0:
476,288,7502,1,0,3:3:0:0:
495,372,7637,6,0,P|413:374|357:314,1,170,4|8,3:1|1:1,0:0:0:0:
327,235,8042,2,0,P|254:197|182:235,1,170,0|0,3:3|1:1,0:0:0:0:
154,314,8448,1,0,1:1:0:0:
112,32,9259,6,0,P|192:0|244:24,2,127.5,0|0|0,1:1|1:1|1:1,0:0:0:0:
56,108,9799,6,0,P|24:192|76:304,1,195.500003728867,4|8,3:1|1:1,0:0:0:0:
140,344,10205,1,0,1:1:0:0:
200,264,10340,2,0,P|216:212|196:160,1,97.7500018644333,0|0,3:3|1:1,0:0:0:0:
312,120,10610,2,0,P|296:172|316:224,1,97.7500018644333,8|0,1:1|1:1,0:0:0:0:
400,248,10880,6,0,L|508:240,2,97.7500018644333,0|0|8,3:3|1:1|1:1,0:0:0:0:
307,212,11286,1,0,1:1:0:0:
307,212,11421,2,0,P|296:165|312:120,1,97.7500018644333,0|0,3:3|1:1,0:0:0:0:
400,248,11691,2,0,P|411:294|395:340,1,97.7500018644333,8|0,1:1|1:1,0:0:0:0:
224,260,11961,6,0,P|208:152|240:60,1,195.500003728867,4|8,3:1|1:1,0:0:0:0:
320,28,12367,1,0,1:1:0:0:
320,28,12502,2,0,L|208:20,1,97.7500018644333,0|0,3:3|1:1,0:0:0:0:
116,136,12772,2,0,L|228:128,1,97.7500018644333,8|0,1:1|1:1,0:0:0:0:
312,119,13042,5,0,3:3:0:0:
256,356,13313,1,8,1:1:0:0:
256,356,13583,1,0,3:3:0:0:
200,119,13853,1,8,1:1:0:0:
312,119,13988,1,0,1:1:0:0:
304,228,14124,6,0,L|204:228,1,97.7500018644333,4|0,3:1|1:1,0:0:0:0:
206,325,14394,2,0,L|303:325,1,97.7500018644333,8|0,1:1|0:0,0:0:0:0:
392,284,14664,2,0,P|420:176|392:100,1,195.500003728867,0|8,3:3|1:1,0:0:0:0:
440,16,15069,1,0,1:1:0:0:
480,104,15205,6,0,P|412:176|316:156,1,195.500003728867,0|8,3:3|1:1,0:0:0:0:
256,92,15610,1,0,1:1:0:0:
188,162,15745,5,0,3:3:0:0:
116,96,15880,1,0,1:1:0:0:
92,192,16015,1,8,1:1:0:0:
92,192,16286,6,0,L|88:308,1,97.7500018644333,4|0,3:1|0:0,0:0:0:0:
176,248,16556,2,0,L|172:364,1,97.7500018644333,8|0,1:1|0:0,0:0:0:0:
260,208,16826,2,0,L|256:324,1,97.7500018644333,0|0,3:3|0:0,0:0:0:0:
344,264,17096,2,0,L|340:380,1,97.7500018644333,8|0,1:1|0:0,0:0:0:0:
424,192,17367,2,0,P|388:168|328:192,1,97.7500018644333,0|0,1:1|0:0,0:0:0:0:
460,304,17637,2,0,P|498:284|508:220,1,97.7500018644333,0|0,1:1|1:1,0:0:0:0:
344,264,17907,5,0,1:1:0:0:
340,361,18042,2,0,L|400:373,2,48.8750009322167,0|0|0,1:1|1:1|1:1,0:0:0:0:
256,305,18313,1,0,1:1:0:0:
256,305,18448,6,0,P|172:300|80:368,1,195.500003728867,4|8,3:1|1:1,0:0:0:0:
4,308,18853,1,0,1:1:0:0:
56,224,18988,2,0,L|60:16,1,195.500003728867,0|8,3:3|1:1,0:0:0:0:
156,16,19394,1,0,1:1:0:0:
148,112,19529,6,0,L|248:104,1,97.7500018644333,0|0,3:3|1:1,0:0:0:0:
336,72,19799,2,0,P|343:30|309:57,1,97.7500018644333,8|0,1:1|1:1,0:0:0:0:
320,160,20069,2,0,L|312:212,2,48.8750009322167,0|0|0,3:3|1:1|1:1,0:0:0:0:
412,128,20340,1,8,1:1:0:0:
412,128,20475,1,0,1:1:0:0:
412,128,20610,6,0,P|480:224|392:368,1,293.2500055933,4|0,3:1|1:1,0:0:0:0:
312,368,21151,2,0,L|192:360,1,97.7500018644333,0|0,3:3|1:1,0:0:0:0:
200,272,21421,2,0,L|320:280,1,97.7500018644333,8|0,1:1|1:1,0:0:0:0:
352,192,21691,6,0,L|156:178,1,195.500003728867,4|8,3:1|1:1,0:0:0:0:
88,128,22097,1,0,1:1:0:0:
168,96,22232,2,0,L|363:109,1,195.500003728867,4|8,3:1|1:1,0:0:0:0:
432,160,22638,1,0,1:1:0:0:
372,224,22772,6,0,P|348:276|364:332,1,97.7500018644333,4|0,3:1|1:1,0:0:0:0:
276,352,23042,2,0,L|268:280,3,48.8750009322167,8|0|0|0,1:1|1:1|1:1|1:1,0:0:0:0:
270,303,23313,2,0,L|173:308,1,97.7500018644333,0|0,3:3|1:1,0:0:0:0:
96,264,23583,2,0,L|104:192,3,48.8750009322167,8|0|0|0,1:1|1:1|1:1|0:0,0:0:0:0:
101,215,23853,6,0,L|220:208,1,97.7500018644333,0|0,3:3|1:1,0:0:0:0:
236,116,24124,2,0,L|138:122,1,97.7500018644333,8|0,1:1|1:1,0:0:0:0:
276,268,24394,2,0,L|373:261,1,97.7500018644333,0|0,3:3|1:1,0:0:0:0:
460,216,24664,1,8,1:1:0:0:
460,216,24799,1,0,1:1:0:0:
372,176,24934,6,0,P|368:248|424:328,2,146.62500279665,4|0|0,3:1|0:0|1:1,0:0:0:0:
452,116,25475,1,0,3:3:0:0:
452,116,25542,2,0,P|448:52|412:16,1,97.7500018644333,0|0,1:1|1:1,0:0:0:0:
428,27,25745,2,0,L|304:32,1,97.7500018644333,0|0,0:0|1:1,0:0:0:0:
256,116,26015,5,4,3:1:0:0:
182,30,26151,1,0,3:3:0:0:
256,328,26421,1,0,3:3:0:0:
256,328,26691,2,0,L|256:264,5,48.8750009322167,0|0|0|0|0|0,3:3|3:3|3:3|3:3|3:3|3:3,0:0:0:0:
256,248,27097,6,0,P|200:224|88:360,2,255.000009727478,4|8|0,3:1|1:1|3:3,0:0:0:0:
256,376,28448,1,0,1:1:0:0:
352,292,28718,2,0,P|364:212|340:168,1,127.500004863739,8|0,1:1|1:1,0:0:0:0:
304,96,29124,1,0,1:1:0:0:
304,96,29259,6,0,P|392:64|508:160,2,255.000009727478,0|8|0,3:3|1:1|1:1,0:0:0:0:
304,96,31421,6,0,L|204:88,1,85,4|0,3:1|1:1,0:0:0:0:
136,84,31691,2,0,B|124:120|124:120|128:172,1,85,0|0,1:1|1:1,0:0:0:0:
212,172,31961,2,0,L|412:184,1,170,8|0,1:1|1:1,0:0:0:0:
456,228,32367,1,0,1:1:0:0:
380,268,32502,6,0,B|316:264|316:264|280:300|280:300|248:260|248:260|192:256,1,212.5,0|0,3:3|1:1,0:0:0:0:
124,292,32907,1,0,1:1:0:0:
48,252,33042,2,0,P|28:168|56:80,1,170,8|0,1:1|3:3,0:0:0:0:
104,24,33448,1,0,3:3:0:0:
104,24,35745,6,0,P|72:104|104:216,1,170,4|8,3:1|1:1,0:0:0:0:
132,256,36151,1,0,1:1:0:0:
216,236,36286,2,0,L|312:236,1,85,0|0,3:3|1:1,0:0:0:0:
376,196,36556,2,0,L|432:196,3,42.5,8|0|0|0,1:1|1:1|1:1|1:1,0:0:0:0:
418,196,36826,6,0,P|440:228|438:288,2,85,0|0|8,3:3|1:1|1:1,0:0:0:0:
432,112,37232,2,0,P|470:108|521:140,2,85,0|0|0,1:1|3:3|1:1,0:0:0:0:
360,68,37637,2,0,P|376:32|429:4,1,85,8|0,1:1|1:1,0:0:0:0:
352,152,37907,6,0,P|308:152|272:124,1,85,0|0,3:3|1:1,0:0:0:0:
432,112,38178,2,0,P|454:150|447:195,1,85,8|0,1:1|1:1,0:0:0:0:
420,268,38448,1,0,3:3:0:0:
256,368,38718,1,0,1:1:0:0:
92,268,38988,6,0,L|192:252,1,85,4|0,1:1|1:1,0:0:0:0:
48,196,39259,2,0,L|148:180,1,85,8|0,1:1|1:1,0:0:0:0:
8,120,39529,2,0,L|108:104,1,85,0|0,3:3|1:1,0:0:0:0:
168,68,39799,1,8,1:1:0:0:
244,28,39934,2,0,P|304:24|392:116,1,170,0|0,1:1|1:1,0:0:0:0:
392,168,40340,6,0,P|416:180|464:180,1,63.7500024318696,8|0,1:1|1:1,0:0:0:0:
512,276,40610,2,0,P|488:264|440:264,1,63.7500024318696,0|0,3:3|1:1,0:0:0:0:
400,336,40880,2,0,P|424:348|472:348,1,63.7500024318696,8|0,1:1|1:1,0:0:0:0:
368,252,41151,6,0,P|320:264|292:304,1,85,0|0,3:3|1:1,0:0:0:0:
214,289,41421,2,0,P|185:259|144:252,1,85,8|0,1:1|1:1,0:0:0:0:
64,284,41691,2,0,L|68:380,2,85,0|0|8,3:3|1:1|1:1,0:0:0:0:
44,200,42097,1,0,1:1:0:0:
24,116,42232,6,0,L|20:31,1,85,0|0,3:3|1:1,0:0:0:0:
104,24,42502,1,8,1:1:0:0:
104,24,42637,2,0,P|156:4|260:68,1,170,0|0,1:1|1:1,0:0:0:0:
291,137,43042,1,8,1:1:0:0:
216,194,43178,1,0,1:1:0:0:
301,251,43313,6,0,L|393:243,1,85,4|0,3:1|1:1,0:0:0:0:
208,304,43583,2,0,L|116:296,1,85,8|0,1:1|1:1,0:0:0:0:
307,353,43853,2,0,L|399:345,1,85,0|0,3:3|1:1,0:0:0:0:
484,329,44124,1,8,1:1:0:0:
408,64,44394,6,0,L|396:4,4,42.5,0|0|0|0|8,3:3|1:1|1:1|1:1|1:1,0:0:0:0:
472,132,44799,2,0,L|529:151,4,42.5,0|0|0|0|0,1:1|1:1|3:3|1:1|1:1,0:0:0:0:
380,160,45205,2,0,L|276:152,1,85,8|0,1:1|1:1,0:0:0:0:
296,248,45475,6,0,L|400:256,1,85,0|0,3:3|1:1,0:0:0:0:
216,136,45745,2,0,L|112:128,1,85,8|0,1:1|1:1,0:0:0:0:
48,152,46015,1,0,3:3:0:0:
8,76,46151,1,0,1:1:0:0:
68,16,46286,1,8,1:1:0:0:
112,216,46556,6,0,P|116:264|100:300,1,85,0|0,3:3|1:1,0:0:0:0:
24,328,46826,1,8,1:1:0:0:
92,377,46961,2,0,P|192:365|228:293,1,170,0|0,1:1|1:1,0:0:0:0:
304,276,47367,2,0,L|308:376,1,85,8|0,1:1|1:1,0:0:0:0:
400,328,47637,6,0,L|393:169,2,97.7500018644333,4|0|8,3:1|1:1|1:1,0:0:0:0:
492,360,48042,1,0,1:1:0:0:
492,360,48178,2,0,L|485:201,1,97.7500018644333,0|0,3:3|1:1,0:0:0:0:
388,244,48448,2,0,L|391:341,1,97.7500018644333,8|0,1:1|1:1,0:0:0:0:
488,262,48718,5,0,3:3:0:0:
488,262,48853,2,0,P|496:176|424:88,1,195.500003728867,0|0,1:1|1:1,0:0:0:0:
340,64,49259,2,0,P|255:106|171:64,1,195.500003728867,0|8,3:3|1:1,0:0:0:0:
80,92,49664,1,0,1:1:0:0:
144,164,49799,6,0,L|140:284,1,97.7500018644333,4|0,3:1|1:1,0:0:0:0:
48,292,50069,2,0,L|51:194,1,97.7500018644333,8|0,1:1|1:1,0:0:0:0:
140,261,50340,2,0,L|136:381,2,97.7500018644333,0|0|8,3:3|1:1|1:1,0:0:0:0:
144,164,50745,1,0,1:1:0:0:
148,68,50880,5,8,3:1:0:0:
256,168,51083,1,8,3:1:0:0:
364,68,51286,1,8,3:1:0:0:
364,68,51421,1,8,3:1:0:0:
364,68,51826,5,0,1:1:0:0:
364,68,51894,1,0,1:1:0:0:
364,68,51961,2,0,L|472:64,1,97.7500018644333,4|0,3:1|1:1,0:0:0:0:
500,156,52232,2,0,L|402:159,1,97.7500018644333,8|0,1:1|1:1,0:0:0:0:
304,152,52502,2,0,P|300:200|328:272,1,97.7500018644333,0|0,3:3|1:1,0:0:0:0:
196,248,52772,2,0,P|208:201|204:152,1,97.7500018644333,8|0,1:1|1:1,0:0:0:0:
116,192,53042,6,0,P|104:272|156:340,2,146.62500279665,0|0|0,3:3|1:1|1:1,0:0:0:0:
32,136,53583,2,0,P|4:232|36:364,1,195.500003728867,0|8,3:3|1:1,0:0:0:0:
100,380,53988,1,0,1:1:0:0:
196,368,54124,6,0,L|304:360,1,97.7500018644333,4|0,3:1|1:1,0:0:0:0:
396,356,54394,1,8,1:1:0:0:
396,356,54529,1,0,1:1:0:0:
364,264,54664,2,0,P|352:216|364:160,1,97.7500018644333,0|0,3:3|1:1,0:0:0:0:
432,104,54934,1,8,1:1:0:0:
432,104,55069,1,0,1:1:0:0:
500,172,55205,6,0,P|507:219|451:302,2,146.62500279665,8|8|8,3:1|3:1|3:1,0:0:0:0:
403,196,55745,2,0,P|316:224|256:155,1,195.500003728867,8|0,3:1|1:1,0:0:0:0:
256,56,56151,1,0,1:1:0:0:
256,156,56286,6,0,L|256:288,1,127.500004863739,4|0,3:1|1:1,0:0:0:0:
120,188,56826,2,0,L|120:72,2,95.6250036478044,8|8|8,1:1|1:1|1:1,0:0:0:0:
76,272,57367,6,0,P|120:288|172:268,1,85,4|0,3:1|1:1,0:0:0:0:
208,200,57637,2,0,L|208:92,1,85,8|0,1:1|1:1,0:0:0:0:
256,44,57907,1,0,3:3:0:0:
256,44,58042,1,0,1:1:0:0:
304,115,58178,1,8,1:1:0:0:
304,115,58313,1,0,1:1:0:0:
368,60,58448,6,0,L|480:60,1,85,4|0,3:1|1:1,0:0:0:0:
512,140,58718,2,0,L|427:140,1,85,8|0,1:1|0:0,0:0:0:0:
364,196,58988,2,0,P|360:276|420:360,1,170,0|8,3:3|1:1,0:0:0:0:
328,384,59394,1,0,1:1:0:0:
256,336,59529,5,0,3:3:0:0:
148,196,59799,1,8,1:1:0:0:
364,196,60069,2,0,L|468:212,1,85,0|0,3:3|1:1,0:0:0:0:
432,292,60340,2,0,L|348:280,1,85,8|0,3:1|3:3,0:0:0:0:
260,232,60610,6,0,B|252:192|252:192|272:144,1,85,4|0,1:1|1:1,0:0:0:0:
320,84,60880,2,0,B|288:36|288:36|168:24,1,170,8|0,1:1|3:3,0:0:0:0:
92,24,61286,1,0,1:1:0:0:
92,24,61421,2,0,L|100:124,1,85,8|0,1:1|1:1,0:0:0:0:
116,192,61691,6,0,L|4:184,1,85,4|0,1:1|1:1,0:0:0:0:
20,272,61961,2,0,L|189:284,1,170,8|0,1:1|3:3,0:0:0:0:
256,228,62367,1,0,1:1:0:0:
323,284,62502,2,0,L|408:280,1,85,8|0,1:1|1:1,0:0:0:0:
484,316,62772,6,0,P|496:280|488:224,1,85,4|0,3:1|1:1,0:0:0:0:
415,197,63042,2,0,P|403:233|411:289,1,85,8|0,1:1|1:1,0:0:0:0:
491,233,63313,2,0,P|503:197|495:141,1,85,4|0,3:1|1:1,0:0:0:0:
422,114,63583,2,0,P|410:150|418:206,1,85,8|0,1:1|1:1,0:0:0:0:
336,232,63853,6,0,P|324:196|336:132,1,85,4|0,3:1|3:3,0:0:0:0:
332,64,64124,1,12,3:1:0:0:
256,104,64259,1,0,3:3:0:0:
180,64,64394,1,4,3:1:0:0:
180,64,64529,2,0,L|80:52,2,85,0|8|0,3:3|3:1|3:3,0:0:0:0:
180,148,64934,6,0,P|136:192|32:176,1,170,4|8,3:1|1:1,0:0:0:0:
332,148,65475,2,0,P|376:192|480:176,1,170,0|8,3:3|1:1,0:0:0:0:
492,348,66015,6,0,L|392:332,1,85,0|0,3:3|1:1,0:0:0:0:
328,300,66286,2,0,L|336:392,1,85,8|0,1:1|1:1,0:0:0:0:
244,344,66556,2,0,L|236:259,2,85,0|0|8,3:3|1:1|1:1,0:0:0:0:
164,376,66961,1,0,1:1:0:0:
164,376,67097,6,0,P|72:360|48:248,1,170,0|8,3:3|1:1,0:0:0:0:
8,220,67502,1,0,1:1:0:0:
8,220,67637,2,0,P|48:152|136:140,1,170,0|8,3:3|1:1,0:0:0:0:
216,160,68042,1,0,1:1:0:0:
216,160,68178,6,0,L|208:75,1,85,0|0,3:3|1:1,0:0:0:0:
304,132,68448,2,0,L|311:216,1,85,8|0,1:1|1:1,0:0:0:0:
408,252,68718,2,0,L|400:167,2,85,0|0|8,3:3|1:1|1:1,0:0:0:0:
444,328,69124,1,0,1:1:0:0:
444,328,69259,6,0,P|376:360|304:304,1,170,4|8,3:1|1:1,0:0:0:0:
256,240,69664,1,0,1:1:0:0:
206,309,69799,2,0,P|142:359|68:328,1,170,0|8,3:3|1:1,0:0:0:0:
48,244,70205,1,0,1:1:0:0:
128,272,70340,6,0,P|137:233|120:172,1,85,0|0,3:3|1:1,0:0:0:0:
56,148,70610,2,0,P|46:109|64:48,1,85,8|0,1:1|1:1,0:0:0:0:
124,20,70880,6,0,B|180:32|180:32|196:88|196:88|272:100,1,170,0|8,3:3|1:1,0:0:0:0:
332,76,71286,1,0,1:1:0:0:
412,52,71421,6,0,P|456:128|456:224,1,170,0|8,3:3|1:1,0:0:0:0:
100,332,71961,2,0,P|56:256|56:160,1,170,0|8,3:3|1:1,0:0:0:0:
312,172,72502,6,0,P|324:212|308:268,1,85,0|0,3:3|1:1,0:0:0:0:
200,212,72772,2,0,P|188:172|204:116,1,85,8|0,1:1|1:1,0:0:0:0:
256,68,73042,6,0,L|276:12,1,42.5,0|0,3:3|3:3,0:0:0:0:
352,68,73245,2,0,L|372:12,1,42.5,0|8,3:3|3:1,0:0:0:0:
448,60,73448,1,0,3:3:0:0:
448,60,73515,1,0,3:3:0:0:
448,60,73583,6,0,P|476:96|480:152,1,85,4|0,3:1|1:1,0:0:0:0:
444,208,73853,2,0,P|437:249|451:289,1,85,8|0,1:1|1:1,0:0:0:0:
480,372,74124,2,0,P|392:368|332:304,1,170,0|8,3:3|1:1,0:0:0:0:
216,80,74664,6,0,L|304:88,1,85,0|0,3:3|1:1,0:0:0:0:
300,172,74934,2,0,L|215:164,1,85,8|0,1:1|1:1,0:0:0:0:
140,120,75205,2,0,P|100:108|8:204,1,170,0|8,3:3|1:1,0:0:0:0:
32,352,75745,5,0,3:3:0:0:
112,376,75880,1,0,1:1:0:0:
188,340,76015,1,8,1:1:0:0:
344,276,76286,5,0,3:3:0:0:
420,240,76421,1,0,1:1:0:0:
500,264,76556,1,8,1:1:0:0:
320,152,76826,6,0,P|284:136|224:144,1,85,0|0,3:3|1:1,0:0:0:0:
192,232,77097,2,0,P|228:248|288:240,1,85,8|0,1:1|1:1,0:0:0:0:
336,136,77367,6,0,P|289:115|211:125,1,110.499994941712,0|0,3:3|1:1,0:0:0:0:
176,248,77637,2,0,P|222:268|300:258,1,110.499994941712,8|0,1:1|1:1,0:0:0:0:
336,136,77907,6,0,L|328:36,1,85,4|0,3:1|1:1,0:0:0:0:
252,16,78178,2,0,P|176:16|96:100,1,170,8|0,1:1|3:3,0:0:0:0:
88,156,78583,1,0,1:1:0:0:
172,144,78718,2,0,P|217:139|256:150,1,85,8|0,1:1|1:1,0:0:0:0:
340,240,78988,6,0,P|294:244|255:233,1,85,0|0,3:3|1:1,0:0:0:0:
171,227,79259,2,0,L|175:319,1,85,8|0,1:1|1:1,0:0:0:0:
91,315,79529,2,0,P|39:331|103:351,1,170,0|8,3:3|1:1,0:0:0:0:
174,311,79934,1,0,1:1:0:0:
171,227,80069,6,0,P|139:211|67:227,1,85,0|0,3:3|1:1,0:0:0:0:
34,142,80340,2,0,P|66:126|138:142,1,85,8|0,1:1|1:1,0:0:0:0:
198,148,80610,6,0,P|282:160|366:144,1,170,0|8,3:3|1:1,0:0:0:0:
452,140,81015,1,0,1:1:0:0:
452,140,81151,2,0,L|472:240,1,85,0|0,3:3|1:1,0:0:0:0:
392,260,81421,2,0,L|396:364,1,85,8|0,1:1|1:1,0:0:0:0:
316,372,81691,5,0,3:3:0:0:
256,300,81826,1,0,1:1:0:0:
196,372,81961,2,0,L|108:356,1,85,8|0,3:1|3:3,0:0:0:0:
76,280,82232,6,0,L|168:260,1,85,4|0,3:1|1:1,0:0:0:0:
132,180,82502,2,0,L|48:198,1,85,8|0,1:1|1:1,0:0:0:0:
24,116,82772,2,0,P|48:48|157:12,1,170,0|8,3:3|1:1,0:0:0:0:
288,72,83313,6,0,P|368:80|448:20,2,170,0|8|0,3:3|1:1|3:3,0:0:0:0:
212,224,84124,2,0,L|316:208,1,85,8|0,1:1|1:1,0:0:0:0:
380,232,84394,6,0,P|396:316|332:376,1,170,0|8,3:3|1:1,0:0:0:0:
256,352,84799,1,0,1:1:0:0:
169,372,84934,2,0,P|114:312|132:232,1,170,0|8,3:3|1:1,0:0:0:0:
152,148,85340,1,0,1:1:0:0:
68,168,85475,5,0,1:1:0:0:
256,4,85745,1,0,1:1:0:0:
256,192,86015,5,0,3:3:0:0:
256,204,86151,1,0,3:3:0:0:
256,216,86286,1,0,3:3:0:0:
256,228,86421,1,0,3:3:0:0:
256,244,86556,6,0,L|344:244,1,85,4|0,3:1|3:3,0:0:0:0:
388,336,86826,2,0,L|300:336,1,85,8|0,3:1|1:1,0:0:0:0:
256,244,87097,2,0,P|272:208|404:192,1,170,0|8,3:3|1:1,0:0:0:0:
464,244,87502,1,0,1:1:0:0:
464,244,87637,6,0,L|472:72,1,170,0|8,3:3|1:1,0:0:0:0:
392,44,88042,1,0,1:1:0:0:
392,44,88178,2,0,L|384:216,1,170,0|8,3:3|1:1,0:0:0:0:
48,244,88718,6,0,L|40:72,1,170,0|8,3:3|1:1,0:0:0:0:
120,44,89123,1,0,1:1:0:0:
120,44,89259,2,0,L|128:216,1,170,0|8,3:3|1:1,0:0:0:0:
108,296,89664,1,0,1:1:0:0:
164,360,89799,6,0,P|234:377|309:315,1,170,0|8,3:3|1:1,0:0:0:0:
332,232,90205,1,0,1:1:0:0:
404,292,90340,2,0,P|392:332|404:388,1,85,0|0,3:3|1:1,0:0:0:0:
484,340,90610,1,8,3:1:0:0:
492,248,90745,1,0,3:3:0:0:
496,156,90880,6,0,P|416:96|320:112,1,170,4|8,3:1|1:1,0:0:0:0:
162,285,91421,2,0,P|78:282|16:228,1,170,0|8,3:3|1:1,0:0:0:0:
80,40,91961,6,0,P|168:20|240:68,1,170,0|8,3:3|1:1,0:0:0:0:
432,344,92502,2,0,P|344:364|272:316,1,170,0|8,3:3|1:1,0:0:0:0:
336,24,93042,6,0,L|436:12,1,85,0|0,3:3|1:1,0:0:0:0:
428,108,93313,2,0,L|328:120,1,85,8|0,1:1|1:1,0:0:0:0:
348,212,93583,2,0,L|432:201,2,85,0|0|8,3:3|1:1|1:1,0:0:0:0:
256,192,93988,1,0,1:1:0:0:
296,276,94124,5,0,3:3:0:0:
256,28,94394,1,8,3:1:0:0:
216,276,94664,1,0,3:3:0:0:
256,360,94799,5,0,3:3:0:0:
264,360,94867,1,0,3:3:0:0:
272,360,94934,2,0,L|372:360,1,85,8|0,3:1|3:3,0:0:0:0:
412,284,95205,6,0,P|433:212|408:156,1,136,4|0,3:1|1:1,0:0:0:0:
98,281,95745,2,0,P|150:335|211:341,1,136,8|0,1:1|1:1,0:0:0:0:
257,10,96286,2,0,P|184:28|148:78,1,136,0|0,3:3|1:1,0:0:0:0:
100,140,96691,1,0,1:1:0:0:
18,132,96826,1,8,1:1:0:0:
64,296,97097,5,0,3:3:0:0:
64,296,97232,1,0,3:3:0:0:
64,296,97367,1,4,3:1:0:0:
156,340,97502,2,0,L|152:400,2,42.5,0|0|8,3:3|1:1|1:1,0:0:0:0:
256,312,97772,2,0,L|252:252,2,42.5,0|0|0,1:1|1:1|3:3,0:0:0:0:
352,344,98042,1,0,1:1:0:0:
352,344,98178,2,0,L|464:344,1,85,8|0,1:1|1:1,0:0:0:0:
492,260,98448,6,0,L|380:260,1,85,0|0,3:3|1:1,0:0:0:0:
336,188,98718,2,0,P|324:124|360:40,1,127.5,8|0,1:1|1:1,0:0:0:0:
341,65,98988,2,0,L|434:66,1,85,0|0,3:3|1:1,0:0:0:0:
240,152,99259,2,0,L|147:152,1,85,8|0,1:1|1:1,0:0:0:0:
79,113,99529,6,0,P|87:209|120:237,1,136,4|0,3:1|1:1,0:0:0:0:
412,78,100069,2,0,P|325:37|284:51,1,136,8|0,1:1|1:1,0:0:0:0:
276,384,100610,2,0,P|355:329|363:287,1,136,0|0,3:3|1:1,0:0:0:0:
352,212,101015,1,0,3:3:0:0:
352,212,101083,1,0,3:3:0:0:
352,212,101151,2,0,P|404:196|488:224,1,136,8|0,3:1|3:3,0:0:0:0:
272,288,101691,5,4,3:1:0:0:
212,204,101826,2,0,L|164:208,2,42.5,0|0|8,3:3|1:1|1:1,0:0:0:0:
276,120,102097,2,0,L|324:124,2,42.5,0|0|0,1:1|0:0|3:3,0:0:0:0:
212,40,102367,1,0,1:1:0:0:
212,40,102502,2,0,L|104:48,1,85,8|0,1:1|1:1,0:0:0:0:
28,32,102772,6,0,P|8:128|40:204,1,170,0|8,3:3|1:1,0:0:0:0:
8,292,103178,1,0,1:1:0:0:
8,292,103245,1,0,1:1:0:0:
8,292,103313,2,0,P|92:288|144:364,1,170,0|8,3:3|1:1,0:0:0:0:
312,348,103853,5,4,3:1:0:0:
312,348,103988,1,0,1:1:0:0:
392,304,104124,1,8,1:1:0:0:
392,304,104259,1,0,1:1:0:0:
468,348,104394,2,0,P|496:280|480:180,1,170,0|8,3:3|1:1,0:0:0:0:
372,60,104934,6,0,L|376:160,1,85,0|0,3:3|1:1,0:0:0:0:
136,144,105340,2,0,L|140:60,1,85,0|0,1:1|3:3,0:0:0:0:
312,276,105745,2,0,L|308:360,1,85,8|0,1:1|1:1,0:0:0:0:
204,360,106015,6,0,L|200:276,1,85,0|0,3:3|1:1,0:0:0:0:
196,192,106286,1,8,1:1:0:0:
196,192,106421,1,0,1:1:0:0:
116,252,106556,2,0,L|120:336,1,85,0|0,3:3|1:1,0:0:0:0:
36,320,106826,2,0,L|40:376,2,42.5,8|0|0,1:1|1:1|1:1,0:0:0:0:
22,221,107097,5,0,3:3:0:0:
19,187,107232,1,0,3:3:0:0:
16,153,107367,1,8,3:1:0:0:
13,119,107502,1,0,3:3:0:0:
10,85,107637,1,0,3:3:0:0:
196,24,107907,2,0,B|236:40|236:40|280:32,1,85,8|0,3:1|3:3,0:0:0:0:
368,16,108178,6,0,P|356:56|368:128,1,85,4|0,3:1|1:1,0:0:0:0:
432,192,108448,2,0,P|352:176|264:244,1,170,8|0,1:1|3:3,0:0:0:0:
256,308,108853,1,0,1:1:0:0:
316,380,108988,2,0,L|408:372,1,85,8|0,1:1|1:1,0:0:0:0:
425,293,109259,6,0,L|256:308,1,170,0|8,3:3|1:1,0:0:0:0:
196,380,109664,1,0,1:1:0:0:
172,288,109799,2,0,P|176:220|88:236,1,170,0|8,3:3|1:1,0:0:0:0:
16,276,110205,1,0,1:1:0:0:
24,184,110340,6,0,L|28:68,1,85,0|0,3:3|1:1,0:0:0:0:
68,16,110610,2,0,P|104:40|160:40,1,85,8|0,1:1|1:1,0:0:0:0:
236,20,110880,2,0,P|304:16|392:80,1,170,0|8,3:3|1:1,0:0:0:0:
424,156,111286,1,0,1:1:0:0:
332,140,111421,5,0,3:3:0:0:
332,140,111556,2,0,P|272:144|200:248,1,170,0|0,1:1|1:1,0:0:0:0:
204,316,111961,2,0,L|316:304,1,85,0|0,3:3|1:1,0:0:0:0:
376,336,112232,1,8,3:1:0:0:
448,276,112367,2,0,L|440:224,2,42.5,0|0|0,3:3|1:1|3:3,0:0:0:0:
64,276,113042,5,8,1:1:0:0:
316,48,113583,2,0,P|268:30|196:51,1,127.5,0|0,3:3|0:0,0:0:0:0:
136,100,114124,1,8,1:1:0:0:
186,240,114394,1,0,3:3:0:0:
186,240,114529,1,0,3:3:0:0:
186,240,114664,2,0,P|242:261|325:240,1,148.75,0|0,3:3|0:0,0:0:0:0:
326,240,115205,1,8,1:1:0:0:
60,80,115745,5,0,3:3:0:0:
120,300,116151,1,0,3:3:0:0:
120,300,116286,2,0,P|92:312|48:304,2,63.75,8|0|0,1:1|3:3|3:3,0:0:0:0:
212,284,116826,6,0,L|204:384,1,85,4|0,3:1|3:3,0:0:0:0:
300,356,117097,2,0,L|306:271,1,85,8|0,1:1|1:1,0:0:0:0:
400,264,117367,2,0,L|392:364,2,85,0|0|8,3:3|1:1|1:1,0:0:0:0:
432,176,117772,1,0,1:1:0:0:
460,88,117907,5,0,3:3:0:0:
460,88,118042,2,0,B|420:28|420:28|296:28,1,170,0|0,1:1|1:1,0:0:0:0:
256,108,118448,2,0,L|256:292,1,170,0|8,3:3|1:1,0:0:0:0:
189,356,118853,2,0,B|92:356|92:356|52:296,1,170,0|0,1:1|1:1,0:0:0:0:
4,216,119259,2,0,L|92:216,1,85,8|0,1:1|1:1,0:0:0:0:
172,256,119529,2,0,B|180:208|180:208|168:164,1,85,0|0,3:3|1:1,0:0:0:0:
96,116,119799,2,0,L|36:116,2,42.5,8|0|0,1:1|1:1|1:1,0:0:0:0:
176,68,120069,6,0,B|216:56|216:56|264:68,1,85,0|0,3:3|1:1,0:0:0:0:
340,112,120340,2,0,B|381:122|381:122|421:110,1,85,8|0,1:1|1:1,0:0:0:0:
464,32,120610,6,0,B|422:21|422:21|382:33,1,85,0|0,1:1|1:1,0:0:0:0:
212,188,121151,6,0,P|184:264|208:348,1,170,4|8,3:1|1:1,0:0:0:0:
292,384,121556,1,0,1:1:0:0:
292,384,121624,1,0,1:1:0:0:
292,384,121691,2,0,L|476:372,1,170,0|8,3:3|1:1,0:0:0:0:
472,124,122232,6,0,L|356:132,1,85,0|0,3:3|1:1,0:0:0:0:
340,220,122502,2,0,L|424:214,1,85,8|0,1:1|1:1,0:0:0:0:
472,124,122772,2,0,B|480:80|480:80|460:32,1,85,0|0,3:3|1:1,0:0:0:0:
364,28,123042,2,0,L|312:32,3,42.5,8|0|0|0,1:1|1:1|1:1|1:1,0:0:0:0:
321,31,123313,6,0,P|276:24|232:36,1,85,0|0,3:3|1:1,0:0:0:0:
200,128,123583,2,0,P|245:135|289:123,1,85,8|0,1:1|1:1,0:0:0:0:
152,52,123853,2,0,L|100:56,4,42.5,0|0|0|0|8,3:3|1:1|1:1|1:1|1:1,0:0:0:0:
0,224,124394,6,0,L|100:220,1,85,0|0,3:3|1:1,0:0:0:0:
168,212,124664,2,0,L|152:304,1,85,8|0,1:1|1:1,0:0:0:0:
128,376,124934,2,0,L|72:376,2,42.5,0|0|0,3:3|1:1|1:1,0:0:0:0:
212,372,125205,2,0,L|312:368,1,85,8|0,3:1|1:1,0:0:0:0:
380,364,125475,5,4,3:1:0:0:
416,276,125610,1,0,3:3:0:0:
464,356,125745,1,8,1:1:0:0:
212,372,126015,2,0,P|172:324|184:200,1,170,0|8,3:3|1:1,0:0:0:0:
256,176,126421,1,0,1:1:0:0:
340,220,126556,6,0,P|350:261|347:303,1,85,0|0,3:3|1:1,0:0:0:0:
256,176,126826,2,0,P|245:135|248:92,1,85,8|0,1:1|1:1,0:0:0:0:
308,20,127097,2,0,L|400:20,1,85,0|0,3:3|1:1,0:0:0:0:
484,40,127367,1,8,1:1:0:0:
504,132,127502,1,0,1:1:0:0:
440,200,127637,6,0,P|427:283|464:368,1,170,0|8,3:3|1:1,0:0:0:0:
352,348,128042,1,0,1:1:0:0:
352,348,128178,2,0,P|285:295|194:284,1,170,0|8,3:3|1:1,0:0:0:0:
268,196,128582,1,0,1:1:0:0:
268,196,128718,2,0,P|346:164|401:91,1,170,0|8,3:3|1:1,0:0:0:0:
48,32,129259,6,0,L|48:132,1,85,0|0,3:3|1:1,0:0:0:0:
48,211,129529,1,8,3:1:0:0:
128,160,129664,2,0,L|128:108,2,42.5,0|0|0,3:3|3:3|1:1,0:0:0:0:
128,160,130069,6,0,L|228:152,1,85,12|0,1:1|1:1,0:0:0:0:
256,236,130340,2,0,L|86:249,1,170,0|8,3:3|1:1,0:0:0:0:
32,172,130745,1,0,1:1:0:0:
128,160,130880,6,0,P|144:120|132:68,1,85,0|0,3:3|1:1,0:0:0:0:
212,20,131151,2,0,L|308:28,1,85,8|0,1:1|1:1,0:0:0:0:
388,40,131421,5,0,3:3:0:0:
340,120,131556,2,0,L|255:112,2,85,0|8|0,1:1|1:1|1:1,0:0:0:0:
432,120,131961,6,0,B|444:164|444:164|436:220,1,85,4|0,3:1|1:1,0:0:0:0:
346,202,132232,2,0,B|334:158|334:158|339:119,1,85,8|0,1:1|1:1,0:0:0:0:
438,202,132502,6,0,L|432:304,1,85,0|0,3:3|1:1,0:0:0:0:
352,316,132772,2,0,L|304:300,3,42.5,8|0|0|0,1:1|1:1|1:1|1:1,0:0:0:0:
311,302,133042,6,0,L|190:295,1,85,0|0,3:3|1:1,0:0:0:0:
261,196,133313,2,0,L|346:202,1,85,8|0,1:1|1:1,0:0:0:0:
438,202,133583,1,0,3:3:0:0:
172,192,133853,2,0,L|87:186,1,85,8|0,3:1|3:3,0:0:0:0:
24,96,134124,6,0,P|52:48|136:36,1,146.62500279665,4|0,3:1|0:0,0:0:0:0:
136,36,134394,2,0,L|240:28,1,97.7500018644333,8|0,3:1|1:1,0:0:0:0:
344,112,134664,2,0,L|246:119,1,97.7500018644333,0|0,3:3|1:1,0:0:0:0:
172,192,134934,2,0,P|164:236|188:292,1,97.7500018644333,8|0,3:1|1:1,0:0:0:0:
256,352,135205,5,4,3:1:0:0:
256,352,135340,1,0,1:1:0:0:
331,284,135475,2,0,P|392:256|484:332,1,195.500003728867,8|0,3:1|3:3,0:0:0:0:
392,364,135880,1,0,1:1:0:0:
331,284,136015,2,0,L|339:176,1,97.7500018644333,8|0,3:1|1:1,0:0:0:0:
352,80,136286,5,4,3:1:0:0:
352,80,136421,1,8,1:1:0:0:
256,124,136556,1,8,3:1:0:0:
256,124,136691,1,8,1:1:0:0:
160,80,136826,6,0,L|56:96,1,97.7500018644333,8|8,3:1|1:1,0:0:0:0:
54,236,137097,2,0,L|150:221,1,97.7500018644333,8|8,3:1|1:1,0:0:0:0:
256,124,137367,6,0,L|256:180,3,48.8750009322167,4|0|0|0,3:1|1:1|1:1|1:1,0:0:0:0:
256,188,137637,2,0,L|256:244,3,48.8750009322167,8|0|0|0,1:1|1:1|1:1|1:1,0:0:0:0:
256,252,137907,5,12,1:1:0:0:
180,124,138110,1,8,1:1:0:0:
332,124,138313,1,8,1:1:0:0:
332,132,138380,1,8,1:1:0:0:
332,140,138448,1,4,1:1:0:0:
