osu file format v14

[General]
AudioFilename: audio.mp3
AudioLeadIn: 0
PreviewTime: 57367
Countdown: 0
SampleSet: Soft
StackLeniency: 0.2
Mode: 0
LetterboxInBreaks: 0
WidescreenStoryboard: 1

[Editor]
Bookmarks: 9787,18436,27085,35733,90868,121139,138436
DistanceSpacing: 1
BeatDivisor: 4
GridSize: 32
TimelineZoom: 2.799999

[Metadata]
Title:Reso*nyan*ce Fever
TitleUnicode:Reso*nyan*ce Fever
Artist:katagiri
ArtistUnicode:かたぎり
Creator:Snow Note
Version:384's Insane
Source:
Tags:7odoa pw384 RLC kundi Kuki1537 bms of fighters ultimate BOFU2016 legendary again DANCECORE resonyance resonance xlni 384059043 Kuki edm hardcore mashcore hard core dance music 2016 Just Do It Shia LaBeouf Коробе́йники tetris KBC keyboard crasher キーボードクラッシャー スーパーマリオ Super Mario RPG Legend of the Seven Stars 森のキノコにご用心 forest maze 下村陽子 Yoko Shimomura サンドキャニオン 砂漠ステージ Sand Canyon Map Jun 石川淳 Ishikawa 星のカービィ3 Kirby's Dream Land 3 任天堂 nintento 侵略!イカ娘 shinryaku! ika musume invasion! squid girl Syamu Gimme Nightcore ABBA electronic instrumental japanese なまる ピ
BeatmapID:2938344
BeatmapSetID:779061

[Difficulty]
HPDrainRate:5
CircleSize:4
OverallDifficulty:7.8
ApproachRate:9
SliderMultiplier:1.6
SliderTickRate:1

[Events]
//Background and Video events
0,0,"BG.jpg",0,0
//Break Periods
2,112702,116226
//Storyboard Layer 0 (Background)
//Storyboard Layer 1 (Fail)
//Storyboard Layer 2 (Pass)
//Storyboard Layer 3 (Foreground)
//Storyboard Layer 4 (Overlay)
//Storyboard Sound Samples

[TimingPoints]
70,270.27027027027,4,2,1,76,1,0
4394,-100,4,2,1,36,0,0
5205,-83.3333333333333,4,2,1,36,0,0
5475,-100,4,2,1,76,0,0
8718,-100,4,2,1,25,0,0
9259,-100,4,2,1,76,0,0
9799,-83.3333333333333,4,2,1,76,0,1
10069,-100,4,2,1,76,0,1
11421,-83.3333333333333,4,2,1,76,0,1
11691,-100,4,2,1,76,0,1
13853,-83.3333333333333,4,2,1,76,0,1
14124,-100,4,2,1,76,0,1
14664,-83.3333333333333,4,2,1,76,0,1
14934,-100,4,2,1,76,0,1
17097,-83.3333333333333,4,2,1,76,0,1
17367,-100,4,2,1,76,0,1
18448,-100,4,2,1,76,0,0
19529,-83.3333333333333,4,2,1,76,0,0
19799,-100,4,2,1,76,0,0
20610,-92.5925925925926,4,2,1,76,0,0
20880,-100,4,2,1,76,0,0
21691,-83.3333333333333,4,2,1,76,0,0
21961,-100,4,2,1,76,0,0
22232,-83.3333333333333,4,2,1,76,0,0
22502,-100,4,2,1,76,0,0
23583,-83.3333333333333,4,2,1,76,0,0
23853,-100,4,2,1,76,0,0
25475,-83.3333333333333,4,2,1,76,0,0
25745,-100,4,2,1,76,0,0
30610,-125,4,2,1,76,0,0
30880,-100,4,2,1,76,0,0
40069,-100,4,2,1,50,0,0
40610,-100,4,2,1,30,0,0
41151,-100,4,2,1,76,0,0
47637,-125,4,2,1,76,0,1
55745,-100,4,2,1,76,0,1
56286,-100,4,2,1,76,0,0
56826,-83.3333333333333,4,2,1,76,0,0
57367,-100,4,2,1,76,0,0
63583,-83.3333333333333,4,2,1,76,0,0
63853,-100,4,2,1,76,0,0
67907,-94.3396226415094,4,2,1,76,0,0
68178,-100,4,2,1,76,0,0
71151,-83.3333333333333,4,2,1,76,0,0
71421,-100,4,2,1,76,0,0
72232,-83.3333333333333,4,2,1,76,0,0
72502,-100,4,2,1,76,0,0
74124,-83.3333333333333,4,2,1,76,0,0
74394,-100,4,2,1,76,0,0
75205,-83.3333333333333,4,2,1,76,0,0
75475,-100,4,2,1,76,0,0
82232,-100,4,2,1,76,0,1
85475,-100,4,2,1,76,0,0
86556,-100,4,2,1,76,0,1
87637,-83.3333333333333,4,2,1,76,0,1
87907,-100,4,2,1,76,0,1
88718,-83.3333333333333,4,2,1,76,0,1
88988,-100,4,2,1,76,0,1
89799,-83.3333333333333,4,2,1,76,0,1
90069,-100,4,2,1,76,0,1
90880,-100,4,2,1,76,0,0
95205,-125,4,2,1,76,0,0
97367,-100,4,2,1,76,0,0
99529,-125,4,2,1,76,0,0
101691,-100,4,2,1,76,0,0
103853,-100,4,2,1,76,0,1
108448,-83.3333333333333,4,2,1,76,0,1
108718,-100,4,2,1,76,0,1
110340,-83.3333333333333,4,2,1,76,0,1
110610,-100,4,2,1,76,0,1
112502,-100,4,2,1,76,0,0
116826,-100,4,2,1,76,0,1
117367,-83.3333333333333,4,2,1,76,0,1
117637,-100,4,2,1,76,0,1
120610,-100,4,2,1,25,0,0
121151,-83.3333333333333,4,2,1,76,0,0
121421,-100,4,2,1,76,0,0
123313,-83.3333333333333,4,2,1,76,0,0
123583,-100,4,2,1,76,0,0
131421,-83.3333333333333,4,2,1,76,0,0
131691,-100,4,2,1,76,0,0
133583,-83.3333333333333,4,2,1,76,0,0
133853,-100,4,2,1,76,0,0
134124,-100,4,2,1,65,0,1
137907,-83.3333333333333,4,2,1,65,0,1
138448,-100,4,2,1,65,0,0

[Colours]
Combo1 : 255,255,0
Combo2 : 255,0,0
Combo3 : 246,246,246

[HitObjects]
256,192,880,5,0,1:1:0:0:
242,367,1151,6,0,P|182:319|190:243,1,160,4|8,3:1|1:1,0:0:0:0:
321,140,1556,2,0,P|329:64|269:16,1,160,0|0,3:3|1:1,0:0:0:0:
195,44,1961,1,8,3:1:0:0:
195,44,2029,1,0,1:1:0:0:
195,44,2097,1,0,1:1:0:0:
145,157,2232,6,0,L|224:152,1,80,4|0,3:1|0:0,0:0:0:0:
367,227,2502,2,0,L|287:231,1,80,8|0,1:1|3:3,0:0:0:0:
317,340,2772,1,0,1:1:0:0:
317,340,2840,1,0,1:1:0:0:
317,340,2908,1,0,1:1:0:0:
439,269,3042,2,0,P|449:231|440:192,1,80,8|0,3:1|3:3,0:0:0:0:
398,84,3313,6,0,B|323:61|323:61|299:96|300:140,1,160,4|8,3:1|1:1,0:0:0:0:
114,84,3718,2,0,B|189:61|189:61|213:96|212:140,1,160,0|0,3:3|1:1,0:0:0:0:
252,198,4124,1,8,3:1:0:0:
256,202,4191,1,0,1:1:0:0:
260,206,4259,1,0,1:1:0:0:
99,223,4394,6,0,P|139:216|185:210,1,80,0|0,1:1|1:1,0:0:0:0:
413,223,4664,2,0,P|373:216|327:210,1,80,0|0,1:1|1:1,0:0:0:0:
216,289,4934,2,0,P|256:286|295:289,1,80,0|0,1:1|1:1,0:0:0:0:
400,372,5205,6,0,P|436:311|425:242,1,143.999995605469,0|0,1:1|0:0,0:0:0:0:
413,223,5475,6,0,P|413:170|416:125,1,80,4|0,3:1|1:1,0:0:0:0:
444,69,5745,1,8,1:1:0:0:
256,51,5880,2,0,P|324:79|325:162,1,160,0|0,3:3|1:1,0:0:0:0:
256,256,6286,1,8,3:1:0:0:
256,256,6353,1,0,1:1:0:0:
256,256,6421,1,0,1:1:0:0:
298,324,6556,6,0,L|293:365,2,40,4|0|0,3:1|0:0|1:1,0:0:0:0:
454,298,6826,2,0,P|414:299|375:302,1,80,8|0,1:1|3:3,0:0:0:0:
214,324,7097,6,0,L|219:365,2,40,0|0|0,1:1|1:1|1:1,0:0:0:0:
58,298,7367,2,0,P|98:299|137:302,1,80,8|0,3:1|3:3,0:0:0:0:
99,223,7637,6,0,P|99:170|96:125,1,80,4|0,3:1|0:0,0:0:0:0:
68,69,7907,1,8,1:1:0:0:
256,51,8042,2,0,P|188:79|187:162,1,160,0|0,3:3|1:1,0:0:0:0:
256,256,8448,2,0,L|256:305,1,40,0|0,1:1|0:0,0:0:0:0:
188,136,9799,6,0,P|256:156|324:136,1,143.999995605469,4|0,3:1|0:0,0:0:0:0:
336,120,10069,2,0,P|336:80|340:36,1,80,8|0,1:1|1:1,0:0:0:0:
172,40,10340,2,0,P|176:80|176:120,1,80,0|0,3:3|1:1,0:0:0:0:
129,183,10542,1,0,1:1:0:0:
129,183,10610,2,0,L|43:191,1,80,8|0,1:1|1:1,0:0:0:0:
163,319,10880,6,0,P|183:269|176:231,1,80,0|0,3:3|1:1,0:0:0:0:
35,201,11151,2,0,P|15:251|22:289,1,80,8|0,1:1|1:1,0:0:0:0:
73,353,11421,1,0,3:3:0:0:
73,353,11691,1,8,1:1:0:0:
163,319,11826,1,0,1:1:0:0:
256,344,11961,6,0,L|256:184,1,160,4|8,3:1|1:1,0:0:0:0:
349,319,12367,1,0,1:1:0:0:
349,319,12501,2,0,P|331:283|331:244,1,80,0|0,3:3|1:1,0:0:0:0:
477,201,12772,2,0,P|494:236|494:275,1,80,8|0,1:1|1:1,0:0:0:0:
383,183,13042,6,0,L|469:191,1,80,0|0,3:3|1:1,0:0:0:0:
439,353,13313,1,8,1:1:0:0:
439,353,13448,1,0,1:1:0:0:
256,344,13583,2,0,L|256:184,1,160,0|8,3:3|1:1,0:0:0:0:
256,64,13988,1,0,1:1:0:0:
172,40,14124,6,0,P|176:80|176:120,1,80,4|0,3:1|1:1,0:0:0:0:
335,119,14394,2,0,P|336:79|340:40,1,80,8|0,1:1|0:0,0:0:0:0:
188,136,14664,2,0,P|256:156|324:136,1,143.999995605469,0|0,3:3|0:0,0:0:0:0:
335,119,14934,2,0,L|421:127,1,80,8|0,1:1|1:1,0:0:0:0:
460,239,15205,6,0,L|380:231,1,80,0|0,3:3|1:1,0:0:0:0:
318,282,15407,1,0,0:0:0:0:
318,282,15475,2,0,P|311:316|312:366,1,80,8|0,1:1|1:1,0:0:0:0:
200,361,15745,2,0,P|201:321|194:282,1,80,0|0,3:3|1:1,0:0:0:0:
131,231,15948,1,0,0:0:0:0:
131,231,16015,2,0,L|52:239,1,80,8|0,1:1|1:1,0:0:0:0:
97,126,16286,6,0,L|177:119,1,80,4|0,3:1|0:0,0:0:0:0:
256,8,16556,2,0,B|264:48|248:48|256:88,1,80,8|0,1:1|0:0,0:0:0:0:
414,126,16826,2,0,L|335:119,1,80,0|0,3:3|0:0,0:0:0:0:
256,112,17097,2,0,B|232:192|280:192|256:272,1,143.999995605469,8|0,1:1|0:0,0:0:0:0:
256,272,17367,2,0,L|256:352,1,80,0|0,1:1|0:0,0:0:0:0:
168,312,17637,2,0,L|88:312,1,80,0|0,1:1|1:1,0:0:0:0:
344,312,17907,6,0,L|424:312,2,80,0|0|0,1:1|1:1|1:1,0:0:0:0:
464,378,18448,6,0,B|496:346|496:346|496:232,1,160,4|8,3:1|1:1,0:0:0:0:
416,192,18853,1,0,1:1:0:0:
496,152,18988,2,0,L|496:72,1,80,0|0,3:3|1:1,0:0:0:0:
416,32,19259,2,0,L|416:112,1,80,8|0,1:1|1:1,0:0:0:0:
416,272,19529,2,0,L|272:272,1,143.999995605469,0|0,3:3|0:0,0:0:0:0:
256,256,19799,6,0,B|208:256|208:256|180:234,1,80,8|0,1:1|1:1,0:0:0:0:
256,160,20069,1,0,3:3:0:0:
256,352,20340,1,8,1:1:0:0:
48,378,20610,6,0,B|16:346|16:346|8:336|16:328|16:328|8:320|16:312|16:312|8:304|16:296|16:296|8:288|16:280|16:280|8:272|16:264|16:264|8:256|16:248|16:248|16:232,1,172.80000421875,4|8,3:1|1:1,0:0:0:0:
96,192,21015,1,0,1:1:0:0:
16,152,21150,2,0,L|16:72,1,80,0|0,3:3|1:1,0:0:0:0:
96,32,21421,2,0,L|96:112,1,80,8|0,1:1|1:1,0:0:0:0:
96,272,21691,6,0,B|181:272|181:272|214:272|236:238,1,143.999995605469,4|0,3:1|1:1,0:0:0:0:
240,230,21961,1,8,1:1:0:0:
365,249,22097,1,0,1:1:0:0:
416,112,22232,6,0,B|331:112|331:112|298:112|276:146,1,143.999995605469,4|0,3:1|1:1,0:0:0:0:
272,154,22502,1,8,1:1:0:0:
147,135,22637,1,0,1:1:0:0:
202,3,22772,6,0,L|208:83,1,80,4|0,3:1|1:1,0:0:0:0:
85,186,23042,2,0,L|91:266,1,80,8|0,1:1|1:1,0:0:0:0:
15,78,23313,2,0,L|95:73,1,80,0|0,3:3|1:1,0:0:0:0:
256,236,23583,2,0,B|256:164|256:164|256:116|296:92,1,143.999995605469,8|0,1:1|0:0,0:0:0:0:
304,83,23853,6,0,L|309:3,1,80,0|0,3:3|1:1,0:0:0:0:
417,73,24123,2,0,L|496:78,1,80,8|0,1:1|1:1,0:0:0:0:
426,186,24394,2,0,L|421:266,1,80,0|0,3:3|1:1,0:0:0:0:
365,135,24664,1,8,1:1:0:0:
365,135,24799,1,0,1:1:0:0:
234,192,24934,6,0,L|313:197,1,80,4|0,3:1|1:1,0:0:0:0:
375,326,25205,2,0,L|296:321,1,80,8|0,1:1|1:1,0:0:0:0:
175,255,25475,2,0,P|146:190|175:129,1,143.999995605469,0|0,3:3|1:1,0:0:0:0:
192,115,25745,2,0,P|193:82|194:32,1,80,0|0,0:0|1:1,0:0:0:0:
105,70,26015,5,4,3:1:0:0:
105,70,26151,1,0,3:3:0:0:
416,192,26421,1,0,3:3:0:0:
105,314,26691,1,0,3:3:0:0:
193,348,26826,2,0,P|193:308|192:269,1,80,0|0,3:3|3:3,0:0:0:0:
256,192,27097,5,4,3:1:0:0:
407,314,27637,1,8,1:1:0:0:
96,192,28178,1,0,3:3:0:0:
319,348,28583,2,0,P|319:308|320:269,1,80,0|8,1:1|1:1,0:0:0:0:
407,70,28988,1,0,1:1:0:0:
407,70,29124,1,0,1:1:0:0:
407,70,29259,1,0,3:3:0:0:
205,129,29799,2,0,P|238:47|306:130,1,240,8|0,1:1|1:1,0:0:0:0:
256,192,30340,5,0,1:1:0:0:
256,376,30610,2,0,L|256:308,1,64
205,254,30880,6,0,P|238:337|306:254,1,240
164,192,31421,6,0,L|84:192,1,80,4|0,3:1|1:1,0:0:0:0:
348,192,31691,2,0,L|428:192,1,80,0|0,1:1|1:1,0:0:0:0:
256,192,31961,1,8,1:1:0:0:
256,192,32232,1,0,1:1:0:0:
260,196,32299,1,0,1:1:0:0:
264,200,32367,1,0,1:1:0:0:
256,100,32502,6,0,L|256:20,1,80,0|0,3:3|1:1,0:0:0:0:
256,284,32772,2,0,L|256:364,1,80,0|0,1:1|1:1,0:0:0:0:
256,192,33042,1,8,1:1:0:0:
164,192,33313,5,0,3:3:0:0:
348,192,33448,1,0,3:3:0:0:
176,76,35745,6,0,P|122:76|76:160,1,160,4|8,3:1|1:1,0:0:0:0:
130,220,36151,1,0,1:1:0:0:
130,220,36286,2,0,P|133:259|133:302,1,80,0|0,3:3|1:1,0:0:0:0:
299,226,36556,2,0,P|296:186|296:147,1,80,8|0,1:1|1:1,0:0:0:0:
336,76,36826,6,0,P|390:76|436:160,1,160,0|8,3:3|1:1,0:0:0:0:
382,220,37232,1,0,1:1:0:0:
382,220,37367,2,0,P|379:259|379:302,1,80,0|0,3:3|1:1,0:0:0:0:
212,226,37637,2,0,P|215:186|216:147,1,80,8|0,1:1|1:1,0:0:0:0:
256,24,37907,5,0,3:3:0:0:
320,70,38042,1,0,1:1:0:0:
295,147,38178,1,8,1:1:0:0:
216,147,38313,1,0,1:1:0:0:
191,70,38448,1,0,3:3:0:0:
256,360,38718,5,0,1:1:0:0:
104,192,38988,6,0,L|184:192,1,80,4|0,1:1|1:1,0:0:0:0:
209,47,39259,2,0,L|233:123,1,80,8|0,1:1|1:1,0:0:0:0:
209,336,39529,2,0,L|233:260,1,80,0|0,3:3|1:1,0:0:0:0:
314,149,39799,1,8,1:1:0:0:
314,149,39934,6,0,B|378:102|378:102|422:106|446:146,1,160,0|0,1:1|1:1,0:0:0:0:
314,234,40340,1,8,1:1:0:0:
314,234,40475,2,0,L|378:281,1,80,0|0,1:1|3:3,0:0:0:0:
233,260,40745,2,0,L|209:336,1,80,0|8,1:1|1:1,0:0:0:0:
256,192,41015,1,0,1:1:0:0:
278,123,41151,6,0,L|302:47,1,80,0|0,3:3|1:1,0:0:0:0:
133,102,41421,2,0,L|197:149,1,80,8|0,1:1|1:1,0:0:0:0:
278,260,41691,2,0,L|302:336,1,80,0|0,3:3|1:1,0:0:0:0:
133,281,41961,2,0,L|197:234,1,80,8|0,1:1|1:1,0:0:0:0:
328,192,42232,2,0,L|408:192,1,80,0|0,3:3|1:1,0:0:0:0:
278,123,42502,1,8,1:1:0:0:
278,261,42637,1,0,1:1:0:0:
278,261,42907,5,0,1:1:0:0:
164,344,43042,1,8,1:1:0:0:
164,344,43178,1,0,1:1:0:0:
184,192,43313,6,0,L|104:192,1,80,4|0,3:1|1:1,0:0:0:0:
292,129,43583,2,0,L|332:60,1,80,8|0,1:1|1:1,0:0:0:0:
292,254,43853,2,0,L|332:323,1,80,0|0,3:3|1:1,0:0:0:0:
256,192,44124,5,8,1:1:0:0:
408,192,44394,6,0,L|328:192,1,80,0|0,3:3|1:1,0:0:0:0:
180,60,44664,2,0,L|220:129,1,80,8|0,1:1|1:1,0:0:0:0:
180,323,44934,2,0,L|220:254,1,80,0|0,3:3|1:1,0:0:0:0:
292,129,45205,5,8,1:1:0:0:
184,192,45340,1,0,1:1:0:0:
292,254,45475,1,0,3:3:0:0:
256,192,45610,12,0,47097,3:3:0:0:
32,128,47637,5,4,3:1:0:0:
96,96,47772,2,0,L|96:60,2,32,0|0|8,1:1|1:1|1:1,0:0:0:0:
160,128,48042,1,0,1:1:0:0:
224,96,48178,2,0,L|288:96,1,64,0|0,3:3|1:1,0:0:0:0:
352,128,48448,2,0,L|416:128,1,64,8|0,1:1|1:1,0:0:0:0:
480,96,48718,5,0,3:3:0:0:
448,192,48853,1,0,1:1:0:0:
256,160,49124,5,0,1:1:0:0:
256,160,49259,1,0,3:3:0:0:
32,96,49529,5,8,1:1:0:0:
64,192,49664,1,0,1:1:0:0:
32,288,49799,5,4,3:1:0:0:
96,256,49934,2,0,L|96:216,2,32,0|0|8,1:1|1:1|1:1,0:0:0:0:
160,288,50204,1,0,1:1:0:0:
224,256,50340,2,0,L|288:256,1,64,0|0,3:3|1:1,0:0:0:0:
352,288,50610,2,0,L|416:288,1,64,8|0,1:1|1:1,0:0:0:0:
480,256,50880,5,8,3:1:0:0:
256,192,51083,1,8,3:1:0:0:
480,128,51286,1,8,3:1:0:0:
448,192,51421,1,8,3:1:0:0:
32,160,51826,5,0,1:1:0:0:
32,160,51894,1,0,1:1:0:0:
32,160,51961,5,4,3:1:0:0:
96,192,52097,1,0,1:1:0:0:
160,160,52232,2,0,L|224:160,1,64,8|0,1:1|1:1,0:0:0:0:
288,192,52502,1,0,3:3:0:0:
352,160,52638,1,0,1:1:0:0:
416,192,52773,2,0,L|480:192,1,64,8|0,1:1|1:1,0:0:0:0:
384,256,53042,6,0,L|320:256,1,64,0|0,3:3|0:0,0:0:0:0:
128,256,53313,2,0,L|192:256,1,64,0|0,0:0|1:1,0:0:0:0:
256,208,53583,2,0,L|256:112,1,96,0|0,3:3|1:1,0:0:0:0:
256,96,53853,1,8,1:1:0:0:
128,96,53988,1,0,1:1:0:0:
192,0,54124,6,0,L|192:64,1,64,4|0,3:1|1:1,0:0:0:0:
320,128,54394,2,0,L|320:192,1,64,8|0,1:1|1:1,0:0:0:0:
192,192,54664,2,0,L|192:256,1,64,0|0,3:3|1:1,0:0:0:0:
320,320,54934,2,0,L|320:384,1,64,8|0,1:1|1:1,0:0:0:0:
192,352,55205,5,8,3:1:0:0:
320,192,55407,1,8,3:1:0:0:
192,32,55610,1,8,3:1:0:0:
256,64,55745,6,0,L|256:144,1,80,8|0,3:1|1:1,0:0:0:0:
192,192,55948,1,0,0:0:0:0:
192,192,56015,2,0,L|196:244,1,40,0|0,1:1|1:1,0:0:0:0:
256,271,56151,2,0,L|260:323,1,40,0|0,1:1|1:1,0:0:0:0:
320,350,56286,1,4,3:1:0:0:
320,34,56826,6,0,P|388:37|423:107,2,143.999995605469,8|8|8,1:1|1:1|1:1,0:0:0:0:
306,48,57299,1,8,1:1:0:0:
292,62,57367,6,0,P|297:96|301:145,1,80,4|0,3:1|1:1,0:0:0:0:
220,322,57637,2,0,P|215:288|211:239,1,80,8|0,1:1|1:1,0:0:0:0:
216,37,57907,2,0,L|213:76,3,40,0|0|0|0,3:3|1:1|1:1|1:1,0:0:0:0:
196,90,58178,2,0,L|193:129,3,40,8|0|0|0,1:1|1:1|1:1|1:1,0:0:0:0:
205,147,58448,6,0,P|165:150|126:156,1,80,4|0,3:1|1:1,0:0:0:0:
306,236,58718,2,0,P|346:233|386:228,1,80,8|0,1:1|0:0,0:0:0:0:
441,170,58988,5,0,3:3:0:0:
300,129,59124,1,0,1:1:0:0:
377,40,59259,2,0,P|386:79|379:119,1,80,8|0,1:1|1:1,0:0:0:0:
71,170,59529,5,0,3:3:0:0:
212,129,59665,1,0,1:1:0:0:
134,40,59800,2,0,P|125:79|133:119,1,80,8|0,1:1|1:1,0:0:0:0:
256,192,60069,6,0,L|256:232,3,40,0|0|0|0,3:3|1:1|1:1|1:1,0:0:0:0:
256,253,60340,2,0,L|256:293,3,40,8|0|0|0,3:1|1:1|3:3|1:1,0:0:0:0:
256,314,60610,5,4,1:1:0:0:
179,336,60745,1,0,1:1:0:0:
102,358,60880,2,0,P|99:319|106:266,1,80,8|0,1:1|0:0,0:0:0:0:
256,192,61151,6,0,L|256:232,3,40,0|0|0|0,3:3|1:1|1:1|1:1,0:0:0:0:
256,253,61422,2,0,L|256:293,3,40,8|0|0|0,1:1|1:1|1:1|1:1,0:0:0:0:
256,314,61692,5,4,1:1:0:0:
333,336,61827,1,0,1:1:0:0:
410,358,61961,2,0,P|413:319|406:266,1,80,8|0,1:1|0:0,0:0:0:0:
256,192,62232,6,0,L|256:232,3,40,0|0|0|0,3:3|1:1|1:1|1:1,0:0:0:0:
256,253,62503,2,0,L|256:293,3,40,8|0|0|0,1:1|1:1|1:1|1:1,0:0:0:0:
256,314,62772,5,4,3:1:0:0:
179,336,62907,1,0,1:1:0:0:
333,336,63042,2,0,P|336:283|341:248,1,80,8|0,1:1|1:1,0:0:0:0:
172,256,63313,6,0,P|177:296|179:336,1,80,4|0,3:1|1:1,0:0:0:0:
19,202,63583,2,0,P|88:210|140:163,1,143.999995605469,8|0,1:1|1:1,0:0:0:0:
149,144,63853,6,0,L|141:61,1,80,4|0,3:1|3:3,0:0:0:0:
256,98,64124,1,12,3:1:0:0:
256,98,64259,1,0,3:3:0:0:
363,144,64394,6,0,L|371:61,1,80,4|0,3:1|3:3,0:0:0:0:
492,202,64664,2,0,P|446:214|409:202,1,80,8|0,3:1|3:3,0:0:0:0:
256,192,64934,6,0,L|256:352,2,160,4|8|0,3:1|1:1|3:3,0:0:0:0:
141,64,65610,1,0,1:1:0:0:
77,112,65745,2,0,P|69:146|75:193,1,80,8|0,1:1|1:1,0:0:0:0:
40,320,66015,6,0,P|63:247|138:234,1,160,0|8,3:3|1:1,0:0:0:0:
216,261,66421,1,0,1:1:0:0:
256,112,66556,2,0,L|256:192,1,80,0|0,3:3|1:1,0:0:0:0:
296,261,66826,1,8,1:1:0:0:
296,261,66961,1,0,1:1:0:0:
471,320,67097,6,0,P|448:247|373:234,1,160,0|8,3:3|1:1,0:0:0:0:
296,261,67502,1,0,1:1:0:0:
256,192,67637,2,0,L|256:112,1,80,0|0,3:3|1:1,0:0:0:0:
216,261,67907,2,0,P|255:273|295:261,1,84.8000001293945,8|0,1:1|1:1,0:0:0:0:
401,304,68178,6,0,P|356:319|315:344,1,80,0|0,3:3|1:1,0:0:0:0:
256,384,68448,1,8,1:1:0:0:
256,384,68583,1,0,1:1:0:0:
111,304,68718,6,0,P|156:319|197:344,1,80,0|0,3:3|1:1,0:0:0:0:
256,192,68988,2,0,L|256:272,1,80,8|0,1:1|1:1,0:0:0:0:
256,384,69259,5,4,3:1:0:0:
256,384,69394,1,0,3:3:0:0:
327,334,69529,2,0,P|377:309|484:325,2,160,8|0|8,1:1|3:3|1:1,0:0:0:0:
256,384,70205,1,0,1:1:0:0:
184,334,70340,6,0,P|135:309|28:325,1,160,0|8,3:3|1:1,0:0:0:0:
9,245,70745,1,0,1:1:0:0:
9,245,70880,2,0,P|2:194|10:159,1,80,0|0,3:3|1:1,0:0:0:0:
93,66,71151,2,0,P|156:91|163:159,1,143.999995605469,8|0,1:1|0:0,0:0:0:0:
151,176,71421,5,0,3:3:0:0:
256,384,71691,1,8,1:1:0:0:
503,245,71961,2,0,P|510:194|502:159,1,80,0|0,3:3|1:1,0:0:0:0:
418,66,72232,2,0,P|355:91|348:159,1,143.999995605469,8|0,1:1|0:0,0:0:0:0:
361,176,72502,5,0,3:3:0:0:
361,176,72637,1,0,1:1:0:0:
256,112,72772,2,0,L|256:192,1,80,8|0,1:1|1:1,0:0:0:0:
310,281,73042,5,0,3:3:0:0:
293,292,73110,2,0,P|254:302|216:291,1,80,0|0,3:3|3:3,0:0:0:0:
202,281,73313,1,8,3:1:0:0:
127,164,73448,5,0,3:3:0:0:
127,164,73515,1,0,3:3:0:0:
127,164,73583,6,0,B|107:200|107:200|117:241,1,80,4|0,3:1|1:1,0:0:0:0:
191,354,73853,2,0,B|211:318|211:318|201:277,1,80,8|0,1:1|1:1,0:0:0:0:
47,275,74124,2,0,L|190:262,1,143.999995605469,0|0,3:3|1:1,0:0:0:0:
256,232,74394,2,0,L|256:148,1,80,8|0,1:1|1:1,0:0:0:0:
385,164,74664,6,0,B|405:200|405:200|395:241,1,80,0|0,3:3|1:1,0:0:0:0:
321,354,74934,2,0,B|301:318|301:318|311:277,1,80,8|0,1:1|1:1,0:0:0:0:
465,275,75205,2,0,L|321:262,1,143.999995605469,0|0,3:3|1:1,0:0:0:0:
256,232,75475,2,0,L|256:148,1,80,8|0,1:1|1:1,0:0:0:0:
127,164,75745,6,0,B|107:200|107:200|117:241,1,80,0|0,3:3|1:1,0:0:0:0:
191,354,76015,1,8,1:1:0:0:
191,354,76286,6,0,B|211:318|211:318|201:277,1,80,0|0,3:3|1:1,0:0:0:0:
127,164,76556,1,8,1:1:0:0:
127,164,76826,6,0,B|107:200|107:200|117:241,1,80,0|0,3:3|1:1,0:0:0:0:
191,354,77096,2,0,B|211:318|211:318|201:277,1,80,8|0,1:1|1:1,0:0:0:0:
385,164,77367,6,0,B|405:200|405:200|395:241,1,80,0|0,3:3|1:1,0:0:0:0:
321,354,77637,2,0,B|301:318|301:318|311:277,1,80,8|0,1:1|1:1,0:0:0:0:
338,99,77907,5,4,3:1:0:0:
338,99,78042,1,0,1:1:0:0:
464,171,78178,2,0,L|384:163,1,80,8|0,1:1|1:1,0:0:0:0:
174,99,78448,5,0,3:3:0:0:
174,99,78583,1,0,1:1:0:0:
47,171,78719,2,0,L|126:163,1,80,8|0,1:1|1:1,0:0:0:0:
256,113,78988,6,0,B|276:152|264:192|248:192|236:232|256:269,2,160,0|8|0,3:3|1:1|3:3,0:0:0:0:
218,341,79799,2,0,P|256:352|294:341,1,80,8|0,1:1|1:1,0:0:0:0:
324,231,80069,5,0,3:3:0:0:
256,192,80205,1,0,1:1:0:0:
187,231,80340,1,8,1:1:0:0:
256,267,80476,1,0,1:1:0:0:
256,113,80610,1,0,3:3:0:0:
256,113,80880,5,8,1:1:0:0:
324,231,81015,1,0,1:1:0:0:
187,231,81151,6,0,P|139:236|108:237,1,80,0|0,3:3|1:1,0:0:0:0:
44,373,81421,2,0,P|39:325|38:294,1,80,8|0,1:1|1:1,0:0:0:0:
37,90,81691,2,0,P|39:50|44:11,1,80,0|0,3:3|1:1,0:0:0:0:
186,152,81961,2,0,P|147:148|107:146,1,80,8|0,3:1|3:3,0:0:0:0:
0,192,82232,5,4,3:1:0:0:
0,192,82367,1,0,1:1:0:0:
107,237,82502,2,0,P|147:235|187:231,1,80,8|0,1:1|1:1,0:0:0:0:
256,352,82772,1,0,3:3:0:0:
256,32,83042,1,8,1:1:0:0:
256,352,83313,6,0,P|320:320|320:224,1,160,0|8,3:3|1:1,0:0:0:0:
256,32,83853,2,0,P|192:64|192:160,1,160,0|8,3:3|1:1,0:0:0:0:
256,192,84259,1,0,1:1:0:0:
256,192,84394,6,0,L|348:186,1,80,0|0,3:3|1:1,0:0:0:0:
418,61,84664,2,0,L|326:67,1,80,8|0,1:1|1:1,0:0:0:0:
94,61,84934,6,0,L|186:67,1,80,0|0,3:3|1:1,0:0:0:0:
256,192,85205,2,0,L|164:186,1,80,8|0,1:1|1:1,0:0:0:0:
256,32,85475,5,0,1:1:0:0:
256,192,85745,1,0,1:1:0:0:
111,308,86015,6,0,P|151:308|191:313,1,80,0|0,3:3|3:3,0:0:0:0:
256,352,86218,1,0,1:1:0:0:
256,352,86286,2,0,L|346:340,1,80,0|0,3:3|3:3,0:0:0:0:
512,192,86556,5,4,3:1:0:0:
512,192,86691,1,0,3:3:0:0:
405,237,86826,2,0,P|365:235|325:231,1,80,8|0,3:1|1:1,0:0:0:0:
256,352,87096,1,0,3:3:0:0:
256,32,87366,1,8,1:1:0:0:
256,32,87502,1,0,1:1:0:0:
215,101,87637,6,0,P|231:171|299:165,1,143.999995605469,0|0,3:3|1:1,0:0:0:0:
309,159,87907,2,0,P|349:159|389:164,1,80,8|0,1:1|1:1,0:0:0:0:
401,308,88178,6,0,P|361:308|321:313,1,80,0|0,3:3|1:1,0:0:0:0:
256,352,88381,1,0,1:1:0:0:
256,352,88449,2,0,L|166:340,1,80,8|0,1:1|1:1,0:0:0:0:
0,230,88718,6,0,P|69:224|112:278,1,143.999995605469,0|0,3:3|1:1,0:0:0:0:
101,295,88988,2,0,P|97:341|94:382,1,80,8|0,1:1|1:1,0:0:0:0:
256,280,89259,2,0,L|256:184,1,80,0|0,3:3|0:0,0:0:0:0:
411,295,89529,2,0,P|415:341|418:382,1,80,8|0,1:1|1:1,0:0:0:0:
512,230,89799,6,0,P|442:224|399:278,1,143.999995605469,0|0,3:3|1:1,0:0:0:0:
411,295,90069,2,0,P|362:300|326:308,1,80,8|0,1:1|1:1,0:0:0:0:
180,306,90340,2,0,P|140:298|101:295,1,80,0|0,3:3|1:1,0:0:0:0:
52,237,90542,1,0,0:0:0:0:
52,237,90610,2,0,P|51:195|53:154,1,80,8|0,3:1|3:3,0:0:0:0:
64,32,90880,5,4,3:1:0:0:
256,152,91151,1,8,1:1:0:0:
448,32,91421,5,0,3:3:0:0:
256,232,91692,1,8,1:1:0:0:
0,144,91961,5,0,3:3:0:0:
320,192,92232,2,0,L|400:192,1,80,8|0,1:1|1:1,0:0:0:0:
512,144,92502,5,0,3:3:0:0:
192,192,92772,2,0,L|112:192,1,80,8|0,1:1|1:1,0:0:0:0:
37,305,93042,6,0,P|30:265|43:228,1,80,0|0,3:3|1:1,0:0:0:0:
192,192,93313,2,0,P|196:151|198:100,1,80,8|0,1:1|1:1,0:0:0:0:
256,8,93583,1,0,3:3:0:0:
256,8,93718,1,0,1:1:0:0:
314,112,93853,2,0,P|316:152|320:192,1,80,8|0,1:1|1:1,0:0:0:0:
475,305,94124,6,0,P|481:265|468:228,1,80,0|0,3:3|3:3,0:0:0:0:
393,106,94394,2,0,P|353:108|314:112,1,80,8|0,3:1|3:3,0:0:0:0:
197,112,94664,2,0,P|158:108|118:106,1,80,0|0,3:3|3:3,0:0:0:0:
73,177,94867,1,0,3:3:0:0:
73,177,94934,2,0,P|112:178|152:182,1,80,8|0,3:1|3:3,0:0:0:0:
256,316,95205,6,0,B|272:224|272:224|240:160|240:160|256:68,2,256,4|8|0,3:1|1:1|3:3,0:0:0:0:
320,144,96691,5,0,1:1:0:0:
320,144,96826,1,8,1:1:0:0:
192,240,97097,5,0,3:3:0:0:
192,240,97232,1,0,3:3:0:0:
116,213,97367,6,0,L|25:224,1,80,4|0,3:1|3:3,0:0:0:0:
5,294,97569,1,0,1:1:0:0:
9,298,97637,6,0,L|89:289,1,80,8|0,1:1|1:1,0:0:0:0:
165,316,97840,1,0,1:1:0:0:
169,320,97907,6,0,P|186:284|181:242,1,80,0|0,3:3|1:1,0:0:0:0:
42,135,98178,2,0,P|25:171|30:213,1,80,8|0,1:1|1:1,0:0:0:0:
8,374,98448,5,0,3:3:0:0:
256,316,98718,1,8,1:1:0:0:
8,374,98988,2,0,L|94:381,1,80,0|0,3:3|1:1,0:0:0:0:
176,309,99259,2,0,L|256:316,1,80,8|0,1:1|1:1,0:0:0:0:
256,316,99529,6,0,B|240:224|240:224|272:160|272:160|256:68,2,256,4|8|0,3:1|1:1|3:3,0:0:0:0:
192,144,101015,5,0,3:3:0:0:
192,144,101083,1,0,3:3:0:0:
192,144,101150,1,8,3:1:0:0:
320,240,101421,5,0,3:3:0:0:
320,240,101556,1,0,3:3:0:0:
396,213,101691,6,0,L|487:224,1,80,4|0,3:1|3:3,0:0:0:0:
507,294,101893,1,0,1:1:0:0:
502,298,101961,6,0,L|423:289,1,80,8|0,1:1|1:1,0:0:0:0:
347,316,102164,1,0,0:0:0:0:
343,320,102231,6,0,P|326:284|331:242,1,80,0|0,3:3|1:1,0:0:0:0:
470,135,102502,2,0,P|487:171|482:213,1,80,8|0,1:1|1:1,0:0:0:0:
504,374,102772,6,0,L|418:381,1,80,0|0,3:3|1:1,0:0:0:0:
336,309,103043,2,0,L|256:316,1,80,8|0,1:1|1:1,0:0:0:0:
176,309,103313,6,0,L|256:316,1,80,0|0,3:3|1:1,0:0:0:0:
87,380,103583,2,0,L|8:374,1,80,8|0,1:1|1:1,0:0:0:0:
48,229,103853,6,0,B|120:233|120:233|136:225|136:225|208:229,1,160,4|8,3:1|1:1,0:0:0:0:
464,155,104394,2,0,B|392:151|392:151|376:159|376:159|304:155,1,160,0|8,3:3|1:1,0:0:0:0:
256,92,104799,1,0,1:1:0:0:
345,6,104934,5,0,3:3:0:0:
345,6,105069,2,0,B|358:25|358:25|354:86,1,80,0|8,1:1|1:1,0:0:0:0:
167,6,105340,5,0,1:1:0:0:
167,6,105475,2,0,B|154:25|154:25|158:86,1,80,0|0,3:3|1:1,0:0:0:0:
95,228,105745,5,8,1:1:0:0:
95,228,105880,1,0,1:1:0:0:
48,155,106015,6,0,B|120:151|120:151|136:159|136:159|205:155,1,160,0|8,3:3|1:1,0:0:0:0:
256,288,106421,1,0,1:1:0:0:
306,228,106556,2,0,B|376:225|376:225|392:233|392:233|464:229,1,160,0|8,3:3|1:1,0:0:0:0:
256,0,107097,6,0,L|256:96,1,80,0|0,3:3|3:3,0:0:0:0:
256,192,107367,2,0,L|256:288,1,80,8|0,3:1|3:3,0:0:0:0:
256,384,107637,1,0,3:3:0:0:
200,136,107907,5,8,3:1:0:0:
312,136,108042,1,0,3:3:0:0:
312,136,108110,1,0,3:3:0:0:
312,136,108178,2,0,B|366:143|366:143|394:131,1,80,4|0,3:1|1:1,0:0:0:0:
457,42,108448,2,0,P|389:51|375:117,1,143.999995605469,8|0,1:1|0:0,0:0:0:0:
389,132,108718,6,0,L|393:223,1,80,0|0,3:3|1:1,0:0:0:0:
371,285,108921,1,0,1:1:0:0:
371,285,108988,2,0,L|450:281,1,80,8|0,1:1|1:1,0:0:0:0:
320,352,109259,5,0,3:3:0:0:
192,352,109394,1,0,1:1:0:0:
256,192,109529,2,0,L|256:288,1,80,8|0,1:1|1:1,0:0:0:0:
61,281,109799,2,0,L|141:285,1,80,0|0,3:3|1:1,0:0:0:0:
200,136,110069,2,0,B|146:143|146:143|118:131,1,80,8|0,1:1|1:1,0:0:0:0:
55,42,110340,6,0,P|122:51|136:117,1,143.999995605469,0|0,3:3|0:0,0:0:0:0:
123,132,110610,2,0,L|119:223,1,80,8|0,1:1|1:1,0:0:0:0:
256,272,110880,2,0,L|256:192,1,80,0|0,3:3|1:1,0:0:0:0:
389,132,111151,2,0,L|393:223,1,80,8|0,1:1|1:1,0:0:0:0:
256,352,111421,5,0,3:3:0:0:
256,192,111556,12,0,112502,3:3:0:0:
256,256,116826,5,4,3:1:0:0:
384,224,116961,1,0,3:3:0:0:
318,351,117097,2,0,L|328:269,1,80,8|0,1:1|1:1,0:0:0:0:
349,153,117367,6,0,P|410:147|460:206,1,143.999995605469,0|0,3:3|1:1,0:0:0:0:
458,229,117637,2,0,L|448:308,1,80,8|0,1:1|1:1,0:0:0:0:
256,256,117907,5,0,3:3:0:0:
256,256,118042,1,0,1:1:0:0:
194,351,118178,2,0,L|184:269,1,80,8|0,1:1|1:1,0:0:0:0:
128,224,118380,1,0,1:1:0:0:
128,224,118448,6,0,P|76:220|32:220,1,80,0|0,3:3|1:1,0:0:0:0:
0,337,118718,2,0,P|52:333|96:333,1,80,8|0,1:1|1:1,0:0:0:0:
256,256,118988,5,0,3:3:0:0:
256,256,119124,1,0,1:1:0:0:
384,224,119259,2,0,P|436:220|480:220,1,80,8|0,1:1|1:1,0:0:0:0:
512,337,119529,6,0,P|460:333|416:333,1,80,0|0,3:3|1:1,0:0:0:0:
256,256,119799,2,0,L|256:212,3,40,8|0|0|0,1:1|1:1|1:1|0:0,0:0:0:0:
256,192,120069,5,0,3:3:0:0:
192,128,120205,1,0,1:1:0:0:
256,64,120340,1,8,1:1:0:0:
320,128,120475,1,0,1:1:0:0:
208,275,121151,6,0,P|230:224|207:141,1,143.999995605469,4|0,3:1|0:0,0:0:0:0:
192,128,121421,2,0,P|149:109|101:120,1,80,8|0,1:1|1:1,0:0:0:0:
57,317,121692,1,0,3:3:0:0:
208,275,121827,1,0,1:1:0:0:
212,279,121894,1,0,0:0:0:0:
216,283,121962,2,0,L|133:290,1,80,8|0,1:1|1:1,0:0:0:0:
60,238,122232,6,0,B|43:200|43:200|57:162,1,80,0|0,3:3|1:1,0:0:0:0:
114,39,122503,2,0,B|131:77|131:77|117:115,1,80,8|0,1:1|1:1,0:0:0:0:
57,317,122772,1,0,3:3:0:0:
57,317,122907,1,0,1:1:0:0:
236,292,123042,2,0,L|276:292,3,40,8|0|0|0,1:1|1:1|1:1|1:1,0:0:0:0:
304,275,123313,6,0,P|282:224|305:141,1,143.999995605469,0|0,3:3|0:0,0:0:0:0:
320,128,123583,2,0,P|363:109|411:120,1,80,8|0,1:1|1:1,0:0:0:0:
455,317,123853,2,0,L|407:314,3,40,0|0|0|0,3:3|1:1|1:1|1:1,0:0:0:0:
383,281,124124,2,0,L|304:275,1,80,8|0,1:1|1:1,0:0:0:0:
256,192,124394,6,0,L|256:32,2,160,0|8|0,3:3|1:1|3:3,0:0:0:0:
256,348,125069,1,0,1:1:0:0:
128,281,125205,2,0,L|208:275,1,80,8|0,3:1|1:1,0:0:0:0:
352,176,125475,5,4,3:1:0:0:
352,176,125610,1,0,3:3:0:0:
218,123,125745,2,0,P|256:113|294:123,1,80,8|0,1:1|1:1,0:0:0:0:
160,176,126015,5,0,3:3:0:0:
160,176,126151,1,0,1:1:0:0:
256,272,126286,2,0,L|256:192,1,80,8|0,1:1|1:1,0:0:0:0:
196,44,126556,5,0,3:3:0:0:
316,44,126691,1,0,1:1:0:0:
196,44,126826,2,0,L|112:56,1,80,8|0,1:1|1:1,0:0:0:0:
316,44,127097,6,0,L|400:56,1,80,0|0,3:3|1:1,0:0:0:0:
444,114,127299,1,0,1:1:0:0:
444,114,127367,2,0,P|451:155|443:199,1,80,8|0,1:1|1:1,0:0:0:0:
364,340,127637,6,0,B|372:288|372:288|358:249,1,80,0|0,3:3|1:1,0:0:0:0:
256,304,127907,1,8,1:1:0:0:
256,304,128042,1,0,1:1:0:0:
149,262,128178,6,0,B|140:288|140:288|148:340,1,80,0|0,3:3|1:1,0:0:0:0:
66,192,128448,2,0,P|61:153|68:114,1,80,8|0,1:1|1:1,0:0:0:0:
178,197,128718,6,0,B|208:197|208:197|238:209|238:209|274:209|274:209|304:197|304:197|333:197,2,160,0|8|0,3:3|1:1|3:3,0:0:0:0:
256,128,129394,1,0,1:1:0:0:
216,52,129529,2,0,L|296:52,1,80,8|0,3:1|3:3,0:0:0:0:
456,92,129799,5,0,1:1:0:0:
56,92,130069,2,0,P|88:108|144:104,1,80,12|0,1:1|1:1,0:0:0:0:
296,52,130340,2,0,L|216:52,1,80,0|0,3:3|1:1,0:0:0:0:
380,108,130610,2,0,P|420:108|456:92,1,80,8|0,1:1|1:1,0:0:0:0:
256,128,130880,6,0,L|256:172,3,40,0|0|0|0,3:3|1:1|1:1|1:1,0:0:0:0:
256,192,131151,2,0,L|256:280,1,80,8|0,1:1|1:1,0:0:0:0:
92,363,131421,6,0,P|133:307|113:241,1,143.999995605469,0|0,3:3|0:0,0:0:0:0:
97,228,131691,2,0,L|175:210,1,80,8|0,1:1|1:1,0:0:0:0:
57,294,131961,5,4,3:1:0:0:
205,339,132097,1,0,1:1:0:0:
256,192,132232,2,0,L|256:280,1,80,8|0,1:1|1:1,0:0:0:0:
307,339,132502,5,0,3:3:0:0:
455,294,132638,1,0,1:1:0:0:
337,210,132772,2,0,L|415:228,1,80,8|0,1:1|1:1,0:0:0:0:
455,294,133042,5,0,3:3:0:0:
448,160,133178,2,0,L|444:117,2,40,0|0|8,1:1|1:1|1:1,0:0:0:0:
455,294,133448,1,0,1:1:0:0:
420,363,133583,6,0,P|378:307|398:241,1,143.999995605469,0|0,3:3|1:1,0:0:0:0:
415,228,133853,2,0,L|337:210,1,80,8|0,3:1|3:3,0:0:0:0:
256,192,134124,5,4,3:1:0:0:
256,192,134259,1,0,3:3:0:0:
256,108,134394,2,0,L|256:28,1,80,8|0,3:1|1:1,0:0:0:0:
383,88,134664,2,0,L|321:139,1,80,0|0,3:3|1:1,0:0:0:0:
174,210,134934,2,0,L|96:228,1,80,8|0,3:1|1:1,0:0:0:0:
128,88,135205,2,0,L|190:139,1,80,4|0,3:1|1:1,0:0:0:0:
415,228,135475,2,0,L|337:210,1,80,8|0,3:1|0:0,0:0:0:0:
219,267,135745,2,0,L|184:339,1,80,0|0,3:3|1:1,0:0:0:0:
327,339,136015,2,0,L|292:267,1,80,8|0,3:1|1:1,0:0:0:0:
256,108,136286,5,4,3:1:0:0:
219,267,136421,1,8,1:1:0:0:
96,156,136556,2,0,L|174:174,1,80,8|8,3:1|1:1,0:0:0:0:
256,108,136826,5,8,3:1:0:0:
293,267,136961,1,8,1:1:0:0:
416,156,137096,2,0,L|338:174,1,80,8|8,3:1|1:1,0:0:0:0:
256,336,137367,6,0,L|256:384,7,40,4|0|0|0|8|0|0|0,3:1|1:1|1:1|1:1|1:1|1:1|1:1|1:1,0:0:0:0:
184,356,137907,6,0,L|328:356,2,143.999995605469,12|8|8,1:1|1:1|1:1,0:0:0:0:
256,192,138448,5,4,1:1:0:0:
