osu file format v14

[General]
AudioFilename: audio.mp3
AudioLeadIn: 0
PreviewTime: 132955
Countdown: 0
SampleSet: Normal
StackLeniency: 0.7
Mode: 1
LetterboxInBreaks: 0
WidescreenStoryboard: 0

[Editor]
DistanceSpacing: 1.9
BeatDivisor: 6
GridSize: 32
TimelineZoom: 3

[Metadata]
Title:One of Us
TitleUnicode:One of Us
Artist:katagiri
ArtistUnicode:かたぎり
Creator:X a v y
Version:1
Source:
Tags:かたぎりの長い午後 hardcore mashcore breakcore electronic japanese english instrumental egts 2021 expert global taiko showdown finals nomod4 nm4 fa featured artist rinze ler1211 xavy
BeatmapID:3322321
BeatmapSetID:1627332

[Difficulty]
HPDrainRate:4
CircleSize:5
OverallDifficulty:8
ApproachRate:5
SliderMultiplier:1.4
SliderTickRate:3

[Events]
//Background and Video events
0,0,"343304c25a19e133fe6e8c98fce62921.jpg",0,-30
//Break Periods
//Storyboard Layer 0 (Background)
//Storyboard Layer 1 (Fail)
//Storyboard Layer 2 (Pass)
//Storyboard Layer 3 (Foreground)
//Storyboard Layer 4 (Overlay)
//Storyboard Sound Samples

[TimingPoints]
497,461.538461538462,4,1,0,60,1,0
497,-83.3333333333335,4,1,0,60,0,0
552,-83.261269257355,4,1,0,60,0,0
610,-83.189267500149,4,1,0,60,0,0
668,-83.1173280078245,4,1,0,60,0,0
725,-83.0454507265365,4,1,0,60,0,0
783,-82.9736356024865,4,1,0,60,0,0
841,-82.9018825819235,4,1,0,60,0,0
898,-82.830191611142,4,1,0,60,0,0
956,-82.758562636483,4,1,0,60,0,0
1014,-82.6869956043345,4,1,0,60,0,0
1071,-82.615490461131,4,1,0,60,0,0
1129,-82.544047153352,4,1,0,60,0,0
1187,-82.4726656275245,4,1,0,61,0,0
1245,-82.4013458302215,4,1,0,61,0,0
1302,-82.3300877080615,4,1,0,61,0,0
1360,-82.258891207711,4,1,0,61,0,0
1418,-82.18775627588,4,1,0,61,0,0
1475,-82.116682859327,4,1,0,61,0,0
1533,-82.045670904855,4,1,0,61,0,0
1591,-81.9747203593135,4,1,0,61,0,0
1648,-81.9038311695985,4,1,0,61,0,0
1706,-81.8330032826505,4,1,0,61,0,0
1764,-81.762236645457,4,1,0,61,0,0
1821,-81.691531205052,4,1,0,61,0,0
1879,-81.620886908513,4,1,0,61,0,0
1937,-81.550303702966,4,1,0,61,0,0
1995,-81.4797815355805,4,1,0,61,0,0
2052,-81.4093203535735,4,1,0,61,0,0
2110,-81.3389201042055,4,1,0,61,0,0
2168,-81.268580734785,4,1,0,61,0,0
2225,-81.198302192664,4,1,0,61,0,0
2283,-81.128084425242,4,1,0,61,0,0
2341,-81.057927379962,4,1,0,62,0,0
2398,-80.9878310043135,4,1,0,62,0,0
2456,-80.9177952458315,4,1,0,62,0,0
2514,-80.8478200520965,4,1,0,62,0,0
2571,-80.7779053707335,4,1,0,62,0,0
2629,-80.7080511494135,4,1,0,62,0,0
2687,-80.638257335852,4,1,0,62,0,0
2745,-80.568523877811,4,1,0,62,0,0
2802,-80.498850723097,4,1,0,62,0,0
2860,-80.4292378195605,4,1,0,62,0,0
2918,-80.3596851150995,4,1,0,62,0,0
2975,-80.2901925576545,4,1,0,62,0,0
3033,-80.220760095213,4,1,0,62,0,0
3091,-80.1513876758065,4,1,0,62,0,0
3148,-80.0820752475115,4,1,0,62,0,0
3206,-80.01282275845,4,1,0,62,0,0
3264,-79.9436301567875,4,1,0,63,0,0
3321,-79.8744973907365,4,1,0,63,0,0
3379,-79.805424408552,4,1,0,63,0,0
3437,-79.736411158535,4,1,0,63,0,0
3495,-79.6674575890315,4,1,0,63,0,0
3552,-79.598563648431,4,1,0,63,0,0
3610,-79.529729285169,4,1,0,63,0,0
3668,-79.460954447724,4,1,0,63,0,0
3725,-79.39223908462,4,1,0,63,0,0
3783,-79.3235831444265,4,1,0,63,0,0
3841,-79.254986575755,4,1,0,63,0,0
3898,-79.186449327264,4,1,0,63,0,0
3956,-79.1179713476545,4,1,0,63,0,0
4014,-79.049552585673,4,1,0,63,0,0
4071,-78.98119299011,4,1,0,63,0,0
4129,-78.9128925098,4,1,0,63,0,0
4187,-78.844651093622,4,1,0,63,0,0
4245,-78.7764686904995,4,1,0,63,0,0
4302,-78.708345249399,4,1,0,63,0,0
4360,-78.640280719333,4,1,0,63,0,0
4418,-78.572275049356,4,1,0,63,0,0
4475,-78.5043281885685,4,1,0,63,0,0
4533,-78.436440086114,4,1,0,63,0,0
4591,-78.36861069118,4,1,0,63,0,0
4648,-78.300839952998,4,1,0,64,0,0
4706,-78.2331278208435,4,1,0,64,0,0
4764,-78.165474244036,4,1,0,64,0,0
4821,-78.097879171938,4,1,0,64,0,0
4879,-78.0303425539575,4,1,0,64,0,0
4937,-77.9628643395445,4,1,0,64,0,0
4995,-77.895444478193,4,1,0,64,0,0
5052,-77.828082919442,4,1,0,64,0,0
5110,-77.760779612873,4,1,0,64,0,0
5168,-77.693534508111,4,1,0,64,0,0
5225,-77.6263475548255,4,1,0,64,0,0
5283,-77.559218702728,4,1,0,64,0,0
5341,-77.492147901575,4,1,0,64,0,0
5398,-77.4251351011655,4,1,0,64,0,0
5456,-77.358180251343,4,1,0,64,0,0
5514,-77.2912833019925,4,1,0,64,0,0
5571,-77.2244442030445,4,1,0,65,0,0
5629,-77.1576629044715,4,1,0,65,0,0
5687,-77.090939356289,4,1,0,65,0,0
5745,-77.0242735085565,4,1,0,65,0,0
5802,-76.957665311377,4,1,0,65,0,0
5860,-76.8911147148955,4,1,0,65,0,0
5918,-76.824621669301,4,1,0,65,0,0
5975,-76.7581861248255,4,1,0,65,0,0
6033,-76.691808031743,4,1,0,65,0,0
6091,-76.625487340372,4,1,0,65,0,0
6148,-76.559224001073,4,1,0,65,0,0
6206,-76.49301796425,4,1,0,65,0,0
6264,-76.426869180349,4,1,0,65,0,0
6321,-76.3607775998605,4,1,0,65,0,0
6379,-76.2947431733155,4,1,0,65,0,0
6437,-76.22876585129,4,1,0,65,0,0
6495,-76.1628455844015,4,1,0,66,0,0
6552,-76.0969823233105,4,1,0,66,0,0
6610,-76.03117601872,4,1,0,66,0,0
6668,-75.965426621376,4,1,0,66,0,0
6725,-75.8997340820665,4,1,0,66,0,0
6783,-75.834098351623,4,1,0,66,0,0
6841,-75.768519380919,4,1,0,66,0,0
6898,-75.7029971208695,4,1,0,66,0,0
6956,-75.637531522434,4,1,0,66,0,0
7014,-75.5721225366125,4,1,0,66,0,0
7071,-75.5067701144485,4,1,0,66,0,0
7129,-75.4414742070275,4,1,0,66,0,0
7187,-75.3762347654775,4,1,0,66,0,0
7245,-75.3110517409685,4,1,0,66,0,0
7302,-75.245925084712,4,1,0,66,0,0
7360,-75.1808547479635,4,1,0,66,0,0
7418,-75.1158406820195,4,1,0,66,0,0
7475,-75.0508828382185,4,1,0,66,0,0
7533,-74.9859811679415,4,1,0,66,0,0
7591,-74.921135622611,4,1,0,66,0,0
7648,-74.856346153692,4,1,0,67,0,0
7706,-74.791612712692,4,1,0,67,0,0
7764,-74.726935251159,4,1,0,67,0,0
7821,-74.6623137206845,4,1,0,67,0,0
7879,-74.5977480729,4,1,0,67,0,0
7937,-74.5332382594805,4,1,0,67,0,0
7995,-74.4687842321425,4,1,0,67,0,0
8052,-74.4043859426435,4,1,0,67,0,0
8110,-74.340043342783,4,1,0,67,0,0
8168,-74.275756384403,4,1,0,67,0,0
8225,-74.2115250193855,4,1,0,67,0,0
8283,-74.147349199656,4,1,0,67,0,0
8341,-74.08322887718,4,1,0,67,0,0
8398,-74.019164003966,4,1,0,67,0,0
8456,-73.955154532062,4,1,0,67,0,0
8514,-73.89120041356,4,1,0,67,0,0
8571,-73.827301600591,4,1,0,67,0,0
8629,-73.763458045329,4,1,0,67,0,0
8687,-73.699669699989,4,1,0,67,0,0
8745,-73.635936516827,4,1,0,67,0,0
8802,-73.5722584481405,4,1,0,68,0,0
8860,-73.508635446268,4,1,0,68,0,0
8918,-73.4450674635895,4,1,0,68,0,0
8975,-73.381554452526,4,1,0,68,0,0
9033,-73.3180963655405,4,1,0,68,0,0
9091,-73.2546931551355,4,1,0,68,0,0
9148,-73.191344773856,4,1,0,68,0,0
9206,-73.128051174287,4,1,0,68,0,0
9264,-73.064812309055,4,1,0,68,0,0
9321,-73.001628130828,4,1,0,68,0,0
9379,-72.938498592314,4,1,0,68,0,0
9437,-72.8754236462625,4,1,0,68,0,0
9495,-72.8124032454635,4,1,0,68,0,0
9552,-72.7494373427475,4,1,0,68,0,0
9610,-72.686525890987,4,1,0,68,0,0
9668,-72.623668843094,4,1,0,68,0,0
9725,-72.560866152022,4,1,0,69,0,0
9783,-72.4981177707645,4,1,0,69,0,0
9841,-72.4354236523565,4,1,0,69,0,0
9898,-72.3727837498735,4,1,0,69,0,0
9956,-72.3101980164305,4,1,0,69,0,0
10014,-72.247666405184,4,1,0,69,0,0
10071,-72.185188869331,4,1,0,69,0,0
10129,-72.1227653621085,4,1,0,69,0,0
10187,-72.0603958367945,4,1,0,69,0,0
10245,-71.9980802467075,4,1,0,69,0,0
10302,-71.935818545205,4,1,0,69,0,0
10360,-71.8736106856865,4,1,0,69,0,0
10418,-71.811456621591,4,1,0,69,0,0
10475,-71.749356306398,4,1,0,69,0,0
10533,-71.6873096936265,4,1,0,69,0,0
10591,-71.6253167368375,4,1,0,69,0,0
10648,-71.5633773896295,4,1,0,69,0,0
10706,-71.501491605644,4,1,0,69,0,0
10764,-71.4396593385605,4,1,0,69,0,0
10821,-71.377880542099,4,1,0,69,0,0
10879,-71.31615517002,4,1,0,70,0,0
10937,-71.2544831761245,4,1,0,70,0,0
10995,-71.1928645142515,4,1,0,70,0,0
11052,-71.131299138282,4,1,0,70,0,0
11110,-71.0697870021355,4,1,0,70,0,0
11168,-71.008328059772,4,1,0,70,0,0
11225,-70.946922265191,4,1,0,70,0,0
11283,-70.8855695724325,4,1,0,70,0,0
11341,-70.824269935575,4,1,0,70,0,0
11398,-70.763023308738,4,1,0,70,0,0
11456,-70.70182964608,4,1,0,70,0,0
11514,-70.640688901799,4,1,0,70,0,0
11571,-70.5796010301325,4,1,0,70,0,0
11629,-70.5185659853585,4,1,0,70,0,0
11687,-70.457583721794,4,1,0,70,0,0
11745,-70.396654193795,4,1,0,70,0,0
11802,-70.335777355758,4,1,0,70,0,0
11860,-70.2749531621175,4,1,0,70,0,0
11918,-70.214181567349,4,1,0,70,0,0
11975,-70.153462525966,4,1,0,70,0,0
12033,-70.0927959925225,4,1,0,71,0,0
12091,-70.0321819216115,4,1,0,71,0,0
12148,-69.971620267864,4,1,0,71,0,0
12206,-69.9111109859525,4,1,0,71,0,0
12264,-69.8506540305865,4,1,0,71,0,0
12321,-69.790249356516,4,1,0,71,0,0
12379,-69.72989691853,4,1,0,71,0,0
12437,-69.669596671456,4,1,0,71,0,0
12495,-69.609348570161,4,1,0,71,0,0
12552,-69.549152569551,4,1,0,71,0,0
12610,-69.489008624571,4,1,0,71,0,0
12668,-69.4289166902045,4,1,0,71,0,0
12725,-69.368876721475,4,1,0,71,0,0
12783,-69.308888673444,4,1,0,71,0,0
12841,-69.248952501212,4,1,0,71,0,0
12898,-69.1890681599185,4,1,0,71,0,0
12956,-69.1292356047415,4,1,0,71,0,0
13014,-69.069454790898,4,1,0,71,0,0
13071,-69.009725673644,4,1,0,71,0,0
13129,-68.9500482082735,4,1,0,71,0,0
13187,-68.89042235012,4,1,0,72,0,0
13245,-68.830848054555,4,1,0,72,0,0
13302,-68.7713252769885,4,1,0,72,0,0
13360,-68.71185397287,4,1,0,72,0,0
13418,-68.652434097686,4,1,0,72,0,0
13475,-68.593065606963,4,1,0,72,0,0
13533,-68.533748456265,4,1,0,72,0,0
13591,-68.474482601195,4,1,0,72,0,0
13648,-68.415267997394,4,1,0,72,0,0
13706,-68.3561046005415,4,1,0,72,0,0
13764,-68.2969923663555,4,1,0,72,0,0
13821,-68.2379312505915,4,1,0,72,0,0
13879,-68.1789212090445,4,1,0,72,0,0
13937,-68.119962197547,4,1,0,72,0,0
13995,-68.0610541719695,4,1,0,72,0,0
14052,-68.0021970882215,4,1,0,72,0,0
14110,-67.9433909022495,4,1,0,73,0,0
14168,-67.884635570039,4,1,0,73,0,0
14225,-67.825931047613,4,1,0,73,0,0
14283,-67.7672772910335,4,1,0,73,0,0
14341,-67.7086742563985,4,1,0,73,0,0
14398,-67.6501218998465,4,1,0,73,0,0
14456,-67.591620177552,4,1,0,73,0,0
14514,-67.5331690457285,4,1,0,73,0,0
14571,-67.4747684606265,4,1,0,73,0,0
14629,-67.4164183785345,4,1,0,73,0,0
14687,-67.35811875578,4,1,0,73,0,0
14745,-67.2998695487265,4,1,0,73,0,0
14802,-67.2416707137765,4,1,0,73,0,0
14860,-67.18352220737,4,1,0,73,0,0
14918,-67.125423985984,4,1,0,73,0,0
14975,-67.0673760061335,4,1,0,73,0,0
15033,-67.009378224371,4,1,0,73,0,0
15091,-66.9514305972875,4,1,0,73,0,0
15148,-66.8935330815105,4,1,0,73,0,0
15206,-66.835685633705,4,1,0,73,0,0
15264,-66.7778882105745,4,1,0,74,0,0
15321,-66.720140768858,4,1,0,74,0,0
15379,-66.662443265334,4,1,0,74,0,0
15437,-66.6047956568175,4,1,0,74,0,0
15495,-66.547197900161,4,1,0,74,0,0
15552,-66.4896499522535,4,1,0,74,0,0
15610,-66.432151770022,4,1,0,74,0,0
15668,-66.3747033104315,4,1,0,74,0,0
15725,-66.3173045304825,4,1,0,74,0,0
15783,-66.259955387214,4,1,0,74,0,0
15841,-66.202655837702,4,1,0,74,0,0
15898,-66.145405839059,4,1,0,74,0,0
15956,-66.0882053484345,4,1,0,74,0,0
16014,-66.0310543230165,4,1,0,74,0,0
16071,-65.9739527200285,4,1,0,74,0,0
16129,-65.916900496732,4,1,0,74,0,0
16187,-65.859897610424,4,1,0,74,0,0
16245,-65.80294401844,4,1,0,74,0,0
16302,-65.746039678152,4,1,0,74,0,0
16360,-65.689184546968,4,1,0,74,0,0
16418,-65.6323785823345,4,1,0,75,0,0
16475,-65.5756217417325,4,1,0,75,0,0
16533,-65.5189139826825,4,1,0,75,0,0
16591,-65.462255262739,4,1,0,75,0,0
16648,-65.4056455394955,4,1,0,75,0,0
16706,-65.3490847705805,4,1,0,75,0,0
16764,-65.2925729136605,4,1,0,75,0,0
16821,-65.236109926437,4,1,0,75,0,0
16879,-65.1796957666495,4,1,0,75,0,0
16937,-65.123330392074,4,1,0,75,0,0
16995,-65.067013760522,4,1,0,75,0,0
17052,-65.010745829842,4,1,0,75,0,0
17110,-64.9545265579195,4,1,0,75,0,0
17168,-64.898355902675,4,1,0,75,0,0
17225,-64.8422338220675,4,1,0,75,0,0
17283,-64.7861602740905,4,1,0,75,0,0
17341,-64.7301352167745,4,1,0,75,0,0
17398,-64.674158608186,4,1,0,75,0,0
17456,-64.6182304064285,4,1,0,75,0,0
17514,-64.5623505696415,4,1,0,75,0,0
17571,-64.506519056,4,1,0,76,0,0
17629,-64.450735823716,4,1,0,76,0,0
17687,-64.3950008310365,4,1,0,76,0,0
17745,-64.3393140362465,4,1,0,76,0,0
17802,-64.283675397665,4,1,0,76,0,0
17860,-64.228084873649,4,1,0,76,0,0
17918,-64.1725424225895,4,1,0,76,0,0
17975,-64.117048002915,4,1,0,76,0,0
18033,-64.0616015730895,4,1,0,76,0,0
18091,-64.006203091613,4,1,0,76,0,0
18148,-63.9508525170205,4,1,0,76,0,0
18206,-63.8955498078845,4,1,0,76,0,0
18264,-63.840294922812,4,1,0,76,0,0
18321,-63.7850878204465,4,1,0,76,0,0
18379,-63.729928459467,4,1,0,76,0,0
18437,-63.6748167985875,4,1,0,76,0,0
18495,-63.6197527965595,4,1,0,77,0,0
18552,-63.5647364121685,4,1,0,77,0,0
18610,-63.509767604236,4,1,0,77,0,0
18668,-63.45484633162,4,1,0,77,0,0
18725,-63.399972553213,4,1,0,77,0,0
18783,-63.345146227944,4,1,0,77,0,0
18841,-63.2903673147765,4,1,0,77,0,0
18898,-63.23563577271,4,1,0,77,0,0
18956,-63.1809515607795,4,1,0,77,0,0
19014,-63.1263146380555,4,1,0,77,0,0
19071,-63.071724963644,4,1,0,77,0,0
19129,-63.0171824966855,4,1,0,77,0,0
19187,-62.962687196357,4,1,0,77,0,0
19245,-62.90823902187,4,1,0,77,0,0
19302,-62.8538379324715,4,1,0,77,0,0
19360,-62.7994838874435,4,1,0,77,0,0
19418,-62.7451768461045,4,1,0,77,0,0
19475,-62.6909167678065,4,1,0,77,0,0
19533,-62.636703611937,4,1,0,77,0,0
19591,-62.5825373379195,4,1,0,77,0,0
19648,-62.528417905212,4,1,0,78,0,0
19706,-62.474345273307,4,1,0,78,0,0
19764,-62.4203194017335,4,1,0,78,0,0
19821,-62.366340250054,4,1,0,78,0,0
19879,-62.3124077778665,4,1,0,78,0,0
19937,-62.2585219448045,4,1,0,78,0,0
19995,-62.204682710536,4,1,0,78,0,0
20052,-62.150890034763,4,1,0,78,0,0
20110,-62.097143877224,4,1,0,78,0,0
20168,-62.043444197691,4,1,0,78,0,0
20225,-61.9897909559715,4,1,0,78,0,0
20283,-61.9361841119075,4,1,0,78,0,0
20341,-61.8826236253755,4,1,0,78,0,0
20398,-61.8291094562875,4,1,0,78,0,0
20456,-61.775641564589,4,1,0,78,0,0
20514,-61.722219910261,4,1,0,78,0,0
20571,-61.668844453319,4,1,0,79,0,0
20629,-61.615515153813,4,1,0,79,0,0
20687,-61.562231971827,4,1,0,79,0,0
20745,-61.5089948674805,4,1,0,79,0,0
20802,-61.4558038009265,4,1,0,79,0,0
20860,-61.4026587323535,4,1,0,79,0,0
20918,-61.3495596219835,4,1,0,79,0,0
20975,-61.2965064300735,4,1,0,79,0,0
21033,-61.2434991169145,4,1,0,79,0,0
21091,-61.190537642832,4,1,0,79,0,0
21148,-61.137621968186,4,1,0,79,0,0
21206,-61.08475205337,4,1,0,79,0,0
21264,-61.031927858813,4,1,0,79,0,0
21321,-60.979149344977,4,1,0,79,0,0
21379,-60.926416472359,4,1,0,79,0,0
21437,-60.87372920149,4,1,0,79,0,0
21495,-60.821087492935,4,1,0,79,0,0
21552,-60.7684913072925,4,1,0,79,0,0
21610,-60.7159406051965,4,1,0,79,0,0
21668,-60.6634353473145,4,1,0,79,0,0
21725,-60.6109754943465,4,1,0,80,0,0
21783,-60.558561007029,4,1,0,80,0,0
21841,-60.50619184613,4,1,0,80,0,0
21898,-60.453867972454,4,1,0,80,0,0
21956,-60.4015893468365,4,1,0,80,0,0
22014,-60.34935593015,4,1,0,80,0,0
22071,-60.297167683298,4,1,0,80,0,0
22129,-60.2450245672195,4,1,0,80,0,0
22187,-60.1929265428865,4,1,0,80,0,0
22245,-60.1408735713055,4,1,0,80,0,0
22302,-60.088865613516,4,1,0,80,0,0
22360,-60.036902630592,4,1,0,80,0,0
22418,-59.98498458364,4,1,0,80,0,0
22475,-59.9331114338005,4,1,0,80,0,0
22533,-59.881283142249,4,1,0,80,0,0
22591,-59.829499670192,4,1,0,80,0,0
22648,-59.7777609788725,4,1,0,80,0,0
22706,-59.7260670295645,4,1,0,80,0,0
22764,-59.6744177835765,4,1,0,80,0,0
22821,-59.6228132022515,4,1,0,80,0,0
22879,-59.5712532469635,4,1,0,80,0,0
22937,-59.519737879122,4,1,0,80,0,0
22995,-59.468267060169,4,1,0,80,0,0
23052,-59.4168407515805,4,1,0,80,0,0
23110,-59.3654589148645,4,1,0,81,0,0
23168,-59.314121511564,4,1,0,81,0,0
23225,-59.2628285032535,4,1,0,81,0,0
23283,-59.211579851542,4,1,0,81,0,0
23341,-59.1603755180715,4,1,0,81,0,0
23398,-59.1092154645165,4,1,0,81,0,0
23456,-59.0580996525855,4,1,0,81,0,0
23514,-59.0070280440195,4,1,0,81,0,0
23571,-58.9560006005925,4,1,0,81,0,0
23629,-58.9050172841125,4,1,0,81,0,0
23687,-58.85407805642,4,1,0,81,0,0
23745,-58.8031828793875,4,1,0,81,0,0
23802,-58.752331714922,4,1,0,81,0,0
23860,-58.7015245249625,4,1,0,81,0,0
23918,-58.6507612714815,4,1,0,81,0,0
23975,-58.6000419164845,4,1,0,81,0,0
24033,-58.549366422008,4,1,0,82,0,0
24091,-58.4987347501245,4,1,0,82,0,0
24148,-58.448146862936,4,1,0,82,0,0
24206,-58.3976027225805,4,1,0,82,0,0
24264,-58.3471022912255,4,1,0,82,0,0
24321,-58.296645531074,4,1,0,82,0,0
24379,-58.24623240436,4,1,0,82,0,0
24437,-58.1958628733505,4,1,0,82,0,0
24495,-58.145536900346,4,1,0,82,0,0
24552,-58.095254447678,4,1,0,82,0,0
24610,-58.045015477712,4,1,0,82,0,0
24668,-57.9948199528455,4,1,0,82,0,0
24725,-57.944667835508,4,1,0,82,0,0
24783,-57.894559088163,4,1,0,82,0,0
24841,-57.8444936733045,4,1,0,82,0,0
24898,-57.7944715534605,4,1,0,82,0,0
24956,-57.7444926911905,4,1,0,83,0,0
25014,-57.694557049087,4,1,0,83,0,0
25071,-57.6446645897745,4,1,0,83,0,0
25129,-57.5948152759095,4,1,0,83,0,0
25187,-57.5450090701815,4,1,0,83,0,0
25245,-57.4952459353115,4,1,0,83,0,0
25302,-57.445525834054,4,1,0,83,0,0
25360,-57.395848729194,4,1,0,83,0,0
25418,-57.34621458355,4,1,0,83,0,0
25475,-57.296623359972,4,1,0,83,0,0
25533,-57.2470750213425,4,1,0,83,0,0
25591,-57.197569530576,4,1,0,83,0,0
25648,-57.148106850619,4,1,0,83,0,0
25706,-57.0986869444495,4,1,0,83,0,0
25764,-57.049309775079,4,1,0,83,0,0
25821,-56.999975305549,4,1,0,83,0,0
25937,-56.9014343183425,4,1,0,83,0,0
25995,-56.852227726911,4,1,0,83,0,0
26032,-56.852227726911,4,1,0,84,0,0
26052,-56.8030636878095,4,1,0,84,0,0
26110,-56.7539421642405,4,1,0,84,0,0
26168,-56.704863119438,4,1,0,84,0,0
26225,-56.655826516668,4,1,0,84,0,0
26283,-56.6068323192275,4,1,0,84,0,0
26341,-56.5578804904455,4,1,0,84,0,0
26398,-56.5089709936835,4,1,0,84,0,0
26456,-56.4601037923335,4,1,0,84,0,0
26514,-56.4112788498205,4,1,0,84,0,0
26571,-56.3624961295995,4,1,0,84,0,0
26629,-56.3137555951585,4,1,0,84,0,0
26687,-56.2650572100165,4,1,0,84,0,0
26745,-56.216400937724,4,1,0,84,0,0
26802,-56.167786741863,4,1,0,84,0,0
26860,-56.1192145860475,4,1,0,84,0,0
26918,-56.070684433922,4,1,0,84,0,0
26975,-56.0221962491635,4,1,0,84,0,0
27033,-55.97374999548,4,1,0,84,0,0
27091,-55.9253456366105,4,1,0,84,0,0
27148,-55.8769831363255,4,1,0,84,0,0
27206,-55.8286624584275,4,1,0,84,0,0
27264,-55.7803835667495,4,1,0,85,0,0
27321,-55.732146425156,4,1,0,85,0,0
27379,-55.6839509975425,4,1,0,85,0,0
27437,-55.635797247837,4,1,0,85,0,0
27495,-55.5876851399975,4,1,0,85,0,0
27552,-55.5396146380125,4,1,0,85,0,0
27610,-55.4915857059035,4,1,0,85,0,0
27668,-55.443598307722,4,1,0,85,0,0
27725,-55.3956524075505,4,1,0,85,0,0
27783,-55.347747969503,4,1,0,85,0,0
27841,-55.299884957724,4,1,0,85,0,0
27898,-55.2520633363895,4,1,0,85,0,0
27956,-55.204283069707,4,1,0,85,0,0
28014,-55.156544121913,4,1,0,85,0,0
28071,-55.1088464572775,4,1,0,85,0,0
28129,-55.0611900400995,4,1,0,85,0,0
28187,-55.013574834709,4,1,0,86,0,0
28245,-54.9660008054685,4,1,0,86,0,0
28302,-54.918467916769,4,1,0,86,0,0
28360,-54.8709761330345,4,1,0,86,0,0
28418,-54.8235254187175,4,1,0,86,0,0
28475,-54.7761157383035,4,1,0,86,0,0
28533,-54.728747056307,4,1,0,86,0,0
28591,-54.6814193372745,4,1,0,86,0,0
28648,-54.6341325457815,4,1,0,86,0,0
28706,-54.586886646436,4,1,0,86,0,0
28764,-54.5396816038755,4,1,0,86,0,0
28821,-54.492517382768,4,1,0,86,0,0
28879,-54.445393947813,4,1,0,86,0,0
28937,-54.3983112637395,4,1,0,86,0,0
28995,-54.3512692953075,4,1,0,86,0,0
29052,-54.3042680073075,4,1,0,86,0,0
29110,-54.25730736456,4,1,0,86,0,0
29168,-54.210387331916,4,1,0,86,0,0
29225,-54.163507874258,4,1,0,86,0,0
29283,-54.1166689564975,4,1,0,86,0,0
29341,-54.069870543577,4,1,0,87,0,0
29398,-54.023112600469,4,1,0,87,0,0
29456,-53.976395092177,4,1,0,87,0,0
29514,-53.929717983733,4,1,0,87,0,0
29571,-53.883081240202,4,1,0,87,0,0
29629,-53.8364848266765,4,1,0,87,0,0
29687,-53.789928708281,4,1,0,87,0,0
29745,-53.7434128501695,4,1,0,87,0,0
29802,-53.696937217526,4,1,0,87,0,0
29860,-53.6505017755645,4,1,0,87,0,0
29918,-53.6041064895295,4,1,0,87,0,0
29975,-53.557751324696,4,1,0,87,0,0
30035,230.769230769231,4,1,0,87,1,0
30035,-81.0123494546646,4,1,0,87,0,0
30090,-106.930322439758,4,1,0,87,0,0
30148,-106.83785242119,4,1,0,87,0,0
30206,-106.745462367819,4,1,0,87,0,0
30263,-106.653152210494,4,1,0,87,0,0
30321,-106.560921880123,4,1,0,88,0,0
30379,-106.468771307675,4,1,0,88,0,0
30436,-106.376700424177,4,1,0,88,0,0
30494,-106.284709160716,4,1,0,88,0,0
30552,-106.192797448441,4,1,0,88,0,0
30609,-106.100965218556,4,1,0,88,0,0
30667,-106.00921240233,4,1,0,88,0,0
30725,-105.917538931086,4,1,0,88,0,0
30783,-105.82594473621,4,1,0,88,0,0
30840,-105.734429749147,4,1,0,88,0,0
30898,-105.642993901399,4,1,0,88,0,0
30956,-105.55163712453,4,1,0,88,0,0
31013,-105.460359350162,4,1,0,88,0,0
31071,-105.369160509974,4,1,0,88,0,0
31129,-105.278040535709,4,1,0,88,0,0
31186,-105.186999359165,4,1,0,88,0,0
31244,-105.0960369122,4,1,0,88,0,0
31302,-105.005153126731,4,1,0,88,0,0
31359,-104.914347934735,4,1,0,88,0,0
31417,-104.823621268245,4,1,0,89,0,0
31475,-104.732973059356,4,1,0,89,0,0
31533,-104.64240324022,4,1,0,89,0,0
31590,-104.551911743048,4,1,0,89,0,0
31648,-104.46149850011,4,1,0,89,0,0
31706,-104.371163443733,4,1,0,89,0,0
31763,-104.280906506305,4,1,0,89,0,0
31821,-104.19072762027,4,1,0,89,0,0
31879,-79.3267374621793,4,1,0,89,0,0
31936,-104.010603732454,4,1,0,89,0,0
31994,-103.920658595855,4,1,0,89,0,0
32052,-103.830791241013,4,1,0,89,0,0
32109,-103.741001600667,4,1,0,89,0,0
32167,-103.65128960761,4,1,0,89,0,0
32225,-103.561655194695,4,1,0,89,0,0
32283,-103.472098294834,4,1,0,89,0,0
32340,-103.382618840996,4,1,0,89,0,0
32398,-103.293216766208,4,1,0,89,0,0
32456,-103.203892003555,4,1,0,89,0,0
32513,-103.11464448618,4,1,0,89,0,0
32571,-103.025474147283,4,1,0,90,0,0
32629,-102.936380920123,4,1,0,90,0,0
32686,-102.847364738016,4,1,0,90,0,0
32744,-102.758425534337,4,1,0,90,0,0
32802,-102.669563242515,4,1,0,90,0,0
32859,-102.580777796041,4,1,0,90,0,0
32917,-102.492069128461,4,1,0,90,0,0
32975,-102.403437173378,4,1,0,90,0,0
33033,-102.314881864456,4,1,0,90,0,0
33090,-102.226403135411,4,1,0,90,0,0
33148,-102.13800092002,4,1,0,90,0,0
33206,-102.049675152117,4,1,0,90,0,0
33263,-101.961425765592,4,1,0,90,0,0
33321,-101.873252694394,4,1,0,90,0,0
33379,-101.785155872526,4,1,0,90,0,0
33436,-101.69713523405,4,1,0,90,0,0
33494,-101.609190713087,4,1,0,90,0,0
33552,-101.521322243811,4,1,0,90,0,0
33609,-101.433529760456,4,1,0,91,0,0
33667,-101.345813197311,4,1,0,91,0,0
33725,-77.6654023622996,4,1,0,91,0,0
33783,-101.170607569095,4,1,0,91,0,0
33840,-101.083118372887,4,1,0,91,0,0
33898,-100.995704834617,4,1,0,91,0,0
33956,-100.908366888856,4,1,0,91,0,0
34013,-100.821104470236,4,1,0,91,0,0
34071,-100.733917513443,4,1,0,91,0,0
34129,-100.64680595322,4,1,0,91,0,0
34186,-100.559769724365,4,1,0,91,0,0
34244,-100.472808761736,4,1,0,91,0,0
34302,-100.385923000243,4,1,0,91,0,0
34359,-100.299112374856,4,1,0,91,0,0
34417,-100.212376820599,4,1,0,91,0,0
34475,-100.125716272553,4,1,0,91,0,0
34533,-100.039130665855,4,1,0,91,0,0
34590,-99.9526199356976,4,1,0,91,0,0
34648,-99.8661840173302,4,1,0,91,0,0
34706,-99.7798228460579,4,1,0,91,0,0
34763,-99.6935363572416,4,1,0,92,0,0
34821,-99.6073244862984,4,1,0,92,0,0
34879,-99.521187168701,4,1,0,92,0,0
34936,-99.435124339978,4,1,0,92,0,0
34994,-99.3491359357137,4,1,0,92,0,0
35052,-99.2632218915482,4,1,0,92,0,0
35109,-99.1773821431772,4,1,0,92,0,0
35167,-99.091616626352,4,1,0,92,0,0
35225,-99.0059252768794,4,1,0,92,0,0
35283,-98.9203080306218,4,1,0,92,0,0
35340,-98.8347648234971,4,1,0,92,0,0
35398,-98.7492955914785,4,1,0,92,0,0
35456,-98.6639002705948,4,1,0,92,0,0
35513,-98.5785787969297,4,1,0,92,0,0
35571,-76.0284463013728,4,1,0,92,0,0
35629,-98.4081571358677,4,1,0,92,0,0
35686,-98.3230568209149,4,1,0,92,0,0
35744,-98.2380300980689,4,1,0,92,0,0
35802,-98.1530769036895,4,1,0,93,0,0
35859,-98.0681971741915,4,1,0,93,0,0
35917,-97.9833908460448,4,1,0,93,0,0
35975,-97.8986578557742,4,1,0,93,0,0
36033,-97.8139981399594,4,1,0,93,0,0
36090,-97.7294116352349,4,1,0,93,0,0
36148,-97.64489827829,4,1,0,93,0,0
36206,-97.5604580058689,4,1,0,93,0,0
36263,-97.4760907547702,4,1,0,93,0,0
36321,-97.3917964618475,4,1,0,93,0,0
36379,-97.3075750640087,4,1,0,93,0,0
36436,-97.2234264982165,4,1,0,93,0,0
36494,-97.139350701488,4,1,0,93,0,0
36552,-97.0553476108946,4,1,0,93,0,0
36609,-96.9714171635626,4,1,0,93,0,0
36667,-96.8875592966721,4,1,0,93,0,0
36725,-96.8037739474579,4,1,0,93,0,0
36783,-96.720061053209,4,1,0,93,0,0
36840,-96.6364205512685,4,1,0,94,0,0
36898,-96.5528523790339,4,1,0,94,0,0
36956,-96.4693564739566,4,1,0,94,0,0
37013,-96.3859327735423,4,1,0,94,0,0
37071,-96.3025812153506,4,1,0,94,0,0
37129,-96.2193017369952,4,1,0,94,0,0
37186,-96.1360942761437,4,1,0,94,0,0
37244,-96.0529587705175,4,1,0,94,0,0
37302,-95.9698951578921,4,1,0,94,0,0
37359,-95.8869033760965,4,1,0,94,0,0
37417,-74.4159500433312,4,1,0,94,0,0
37475,-95.7211350565805,4,1,0,94,0,0
37533,-95.6383583947871,4,1,0,94,0,0
37590,-95.5556533156774,4,1,0,94,0,0
37648,-95.4730197573489,4,1,0,94,0,0
37706,-95.3904576579527,4,1,0,94,0,0
37763,-95.3079669556934,4,1,0,94,0,0
37821,-95.2255475888289,4,1,0,94,0,0
37879,-95.1431994956706,4,1,0,94,0,0
37936,-95.0609226145832,4,1,0,94,0,0
37994,-94.9787168839848,4,1,0,95,0,0
38052,-94.8965822423465,4,1,0,95,0,0
38109,-94.8145186281929,4,1,0,95,0,0
38167,-94.7325259801016,4,1,0,95,0,0
38225,-94.6506042367033,4,1,0,95,0,0
38283,-94.5687533366819,4,1,0,95,0,0
38340,-73.6188938608864,4,1,0,95,0,0
38398,-94.4052638217702,4,1,0,95,0,0
38456,-94.3236250845125,4,1,0,95,0,0
38513,-94.2420569458968,4,1,0,95,0,0
38571,-94.1605593448715,4,1,0,95,0,0
38629,-94.0791322204379,4,1,0,95,0,0
38686,-93.9977755116501,4,1,0,95,0,0
38744,-93.9164891576149,4,1,0,95,0,0
38802,-93.8352730974916,4,1,0,95,0,0
38859,-93.7541272704922,4,1,0,95,0,0
38917,-93.6730516158813,4,1,0,95,0,0
38975,-93.592046072976,4,1,0,95,0,0
39033,-93.5111105811459,4,1,0,96,0,0
39090,-93.4302450798129,4,1,0,96,0,0
39148,-93.3494495084516,4,1,0,96,0,0
39206,-93.2687238065886,4,1,0,96,0,0
39263,-72.8279734938845,4,1,0,96,0,0
39321,-93.1074817697259,4,1,0,96,0,0
39379,-93.026965314041,4,1,0,96,0,0
39436,-92.9465184864839,4,1,0,96,0,0
39494,-92.8661412268422,4,1,0,96,0,0
39552,-92.7858334749559,4,1,0,96,0,0
39609,-92.7055951707168,4,1,0,96,0,0
39667,-92.6254262540688,4,1,0,96,0,0
39725,-92.5453266650076,4,1,0,96,0,0
39783,-92.4652963435808,4,1,0,96,0,0
39840,-92.385335229888,4,1,0,96,0,0
39898,-92.3054432640804,4,1,0,96,0,0
39956,-92.2256203863612,4,1,0,96,0,0
40013,-92.1458665369851,4,1,0,96,0,0
40071,-92.0661816562585,4,1,0,96,0,0
40129,-91.9865656845395,4,1,0,96,0,0
40186,-72.0431932612141,4,1,0,97,0,0
40244,-91.8275402298143,4,1,0,97,0,0
40302,-91.748130627782,4,1,0,97,0,0
40359,-91.6687896967048,4,1,0,97,0,0
40417,-91.5895173771982,4,1,0,97,0,0
40475,-91.510313609929,4,1,0,97,0,0
40533,-91.4311783356155,4,1,0,97,0,0
40590,-91.3521114950271,4,1,0,97,0,0
40648,-91.2731130289843,4,1,0,97,0,0
40706,-91.1941828783591,4,1,0,97,0,0
40763,-91.1153209840743,4,1,0,97,0,0
40821,-91.036527287104,4,1,0,97,0,0
40879,-90.9578017284733,4,1,0,97,0,0
40936,-90.8791442492582,4,1,0,97,0,0
40994,-90.8005547905859,4,1,0,97,0,0
41052,-90.7220332936342,4,1,0,97,0,0
41109,-90.6435796996319,4,1,0,97,0,0
41167,-90.5651939498588,4,1,0,98,0,0
41225,-90.4868759856452,4,1,0,98,0,0
41283,-90.4086257483723,4,1,0,98,0,0
41340,-90.3304431794719,4,1,0,98,0,0
41398,-90.2523282204266,4,1,0,98,0,0
41456,-90.1742808127693,4,1,0,98,0,0
41513,-90.0963008980839,4,1,0,98,0,0
41571,-90.0183884180044,4,1,0,98,0,0
41629,-89.9405433142155,4,1,0,98,0,0
41686,-89.8627655284523,4,1,0,98,0,0
41744,-89.7850550025003,4,1,0,98,0,0
41802,-89.7074116781952,4,1,0,98,0,0
41859,-89.6298354974232,4,1,0,98,0,0
41917,-89.5523264021206,4,1,0,98,0,0
41975,-89.474884334274,4,1,0,98,0,0
42033,-89.3975092359201,4,1,0,98,0,0
42090,-89.3202010491458,4,1,0,98,0,0
42148,-89.2429597160881,4,1,0,98,0,0
42206,-89.1657851789339,4,1,0,98,0,0
42263,-89.0886773799202,4,1,0,99,0,0
42321,-89.011636261334,4,1,0,99,0,0
42379,-88.934661765512,4,1,0,99,0,0
42436,-88.857753834841,4,1,0,99,0,0
42494,-88.7809124117576,4,1,0,99,0,0
42552,-88.7041374387479,4,1,0,99,0,0
42609,-88.6274288583481,4,1,0,99,0,0
42667,-88.5507866131439,4,1,0,99,0,0
42725,-88.4742106457707,4,1,0,99,0,0
42783,-88.3977008989134,4,1,0,99,0,0
42840,-88.3212573153067,4,1,0,99,0,0
42898,-88.2448798377346,4,1,0,99,0,0
42956,-88.1685684090306,4,1,0,99,0,0
43013,-88.0923229720778,4,1,0,99,0,0
43071,-88.0161434698086,4,1,0,99,0,0
43129,-87.9400298452046,4,1,0,99,0,0
43186,-87.8639820412969,4,1,0,99,0,0
43244,-87.7880000011658,4,1,0,99,0,0
43302,-87.712083667941,4,1,0,99,0,0
43359,-87.6362329848009,4,1,0,100,0,0
43417,-87.5604478949736,4,1,0,100,0,0
43475,-87.484728341736,4,1,0,100,0,0
43533,-87.409074268414,4,1,0,100,0,0
43590,-87.3334856183826,4,1,0,100,0,0
43648,-87.2579623350659,4,1,0,100,0,0
43706,-87.1825043619367,4,1,0,100,0,0
43763,-87.1071116425168,4,1,0,100,0,0
43821,-87.0317841203768,4,1,0,100,0,0
43879,-86.9565217391362,4,1,0,100,0,0
43936,-88.001089572796,4,1,0,100,0,0
43994,-89.0582053089916,4,1,0,100,0,0
44052,-90.1280196797739,4,1,0,100,0,0
44109,-91.2106852278728,4,1,0,100,0,0
44167,-92.3063563284425,4,1,0,100,0,0
44225,-93.4151892110736,4,1,0,100,0,0
44283,-94.5373419820688,4,1,0,100,0,0
44340,-95.672974646988,4,1,0,100,0,0
44398,-96.8222491334625,4,1,0,100,0,0
44456,-97.9853293142842,4,1,0,100,0,0
44513,-99.1623810307717,4,1,0,100,0,0
44571,-71.6087833143826,4,1,0,100,0,0
44629,-101.55907242082,4,1,0,100,0,0
44686,-102.779053833898,4,1,0,100,0,0
44744,-104.013690310407,4,1,0,100,0,0
44804,-64.5161290322581,4,1,0,100,0,1
45033,-97.5609756097561,4,1,0,100,0,1
59573,-71.4285714285714,4,1,0,100,0,0
59629,-87.7818290557047,4,1,0,100,0,0
59686,-88.6149693921972,4,1,0,100,0,0
59744,-89.4560170920671,4,1,0,100,0,0
59802,-90.3050472043704,4,1,0,100,0,0
59859,-91.162135490456,4,1,0,100,0,0
59917,-92.0273584307263,4,1,0,100,0,0
59975,-92.900793231462,4,1,0,100,0,0
60033,-93.782517831711,4,1,0,100,0,0
60090,-94.6726109102436,4,1,0,100,0,0
60148,-95.5711518925729,4,1,0,100,0,0
60206,-96.4782209580422,4,1,0,100,0,0
60263,-97.3938990469798,4,1,0,100,0,0
60321,-98.3182678679212,4,1,0,100,0,0
60379,-99.2514099049008,4,1,0,100,0,0
60436,-100.193408424811,4,1,0,100,0,0
60494,-101.144347484835,4,1,0,100,0,0
60552,-102.104311939942,4,1,0,100,0,0
60609,-103.073387450467,4,1,0,100,0,0
60667,-104.051660489747,4,1,0,100,0,0
60725,-105.039218351842,4,1,0,100,0,0
60783,-106.036149159322,4,1,0,100,0,0
60840,-107.042541871131,4,1,0,100,0,0
60898,-108.058486290527,4,1,0,100,0,0
60956,-109.084073073093,4,1,0,100,0,0
61013,-110.119393734826,4,1,0,100,0,0
61071,-111.164540660306,4,1,0,100,0,0
61129,-112.219607110937,4,1,0,100,0,0
61188,-84.5500196413577,4,1,0,100,0,1
61244,-114.359876067411,4,1,0,100,0,1
61302,-115.445269555482,4,1,0,100,0,1
61359,-116.540964550204,4,1,0,100,0,1
61419,-71.4285714285714,4,1,0,100,0,0
61475,-87.7818290557047,4,1,0,100,0,0
61533,-88.6149693921972,4,1,0,100,0,0
61590,-89.4560170920671,4,1,0,100,0,0
61648,-90.3050472043704,4,1,0,100,0,0
61706,-91.162135490456,4,1,0,100,0,0
61763,-92.0273584307263,4,1,0,100,0,0
61821,-92.900793231462,4,1,0,100,0,0
61879,-93.782517831711,4,1,0,100,0,0
61936,-94.6726109102436,4,1,0,100,0,0
61994,-95.5711518925729,4,1,0,100,0,0
62052,-96.4782209580422,4,1,0,100,0,0
62109,-97.3938990469798,4,1,0,100,0,0
62167,-98.3182678679212,4,1,0,100,0,0
62225,-99.2514099049008,4,1,0,100,0,0
62283,-100.193408424811,4,1,0,100,0,0
62340,-101.144347484835,4,1,0,100,0,0
62398,-102.104311939942,4,1,0,100,0,0
62456,-103.073387450467,4,1,0,100,0,0
62513,-104.051660489747,4,1,0,100,0,0
62571,-105.039218351842,4,1,0,100,0,0
62629,-106.036149159322,4,1,0,100,0,0
62686,-107.042541871131,4,1,0,100,0,0
62744,-108.058486290527,4,1,0,100,0,0
62802,-109.084073073093,4,1,0,100,0,0
62859,-110.119393734826,4,1,0,100,0,0
62917,-111.164540660306,4,1,0,100,0,0
62975,-112.219607110937,4,1,0,100,0,0
63035,-77.9586170394582,4,1,0,100,0,1
63090,-114.359876067411,4,1,0,100,0,1
63148,-115.445269555482,4,1,0,100,0,1
63206,-104.013690310407,4,1,0,100,0,1
63263,-71.4285714285714,4,1,0,100,0,1
63494,-97.5609756097561,4,1,0,100,0,1
65109,-80,4,1,0,100,0,1
65225,-97.5609756097561,4,1,0,100,0,1
66956,-80,4,1,0,100,0,1
67071,-97.5609756097561,4,1,0,100,0,1
68802,-80,4,1,0,100,0,1
68917,-97.5609756097561,4,1,0,100,0,1
70648,-80,4,1,0,100,0,1
70763,-97.5609756097561,4,1,0,100,0,1
74340,-80,4,1,0,100,0,1
74456,-97.5609756097561,4,1,0,100,0,1
78032,-80,4,1,0,100,0,1
78148,-97.5609756097561,4,1,0,100,0,1
85419,230.769230769231,8,1,0,100,1,0
85419,-80,8,1,0,100,0,0
85647,-108.108108108108,8,1,0,100,0,0
87263,-80,8,1,0,100,0,0
87493,-108.108108108108,8,1,0,100,0,0
89111,230.769230769231,4,1,0,100,1,0
89111,-80,4,1,0,100,0,0
89339,-108.108108108108,4,1,0,100,0,0
90032,-80,4,1,0,100,0,0
90262,-108.108108108108,4,1,0,100,0,0
90955,-80,4,1,0,100,0,0
91185,-108.108108108108,4,1,0,100,0,0
91416,-80,4,1,0,100,0,0
91647,-108.108108108108,4,1,0,100,0,0
92803,-71.4285714285714,4,1,0,100,0,1
93032,-97.5609756097561,4,1,0,100,0,1
100185,-80,4,1,0,100,0,1
100301,-97.5609756097561,4,1,0,100,0,1
103935,-97.7175861665331,4,1,0,100,0,1
103993,-97.8744481236915,4,1,0,100,0,1
104051,-98.0315618847941,4,1,0,100,0,1
104109,-98.1889278540512,4,1,0,100,0,1
104166,-98.3465464363218,4,1,0,100,0,1
104224,-98.5044180371153,4,1,0,100,0,1
104282,-98.6625430625915,4,1,0,100,0,1
104339,-98.8209219195627,4,1,0,100,0,1
104397,-98.9795550154938,4,1,0,100,0,1
104455,-99.138442758504,4,1,0,100,0,1
104512,-99.2975855573677,4,1,0,100,0,1
104570,-99.4569838215153,4,1,0,100,0,1
104628,-99.6166379610346,4,1,0,100,0,1
104685,-99.7765483866717,4,1,0,100,0,1
104743,-99.9367155098319,4,1,0,100,0,1
104801,-100.097139742581,4,1,0,100,0,1
104859,-100.257821497646,4,1,0,100,0,1
104916,-100.418761188418,4,1,0,100,0,1
104974,-100.579959228949,4,1,0,100,0,1
105032,-100.741416033957,4,1,0,100,0,1
105089,-100.903132018827,4,1,0,100,0,1
105147,-101.065107599608,4,1,0,100,0,1
105205,-101.22734319302,4,1,0,100,0,1
105262,-101.38983921645,4,1,0,100,0,1
105320,-101.552596087955,4,1,0,100,0,1
105378,-101.715614226263,4,1,0,100,0,1
105435,-101.878894050776,4,1,0,100,0,1
105493,-102.042435981568,4,1,0,100,0,1
105551,-102.206240439386,4,1,0,100,0,1
105609,-102.370307845654,4,1,0,100,0,1
105666,-102.534638622473,4,1,0,100,0,1
105724,-102.699233192619,4,1,0,100,0,1
105782,-102.864091979551,4,1,0,100,0,1
105839,-103.029215407403,4,1,0,100,0,1
105897,-103.194603900993,4,1,0,100,0,1
105955,-103.360257885819,4,1,0,100,0,1
106012,-103.526177788064,4,1,0,100,0,1
106070,-103.692364034594,4,1,0,100,0,1
106128,-103.85881705296,4,1,0,100,0,1
106185,-104.0255372714,4,1,0,100,0,1
106243,-104.192525118838,4,1,0,100,0,1
106301,-104.35978102489,4,1,0,100,0,1
106359,-104.527305419857,4,1,0,100,0,1
106416,-104.695098734734,4,1,0,100,0,1
106474,-104.863161401207,4,1,0,100,0,1
106532,-105.031493851654,4,1,0,100,0,1
106589,-105.200096519149,4,1,0,100,0,1
106647,-105.36896983746,4,1,0,100,0,1
106705,-105.538114241051,4,1,0,100,0,1
106762,-105.707530165084,4,1,0,100,0,1
106820,-105.877218045419,4,1,0,100,0,1
106878,-106.047178318617,4,1,0,100,0,1
106935,-106.217411421938,4,1,0,100,0,1
106993,-106.387917793346,4,1,0,100,0,1
107051,-106.558697871505,4,1,0,100,0,1
107109,-106.729752095787,4,1,0,100,0,1
107166,-106.901080906266,4,1,0,100,0,1
107224,-107.072684743724,4,1,0,100,0,1
107282,-107.24456404965,4,1,0,100,0,1
107339,-107.416719266243,4,1,0,100,0,1
107397,-107.589150836411,4,1,0,100,0,1
107455,-107.761859203771,4,1,0,100,0,1
107512,-107.934844812655,4,1,0,100,0,1
107572,-108.108108108108,4,1,0,100,0,0
113166,-107.761859203771,4,1,0,100,0,0
113224,-107.416719266243,4,1,0,100,0,0
113282,-107.072684743724,4,1,0,100,0,0
113339,-106.729752095787,4,1,0,100,0,0
113397,-106.387917793346,4,1,0,100,0,0
113455,-106.047178318617,4,1,0,100,0,0
113512,-105.707530165083,4,1,0,100,0,0
113570,-105.36896983746,4,1,0,100,0,0
113628,-105.031493851654,4,1,0,100,0,0
113685,-104.695098734734,4,1,0,100,0,0
113743,-104.35978102489,4,1,0,100,0,0
113801,-104.0255372714,4,1,0,100,0,0
113859,-103.692364034594,4,1,0,100,0,0
113916,-103.360257885819,4,1,0,100,0,0
113974,-103.029215407403,4,1,0,100,0,0
114032,-102.699233192619,4,1,0,100,0,0
114089,-102.370307845654,4,1,0,100,0,0
114147,-102.042435981568,4,1,0,100,0,0
114205,-101.715614226263,4,1,0,100,0,0
114262,-101.38983921645,4,1,0,100,0,0
114320,-101.065107599608,4,1,0,100,0,0
114378,-100.741416033957,4,1,0,100,0,0
114435,-100.418761188418,4,1,0,100,0,0
114493,-100.097139742581,4,1,0,100,0,0
114551,-99.7765483866716,4,1,0,100,0,0
114609,-99.4569838215152,4,1,0,100,0,0
114666,-99.1384427585039,4,1,0,100,0,0
114724,-98.8209219195625,4,1,0,100,0,0
114782,-98.5044180371152,4,1,0,100,0,0
114839,-98.1889278540511,4,1,0,100,0,0
114897,-97.8744481236915,4,1,0,100,0,0
114957,-71.4285714285714,4,1,0,100,0,1
115185,-97.560975609756,4,1,0,100,0,1
116570,-71.4285714285714,4,1,0,100,0,1
116801,-97.560975609756,4,1,0,100,0,1
122109,-71.4285714285714,4,1,0,100,0,1
122341,230.769230769231,16,1,0,100,1,0
122341,-64.5161290322581,16,1,0,100,0,0
129725,230.769230769231,8,1,0,100,1,0
129725,-64.5161290322581,8,1,0,100,0,0
131571,230.769230769231,4,1,0,100,1,0
133417,230.769230769231,4,1,0,100,1,0
148184,-74.4159500433312,4,1,0,100,0,0
148241,-95.7211350565805,4,1,0,100,0,0
148299,-95.6383583947871,4,1,0,100,0,0
148357,-95.5556533156774,4,1,0,100,0,0
148415,-95.4730197573489,4,1,0,100,0,0
148472,-95.3904576579527,4,1,0,100,0,0
148530,-95.3079669556934,4,1,0,100,0,0
148588,-95.2255475888289,4,1,0,100,0,0
148645,-95.1431994956706,4,1,0,100,0,0
148703,-95.0609226145832,4,1,0,100,0,0
148761,-94.9787168839848,4,1,0,100,0,0
148818,-94.8965822423465,4,1,0,100,0,0
148876,-94.8145186281929,4,1,0,100,0,0
148934,-94.7325259801016,4,1,0,100,0,0
148991,-94.6506042367033,4,1,0,100,0,0
149049,-94.5687533366819,4,1,0,100,0,0
149107,-73.6188938608864,4,1,0,100,0,0
149165,-94.4052638217702,4,1,0,100,0,0
149222,-94.3236250845125,4,1,0,100,0,0
149280,-94.2420569458968,4,1,0,100,0,0
149338,-94.1605593448715,4,1,0,100,0,0
149395,-94.0791322204379,4,1,0,100,0,0
149453,-93.9977755116501,4,1,0,100,0,0
149511,-93.9164891576149,4,1,0,100,0,0
149568,-93.8352730974916,4,1,0,100,0,0
149626,-93.7541272704922,4,1,0,100,0,0
149684,-93.6730516158813,4,1,0,100,0,0
149741,-93.592046072976,4,1,0,100,0,0
149799,-93.5111105811459,4,1,0,100,0,0
149857,-93.4302450798129,4,1,0,100,0,0
149915,-93.3494495084516,4,1,0,100,0,0
149972,-93.2687238065886,4,1,0,100,0,0
150030,-72.8279734938845,4,1,0,100,0,0
150088,-93.1074817697259,4,1,0,100,0,0
150145,-93.026965314041,4,1,0,100,0,0
150203,-92.9465184864839,4,1,0,100,0,0
150261,-92.8661412268422,4,1,0,100,0,0
150318,-92.7858334749559,4,1,0,100,0,0
150376,-92.7055951707168,4,1,0,100,0,0
150434,-92.6254262540688,4,1,0,100,0,0
150491,-92.5453266650076,4,1,0,100,0,0
150549,-92.4652963435808,4,1,0,100,0,0
150607,-92.385335229888,4,1,0,100,0,0
150665,-92.3054432640804,4,1,0,100,0,0
150722,-92.2256203863612,4,1,0,100,0,0
150780,-92.1458665369851,4,1,0,100,0,0
150838,-92.0661816562585,4,1,0,100,0,0
150895,-91.9865656845395,4,1,0,100,0,0
150953,-72.0431932612141,4,1,0,100,0,0
151011,-91.8275402298143,4,1,0,100,0,0
151068,-91.748130627782,4,1,0,100,0,0
151126,-91.6687896967048,4,1,0,100,0,0
151184,-91.5895173771982,4,1,0,100,0,0
151241,-91.510313609929,4,1,0,100,0,0
151299,-91.4311783356155,4,1,0,100,0,0
151357,-91.3521114950271,4,1,0,100,0,0
151415,-91.2731130289843,4,1,0,100,0,0
151472,-91.1941828783591,4,1,0,100,0,0
151530,-91.1153209840743,4,1,0,100,0,0
151588,-91.036527287104,4,1,0,100,0,0
151645,-90.9578017284733,4,1,0,100,0,0
151703,-90.8791442492582,4,1,0,100,0,0
151761,-90.8005547905859,4,1,0,100,0,0
151818,-90.7220332936342,4,1,0,100,0,0
151876,-90.6435796996319,4,1,0,100,0,0
151934,-90.5651939498588,4,1,0,100,0,0
151991,-90.4868759856452,4,1,0,100,0,0
152049,-90.4086257483723,4,1,0,100,0,0
152107,-90.3304431794719,4,1,0,100,0,0
152165,-90.2523282204266,4,1,0,100,0,0
152222,-90.1742808127693,4,1,0,100,0,0
152280,-90.0963008980839,4,1,0,100,0,0
152338,-90.0183884180044,4,1,0,100,0,0
152395,-89.9405433142155,4,1,0,100,0,0
152453,-89.8627655284523,4,1,0,100,0,0
152511,-89.7850550025003,4,1,0,100,0,0
152568,-89.7074116781952,4,1,0,100,0,0
152626,-89.6298354974232,4,1,0,100,0,0
152684,-89.5523264021206,4,1,0,100,0,0
152741,-89.474884334274,4,1,0,100,0,0
152799,-89.3975092359201,4,1,0,100,0,0
152857,-89.3202010491458,4,1,0,100,0,0
152915,-89.2429597160881,4,1,0,100,0,0
152972,-89.1657851789339,4,1,0,100,0,0
153030,-89.0886773799202,4,1,0,100,0,0
153088,-89.011636261334,4,1,0,100,0,0
153145,-88.934661765512,4,1,0,100,0,0
153203,-88.857753834841,4,1,0,100,0,0
153261,-88.7809124117576,4,1,0,100,0,0
153318,-88.7041374387479,4,1,0,100,0,0
153376,-88.6274288583481,4,1,0,100,0,0
153434,-88.5507866131439,4,1,0,100,0,0
153491,-88.4742106457707,4,1,0,100,0,0
153549,-88.3977008989134,4,1,0,100,0,0
153607,-88.3212573153067,4,1,0,100,0,0
153665,-88.2448798377346,4,1,0,100,0,0
153722,-88.1685684090306,4,1,0,100,0,0
153780,-88.0923229720778,4,1,0,100,0,0
153838,-88.0161434698086,4,1,0,100,0,0
153895,-87.9400298452046,4,1,0,100,0,0
153953,-87.8639820412969,4,1,0,100,0,0
154011,-87.7880000011658,4,1,0,100,0,0
154068,-87.712083667941,4,1,0,100,0,0
154126,-87.6362329848009,4,1,0,100,0,0
154184,-87.5604478949736,4,1,0,100,0,0
154241,-87.484728341736,4,1,0,100,0,0
154299,-87.409074268414,4,1,0,100,0,0
154357,-87.3334856183826,4,1,0,100,0,0
154415,-87.2579623350659,4,1,0,100,0,0
154472,-87.1825043619367,4,1,0,100,0,0
154530,-87.1071116425168,4,1,0,100,0,0
154588,-87.0317841203768,4,1,0,100,0,0
154645,-86.9565217391362,4,1,0,100,0,0
154703,-88.001089572796,4,1,0,100,0,0
154761,-89.0582053089916,4,1,0,100,0,0
154818,-90.1280196797739,4,1,0,100,0,0
154876,-91.2106852278728,4,1,0,100,0,0
154934,-92.3063563284425,4,1,0,100,0,0
154991,-93.4151892110736,4,1,0,100,0,0
155049,-94.5373419820688,4,1,0,100,0,0
155107,-95.672974646988,4,1,0,100,0,0
155165,-96.8222491334625,4,1,0,100,0,0
155222,-97.9853293142842,4,1,0,100,0,0
155280,-99.1623810307717,4,1,0,100,0,0
155338,-71.6087833143826,4,1,0,100,0,0
155395,-101.55907242082,4,1,0,100,0,0
155453,-102.779053833898,4,1,0,100,0,0
155511,-104.013690310407,4,1,0,100,0,0
155570,-64.5161290322581,4,1,0,100,0,1
155684,-97.5609756097561,4,1,0,100,0,1
162030,-80,4,1,0,100,0,1
162145,-97.5609756097561,4,1,0,100,0,1
185107,-80,4,1,0,100,0,1
185222,-97.5609756097561,4,1,0,100,0,1
214647,-97.5609756097561,4,1,0,100,0,0
214703,-97.4237647450925,4,1,0,100,0,0
214761,-97.2867468553481,4,1,0,100,0,0
214818,-97.1499216691208,4,1,0,100,0,0
214876,-97.01328891539,4,1,0,100,0,0
214934,-96.8768483235167,4,1,0,100,0,0
214991,-96.7405996232421,4,1,0,100,0,0
215049,-96.6045425446877,4,1,0,100,0,0
215107,-96.4686768183546,4,1,0,100,0,0
215165,-96.3330021751229,4,1,0,100,0,0
215222,-96.197518346251,4,1,0,100,0,0
215280,-96.0622250633755,4,1,0,100,0,0
215338,-95.9271220585104,4,1,0,100,0,0
215395,-95.7922090640464,4,1,0,100,0,0
215453,-95.6574858127509,4,1,0,100,0,0
215511,-95.5229520377668,4,1,0,100,0,0
215568,-95.3886074726125,4,1,0,100,0,0
215626,-95.2544518511812,4,1,0,100,0,0
215684,-95.1204849077403,4,1,0,100,0,0
215741,-94.9867063769309,4,1,0,100,0,0
215799,-94.8531159937672,4,1,0,100,0,0
215857,-94.7197134936365,4,1,0,100,0,0
215915,-94.5864986122977,4,1,0,100,0,0
215972,-94.4534710858818,4,1,0,100,0,0
216030,-94.3206306508906,4,1,0,100,0,0
216088,-94.1879770441965,4,1,0,100,0,0
216145,-94.0555100030423,4,1,0,100,0,0
216203,-93.9232292650399,4,1,0,100,0,0
216261,-93.7911345681705,4,1,0,100,0,0
216318,-93.6592256507838,4,1,0,100,0,0
216376,-93.5275022515973,4,1,0,100,0,0
216434,-93.3959641096963,4,1,0,100,0,0
216491,-93.2646109645325,4,1,0,100,0,0
216549,-93.1334425559248,4,1,0,100,0,0
216607,-93.0024586240573,4,1,0,100,0,0
216665,-92.8716589094799,4,1,0,100,0,0
216722,-92.7410431531074,4,1,0,100,0,0
216780,-92.6106110962188,4,1,0,100,0,0
216838,-92.4803624804571,4,1,0,100,0,0
216895,-92.3502970478286,4,1,0,100,0,0
216953,-92.2204145407024,4,1,0,100,0,0
217011,-92.0907147018101,4,1,0,100,0,0
217068,-91.961197274245,4,1,0,100,0,0
217126,-91.8318620014616,4,1,0,100,0,0
217184,-91.7027086272755,4,1,0,100,0,0
217241,-91.5737368958625,4,1,0,100,0,0
217299,-91.4449465517579,4,1,0,100,0,0
217357,-91.3163373398567,4,1,0,100,0,0
217415,-91.1879090054125,4,1,0,100,0,0
217472,-91.0596612940372,4,1,0,100,0,0
217530,-90.9315939517004,4,1,0,100,0,0
217588,-90.8037067247291,4,1,0,100,0,0
217645,-90.6759993598069,4,1,0,100,0,0
217703,-90.5484716039739,4,1,0,100,0,0
217761,-90.4211232046258,4,1,0,100,0,0
217818,-90.2939539095135,4,1,0,100,0,0
217876,-90.1669634667429,4,1,0,100,0,0
217934,-90.0401516247739,4,1,0,100,0,0
217991,-89.9135181324205,4,1,0,100,0,0
218049,-89.7870627388496,4,1,0,100,0,0
218107,-89.6607851935811,4,1,0,100,0,0
218165,-89.5346852464871,4,1,0,100,0,0
218222,-89.4087626477916,4,1,0,100,0,0
218280,-89.2830171480697,4,1,0,100,0,0
218338,-89.1574484982474,4,1,0,100,0,0
218395,-89.0320564496011,4,1,0,100,0,0
218453,-88.9068407537568,4,1,0,100,0,0
218511,-88.7818011626899,4,1,0,100,0,0
218568,-88.6569374287247,4,1,0,100,0,0
218626,-88.5322493045338,4,1,0,100,0,0
218684,-88.4077365431375,4,1,0,100,0,0
218741,-88.2833988979037,4,1,0,100,0,0
218799,-88.1592361225469,4,1,0,100,0,0
218857,-88.0352479711283,4,1,0,100,0,0
218915,-87.9114341980546,4,1,0,100,0,0
218972,-87.7877945580783,4,1,0,100,0,0
219030,-87.6643288062965,4,1,0,100,0,0
219088,-87.541036698151,4,1,0,100,0,0
219145,-87.4179179894273,4,1,0,100,0,0
219203,-87.2949724362545,4,1,0,100,0,0
219261,-87.1721997951047,4,1,0,100,0,0
219318,-87.0495998227925,4,1,0,100,0,0
219376,-86.9271722764743,4,1,0,100,0,0
219434,-86.8049169136485,4,1,0,100,0,0
219491,-86.6828334921541,4,1,0,100,0,0
219549,-86.5609217701709,4,1,0,100,0,0
219607,-86.4391815062188,4,1,0,100,0,0
219665,-86.3176124591571,4,1,0,100,0,0
219722,-86.1962143881847,4,1,0,100,0,0
219780,-86.0749870528387,4,1,0,100,0,0
219838,-85.9539302129945,4,1,0,100,0,0
219895,-85.8330436288655,4,1,0,100,0,0
219953,-85.712327061002,4,1,0,100,0,0
220011,-85.5917802702913,4,1,0,100,0,0
220068,-85.4714030179567,4,1,0,100,0,0
220126,-85.3511950655577,4,1,0,100,0,0
220184,-85.2311561749888,4,1,0,100,0,0
220241,-85.1112861084796,4,1,0,100,0,0
220299,-84.991584628594,4,1,0,100,0,0
220357,-84.8720514982298,4,1,0,100,0,0
220415,-84.7526864806184,4,1,0,100,0,0
220472,-84.6334893393241,4,1,0,100,0,0
220530,-84.5144598382437,4,1,0,100,0,0
220588,-84.3955977416062,4,1,0,100,0,0
220645,-84.276902813972,4,1,0,100,0,0
220703,-84.1583748202327,4,1,0,100,0,0
220761,-84.0400135256106,4,1,0,100,0,0
220818,-83.9218186956582,4,1,0,100,0,0
220876,-83.8037900962576,4,1,0,100,0,0
220934,-83.6859274936204,4,1,0,100,0,0
220991,-83.5682306542868,4,1,0,100,0,0
221049,-83.4506993451254,4,1,0,100,0,0
221107,-83.3333333333327,4,1,0,100,0,0
222030,-102.564102564103,4,1,0,100,0,0
222049,-102.38788686143,4,1,0,100,0,0
222068,-102.211973915504,4,1,0,100,0,0
222088,-102.036363206155,4,1,0,100,0,0
222107,-101.86105421411,4,1,0,100,0,0
222126,-101.686046420988,4,1,0,100,0,0
222145,-101.511339309299,4,1,0,100,0,0
222165,-101.336932362439,4,1,0,100,0,0
222184,-101.162825064696,4,1,0,100,0,0
222203,-100.989016901241,4,1,0,100,0,0
222222,-100.815507358131,4,1,0,100,0,0
222241,-100.642295922305,4,1,0,100,0,0
222261,-100.469382081584,4,1,0,100,0,0
222280,-100.296765324668,4,1,0,100,0,0
222299,-100.124445141138,4,1,0,100,0,0
222318,-99.9524210214502,4,1,0,100,0,0
222338,-99.7806924569356,4,1,0,100,0,0
222357,-99.6092589398001,4,1,0,100,0,0
222376,-99.438119963122,4,1,0,100,0,0
222395,-99.2672750208506,4,1,0,100,0,0
222415,-99.0967236078042,4,1,0,100,0,0
222434,-98.9264652196694,4,1,0,100,0,0
222453,-98.7564993529993,4,1,0,100,0,0
222472,-98.5868255052118,4,1,0,100,0,0
222491,-98.4174431745884,4,1,0,100,0,0
222511,-98.2483518602724,4,1,0,100,0,0
222530,-98.079551062268,4,1,0,100,0,0
222549,-97.911040281438,4,1,0,100,0,0
222568,-97.7428190195032,4,1,0,100,0,0
222588,-97.5748867790401,4,1,0,100,0,0
222607,-97.4072430634802,4,1,0,100,0,0
222626,-97.2398873771078,4,1,0,100,0,0
222645,-97.0728192250592,4,1,0,100,0,0
222665,-96.9060381133207,4,1,0,100,0,0
222684,-96.7395435487274,4,1,0,100,0,0
222703,-96.5733350389619,4,1,0,100,0,0
222722,-96.4074120925525,4,1,0,100,0,0
222741,-96.2417742188718,4,1,0,100,0,0
222761,-96.0764209281355,4,1,0,100,0,0
222780,-95.9113517314008,4,1,0,100,0,0
222799,-95.7465661405649,4,1,0,100,0,0
222818,-95.5820636683637,4,1,0,100,0,0
222838,-95.41784382837,4,1,0,100,0,0
222857,-95.2539061349928,4,1,0,100,0,0
222876,-95.0902501034748,4,1,0,100,0,0
222895,-94.9268752498922,4,1,0,100,0,0
222915,-94.7637810911521,4,1,0,100,0,0
222934,-94.6009671449919,4,1,0,100,0,0
222953,-94.4384329299775,4,1,0,100,0,0
222972,-94.2761779655019,4,1,0,100,0,0
222991,-94.114201771784,4,1,0,100,0,0
223011,-93.9525038698668,4,1,0,100,0,0
223030,-93.7910837816163,4,1,0,100,0,0
223049,-93.62994102972,4,1,0,100,0,0
223068,-93.4690751376854,4,1,0,100,0,0
223088,-93.3084856298388,4,1,0,100,0,0
223107,-93.1481720313237,4,1,0,100,0,0
223126,-92.9881338680993,4,1,0,100,0,0
223145,-92.8283706669394,4,1,0,100,0,0
223165,-92.6688819554308,4,1,0,100,0,0
223184,-92.5096672619721,4,1,0,100,0,0
223203,-92.3507261157719,4,1,0,100,0,0
223222,-92.192058046848,4,1,0,100,0,0
223241,-92.0336625860252,4,1,0,100,0,0
223261,-91.8755392649349,4,1,0,100,0,0
223280,-91.7176876160129,4,1,0,100,0,0
223299,-91.5601071724985,4,1,0,100,0,0
223318,-91.4027974684327,4,1,0,100,0,0
223338,-91.2457580386573,4,1,0,100,0,0
223357,-91.0889884188131,4,1,0,100,0,0
223376,-90.932488145339,4,1,0,100,0,0
223395,-90.7762567554701,4,1,0,100,0,0
223415,-90.6202937872365,4,1,0,100,0,0
223434,-90.4645987794623,4,1,0,100,0,0
223453,-90.3091712717639,4,1,0,100,0,0
223472,-90.1540108045483,4,1,0,100,0,0
223491,-89.9991169190127,4,1,0,100,0,0
223511,-89.8444891571421,4,1,0,100,0,0
223530,-89.6901270617087,4,1,0,100,0,0
223549,-89.5360301762702,4,1,0,100,0,0
223568,-89.3821980451684,4,1,0,100,0,0
223588,-89.2286302135281,4,1,0,100,0,0
223607,-89.0753262272555,4,1,0,100,0,0
223626,-88.9222856330372,4,1,0,100,0,0
223645,-71.4285714285714,4,1,0,100,0,0
223665,-88.6169928114018,4,1,0,100,0,0
223684,-88.4647396812466,4,1,0,100,0,0
223703,-88.3127481376664,4,1,0,100,0,0
223722,-88.1610177312286,4,1,0,100,0,0
223741,-88.0095480132726,4,1,0,100,0,0
223761,-87.8583385359088,4,1,0,100,0,0
223780,-87.7073888520169,4,1,0,100,0,0
223799,-87.556698515245,4,1,0,100,0,0
223818,-87.406267080008,4,1,0,100,0,0
223838,-87.2560941014864,4,1,0,100,0,0
223857,-87.1061791356249,4,1,0,100,0,0
223878,-64.5161290322581,4,1,0,100,0,1
224107,-95.2380952380952,4,1,0,100,0,1
229415,-71.4285714285714,4,1,0,100,0,1
229876,-95.2380952380952,4,1,0,100,0,1
233107,-71.4285714285714,4,1,0,100,0,1
233568,-95.2380952380952,4,1,0,100,0,1
244186,461.538461538462,4,1,0,100,1,0
244186,-32.2580645161291,4,1,0,100,0,0
244299,-58.983814807491,4,1,0,100,0,0
244357,-59.064121213776,4,1,0,100,0,0
244414,-59.144536957155,4,1,0,100,0,0
244472,-59.22506218649,4,1,0,100,0,0
244530,-59.305697050846,4,1,0,100,0,0
244587,-59.386441699491,4,1,0,100,0,0
244645,-59.4672962818965,4,1,0,69,0,0
244703,-59.548260947737,4,1,0,69,0,0
244760,-59.629335846891,4,1,0,69,0,0
244818,-59.710521129441,4,1,0,69,0,0
244876,-59.791816945674,4,1,0,69,0,0
244934,-59.8732234460815,4,1,0,69,0,0
244991,-59.95474078136,4,1,0,69,0,0
245049,-60.0363691024105,4,1,0,69,0,0
245107,-60.1181085603405,4,1,0,68,0,0
245164,-60.199959306463,4,1,0,68,0,0
245222,-60.281921492296,4,1,0,68,0,0
245280,-60.3639952695655,4,1,0,68,0,0
245337,-60.4461807902025,4,1,0,68,0,0
245395,-60.5284782063455,4,1,0,68,0,0
245453,-60.61088767034,4,1,0,68,0,0
245510,-60.6934093347395,4,1,0,68,0,0
245568,-60.776043352305,4,1,0,67,0,0
245626,-60.858789876004,4,1,0,67,0,0
245684,-60.941649059015,4,1,0,67,0,0
245741,-61.024621054722,4,1,0,67,0,0
245799,-61.1077060167205,4,1,0,67,0,0
245857,-61.190904098814,4,1,0,67,0,0
245914,-61.2742154550145,4,1,0,67,0,0
245972,-61.3576402395455,4,1,0,67,0,0
246030,-61.441178606839,4,1,0,66,0,0
246087,-61.5248307115385,4,1,0,66,0,0
246145,-61.6085967084965,4,1,0,66,0,0
246203,-61.6924767527775,4,1,0,66,0,0
246260,-61.776470999657,4,1,0,66,0,0
246318,-61.860579604622,4,1,0,66,0,0
246376,-61.94480272337,4,1,0,66,0,0
246434,-62.029140511812,4,1,0,66,0,0
246491,-62.113593126071,4,1,0,65,0,0
246549,-62.198160722482,4,1,0,65,0,0
246607,-62.2828434575925,4,1,0,65,0,0
246664,-62.3676414881645,4,1,0,65,0,0
246722,-62.452554971172,4,1,0,65,0,0
246780,-62.537584063804,4,1,0,65,0,0
246837,-62.6227289234625,4,1,0,65,0,0
246895,-62.7079897077645,4,1,0,65,0,0
246953,-62.793366574541,4,1,0,64,0,0
247010,-62.8788596818385,4,1,0,64,0,0
247068,-62.9644691879175,4,1,0,64,0,0
247126,-63.050195251256,4,1,0,64,0,0
247184,-63.136038030546,4,1,0,64,0,0
247241,-63.221997684696,4,1,0,64,0,0
247299,-63.3080743728315,4,1,0,64,0,0
247357,-63.3942682542935,4,1,0,64,0,0
247414,-63.4805794886415,4,1,0,63,0,0
247472,-63.5670082356505,4,1,0,63,0,0
247530,-63.653554655314,4,1,0,63,0,0
247587,-63.7402189078435,4,1,0,63,0,0
247645,-63.8270011536685,4,1,0,63,0,0
247703,-63.9139015534365,4,1,0,63,0,0
247760,-64.0009202680135,4,1,0,63,0,0
247818,-64.088057458486,4,1,0,63,0,0
247876,-64.175313286158,4,1,0,63,0,0
247934,-64.262687912554,4,1,0,63,0,0
247991,-64.3501814994185,4,1,0,63,0,0
248049,-64.4377942087165,4,1,0,63,0,0
248107,-64.5255262026325,4,1,0,63,0,0
248164,-64.613377643573,4,1,0,63,0,0
248222,-64.701348694164,4,1,0,63,0,0
248280,-64.7894395172545,4,1,0,63,0,0
248337,-64.877650275915,4,1,0,62,0,0
248395,-64.965981133437,4,1,0,62,0,0
248453,-65.0544322533355,4,1,0,62,0,0
248510,-65.1430037993475,4,1,0,62,0,0
248568,-65.231695935433,4,1,0,61,0,0
248626,-65.320508825775,4,1,0,61,0,0
248684,-65.4094426347805,4,1,0,61,0,0
248741,-65.49849752708,4,1,0,61,0,0
248799,-65.5876736675285,4,1,0,61,0,0
248857,-65.6769712212055,4,1,0,61,0,0
248914,-65.7663903534145,4,1,0,61,0,0
248972,-65.8559312296845,4,1,0,61,0,0
249030,-65.9455940157705,4,1,0,61,0,0
249087,-66.035378877652,4,1,0,61,0,0
249145,-66.1252859815355,4,1,0,61,0,0
249203,-66.215315493853,4,1,0,61,0,0
249260,-66.3054675812635,4,1,0,60,0,0
249318,-66.3957424106535,4,1,0,60,0,0
249376,-66.486140149135,4,1,0,60,0,0
249434,-66.5766609640495,4,1,0,60,0,0
249491,-66.667305022965,4,1,0,60,0,0
249549,-66.7580724936785,4,1,0,60,0,0
249607,-66.8489635442145,4,1,0,60,0,0
249664,-66.9399783428275,4,1,0,60,0,0
249722,-67.0311170579995,4,1,0,59,0,0
249780,-67.1223798584435,4,1,0,59,0,0
249837,-67.213766913101,4,1,0,59,0,0
249895,-67.3052783911445,4,1,0,59,0,0
249953,-67.396914461976,4,1,0,59,0,0
250010,-67.4886752952285,4,1,0,59,0,0
250068,-67.5805610607655,4,1,0,59,0,0
250126,-67.672571928683,4,1,0,59,0,0
250184,-67.7647080693075,4,1,0,58,0,0
250241,-67.856969653197,4,1,0,58,0,0
250299,-67.9493568511435,4,1,0,58,0,0
250357,-68.041869834169,4,1,0,58,0,0
250414,-68.1345087735315,4,1,0,57,0,0
250472,-68.227273840719,4,1,0,57,0,0
250530,-68.320165207455,4,1,0,57,0,0
250587,-68.413183045696,4,1,0,57,0,0
250645,-68.506327527633,4,1,0,57,0,0
250703,-68.5995988256915,4,1,0,57,0,0
250760,-68.692997112531,4,1,0,57,0,0
250818,-68.786522561047,4,1,0,57,0,0
250876,-68.88017534437,4,1,0,56,0,0
250934,-68.973955635866,4,1,0,56,0,0
250991,-69.067863609137,4,1,0,56,0,0
251049,-69.1618994380225,4,1,0,56,0,0
251107,-69.256063296597,4,1,0,56,0,0
251164,-69.350355359173,4,1,0,56,0,0
251222,-69.4447758003,4,1,0,56,0,0
251280,-69.5393247947655,4,1,0,56,0,0
251337,-69.634002517595,4,1,0,55,0,0
251395,-69.728809144051,4,1,0,55,0,0
251453,-69.823744849637,4,1,0,55,0,0
251510,-69.9188098100935,4,1,0,55,0,0
251568,-70.0140042014005,4,1,0,55,0,0
251626,-70.1093281997785,4,1,0,55,0,0
251684,-70.2047819816875,4,1,0,55,0,0
251741,-70.300365723827,4,1,0,55,0,0
251799,-70.3960796031385,4,1,0,55,0,0
251857,-70.491923796803,4,1,0,55,0,0
251914,-70.5878984822435,4,1,0,55,0,0
251972,-70.6840038371245,4,1,0,55,0,0
252030,-70.7802400393525,4,1,0,54,0,0
252087,-70.876607267076,4,1,0,54,0,0
252145,-70.973105698686,4,1,0,54,0,0
252203,-71.0697355128165,4,1,0,54,0,0
252260,-71.1664968883445,4,1,0,54,0,0
252318,-71.263390004391,4,1,0,54,0,0
252376,-71.36041504032,4,1,0,54,0,0
252434,-71.457572175741,4,1,0,54,0,0
252491,-71.554861590507,4,1,0,53,0,0
252549,-71.652283464716,4,1,0,53,0,0
252607,-71.749837978712,4,1,0,53,0,0
252664,-71.8475253130835,4,1,0,53,0,0
252722,-71.9453456486655,4,1,0,53,0,0
252780,-72.0432991665385,4,1,0,53,0,0
252837,-72.141386048031,4,1,0,53,0,0
252895,-72.2396064747165,4,1,0,53,0,0
252953,-72.337960628417,4,1,0,52,0,0
253010,-72.436448691202,4,1,0,52,0,0
253068,-72.5350708453885,4,1,0,52,0,0
253126,-72.6338272735415,4,1,0,52,0,0
253184,-72.732718158475,4,1,0,52,0,0
253241,-72.8317436832515,4,1,0,52,0,0
253299,-72.9309040311835,4,1,0,52,0,0
253357,-73.0301993858325,4,1,0,52,0,0
253414,-73.12962993101,4,1,0,51,0,0
253472,-73.229195850778,4,1,0,51,0,0
253530,-73.328897329448,4,1,0,51,0,0
253587,-73.428734551584,4,1,0,51,0,0
253645,-73.5287077020005,4,1,0,51,0,0
253703,-73.628816965764,4,1,0,51,0,0
253760,-73.7290625281925,4,1,0,51,0,0
253818,-73.829444574856,4,1,0,51,0,0
253876,-73.929963291578,4,1,0,50,0,0
253934,-74.030618864435,4,1,0,50,0,0
253991,-74.131411479756,4,1,0,50,0,0
254049,-74.2323413241245,4,1,0,50,0,0
254107,-74.3334085843775,4,1,0,50,0,0
254164,-74.4346134476065,4,1,0,50,0,0
254222,-74.535956101158,4,1,0,50,0,0
254280,-74.6374367326335,4,1,0,50,0,0
254337,-74.73905552989,4,1,0,49,0,0
254395,-74.8408126810395,4,1,0,49,0,0
254453,-74.942708374451,4,1,0,49,0,0
254510,-75.0447427987495,4,1,0,49,0,0
254568,-75.1469161428175,4,1,0,49,0,0
254626,-75.2492285957935,4,1,0,49,0,0
254684,-75.351680347074,4,1,0,49,0,0
254741,-75.454271586314,4,1,0,49,0,0
254799,-75.5570025034265,4,1,0,48,0,0
254857,-75.659873288582,4,1,0,48,0,0
254914,-75.762884132211,4,1,0,48,0,0
254972,-75.8660352250035,4,1,0,48,0,0
255030,-75.9693267579075,4,1,0,48,0,0
255087,-76.0727589221335,4,1,0,48,0,0
255145,-76.1763319091495,4,1,0,48,0,0
255203,-76.2800459106865,4,1,0,48,0,0
255260,-76.383901118735,4,1,0,48,0,0
255318,-76.4878977255485,4,1,0,48,0,0
255376,-76.5920359236405,4,1,0,48,0,0
255414,-76.5920359236405,4,1,0,47,0,0
255434,-76.696315905787,4,1,0,47,0,0
255491,-76.800737865028,4,1,0,47,0,0
255549,-76.9053019946645,4,1,0,47,0,0
255607,-77.010008488261,4,1,0,47,0,0
255664,-77.1148575396465,4,1,0,47,0,0
255722,-77.2198493429135,4,1,0,47,0,0
255780,-77.324984092418,4,1,0,47,0,0
255837,-77.430261982781,4,1,0,47,0,0
255895,-77.5356832088895,4,1,0,47,0,0
255953,-77.641247965894,4,1,0,46,0,0
256010,-77.746956449212,4,1,0,46,0,0
256068,-77.8528088545275,4,1,0,46,0,0
256126,-77.958805377789,4,1,0,46,0,0
256184,-78.0649462152135,4,1,0,46,0,0
256241,-78.1712315632845,4,1,0,46,0,0
256299,-78.2776616187535,4,1,0,46,0,0
256357,-78.384236578639,4,1,0,46,0,0
256414,-78.490956640228,4,1,0,46,0,0
256472,-78.597822001077,4,1,0,46,0,0
256530,-78.7048328590105,4,1,0,46,0,0
256587,-78.8119894121225,4,1,0,46,0,0
256645,-78.919291858777,4,1,0,45,0,0
256703,-79.026740397608,4,1,0,45,0,0
256760,-79.1343352275195,4,1,0,45,0,0
256818,-79.242076547687,4,1,0,45,0,0
256876,-79.349964557557,4,1,0,44,0,0
256934,-79.457999456847,4,1,0,44,0,0
256991,-79.5661814455465,4,1,0,44,0,0
257049,-79.6745107239185,4,1,0,44,0,0
257107,-79.782987492497,4,1,0,44,0,0
257164,-79.89161195209,4,1,0,44,0,0
257222,-80.000384303779,4,1,0,44,0,0
257280,-80.1093047489185,4,1,0,44,0,0
257337,-80.218373489138,4,1,0,43,0,0
257395,-80.3275907263405,4,1,0,43,0,0
257453,-80.436956662705,4,1,0,43,0,0
257510,-80.546471500685,4,1,0,43,0,0
257568,-80.65613544301,4,1,0,43,0,0
257626,-80.7659486926855,4,1,0,43,0,0
257684,-80.875911452993,4,1,0,43,0,0
257741,-80.9860239274915,4,1,0,43,0,0
257799,-81.0962863200165,4,1,0,42,0,0
257857,-81.2066988346815,4,1,0,42,0,0
257914,-81.317261675877,4,1,0,42,0,0
257972,-81.4279750482735,4,1,0,42,0,0
258030,-81.538839156818,4,1,0,42,0,0
258087,-81.649854206738,4,1,0,42,0,0
258145,-81.7610204035405,4,1,0,42,0,0
258203,-81.872337953011,4,1,0,42,0,0
258260,-81.983807061217,4,1,0,41,0,0
258318,-82.0954279345045,4,1,0,41,0,0
258376,-82.207200779502,4,1,0,41,0,0
258434,-82.3191258031195,4,1,0,41,0,0
258491,-82.4312032125465,4,1,0,41,0,0
258549,-82.5434332152575,4,1,0,41,0,0
258607,-82.655816019008,4,1,0,41,0,0
258664,-82.7683518318355,4,1,0,41,0,0
258722,-82.8810408620625,4,1,0,41,0,0
258780,-82.9938833182945,4,1,0,41,0,0
258837,-83.10687940942,4,1,0,41,0,0
258895,-83.2200293446135,4,1,0,41,0,0
258955,461.538461538462,64,1,0,41,1,8
258955,-10000,64,1,0,41,0,8
265414,-10000,64,1,0,40,0,8

[HitObjects]
256,192,497,5,0,1:0:0:0:
256,192,958,1,8,1:0:0:0:
256,192,1189,1,8,1:0:0:0:
256,192,1420,1,0,1:0:0:0:
256,192,1881,1,8,1:0:0:0:
256,192,2343,1,0,1:0:0:0:
256,192,2804,1,8,1:0:0:0:
256,192,3035,1,8,1:0:0:0:
256,192,3266,1,0,1:0:0:0:
256,192,3727,2,0,L|285:192,3,29.3899423953311,0|0|0|0,1:0|1:0|1:0|1:0,1:0:0:0:
256,192,4073,1,8,1:0:0:0:
256,192,4189,1,0,1:0:0:0:
256,192,4650,1,0,1:0:0:0:
256,192,4881,1,8,1:0:0:0:
256,192,5112,1,0,1:0:0:0:
256,192,5573,1,8,1:0:0:0:
256,192,6035,1,0,1:0:0:0:
256,192,6497,1,8,1:0:0:0:
256,192,6727,1,8,1:0:0:0:
256,192,6958,1,0,1:0:0:0:
256,192,7073,1,0,1:0:0:0:
256,192,7189,1,8,1:0:0:0:
256,192,7304,1,0,1:0:0:0:
256,192,7420,1,8,1:0:0:0:
256,192,7535,1,8,1:0:0:0:
256,192,7650,1,8,1:0:0:0:
256,192,7881,1,0,1:0:0:0:
256,192,8112,1,0,1:0:0:0:
256,192,8343,1,8,1:0:0:0:
256,192,8573,1,0,1:0:0:0:
256,192,8804,1,8,1:0:0:0:
256,192,9266,1,8,1:0:0:0:
256,192,9497,1,8,1:0:0:0:
256,192,9727,1,0,1:0:0:0:
256,192,10189,1,8,1:0:0:0:
256,192,10650,1,0,1:0:0:0:
256,192,10881,1,0,1:0:0:0:
256,192,11112,2,0,L|288:192,3,32.8315790965185,0|0|0|0,1:0|1:0|1:0|1:0,1:0:0:0:
256,192,11497,1,8,1:0:0:0:
256,192,11573,1,0,1:0:0:0:
256,192,11727,1,0,1:0:0:0:
256,192,11881,1,0,1:0:0:0:
256,192,12035,1,8,1:0:0:0:
256,192,12266,1,8,1:0:0:0:
256,192,12497,1,0,1:0:0:0:
256,192,12958,1,8,1:0:0:0:
256,192,13189,1,8,1:0:0:0:
256,192,13420,1,0,1:0:0:0:
256,192,13535,1,8,1:0:0:0:
256,192,13650,1,0,1:0:0:0:
256,192,13881,1,8,1:0:0:0:
256,192,14112,1,8,1:0:0:0:
256,192,14227,1,8,1:0:0:0:
256,192,14343,1,0,1:0:0:0:
256,192,14458,1,8,1:0:0:0:
256,192,14573,1,0,1:0:0:0:
256,192,14689,1,0,1:0:0:0:
256,192,14804,1,8,1:0:0:0:
256,192,15035,1,8,1:0:0:0:
256,192,15266,1,0,1:0:0:0:
256,192,15727,1,8,1:0:0:0:
256,192,15958,1,8,1:0:0:0:
256,192,16112,1,8,1:0:0:0:
256,192,16189,1,0,1:0:0:0:
256,192,16420,1,0,1:0:0:0:
256,192,16650,1,8,1:0:0:0:
256,192,16881,1,8,1:0:0:0:
256,192,17112,1,0,1:0:0:0:
256,192,17573,1,8,1:0:0:0:
256,192,17804,1,8,1:0:0:0:
256,192,17958,1,8,1:0:0:0:
256,192,18035,1,0,1:0:0:0:
256,192,18189,1,8,1:0:0:0:
256,192,18266,1,0,1:0:0:0:
256,192,18497,2,0,L|292:192,3,36.6762401733117,0|0|0|0,1:0|1:0|1:0|1:0,1:0:0:0:
256,192,18843,1,8,1:0:0:0:
256,192,18958,1,0,1:0:0:0:
256,192,19420,1,8,1:0:0:0:
256,192,19650,1,8,1:0:0:0:
256,192,19804,1,8,1:0:0:0:
256,192,19881,1,0,1:0:0:0:
256,192,20112,1,0,1:0:0:0:
256,192,20343,1,8,1:0:0:0:
256,192,20573,1,8,1:0:0:0:
256,192,20804,1,0,1:0:0:0:
256,192,21266,1,8,1:0:0:0:
256,192,21497,1,8,1:0:0:0:
256,192,21727,1,0,1:0:0:0:
256,192,21843,1,0,1:0:0:0:
256,192,21958,1,8,1:0:0:0:
256,192,22073,1,0,1:0:0:0:
256,192,22189,1,8,1:0:0:0:
256,192,22304,1,8,1:0:0:0:
256,192,22420,1,8,1:0:0:0:
256,192,22650,1,0,1:0:0:0:
256,192,23112,1,8,1:0:0:0:
256,192,23343,1,8,1:0:0:0:
256,192,23497,1,8,1:0:0:0:
256,192,23573,1,0,1:0:0:0:
256,192,23804,1,0,1:0:0:0:
256,192,24035,1,8,1:0:0:0:
256,192,24266,1,8,1:0:0:0:
256,192,24497,1,0,1:0:0:0:
256,192,24958,1,0,1:0:0:0:
256,192,25189,1,8,1:0:0:0:
256,192,25420,1,0,1:0:0:0:
256,192,25650,1,0,1:0:0:0:
256,192,25881,2,0,L|296:192,3,40.9356902494339,0|0|0|0,1:0|1:0|1:0|1:0,1:0:0:0:
256,192,26266,1,8,1:0:0:0:
256,192,26343,1,0,1:0:0:0:
256,192,26497,1,0,1:0:0:0:
256,192,26650,1,0,1:0:0:0:
256,192,26804,1,8,1:0:0:0:
256,192,27035,1,8,1:0:0:0:
256,192,27189,1,8,1:0:0:0:
256,192,27266,1,0,1:0:0:0:
256,192,27727,1,8,1:0:0:0:
256,192,27958,1,8,1:0:0:0:
256,192,28189,1,0,1:0:0:0:
256,192,28304,1,8,1:0:0:0:
256,192,28420,1,0,1:0:0:0:
256,192,28650,1,8,1:0:0:0:
256,192,28881,1,8,1:0:0:0:
256,192,29112,1,0,1:0:0:0:
256,192,29227,1,0,1:0:0:0:
256,192,29343,1,0,1:0:0:0:
256,192,29458,1,0,1:0:0:0:
256,192,29573,1,8,1:0:0:0:
256,192,29689,1,0,1:0:0:0:
256,192,29804,1,8,1:0:0:0:
256,192,29920,1,8,1:0:0:0:
256,192,30035,1,4,1:0:0:0:
256,192,30265,1,0,1:0:0:0:
256,192,30323,1,0,1:0:0:0:
256,192,30381,1,0,1:0:0:0:
256,192,30438,1,0,1:0:0:0:
256,192,30496,1,8,1:0:0:0:
256,192,30611,1,0,1:0:0:0:
256,192,30727,1,8,1:0:0:0:
256,192,30842,1,8,1:0:0:0:
256,192,30900,1,8,1:0:0:0:
256,192,30958,1,0,1:0:0:0:
256,192,31073,1,8,1:0:0:0:
256,192,31188,1,0,1:0:0:0:
256,192,31304,1,0,1:0:0:0:
256,192,31419,1,8,1:0:0:0:
256,192,31477,1,8,1:0:0:0:
256,192,31535,1,0,1:0:0:0:
256,192,31592,1,0,1:0:0:0:
256,192,31650,1,8,1:0:0:0:
256,192,31765,1,0,1:0:0:0:
256,192,31881,1,12,1:0:0:0:
256,192,32111,1,0,1:0:0:0:
256,192,32169,1,0,1:0:0:0:
256,192,32227,1,0,1:0:0:0:
256,192,32285,1,0,1:0:0:0:
256,192,32342,1,8,1:0:0:0:
256,192,32458,1,0,1:0:0:0:
256,192,32573,1,8,1:0:0:0:
256,192,32688,1,8,1:0:0:0:
256,192,32804,1,0,1:0:0:0:
256,192,32919,1,0,1:0:0:0:
256,192,32977,1,0,1:0:0:0:
256,192,33035,1,8,1:0:0:0:
256,192,33150,1,0,1:0:0:0:
256,192,33265,1,8,1:0:0:0:
256,192,33323,1,8,1:0:0:0:
256,192,33381,1,0,1:0:0:0:
256,192,33438,1,0,1:0:0:0:
256,192,33496,1,8,1:0:0:0:
256,192,33611,1,8,1:0:0:0:
256,192,33727,1,4,1:0:0:0:
256,192,33958,1,8,1:0:0:0:
256,192,34015,1,0,1:0:0:0:
256,192,34073,1,8,1:0:0:0:
256,192,34131,1,0,1:0:0:0:
256,192,34188,1,8,1:0:0:0:
256,192,34304,1,0,1:0:0:0:
256,192,34419,1,8,1:0:0:0:
256,192,34535,1,8,1:0:0:0:
256,192,34650,1,0,1:0:0:0:
256,192,34765,1,0,1:0:0:0:
256,192,34823,1,0,1:0:0:0:
256,192,34881,1,8,1:0:0:0:
256,192,34996,1,0,1:0:0:0:
256,192,35111,1,8,1:0:0:0:
256,192,35169,1,8,1:0:0:0:
256,192,35227,1,0,1:0:0:0:
256,192,35342,1,8,1:0:0:0:
256,192,35458,1,8,1:0:0:0:
256,192,35573,1,4,1:0:0:0:
256,192,35804,1,8,1:0:0:0:
256,192,35861,1,8,1:0:0:0:
256,192,35919,1,0,1:0:0:0:
256,192,35977,1,0,1:0:0:0:
256,192,36035,1,8,1:0:0:0:
256,192,36150,1,0,1:0:0:0:
256,192,36265,1,8,1:0:0:0:
256,192,36381,1,8,1:0:0:0:
256,192,36438,1,8,1:0:0:0:
256,192,36496,1,0,1:0:0:0:
256,192,36611,1,0,1:0:0:0:
256,192,36727,1,8,1:0:0:0:
256,192,36842,1,0,1:0:0:0:
256,192,36900,1,0,1:0:0:0:
256,192,36958,1,8,1:0:0:0:
256,192,37073,1,8,1:0:0:0:
256,192,37188,1,0,1:0:0:0:
256,192,37304,1,0,1:0:0:0:
256,192,37419,1,12,1:0:0:0:
256,192,37650,1,8,1:0:0:0:
256,192,37708,1,8,1:0:0:0:
256,192,37765,1,0,1:0:0:0:
256,192,37823,1,0,1:0:0:0:
256,192,37881,1,8,1:0:0:0:
256,192,37996,1,0,1:0:0:0:
256,192,38054,1,0,1:0:0:0:
256,192,38111,1,8,1:0:0:0:
256,192,38227,1,0,1:0:0:0:
256,192,38342,1,12,1:0:0:0:
256,192,38573,1,0,1:0:0:0:
256,192,38631,1,0,1:0:0:0:
256,192,38688,1,0,1:0:0:0:
256,192,38746,1,0,1:0:0:0:
256,192,38804,1,8,1:0:0:0:
256,192,38919,1,0,1:0:0:0:
256,192,38977,1,0,1:0:0:0:
256,192,39035,1,8,1:0:0:0:
256,192,39150,1,0,1:0:0:0:
256,192,39265,1,12,1:0:0:0:
256,192,39496,1,8,1:0:0:0:
256,192,39554,1,8,1:0:0:0:
256,192,39611,1,0,1:0:0:0:
256,192,39669,1,0,1:0:0:0:
256,192,39727,1,8,1:0:0:0:
256,192,39842,1,0,1:0:0:0:
256,192,39900,1,0,1:0:0:0:
256,192,39958,1,8,1:0:0:0:
256,192,40073,1,0,1:0:0:0:
256,192,40188,1,12,1:0:0:0:
256,192,40419,1,0,1:0:0:0:
256,192,40477,1,0,1:0:0:0:
256,192,40535,1,0,1:0:0:0:
256,192,40592,1,0,1:0:0:0:
256,192,40650,1,8,1:0:0:0:
256,192,40765,1,0,1:0:0:0:
256,192,40823,1,0,1:0:0:0:
256,192,40881,1,8,1:0:0:0:
256,192,40996,1,0,1:0:0:0:
256,192,41111,1,8,1:0:0:0:
256,192,41169,1,8,1:0:0:0:
256,192,41227,1,0,1:0:0:0:
256,192,41285,1,0,1:0:0:0:
256,192,41342,1,8,1:0:0:0:
256,192,41458,1,0,1:0:0:0:
256,192,41573,1,8,1:0:0:0:
256,192,41631,1,8,1:0:0:0:
256,192,41688,1,0,1:0:0:0:
256,192,41746,1,0,1:0:0:0:
256,192,41804,1,8,1:0:0:0:
256,192,41919,1,0,1:0:0:0:
256,192,42035,1,8,1:0:0:0:
256,192,42150,1,0,1:0:0:0:
256,192,42208,1,0,1:0:0:0:
256,192,42265,1,8,1:0:0:0:
256,192,42381,1,0,1:0:0:0:
256,192,42496,1,8,1:0:0:0:
256,192,42727,1,0,1:0:0:0:
256,192,42958,1,8,1:0:0:0:
256,192,43015,1,0,1:0:0:0:
256,192,43073,1,8,1:0:0:0:
256,192,43131,1,0,1:0:0:0:
256,192,43188,1,8,1:0:0:0:
256,192,43246,1,8,1:0:0:0:
256,192,43304,1,0,1:0:0:0:
256,192,43361,1,0,1:0:0:0:
256,192,43419,1,8,1:0:0:0:
256,192,43477,1,8,1:0:0:0:
256,192,43535,1,8,1:0:0:0:
256,192,43592,1,0,1:0:0:0:
256,192,43650,1,8,1:0:0:0:
256,192,43708,1,8,1:0:0:0:
256,192,43765,1,0,1:0:0:0:
256,192,43823,1,0,1:0:0:0:
256,192,43881,1,8,1:0:0:0:
256,192,44111,1,0,1:0:0:0:
256,192,44169,1,0,1:0:0:0:
256,192,44227,1,0,1:0:0:0:
256,192,44285,1,0,1:0:0:0:
256,192,44342,1,8,1:0:0:0:
256,192,44458,1,0,1:0:0:0:
256,192,44573,1,12,1:0:0:0:
256,192,44804,1,4,1:0:0:0:
256,192,45035,1,0,1:0:0:0:
256,192,45092,1,0,1:0:0:0:
256,192,45150,1,8,1:0:0:0:
256,192,45208,1,0,1:0:0:0:
256,192,45265,1,8,1:0:0:0:
256,192,45323,1,8,1:0:0:0:
256,192,45381,1,0,1:0:0:0:
256,192,45438,1,0,1:0:0:0:
256,192,45496,1,8,1:0:0:0:
256,192,45525,1,8,1:0:0:0:
256,192,45611,1,0,1:0:0:0:
256,192,45640,1,0,1:0:0:0:
256,192,45727,1,8,1:0:0:0:
256,192,45842,1,0,1:0:0:0:
256,192,45900,1,0,1:0:0:0:
256,192,45958,1,8,1:0:0:0:
256,192,46073,1,0,1:0:0:0:
256,192,46188,1,8,1:0:0:0:
256,192,46246,1,0,1:0:0:0:
256,192,46304,1,8,1:0:0:0:
256,192,46361,1,0,1:0:0:0:
256,192,46419,1,8,1:0:0:0:
256,192,46448,1,8,1:0:0:0:
256,192,46535,1,0,1:0:0:0:
256,192,46563,1,0,1:0:0:0:
256,192,46650,1,8,1:0:0:0:
256,192,46765,1,8,1:0:0:0:
256,192,46881,1,0,1:0:0:0:
256,192,46919,1,8,1:0:0:0:
256,192,46958,1,8,1:0:0:0:
256,192,46996,1,0,1:0:0:0:
256,192,47111,1,8,1:0:0:0:
256,192,47150,1,8,1:0:0:0:
256,192,47188,1,8,1:0:0:0:
256,192,47227,1,0,1:0:0:0:
256,192,47342,1,0,1:0:0:0:
256,192,47381,1,0,1:0:0:0:
256,192,47419,1,0,1:0:0:0:
256,192,47458,1,8,1:0:0:0:
256,192,47573,1,0,1:0:0:0:
256,192,47631,1,0,1:0:0:0:
256,192,47688,1,8,1:0:0:0:
256,192,47746,1,0,1:0:0:0:
256,192,47804,1,8,1:0:0:0:
256,192,47861,1,8,1:0:0:0:
256,192,47919,1,0,1:0:0:0:
256,192,47977,1,8,1:0:0:0:
256,192,48035,1,0,1:0:0:0:
256,192,48092,1,0,1:0:0:0:
256,192,48150,1,8,1:0:0:0:
256,192,48208,1,0,1:0:0:0:
256,192,48265,1,8,1:0:0:0:
256,192,48294,1,8,1:0:0:0:
256,192,48381,1,0,1:0:0:0:
256,192,48410,1,0,1:0:0:0:
256,192,48496,1,8,1:0:0:0:
256,192,48611,1,0,1:0:0:0:
256,192,48669,1,0,1:0:0:0:
256,192,48727,1,8,1:0:0:0:
256,192,48765,1,8,1:0:0:0:
256,192,48804,1,8,1:0:0:0:
256,192,48842,1,0,1:0:0:0:
256,192,48900,1,0,1:0:0:0:
256,192,48958,1,8,1:0:0:0:
256,192,49073,1,0,1:0:0:0:
256,192,49131,1,0,1:0:0:0:
256,192,49188,1,8,1:0:0:0:
256,192,49217,1,8,1:0:0:0:
256,192,49304,1,0,1:0:0:0:
256,192,49361,1,0,1:0:0:0:
256,192,49419,1,8,1:0:0:0:
256,192,49477,1,0,1:0:0:0:
256,192,49535,1,8,1:0:0:0:
256,192,49592,1,0,1:0:0:0:
256,192,49650,1,8,1:0:0:0:
256,192,49765,1,0,1:0:0:0:
256,192,49881,1,8,1:0:0:0:
256,192,49996,1,0,1:0:0:0:
256,192,50054,1,0,1:0:0:0:
256,192,50111,1,8,1:0:0:0:
256,192,50169,1,8,1:0:0:0:
256,192,50227,1,0,1:0:0:0:
256,192,50265,1,0,1:0:0:0:
256,192,50304,1,0,1:0:0:0:
256,192,50342,1,8,1:0:0:0:
256,192,50458,1,0,1:0:0:0:
256,192,50515,1,0,1:0:0:0:
256,192,50573,1,8,1:0:0:0:
256,192,50631,1,0,1:0:0:0:
256,192,50688,1,8,1:0:0:0:
256,192,50746,1,8,1:0:0:0:
256,192,50804,1,0,1:0:0:0:
256,192,50833,1,0,1:0:0:0:
256,192,50919,1,0,1:0:0:0:
256,192,50948,1,0,1:0:0:0:
256,192,51035,1,8,1:0:0:0:
256,192,51063,1,8,1:0:0:0:
256,192,51150,1,0,1:0:0:0:
256,192,51179,1,0,1:0:0:0:
256,192,51265,1,8,1:0:0:0:
256,192,51323,1,8,1:0:0:0:
256,192,51381,1,0,1:0:0:0:
256,192,51419,1,0,1:0:0:0:
256,192,51458,1,0,1:0:0:0:
256,192,51496,1,8,1:0:0:0:
256,192,51611,1,0,1:0:0:0:
256,192,51727,1,8,1:0:0:0:
256,192,51785,1,0,1:0:0:0:
256,192,51842,1,8,1:0:0:0:
256,192,51900,1,0,1:0:0:0:
256,192,51958,1,8,1:0:0:0:
256,192,52015,1,8,1:0:0:0:
256,192,52073,1,0,1:0:0:0:
256,192,52131,1,0,1:0:0:0:
256,192,52188,1,8,1:0:0:0:
256,192,52227,1,8,1:0:0:0:
256,192,52265,1,8,1:0:0:0:
256,192,52304,1,0,1:0:0:0:
256,192,52419,1,8,1:0:0:0:
256,192,52535,1,0,1:0:0:0:
256,192,52650,1,0,1:0:0:0:
256,192,52688,1,0,1:0:0:0:
256,192,52727,1,0,1:0:0:0:
256,192,52765,1,8,1:0:0:0:
256,192,52881,1,0,1:0:0:0:
256,192,52996,1,0,1:0:0:0:
256,192,53111,1,8,1:0:0:0:
256,192,53150,1,8,1:0:0:0:
256,192,53188,1,8,1:0:0:0:
256,192,53227,1,0,1:0:0:0:
256,192,53342,1,8,1:0:0:0:
256,192,53458,1,0,1:0:0:0:
256,192,53573,1,8,1:0:0:0:
256,192,53631,1,8,1:0:0:0:
256,192,53688,1,0,1:0:0:0:
256,192,53746,1,0,1:0:0:0:
256,192,53804,1,8,1:0:0:0:
256,192,53861,1,0,1:0:0:0:
256,192,53919,1,8,1:0:0:0:
256,192,53977,1,8,1:0:0:0:
256,192,54035,1,0,1:0:0:0:
256,192,54073,1,0,1:0:0:0:
256,192,54111,1,0,1:0:0:0:
256,192,54150,1,8,1:0:0:0:
256,192,54265,1,8,1:0:0:0:
256,192,54304,1,8,1:0:0:0:
256,192,54342,1,8,1:0:0:0:
256,192,54381,1,0,1:0:0:0:
256,192,54496,1,8,1:0:0:0:
256,192,54535,1,0,1:0:0:0:
256,192,54573,1,0,1:0:0:0:
256,192,54611,1,8,1:0:0:0:
256,192,54727,1,0,1:0:0:0:
256,192,54756,1,8,1:0:0:0:
256,192,54842,1,0,1:0:0:0:
256,192,54871,1,8,1:0:0:0:
256,192,54958,1,0,1:0:0:0:
256,192,55015,1,0,1:0:0:0:
256,192,55073,1,8,1:0:0:0:
256,192,55131,1,0,1:0:0:0:
256,192,55188,1,8,1:0:0:0:
256,192,55246,1,8,1:0:0:0:
256,192,55304,1,0,1:0:0:0:
256,192,55361,1,0,1:0:0:0:
256,192,55419,1,8,1:0:0:0:
256,192,55477,1,0,1:0:0:0:
256,192,55535,1,8,1:0:0:0:
256,192,55592,1,8,1:0:0:0:
256,192,55650,1,0,1:0:0:0:
256,192,55765,1,0,1:0:0:0:
256,192,55881,1,8,1:0:0:0:
256,192,55919,1,8,1:0:0:0:
256,192,55958,1,8,1:0:0:0:
256,192,55996,1,0,1:0:0:0:
256,192,56111,1,8,1:0:0:0:
256,192,56150,1,8,1:0:0:0:
256,192,56188,1,8,1:0:0:0:
256,192,56227,1,0,1:0:0:0:
256,192,56342,1,8,1:0:0:0:
256,192,56400,1,8,1:0:0:0:
256,192,56458,1,0,1:0:0:0:
256,192,56515,1,8,1:0:0:0:
256,192,56573,1,0,1:0:0:0:
256,192,56602,1,0,1:0:0:0:
256,192,56688,1,0,1:0:0:0:
256,192,56717,1,0,1:0:0:0:
256,192,56804,1,8,1:0:0:0:
256,192,56919,1,0,1:0:0:0:
256,192,56977,1,0,1:0:0:0:
256,192,57035,1,8,1:0:0:0:
256,192,57092,1,8,1:0:0:0:
256,192,57150,1,0,1:0:0:0:
256,192,57188,1,0,1:0:0:0:
256,192,57227,1,0,1:0:0:0:
256,192,57265,1,8,1:0:0:0:
256,192,57381,1,0,1:0:0:0:
256,192,57438,1,0,1:0:0:0:
256,192,57496,1,8,1:0:0:0:
256,192,57554,1,8,1:0:0:0:
256,192,57611,1,0,1:0:0:0:
256,192,57650,1,0,1:0:0:0:
256,192,57688,1,0,1:0:0:0:
256,192,57727,1,8,1:0:0:0:
256,192,57842,1,0,1:0:0:0:
256,192,57958,1,8,1:0:0:0:
256,192,57996,1,8,1:0:0:0:
256,192,58035,1,8,1:0:0:0:
256,192,58073,1,0,1:0:0:0:
256,192,58188,1,8,1:0:0:0:
256,192,58304,1,0,1:0:0:0:
256,192,58419,1,8,1:0:0:0:
256,192,58458,1,8,1:0:0:0:
256,192,58496,1,8,1:0:0:0:
256,192,58535,1,0,1:0:0:0:
256,192,58650,1,8,1:0:0:0:
256,192,58765,1,0,1:0:0:0:
256,192,58823,1,0,1:0:0:0:
256,192,58881,1,8,1:0:0:0:
256,192,58938,1,0,1:0:0:0:
256,192,58996,1,8,1:0:0:0:
256,192,59054,1,0,1:0:0:0:
256,192,59111,1,8,1:0:0:0:
256,192,59227,1,0,1:0:0:0:
256,192,59285,1,8,1:0:0:0:
256,192,59400,1,0,1:0:0:0:
256,192,59458,1,8,1:0:0:0:
256,192,59573,1,4,1:0:0:0:
256,192,59746,1,0,1:0:0:0:
256,192,59804,1,0,1:0:0:0:
256,192,59919,1,0,1:0:0:0:
256,192,60035,1,8,1:0:0:0:
256,192,60150,1,0,1:0:0:0:
256,192,60208,1,8,1:0:0:0:
256,192,60265,1,0,1:0:0:0:
256,192,60381,1,8,1:0:0:0:
256,192,60496,1,0,1:0:0:0:
256,192,60611,1,0,1:0:0:0:
256,192,60669,1,0,1:0:0:0:
256,192,60727,1,8,1:0:0:0:
256,192,60842,1,0,1:0:0:0:
256,192,60900,1,8,1:0:0:0:
256,192,60958,1,0,1:0:0:0:
256,192,61073,1,0,1:0:0:0:
256,192,61188,1,12,1:0:0:0:
256,192,61419,1,4,1:0:0:0:
256,192,61535,1,0,1:0:0:0:
256,192,61592,1,0,1:0:0:0:
256,192,61650,1,8,1:0:0:0:
256,192,61765,1,0,1:0:0:0:
256,192,61881,1,8,1:0:0:0:
256,192,61996,1,0,1:0:0:0:
256,192,62054,1,8,1:0:0:0:
256,192,62111,1,0,1:0:0:0:
256,192,62227,1,8,1:0:0:0:
256,192,62342,1,0,1:0:0:0:
256,192,62458,1,8,1:0:0:0:
256,192,62515,1,0,1:0:0:0:
256,192,62573,1,8,1:0:0:0:
256,192,62631,1,8,1:0:0:0:
256,192,62688,1,0,1:0:0:0:
256,192,62746,1,0,1:0:0:0:
256,192,62804,1,8,1:0:0:0:
256,192,62919,1,0,1:0:0:0:
256,192,63035,1,12,1:0:0:0:
256,192,63265,1,4,1:0:0:0:
256,192,63496,1,8,1:0:0:0:
256,192,63535,1,8,1:0:0:0:
256,192,63573,1,8,1:0:0:0:
256,192,63611,1,0,1:0:0:0:
256,192,63727,1,8,1:0:0:0:
256,192,63756,1,8,1:0:0:0:
256,192,63842,1,8,1:0:0:0:
256,192,63871,1,8,1:0:0:0:
256,192,63958,1,8,1:0:0:0:
256,192,63986,1,8,1:0:0:0:
256,192,64073,1,8,1:0:0:0:
256,192,64102,1,8,1:0:0:0:
256,192,64188,1,0,1:0:0:0:
256,192,64217,1,0,1:0:0:0:
256,192,64304,1,8,1:0:0:0:
256,192,64333,1,8,1:0:0:0:
256,192,64419,1,0,1:0:0:0:
256,192,64477,1,0,1:0:0:0:
256,192,64535,1,8,1:0:0:0:
256,192,64592,1,0,1:0:0:0:
256,192,64650,1,8,1:0:0:0:
256,192,64708,1,8,1:0:0:0:
256,192,64765,1,0,1:0:0:0:
256,192,64794,1,0,1:0:0:0:
256,192,64881,1,8,1:0:0:0:
256,192,64910,1,8,1:0:0:0:
256,192,64996,1,8,1:0:0:0:
256,192,65025,1,8,1:0:0:0:
256,192,65111,1,4,1:0:0:0:
256,192,65342,1,8,1:0:0:0:
256,192,65458,1,0,1:0:0:0:
256,192,65515,1,0,1:0:0:0:
256,192,65573,1,8,1:0:0:0:
256,192,65631,1,0,1:0:0:0:
256,192,65688,1,8,1:0:0:0:
256,192,65727,1,8,1:0:0:0:
256,192,65765,1,8,1:0:0:0:
256,192,65804,1,0,1:0:0:0:
256,192,65919,1,0,1:0:0:0:
256,192,66035,1,8,1:0:0:0:
256,192,66092,1,8,1:0:0:0:
256,192,66150,1,0,1:0:0:0:
256,192,66208,1,0,1:0:0:0:
256,192,66265,1,8,1:0:0:0:
256,192,66323,1,8,1:0:0:0:
256,192,66381,1,0,1:0:0:0:
256,192,66438,1,8,1:0:0:0:
256,192,66496,1,0,1:0:0:0:
256,192,66554,1,0,1:0:0:0:
256,192,66611,1,8,1:0:0:0:
256,192,66669,1,0,1:0:0:0:
256,192,66727,1,8,1:0:0:0:
256,192,66842,1,8,1:0:0:0:
256,192,66958,1,4,1:0:0:0:
256,192,67188,1,8,1:0:0:0:
256,192,67304,1,0,1:0:0:0:
256,192,67361,1,0,1:0:0:0:
256,192,67419,1,8,1:0:0:0:
256,192,67535,1,0,1:0:0:0:
256,192,67592,1,8,1:0:0:0:
256,192,67650,1,0,1:0:0:0:
256,192,67765,1,8,1:0:0:0:
256,192,67881,1,0,1:0:0:0:
256,192,67996,1,8,1:0:0:0:
256,192,68054,1,0,1:0:0:0:
256,192,68111,1,8,1:0:0:0:
256,192,68169,1,8,1:0:0:0:
256,192,68227,1,0,1:0:0:0:
256,192,68285,1,0,1:0:0:0:
256,192,68342,1,8,1:0:0:0:
256,192,68400,1,8,1:0:0:0:
256,192,68458,1,0,1:0:0:0:
256,192,68515,1,0,1:0:0:0:
256,192,68573,1,0,1:0:0:0:
256,192,68688,1,0,1:0:0:0:
256,192,68804,1,12,1:0:0:0:
256,192,69035,1,0,1:0:0:0:
256,192,69150,1,0,1:0:0:0:
256,192,69265,1,8,1:0:0:0:
256,192,69381,1,0,1:0:0:0:
256,192,69438,1,8,1:0:0:0:
256,192,69496,1,0,1:0:0:0:
256,192,69611,1,8,1:0:0:0:
256,192,69669,1,8,1:0:0:0:
256,192,69727,1,0,1:0:0:0:
256,192,69785,1,0,1:0:0:0:
256,192,69842,1,8,1:0:0:0:
256,192,69900,1,0,1:0:0:0:
256,192,69958,1,8,1:0:0:0:
256,192,70073,1,0,1:0:0:0:
256,192,70188,1,8,1:0:0:0:
256,192,70246,1,0,1:0:0:0:
256,192,70304,1,8,1:0:0:0:
256,192,70361,1,0,1:0:0:0:
256,192,70419,1,8,1:0:0:0:
256,192,70535,1,8,1:0:0:0:
256,192,70650,1,4,1:0:0:0:
256,192,70881,1,8,1:0:0:0:
256,192,70938,1,8,1:0:0:0:
256,192,70996,1,8,1:0:0:0:
256,192,71054,1,8,1:0:0:0:
256,192,71111,1,0,1:0:0:0:
256,192,71169,1,8,1:0:0:0:
256,192,71227,1,8,1:0:0:0:
256,192,71285,1,8,1:0:0:0:
256,192,71342,1,0,1:0:0:0:
256,192,71458,1,0,1:0:0:0:
256,192,71573,1,8,1:0:0:0:
256,192,71611,1,8,1:0:0:0:
256,192,71650,1,8,1:0:0:0:
256,192,71688,1,0,1:0:0:0:
256,192,71804,1,8,1:0:0:0:
256,192,71842,1,8,1:0:0:0:
256,192,71881,1,8,1:0:0:0:
256,192,71919,1,0,1:0:0:0:
256,192,72035,1,8,1:0:0:0:
256,192,72150,1,0,1:0:0:0:
256,192,72188,1,0,1:0:0:0:
256,192,72227,1,0,1:0:0:0:
256,192,72265,1,8,1:0:0:0:
256,192,72381,1,8,1:0:0:0:
256,192,72496,1,0,1:0:0:0:
256,192,72554,1,0,1:0:0:0:
256,192,72611,1,8,1:0:0:0:
256,192,72669,1,0,1:0:0:0:
256,192,72727,1,8,1:0:0:0:
256,192,72842,1,0,1:0:0:0:
256,192,72958,1,8,1:0:0:0:
256,192,72986,1,0,1:0:0:0:
256,192,73073,1,8,1:0:0:0:
256,192,73102,1,0,1:0:0:0:
256,192,73188,1,8,1:0:0:0:
256,192,73217,1,0,1:0:0:0:
256,192,73304,1,8,1:0:0:0:
256,192,73361,1,8,1:0:0:0:
256,192,73419,1,0,1:0:0:0:
256,192,73477,1,0,1:0:0:0:
256,192,73535,1,0,1:0:0:0:
256,192,73650,1,8,1:0:0:0:
256,192,73765,1,0,1:0:0:0:
256,192,73881,1,8,1:0:0:0:
256,192,73910,1,8,1:0:0:0:
256,192,73996,1,8,1:0:0:0:
256,192,74025,1,8,1:0:0:0:
256,192,74111,1,0,1:0:0:0:
256,192,74140,1,0,1:0:0:0:
256,192,74227,1,8,1:0:0:0:
256,192,74256,1,8,1:0:0:0:
256,192,74342,1,4,1:0:0:0:
256,192,74573,1,8,1:0:0:0:
256,192,74631,1,8,1:0:0:0:
256,192,74688,1,8,1:0:0:0:
256,192,74746,1,8,1:0:0:0:
256,192,74804,1,0,1:0:0:0:
256,192,74861,1,8,1:0:0:0:
256,192,74919,1,8,1:0:0:0:
256,192,74977,1,8,1:0:0:0:
256,192,75035,1,0,1:0:0:0:
256,192,75150,1,0,1:0:0:0:
256,192,75265,1,8,1:0:0:0:
256,192,75304,1,8,1:0:0:0:
256,192,75342,1,8,1:0:0:0:
256,192,75381,1,0,1:0:0:0:
256,192,75496,1,8,1:0:0:0:
256,192,75535,1,8,1:0:0:0:
256,192,75573,1,8,1:0:0:0:
256,192,75611,1,0,1:0:0:0:
256,192,75727,1,8,1:0:0:0:
256,192,75842,1,0,1:0:0:0:
256,192,75881,1,0,1:0:0:0:
256,192,75919,1,0,1:0:0:0:
256,192,75958,1,8,1:0:0:0:
256,192,76073,1,8,1:0:0:0:
256,192,76188,1,0,1:0:0:0:
256,192,76246,1,0,1:0:0:0:
256,192,76304,1,8,1:0:0:0:
256,192,76361,1,0,1:0:0:0:
256,192,76419,1,8,1:0:0:0:
256,192,76535,1,0,1:0:0:0:
256,192,76650,1,8,1:0:0:0:
256,192,76679,1,0,1:0:0:0:
256,192,76765,1,8,1:0:0:0:
256,192,76794,1,0,1:0:0:0:
256,192,76881,1,8,1:0:0:0:
256,192,76910,1,0,1:0:0:0:
256,192,76996,1,8,1:0:0:0:
256,192,77054,1,8,1:0:0:0:
256,192,77111,1,0,1:0:0:0:
256,192,77169,1,0,1:0:0:0:
256,192,77227,1,0,1:0:0:0:
256,192,77342,1,8,1:0:0:0:
256,192,77400,1,0,1:0:0:0:
256,192,77458,1,8,1:0:0:0:
256,192,77515,1,0,1:0:0:0:
256,192,77573,1,8,1:0:0:0:
256,192,77631,1,8,1:0:0:0:
256,192,77688,1,0,1:0:0:0:
256,192,77746,1,0,1:0:0:0:
256,192,77804,1,8,1:0:0:0:
256,192,77919,1,8,1:0:0:0:
256,192,78035,1,4,1:0:0:0:
256,192,78496,1,8,1:0:0:0:
256,192,78554,1,8,1:0:0:0:
256,192,78611,1,8,1:0:0:0:
256,192,78669,1,8,1:0:0:0:
256,192,78727,1,8,1:0:0:0:
256,192,78785,1,8,1:0:0:0:
256,192,78842,1,8,1:0:0:0:
256,192,78900,1,8,1:0:0:0:
256,192,78958,1,0,1:0:0:0:
256,192,79015,1,8,1:0:0:0:
256,192,79073,1,8,1:0:0:0:
256,192,79131,1,8,1:0:0:0:
256,192,79188,1,8,1:0:0:0:
256,192,79246,1,8,1:0:0:0:
256,192,79304,1,8,1:0:0:0:
256,192,79361,1,8,1:0:0:0:
256,192,79419,1,0,1:0:0:0:
256,192,79477,1,0,1:0:0:0:
256,192,79535,1,8,1:0:0:0:
256,192,79592,1,0,1:0:0:0:
256,192,79650,1,8,1:0:0:0:
256,192,79765,1,0,1:0:0:0:
256,192,79881,1,8,1:0:0:0:
256,192,79910,1,8,1:0:0:0:
256,192,79996,1,0,1:0:0:0:
256,192,80025,1,0,1:0:0:0:
256,192,80111,1,8,1:0:0:0:
256,192,80140,1,8,1:0:0:0:
256,192,80227,1,8,1:0:0:0:
256,192,80256,1,8,1:0:0:0:
256,192,80342,1,0,1:0:0:0:
256,192,80371,1,0,1:0:0:0:
256,192,80458,1,8,1:0:0:0:
256,192,80486,1,8,1:0:0:0:
256,192,80573,1,8,1:0:0:0:
256,192,80602,1,8,1:0:0:0:
256,192,80688,1,8,1:0:0:0:
256,192,80746,1,8,1:0:0:0:
256,192,80804,1,0,1:0:0:0:
256,192,80861,1,8,1:0:0:0:
256,192,80919,1,8,1:0:0:0:
256,192,81035,1,0,1:0:0:0:
256,192,81092,1,0,1:0:0:0:
256,192,81150,1,8,1:0:0:0:
256,192,81208,1,8,1:0:0:0:
256,192,81265,1,0,1:0:0:0:
256,192,81323,1,0,1:0:0:0:
256,192,81381,1,8,1:0:0:0:
256,192,81438,1,0,1:0:0:0:
256,192,81496,1,8,1:0:0:0:
256,192,81611,1,0,1:0:0:0:
256,192,81669,1,0,1:0:0:0:
256,192,81727,1,8,1:0:0:0:
256,192,81842,1,0,1:0:0:0:
256,192,81958,1,8,1:0:0:0:
256,192,81996,1,8,1:0:0:0:
256,192,82035,1,8,1:0:0:0:
256,192,82073,1,0,1:0:0:0:
256,192,82188,1,8,1:0:0:0:
256,192,82246,1,8,1:0:0:0:
256,192,82304,1,8,1:0:0:0:
256,192,82361,1,8,1:0:0:0:
256,192,82419,1,8,1:0:0:0:
256,192,82477,1,8,1:0:0:0:
256,192,82535,1,8,1:0:0:0:
256,192,82592,1,8,1:0:0:0:
256,192,82650,1,0,1:0:0:0:
256,192,82708,1,8,1:0:0:0:
256,192,82765,1,8,1:0:0:0:
256,192,82823,1,8,1:0:0:0:
256,192,82881,1,0,1:0:0:0:
256,192,82938,1,0,1:0:0:0:
256,192,82996,1,8,1:0:0:0:
256,192,83054,1,0,1:0:0:0:
256,192,83111,1,8,1:0:0:0:
256,192,83227,1,0,1:0:0:0:
256,192,83285,1,0,1:0:0:0:
256,192,83342,1,8,1:0:0:0:
256,192,83381,1,8,1:0:0:0:
256,192,83419,1,8,1:0:0:0:
256,192,83458,1,0,1:0:0:0:
256,192,83573,1,8,1:0:0:0:
256,192,83602,1,8,1:0:0:0:
256,192,83688,1,0,1:0:0:0:
256,192,83717,1,0,1:0:0:0:
256,192,83804,1,8,1:0:0:0:
256,192,83833,1,8,1:0:0:0:
256,192,83919,1,8,1:0:0:0:
256,192,83948,1,8,1:0:0:0:
256,192,84035,1,0,1:0:0:0:
256,192,84063,1,0,1:0:0:0:
256,192,84150,1,8,1:0:0:0:
256,192,84179,1,8,1:0:0:0:
256,192,84265,1,8,1:0:0:0:
256,192,84294,1,8,1:0:0:0:
256,192,84381,1,8,1:0:0:0:
256,192,84438,1,8,1:0:0:0:
256,192,84496,1,0,1:0:0:0:
256,192,84554,1,0,1:0:0:0:
256,192,84611,1,8,1:0:0:0:
256,192,84669,1,0,1:0:0:0:
256,192,84727,1,8,1:0:0:0:
256,192,84842,1,0,1:0:0:0:
256,192,84900,1,0,1:0:0:0:
256,192,84958,1,8,1:0:0:0:
256,192,85015,1,0,1:0:0:0:
256,192,85073,1,8,1:0:0:0:
256,192,85111,1,8,1:0:0:0:
256,192,85150,1,8,1:0:0:0:
256,192,85188,1,0,1:0:0:0:
256,192,85304,1,8,1:0:0:0:
256,192,85419,1,4,1:0:0:0:
256,192,85649,1,8,1:0:0:0:
256,192,85880,1,8,1:0:0:0:
256,192,86111,1,0,1:0:0:0:
256,192,86226,1,8,1:0:0:0:
256,192,86342,1,0,1:0:0:0:
256,192,86457,1,0,1:0:0:0:
256,192,86572,1,8,1:0:0:0:
256,192,86688,1,0,1:0:0:0:
256,192,86803,1,8,1:0:0:0:
256,192,87034,1,8,1:0:0:0:
256,192,87265,1,4,1:0:0:0:
256,192,87495,1,8,1:0:0:0:
256,192,87726,1,8,1:0:0:0:
256,192,87957,1,0,1:0:0:0:
256,192,88072,1,0,1:0:0:0:
256,192,88188,1,8,1:0:0:0:
256,192,88303,1,0,1:0:0:0:
256,192,88419,1,8,1:0:0:0:
256,192,88534,1,8,1:0:0:0:
256,192,88649,1,0,1:0:0:0:
256,192,88880,1,8,1:0:0:0:
256,192,89111,1,4,1:0:0:0:
256,192,89341,1,8,1:0:0:0:
256,192,89457,1,0,1:0:0:0:
256,192,89572,1,8,1:0:0:0:
256,192,89803,1,8,1:0:0:0:
256,192,90034,1,4,1:0:0:0:
256,192,90264,1,8,1:0:0:0:
256,192,90380,1,0,1:0:0:0:
256,192,90495,1,8,1:0:0:0:
256,192,90726,1,8,1:0:0:0:
256,192,90957,1,4,1:0:0:0:
256,192,91187,1,8,1:0:0:0:
256,192,91303,1,8,1:0:0:0:
256,192,91418,1,4,1:0:0:0:
256,192,91649,1,8,1:0:0:0:
256,192,91764,1,8,1:0:0:0:
256,192,91880,1,0,1:0:0:0:
256,192,91937,1,0,1:0:0:0:
256,192,91995,1,8,1:0:0:0:
256,192,92053,1,0,1:0:0:0:
256,192,92111,1,8,1:0:0:0:
256,192,92226,1,0,1:0:0:0:
256,192,92341,1,8,1:0:0:0:
256,192,92572,1,8,1:0:0:0:
256,192,92803,1,4,1:0:0:0:
256,192,93034,1,8,1:0:0:0:
256,192,93149,1,0,1:0:0:0:
256,192,93264,1,8,1:0:0:0:
256,192,93322,1,8,1:0:0:0:
256,192,93380,1,0,1:0:0:0:
256,192,93437,1,0,1:0:0:0:
256,192,93495,1,8,1:0:0:0:
256,192,93553,1,0,1:0:0:0:
256,192,93611,1,8,1:0:0:0:
256,192,93649,1,8,1:0:0:0:
256,192,93687,1,8,1:0:0:0:
256,192,93726,1,0,1:0:0:0:
256,192,93841,1,8,1:0:0:0:
256,192,93899,1,0,1:0:0:0:
256,192,93957,1,8,1:0:0:0:
256,192,94014,1,8,1:0:0:0:
256,192,94072,1,0,1:0:0:0:
256,192,94130,1,0,1:0:0:0:
256,192,94187,1,8,1:0:0:0:
256,192,94303,1,0,1:0:0:0:
256,192,94361,1,0,1:0:0:0:
256,192,94418,1,8,1:0:0:0:
256,192,94534,1,8,1:0:0:0:
256,192,94649,1,0,1:0:0:0:
256,192,94707,1,0,1:0:0:0:
256,192,94764,1,0,1:0:0:0:
256,192,94822,1,0,1:0:0:0:
256,192,94880,1,8,1:0:0:0:
256,192,94995,1,0,1:0:0:0:
256,192,95111,1,8,1:0:0:0:
256,192,95168,1,8,1:0:0:0:
256,192,95226,1,0,1:0:0:0:
256,192,95284,1,8,1:0:0:0:
256,192,95341,1,0,1:0:0:0:
256,192,95380,1,0,1:0:0:0:
256,192,95418,1,0,1:0:0:0:
256,192,95457,1,8,1:0:0:0:
256,192,95514,1,8,1:0:0:0:
256,192,95572,1,0,1:0:0:0:
256,192,95687,1,8,1:0:0:0:
256,192,95745,1,0,1:0:0:0:
256,192,95803,1,8,1:0:0:0:
256,192,95861,1,8,1:0:0:0:
256,192,95918,1,0,1:0:0:0:
256,192,95976,1,0,1:0:0:0:
256,192,96034,1,8,1:0:0:0:
256,192,96149,1,0,1:0:0:0:
256,192,96264,1,8,1:0:0:0:
256,192,96495,1,0,1:0:0:0:
256,192,96611,1,0,1:0:0:0:
256,192,96726,1,8,1:0:0:0:
256,192,96784,1,8,1:0:0:0:
256,192,96841,1,0,1:0:0:0:
256,192,96899,1,0,1:0:0:0:
256,192,96957,1,8,1:0:0:0:
256,192,97072,1,0,1:0:0:0:
256,192,97187,1,8,1:0:0:0:
256,192,97245,1,0,1:0:0:0:
256,192,97303,1,8,1:0:0:0:
256,192,97361,1,8,1:0:0:0:
256,192,97418,1,0,1:0:0:0:
256,192,97534,1,0,1:0:0:0:
256,192,97649,1,8,1:0:0:0:
256,192,97707,1,8,1:0:0:0:
256,192,97764,1,0,1:0:0:0:
256,192,97822,1,0,1:0:0:0:
256,192,97880,1,8,1:0:0:0:
256,192,97995,1,0,1:0:0:0:
256,192,98111,1,8,1:0:0:0:
256,192,98168,1,8,1:0:0:0:
256,192,98226,1,0,1:0:0:0:
256,192,98284,1,8,1:0:0:0:
256,192,98341,1,0,1:0:0:0:
256,192,98399,1,0,1:0:0:0:
256,192,98457,1,8,1:0:0:0:
256,192,98514,1,0,1:0:0:0:
256,192,98572,1,8,1:0:0:0:
256,192,98687,1,0,1:0:0:0:
256,192,98745,1,0,1:0:0:0:
256,192,98803,1,8,1:0:0:0:
256,192,98861,1,8,1:0:0:0:
256,192,98918,1,0,1:0:0:0:
256,192,98976,1,0,1:0:0:0:
256,192,99034,1,8,1:0:0:0:
256,192,99091,1,0,1:0:0:0:
256,192,99149,1,8,1:0:0:0:
256,192,99264,1,0,1:0:0:0:
256,192,99380,1,8,1:0:0:0:
256,192,99437,1,0,1:0:0:0:
256,192,99495,1,8,1:0:0:0:
256,192,99611,1,0,1:0:0:0:
256,192,99668,1,0,1:0:0:0:
256,192,99726,1,8,1:0:0:0:
256,192,99755,1,8,1:0:0:0:
256,192,99841,1,0,1:0:0:0:
256,192,99870,1,0,1:0:0:0:
256,192,99957,1,8,1:0:0:0:
256,192,99986,1,8,1:0:0:0:
256,192,100072,1,8,1:0:0:0:
256,192,100101,1,8,1:0:0:0:
256,192,100187,1,4,1:0:0:0:
256,192,100418,1,8,1:0:0:0:
256,192,100476,1,8,1:0:0:0:
256,192,100534,1,0,1:0:0:0:
256,192,100591,1,0,1:0:0:0:
256,192,100649,1,8,1:0:0:0:
256,192,100764,1,0,1:0:0:0:
256,192,100822,1,0,1:0:0:0:
256,192,100880,1,8,1:0:0:0:
256,192,100918,1,8,1:0:0:0:
256,192,100957,1,8,1:0:0:0:
256,192,100995,1,0,1:0:0:0:
256,192,101053,1,8,1:0:0:0:
256,192,101111,1,0,1:0:0:0:
256,192,101226,1,0,1:0:0:0:
256,192,101341,1,8,1:0:0:0:
256,192,101399,1,8,1:0:0:0:
256,192,101457,1,0,1:0:0:0:
256,192,101514,1,0,1:0:0:0:
256,192,101572,1,8,1:0:0:0:
256,192,101687,1,0,1:0:0:0:
256,192,101803,1,8,1:0:0:0:
256,192,101861,1,0,1:0:0:0:
256,192,101918,1,8,1:0:0:0:
256,192,101976,1,8,1:0:0:0:
256,192,102034,1,0,1:0:0:0:
256,192,102149,1,0,1:0:0:0:
256,192,102264,1,8,1:0:0:0:
256,192,102322,1,8,1:0:0:0:
256,192,102380,1,0,1:0:0:0:
256,192,102437,1,0,1:0:0:0:
256,192,102495,1,8,1:0:0:0:
256,192,102611,1,0,1:0:0:0:
256,192,102668,1,0,1:0:0:0:
256,192,102726,1,8,1:0:0:0:
256,192,102764,1,8,1:0:0:0:
256,192,102803,1,8,1:0:0:0:
256,192,102841,1,0,1:0:0:0:
256,192,102899,1,8,1:0:0:0:
256,192,102957,1,0,1:0:0:0:
256,192,103072,1,0,1:0:0:0:
256,192,103187,1,8,1:0:0:0:
256,192,103245,1,8,1:0:0:0:
256,192,103303,1,0,1:0:0:0:
256,192,103361,1,0,1:0:0:0:
256,192,103418,1,8,1:0:0:0:
256,192,103534,1,0,1:0:0:0:
256,192,103649,1,8,1:0:0:0:
256,192,103687,1,8,1:0:0:0:
256,192,103726,1,8,1:0:0:0:
256,192,103764,1,8,1:0:0:0:
256,192,103803,1,8,1:0:0:0:
256,192,103841,1,8,1:0:0:0:
256,192,103880,1,0,1:0:0:0:
256,192,103995,1,0,1:0:0:0:
256,192,104111,1,8,1:0:0:0:
256,192,104168,1,0,1:0:0:0:
256,192,104226,1,8,1:0:0:0:
256,192,104284,1,0,1:0:0:0:
256,192,104341,1,8,1:0:0:0:
256,192,104457,1,0,1:0:0:0:
256,192,104572,1,8,1:0:0:0:
256,192,104630,1,8,1:0:0:0:
256,192,104687,1,0,1:0:0:0:
256,192,104745,1,0,1:0:0:0:
256,192,104803,1,8,1:0:0:0:
256,192,104918,1,0,1:0:0:0:
256,192,105034,1,8,1:0:0:0:
256,192,105091,1,0,1:0:0:0:
256,192,105149,1,8,1:0:0:0:
256,192,105207,1,0,1:0:0:0:
256,192,105264,1,8,1:0:0:0:
256,192,105322,1,8,1:0:0:0:
256,192,105380,1,0,1:0:0:0:
256,192,105437,1,0,1:0:0:0:
256,192,105495,1,8,1:0:0:0:
256,192,105553,1,0,1:0:0:0:
256,192,105611,1,8,1:0:0:0:
256,192,105668,1,8,1:0:0:0:
256,192,105726,1,0,1:0:0:0:
256,192,105784,1,0,1:0:0:0:
256,192,105841,1,0,1:0:0:0:
256,192,105957,1,8,1:0:0:0:
256,192,106072,1,0,1:0:0:0:
256,192,106130,1,0,1:0:0:0:
256,192,106187,1,8,1:0:0:0:
256,192,106303,1,0,1:0:0:0:
256,192,106418,1,8,1:0:0:0:
256,192,106476,1,8,1:0:0:0:
256,192,106534,1,0,1:0:0:0:
256,192,106591,1,0,1:0:0:0:
256,192,106649,1,8,1:0:0:0:
256,192,106764,1,0,1:0:0:0:
256,192,106822,1,8,1:0:0:0:
256,192,106880,1,0,1:0:0:0:
256,192,106937,1,0,1:0:0:0:
256,192,106995,1,8,1:0:0:0:
256,192,107053,1,0,1:0:0:0:
256,192,107111,1,8,1:0:0:0:
256,192,107341,1,0,1:0:0:0:
256,192,107457,1,0,1:0:0:0:
256,192,107514,1,0,1:0:0:0:
256,192,107572,1,0,1:0:0:0:
256,192,107803,1,0,1:0:0:0:
256,192,107861,1,0,1:0:0:0:
256,192,107918,1,0,1:0:0:0:
256,192,107976,1,0,1:0:0:0:
256,192,108034,1,8,1:0:0:0:
256,192,108091,1,0,1:0:0:0:
256,192,108149,1,8,1:0:0:0:
256,192,108264,1,8,1:0:0:0:
256,192,108322,1,8,1:0:0:0:
256,192,108380,1,0,1:0:0:0:
256,192,108437,1,8,1:0:0:0:
256,192,108495,1,0,1:0:0:0:
256,192,108553,1,0,1:0:0:0:
256,192,108611,1,0,1:0:0:0:
256,192,108726,1,8,1:0:0:0:
256,192,108784,1,8,1:0:0:0:
256,192,108841,1,0,1:0:0:0:
256,192,108957,1,8,1:0:0:0:
256,192,109014,1,0,1:0:0:0:
256,192,109072,1,8,1:0:0:0:
256,192,109187,1,0,1:0:0:0:
256,192,109245,1,0,1:0:0:0:
256,192,109303,1,8,1:0:0:0:
256,192,109361,1,0,1:0:0:0:
256,192,109418,1,8,1:0:0:0:
256,192,109476,1,8,1:0:0:0:
256,192,109534,1,8,1:0:0:0:
256,192,109649,1,0,1:0:0:0:
256,192,109707,1,0,1:0:0:0:
256,192,109764,1,8,1:0:0:0:
256,192,109822,1,0,1:0:0:0:
256,192,109880,1,8,1:0:0:0:
256,192,109995,1,8,1:0:0:0:
256,192,110111,1,0,1:0:0:0:
256,192,110168,1,0,1:0:0:0:
256,192,110226,1,0,1:0:0:0:
256,192,110284,1,0,1:0:0:0:
256,192,110341,1,8,1:0:0:0:
256,192,110399,1,8,1:0:0:0:
256,192,110457,1,8,1:0:0:0:
256,192,110514,1,8,1:0:0:0:
256,192,110572,1,0,1:0:0:0:
256,192,110630,1,0,1:0:0:0:
256,192,110687,1,8,1:0:0:0:
256,192,110745,1,0,1:0:0:0:
256,192,110803,1,8,1:0:0:0:
256,192,110918,1,8,1:0:0:0:
256,192,111034,1,0,1:0:0:0:
256,192,111091,1,0,1:0:0:0:
256,192,111149,1,8,1:0:0:0:
256,192,111207,1,0,1:0:0:0:
256,192,111264,1,8,1:0:0:0:
256,192,111322,1,8,1:0:0:0:
256,192,111380,1,0,1:0:0:0:
256,192,111495,1,8,1:0:0:0:
256,192,111553,1,0,1:0:0:0:
256,192,111611,1,8,1:0:0:0:
256,192,111726,1,0,1:0:0:0:
256,192,111784,1,0,1:0:0:0:
256,192,111841,1,8,1:0:0:0:
256,192,111899,1,0,1:0:0:0:
256,192,111957,1,8,1:0:0:0:
256,192,112014,1,8,1:0:0:0:
256,192,112072,1,0,1:0:0:0:
256,192,112130,1,0,1:0:0:0:
256,192,112187,1,8,1:0:0:0:
256,192,112245,1,0,1:0:0:0:
256,192,112303,1,8,1:0:0:0:
256,192,112361,1,8,1:0:0:0:
256,192,112418,1,0,1:0:0:0:
256,192,112534,1,0,1:0:0:0:
256,192,112649,1,8,1:0:0:0:
256,192,112707,1,0,1:0:0:0:
256,192,112764,1,8,1:0:0:0:
256,192,112822,1,0,1:0:0:0:
256,192,112880,1,8,1:0:0:0:
256,192,112937,1,8,1:0:0:0:
256,192,112995,1,0,1:0:0:0:
256,192,113053,1,8,1:0:0:0:
256,192,113111,1,0,1:0:0:0:
256,192,113226,1,0,1:0:0:0:
256,192,113341,1,8,1:0:0:0:
256,192,113399,1,8,1:0:0:0:
256,192,113457,1,0,1:0:0:0:
256,192,113514,1,0,1:0:0:0:
256,192,113572,1,8,1:0:0:0:
256,192,113803,1,8,1:0:0:0:
256,192,113918,1,8,1:0:0:0:
256,192,114034,1,0,1:0:0:0:
256,192,114091,1,0,1:0:0:0:
256,192,114149,1,0,1:0:0:0:
256,192,114264,1,8,1:0:0:0:
256,192,114380,1,0,1:0:0:0:
256,192,114495,1,8,1:0:0:0:
256,192,114611,1,8,1:0:0:0:
256,192,114726,1,0,1:0:0:0:
256,192,114957,1,4,1:0:0:0:
256,192,115187,1,8,1:0:0:0:
256,192,115303,1,8,1:0:0:0:
256,192,115418,1,0,1:0:0:0:
256,192,115534,1,8,1:0:0:0:
256,192,115649,1,0,1:0:0:0:
256,192,115707,1,0,1:0:0:0:
256,192,115764,1,8,1:0:0:0:
256,192,115822,1,8,1:0:0:0:
256,192,115880,1,0,1:0:0:0:
256,192,115937,1,0,1:0:0:0:
256,192,115995,1,8,1:0:0:0:
256,192,116111,1,0,1:0:0:0:
256,192,116226,1,0,1:0:0:0:
256,192,116341,1,8,1:0:0:0:
256,192,116457,1,0,1:0:0:0:
256,192,116572,1,12,1:0:0:0:
256,192,116803,1,8,1:0:0:0:
256,192,116832,1,8,1:0:0:0:
256,192,116918,1,0,1:0:0:0:
256,192,116947,1,0,1:0:0:0:
256,192,117034,1,8,1:0:0:0:
256,192,117091,1,8,1:0:0:0:
256,192,117149,1,8,1:0:0:0:
256,192,117207,1,0,1:0:0:0:
256,192,117264,1,8,1:0:0:0:
256,192,117322,1,8,1:0:0:0:
256,192,117380,1,0,1:0:0:0:
256,192,117437,1,0,1:0:0:0:
256,192,117495,1,8,1:0:0:0:
256,192,117524,1,8,1:0:0:0:
256,192,117611,1,0,1:0:0:0:
256,192,117639,1,0,1:0:0:0:
256,192,117726,1,8,1:0:0:0:
256,192,117784,1,0,1:0:0:0:
256,192,117841,1,8,1:0:0:0:
256,192,117899,1,0,1:0:0:0:
256,192,117957,1,8,1:0:0:0:
256,192,118014,1,8,1:0:0:0:
256,192,118072,1,0,1:0:0:0:
256,192,118130,1,0,1:0:0:0:
256,192,118187,1,8,1:0:0:0:
256,192,118216,1,8,1:0:0:0:
256,192,118303,1,0,1:0:0:0:
256,192,118332,1,0,1:0:0:0:
256,192,118418,1,8,1:0:0:0:
256,192,118476,1,8,1:0:0:0:
256,192,118534,1,8,1:0:0:0:
256,192,118591,1,8,1:0:0:0:
256,192,118649,1,0,1:0:0:0:
256,192,118707,1,0,1:0:0:0:
256,192,118764,1,8,1:0:0:0:
256,192,118822,1,0,1:0:0:0:
256,192,118880,1,8,1:0:0:0:
256,192,118937,1,0,1:0:0:0:
256,192,118995,1,8,1:0:0:0:
256,192,119111,1,0,1:0:0:0:
256,192,119168,1,0,1:0:0:0:
256,192,119226,1,8,1:0:0:0:
256,192,119284,1,0,1:0:0:0:
256,192,119341,1,8,1:0:0:0:
256,192,119399,1,8,1:0:0:0:
256,192,119457,1,0,1:0:0:0:
256,192,119514,1,0,1:0:0:0:
256,192,119572,1,8,1:0:0:0:
256,192,119687,1,8,1:0:0:0:
256,192,119803,1,0,1:0:0:0:
256,192,119861,1,0,1:0:0:0:
256,192,119918,1,8,1:0:0:0:
256,192,120034,1,0,1:0:0:0:
256,192,120091,1,0,1:0:0:0:
256,192,120149,1,8,1:0:0:0:
256,192,120207,1,0,1:0:0:0:
256,192,120264,1,8,1:0:0:0:
256,192,120322,1,8,1:0:0:0:
256,192,120380,1,8,1:0:0:0:
256,192,120437,1,8,1:0:0:0:
256,192,120495,1,0,1:0:0:0:
256,192,120726,1,8,1:0:0:0:
256,192,120784,1,8,1:0:0:0:
256,192,120841,1,8,1:0:0:0:
256,192,120899,1,8,1:0:0:0:
256,192,120957,1,0,1:0:0:0:
256,192,121072,1,0,1:0:0:0:
256,192,121187,1,8,1:0:0:0:
256,192,121245,1,8,1:0:0:0:
256,192,121303,1,0,1:0:0:0:
256,192,121361,1,8,1:0:0:0:
256,192,121418,1,0,1:0:0:0:
256,192,121476,1,0,1:0:0:0:
256,192,121534,1,0,1:0:0:0:
256,192,121591,1,0,1:0:0:0:
256,192,121649,1,8,1:0:0:0:
256,192,121707,1,8,1:0:0:0:
256,192,121764,1,0,1:0:0:0:
256,192,121822,1,0,1:0:0:0:
256,192,121880,1,8,1:0:0:0:
256,192,121995,1,0,1:0:0:0:
256,192,122111,1,12,1:0:0:0:
256,192,122341,1,4,1:0:0:0:
256,192,126033,1,12,1:0:0:0:
256,192,129725,1,4,1:0:0:0:
256,192,131571,1,0,1:0:0:0:
256,192,131686,1,8,1:0:0:0:
256,192,131801,1,8,1:0:0:0:
256,192,131917,1,0,1:0:0:0:
256,192,132032,1,8,1:0:0:0:
256,192,132090,1,8,1:0:0:0:
256,192,132147,1,8,1:0:0:0:
256,192,132205,1,8,1:0:0:0:
256,192,132263,1,0,1:0:0:0:
256,192,132378,1,8,1:0:0:0:
256,192,132494,1,0,1:0:0:0:
256,192,132551,1,0,1:0:0:0:
256,192,132609,1,8,1:0:0:0:
256,192,132667,1,0,1:0:0:0:
256,192,132724,1,8,1:0:0:0:
256,192,132782,1,8,1:0:0:0:
256,192,132840,1,0,1:0:0:0:
256,192,132897,1,0,1:0:0:0:
256,192,132955,1,8,1:0:0:0:
256,192,133071,1,0,1:0:0:0:
256,192,133186,1,8,1:0:0:0:
256,192,133301,1,8,1:0:0:0:
256,192,133417,1,4,1:0:0:0:
256,192,133647,1,8,1:0:0:0:
256,192,133763,1,0,1:0:0:0:
256,192,133820,1,0,1:0:0:0:
256,192,133878,1,8,1:0:0:0:
256,192,133993,1,0,1:0:0:0:
256,192,134109,1,8,1:0:0:0:
256,192,134167,1,0,1:0:0:0:
256,192,134224,1,8,1:0:0:0:
256,192,134282,1,8,1:0:0:0:
256,192,134340,1,0,1:0:0:0:
256,192,134455,1,8,1:0:0:0:
256,192,134513,1,0,1:0:0:0:
256,192,134570,1,8,1:0:0:0:
256,192,134686,1,0,1:0:0:0:
256,192,134801,1,8,1:0:0:0:
256,192,134859,1,8,1:0:0:0:
256,192,134917,1,0,1:0:0:0:
256,192,134974,1,0,1:0:0:0:
256,192,135032,1,8,1:0:0:0:
256,192,135147,1,0,1:0:0:0:
256,192,135263,1,8,1:0:0:0:
256,192,135378,1,0,1:0:0:0:
256,192,135436,1,8,1:0:0:0:
256,192,135551,1,0,1:0:0:0:
256,192,135609,1,8,1:0:0:0:
256,192,135667,1,0,1:0:0:0:
256,192,135724,1,8,1:0:0:0:
256,192,135840,1,0,1:0:0:0:
256,192,135897,1,0,1:0:0:0:
256,192,135955,1,8,1:0:0:0:
256,192,136013,1,0,1:0:0:0:
256,192,136070,1,8,1:0:0:0:
256,192,136128,1,8,1:0:0:0:
256,192,136186,1,0,1:0:0:0:
256,192,136301,1,8,1:0:0:0:
256,192,136359,1,0,1:0:0:0:
256,192,136417,1,8,1:0:0:0:
256,192,136532,1,0,1:0:0:0:
256,192,136647,1,8,1:0:0:0:
256,192,136705,1,8,1:0:0:0:
256,192,136763,1,0,1:0:0:0:
256,192,136820,1,0,1:0:0:0:
256,192,136878,1,8,1:0:0:0:
256,192,136993,1,8,1:0:0:0:
256,192,137109,1,0,1:0:0:0:
256,192,137224,1,8,1:0:0:0:
256,192,137282,1,8,1:0:0:0:
256,192,137340,1,0,1:0:0:0:
256,192,137397,1,0,1:0:0:0:
256,192,137455,1,8,1:0:0:0:
256,192,137513,1,0,1:0:0:0:
256,192,137570,1,8,1:0:0:0:
256,192,137628,1,8,1:0:0:0:
256,192,137686,1,8,1:0:0:0:
256,192,137743,1,8,1:0:0:0:
256,192,137801,1,0,1:0:0:0:
256,192,137917,1,8,1:0:0:0:
256,192,138032,1,0,1:0:0:0:
256,192,138070,1,0,1:0:0:0:
256,192,138109,1,0,1:0:0:0:
256,192,138147,1,0,1:0:0:0:
256,192,138263,1,8,1:0:0:0:
256,192,138301,1,8,1:0:0:0:
256,192,138340,1,8,1:0:0:0:
256,192,138378,1,0,1:0:0:0:
256,192,138493,1,8,1:0:0:0:
256,192,138551,1,8,1:0:0:0:
256,192,138609,1,0,1:0:0:0:
256,192,138667,1,0,1:0:0:0:
256,192,138724,1,8,1:0:0:0:
256,192,138840,1,8,1:0:0:0:
256,192,138955,1,0,1:0:0:0:
256,192,139070,1,0,1:0:0:0:
256,192,139186,1,8,1:0:0:0:
256,192,139243,1,8,1:0:0:0:
256,192,139301,1,0,1:0:0:0:
256,192,139359,1,0,1:0:0:0:
256,192,139417,1,8,1:0:0:0:
256,192,139474,1,8,1:0:0:0:
256,192,139532,1,8,1:0:0:0:
256,192,139590,1,8,1:0:0:0:
256,192,139647,1,8,1:0:0:0:
256,192,139763,1,8,1:0:0:0:
256,192,139878,1,0,1:0:0:0:
256,192,139917,1,0,1:0:0:0:
256,192,139955,1,0,1:0:0:0:
256,192,139993,1,8,1:0:0:0:
256,192,140109,1,0,1:0:0:0:
256,192,140147,1,0,1:0:0:0:
256,192,140186,1,0,1:0:0:0:
256,192,140224,1,0,1:0:0:0:
256,192,140340,1,8,1:0:0:0:
256,192,140397,1,8,1:0:0:0:
256,192,140455,1,0,1:0:0:0:
256,192,140513,1,0,1:0:0:0:
256,192,140570,1,8,1:0:0:0:
256,192,140686,1,0,1:0:0:0:
256,192,140801,1,8,1:0:0:0:
256,192,141032,1,0,1:0:0:0:
256,192,141090,1,0,1:0:0:0:
256,192,141147,1,0,1:0:0:0:
256,192,141205,1,0,1:0:0:0:
256,192,141263,1,8,1:0:0:0:
256,192,141378,1,8,1:0:0:0:
256,192,141493,1,0,1:0:0:0:
256,192,141609,1,8,1:0:0:0:
256,192,141667,1,8,1:0:0:0:
256,192,141724,1,0,1:0:0:0:
256,192,141840,1,0,1:0:0:0:
256,192,141955,1,8,1:0:0:0:
256,192,142070,1,0,1:0:0:0:
256,192,142128,1,0,1:0:0:0:
256,192,142186,1,8,1:0:0:0:
256,192,142243,1,8,1:0:0:0:
256,192,142301,1,0,1:0:0:0:
256,192,142359,1,0,1:0:0:0:
256,192,142417,1,8,1:0:0:0:
256,192,142532,1,8,1:0:0:0:
256,192,142647,1,0,1:0:0:0:
256,192,142763,1,8,1:0:0:0:
256,192,142820,1,0,1:0:0:0:
256,192,142878,1,8,1:0:0:0:
256,192,142993,1,0,1:0:0:0:
256,192,143109,1,8,1:0:0:0:
256,192,143167,1,0,1:0:0:0:
256,192,143224,1,8,1:0:0:0:
256,192,143340,1,0,1:0:0:0:
256,192,143397,1,0,1:0:0:0:
256,192,143455,1,8,1:0:0:0:
256,192,143513,1,8,1:0:0:0:
256,192,143570,1,0,1:0:0:0:
256,192,143686,1,0,1:0:0:0:
256,192,143801,1,8,1:0:0:0:
256,192,143859,1,0,1:0:0:0:
256,192,143917,1,8,1:0:0:0:
256,192,143974,1,0,1:0:0:0:
256,192,144032,1,8,1:0:0:0:
256,192,144090,1,8,1:0:0:0:
256,192,144147,1,0,1:0:0:0:
256,192,144205,1,8,1:0:0:0:
256,192,144263,1,0,1:0:0:0:
256,192,144378,1,8,1:0:0:0:
256,192,144493,1,0,1:0:0:0:
256,192,144551,1,0,1:0:0:0:
256,192,144609,1,0,1:0:0:0:
256,192,144667,1,0,1:0:0:0:
256,192,144724,1,8,1:0:0:0:
256,192,144840,1,0,1:0:0:0:
256,192,144955,1,8,1:0:0:0:
256,192,145013,1,8,1:0:0:0:
256,192,145070,1,0,1:0:0:0:
256,192,145128,1,0,1:0:0:0:
256,192,145186,1,8,1:0:0:0:
256,192,145301,1,0,1:0:0:0:
256,192,145417,1,8,1:0:0:0:
256,192,145455,1,8,1:0:0:0:
256,192,145493,1,8,1:0:0:0:
256,192,145532,1,0,1:0:0:0:
256,192,145647,1,0,1:0:0:0:
256,192,145686,1,0,1:0:0:0:
256,192,145724,1,0,1:0:0:0:
256,192,145763,1,0,1:0:0:0:
256,192,145878,1,8,1:0:0:0:
256,192,145936,1,8,1:0:0:0:
256,192,145993,1,0,1:0:0:0:
256,192,146051,1,0,1:0:0:0:
256,192,146109,1,8,1:0:0:0:
256,192,146224,1,0,1:0:0:0:
256,192,146340,1,8,1:0:0:0:
256,192,146455,1,0,1:0:0:0:
256,192,146513,1,8,1:0:0:0:
256,192,146570,1,0,1:0:0:0:
256,192,146628,1,0,1:0:0:0:
256,192,146686,1,8,1:0:0:0:
256,192,146743,1,0,1:0:0:0:
256,192,146801,1,8,1:0:0:0:
256,192,146917,1,0,1:0:0:0:
256,192,146974,1,8,1:0:0:0:
256,192,147032,1,0,1:0:0:0:
256,192,147090,1,0,1:0:0:0:
256,192,147147,1,8,1:0:0:0:
256,192,147205,1,8,1:0:0:0:
256,192,147263,1,0,1:0:0:0:
256,192,147378,1,8,1:0:0:0:
256,192,147436,1,0,1:0:0:0:
256,192,147493,1,8,1:0:0:0:
256,192,147551,1,8,1:0:0:0:
256,192,147609,1,0,1:0:0:0:
256,192,147667,1,0,1:0:0:0:
256,192,147724,1,8,1:0:0:0:
256,192,147840,1,0,1:0:0:0:
256,192,147955,1,8,1:0:0:0:
256,192,148186,1,4,1:0:0:0:
256,192,148417,1,8,1:0:0:0:
256,192,148532,1,0,1:0:0:0:
256,192,148647,1,8,1:0:0:0:
256,192,148705,1,8,1:0:0:0:
256,192,148763,1,0,1:0:0:0:
256,192,148820,1,0,1:0:0:0:
256,192,148878,1,8,1:0:0:0:
256,192,148993,1,8,1:0:0:0:
256,192,149109,1,4,1:0:0:0:
256,192,149340,1,8,1:0:0:0:
256,192,149455,1,0,1:0:0:0:
256,192,149570,1,8,1:0:0:0:
256,192,149628,1,8,1:0:0:0:
256,192,149686,1,0,1:0:0:0:
256,192,149743,1,0,1:0:0:0:
256,192,149801,1,8,1:0:0:0:
256,192,149917,1,8,1:0:0:0:
256,192,150032,1,4,1:0:0:0:
256,192,150263,1,8,1:0:0:0:
256,192,150378,1,0,1:0:0:0:
256,192,150493,1,8,1:0:0:0:
256,192,150551,1,8,1:0:0:0:
256,192,150609,1,0,1:0:0:0:
256,192,150667,1,0,1:0:0:0:
256,192,150724,1,8,1:0:0:0:
256,192,150840,1,8,1:0:0:0:
256,192,150955,1,4,1:0:0:0:
256,192,151186,1,8,1:0:0:0:
256,192,151301,1,0,1:0:0:0:
256,192,151417,1,8,1:0:0:0:
256,192,151474,1,8,1:0:0:0:
256,192,151532,1,0,1:0:0:0:
256,192,151590,1,0,1:0:0:0:
256,192,151647,1,8,1:0:0:0:
256,192,151763,1,8,1:0:0:0:
256,192,151878,1,0,1:0:0:0:
256,192,151993,1,0,1:0:0:0:
256,192,152051,1,0,1:0:0:0:
256,192,152109,1,8,1:0:0:0:
256,192,152224,1,0,1:0:0:0:
256,192,152340,1,8,1:0:0:0:
256,192,152397,1,8,1:0:0:0:
256,192,152455,1,0,1:0:0:0:
256,192,152513,1,0,1:0:0:0:
256,192,152570,1,8,1:0:0:0:
256,192,152628,1,0,1:0:0:0:
256,192,152686,1,8,1:0:0:0:
256,192,152801,1,0,1:0:0:0:
256,192,152917,1,8,1:0:0:0:
256,192,152974,1,8,1:0:0:0:
256,192,153032,1,0,1:0:0:0:
256,192,153090,1,0,1:0:0:0:
256,192,153147,1,8,1:0:0:0:
256,192,153263,1,0,1:0:0:0:
256,192,153378,1,8,1:0:0:0:
256,192,153436,1,8,1:0:0:0:
256,192,153493,1,0,1:0:0:0:
256,192,153551,1,0,1:0:0:0:
256,192,153609,1,8,1:0:0:0:
256,192,153667,1,0,1:0:0:0:
256,192,153724,1,8,1:0:0:0:
256,192,153782,1,8,1:0:0:0:
256,192,153840,1,0,1:0:0:0:
256,192,153897,1,0,1:0:0:0:
256,192,153955,1,8,1:0:0:0:
256,192,154013,1,8,1:0:0:0:
256,192,154070,1,8,1:0:0:0:
256,192,154128,1,0,1:0:0:0:
256,192,154186,1,8,1:0:0:0:
256,192,154243,1,8,1:0:0:0:
256,192,154301,1,0,1:0:0:0:
256,192,154359,1,0,1:0:0:0:
256,192,154417,1,8,1:0:0:0:
256,192,154474,1,0,1:0:0:0:
256,192,154532,1,8,1:0:0:0:
256,192,154590,1,0,1:0:0:0:
256,192,154647,1,8,1:0:0:0:
256,192,154878,1,0,1:0:0:0:
256,192,154936,1,0,1:0:0:0:
256,192,154993,1,0,1:0:0:0:
256,192,155051,1,0,1:0:0:0:
256,192,155109,1,8,1:0:0:0:
256,192,155224,1,0,1:0:0:0:
256,192,155340,1,12,1:0:0:0:
256,192,155570,1,4,1:0:0:0:
256,192,155686,1,8,1:0:0:0:
256,192,155801,1,0,1:0:0:0:
256,192,155859,1,0,1:0:0:0:
256,192,155917,1,8,1:0:0:0:
256,192,155974,1,0,1:0:0:0:
256,192,156032,1,8,1:0:0:0:
256,192,156147,1,0,1:0:0:0:
256,192,156263,1,8,1:0:0:0:
256,192,156493,1,0,1:0:0:0:
256,192,156609,1,8,1:0:0:0:
256,192,156724,1,0,1:0:0:0:
256,192,156782,1,0,1:0:0:0:
256,192,156840,1,8,1:0:0:0:
256,192,156897,1,0,1:0:0:0:
256,192,156955,1,8,1:0:0:0:
256,192,157070,1,0,1:0:0:0:
256,192,157186,1,8,1:0:0:0:
256,192,157215,1,8,1:0:0:0:
256,192,157301,1,0,1:0:0:0:
256,192,157330,1,0,1:0:0:0:
256,192,157417,1,8,1:0:0:0:
256,192,157532,1,0,1:0:0:0:
256,192,157647,1,8,1:0:0:0:
256,192,157705,1,0,1:0:0:0:
256,192,157763,1,8,1:0:0:0:
256,192,157820,1,0,1:0:0:0:
256,192,157878,1,8,1:0:0:0:
256,192,157936,1,8,1:0:0:0:
256,192,157993,1,0,1:0:0:0:
256,192,158032,1,0,1:0:0:0:
256,192,158070,1,0,1:0:0:0:
256,192,158109,1,8,1:0:0:0:
256,192,158224,1,0,1:0:0:0:
256,192,158282,1,0,1:0:0:0:
256,192,158340,1,8,1:0:0:0:
256,192,158397,1,0,1:0:0:0:
256,192,158455,1,8,1:0:0:0:
256,192,158513,1,0,1:0:0:0:
256,192,158570,1,8,1:0:0:0:
256,192,158628,1,8,1:0:0:0:
256,192,158686,1,0,1:0:0:0:
256,192,158743,1,0,1:0:0:0:
256,192,158801,1,8,1:0:0:0:
256,192,158917,1,0,1:0:0:0:
256,192,158974,1,0,1:0:0:0:
256,192,159032,1,8,1:0:0:0:
256,192,159070,1,8,1:0:0:0:
256,192,159109,1,8,1:0:0:0:
256,192,159147,1,8,1:0:0:0:
256,192,159186,1,8,1:0:0:0:
256,192,159224,1,8,1:0:0:0:
256,192,159263,1,0,1:0:0:0:
256,192,159378,1,8,1:0:0:0:
256,192,159493,1,0,1:0:0:0:
256,192,159551,1,0,1:0:0:0:
256,192,159609,1,8,1:0:0:0:
256,192,159667,1,0,1:0:0:0:
256,192,159724,1,8,1:0:0:0:
256,192,159840,1,0,1:0:0:0:
256,192,159955,1,8,1:0:0:0:
256,192,160186,1,0,1:0:0:0:
256,192,160301,1,8,1:0:0:0:
256,192,160417,1,0,1:0:0:0:
256,192,160474,1,0,1:0:0:0:
256,192,160532,1,8,1:0:0:0:
256,192,160590,1,0,1:0:0:0:
256,192,160647,1,8,1:0:0:0:
256,192,160763,1,0,1:0:0:0:
256,192,160878,1,8,1:0:0:0:
256,192,160907,1,8,1:0:0:0:
256,192,160993,1,0,1:0:0:0:
256,192,161022,1,0,1:0:0:0:
256,192,161109,1,8,1:0:0:0:
256,192,161224,1,8,1:0:0:0:
256,192,161340,1,0,1:0:0:0:
256,192,161455,1,0,1:0:0:0:
256,192,161570,1,8,1:0:0:0:
256,192,161628,1,8,1:0:0:0:
256,192,161686,1,8,1:0:0:0:
256,192,161743,1,8,1:0:0:0:
256,192,161801,1,8,1:0:0:0:
256,192,161917,1,0,1:0:0:0:
256,192,162032,1,12,1:0:0:0:
256,192,162263,1,0,1:0:0:0:
256,192,162320,1,0,1:0:0:0:
256,192,162378,1,0,1:0:0:0:
256,192,162436,1,0,1:0:0:0:
256,192,162493,1,8,1:0:0:0:
256,192,162551,1,8,1:0:0:0:
256,192,162609,1,0,1:0:0:0:
256,192,162667,1,0,1:0:0:0:
256,192,162724,1,8,1:0:0:0:
256,192,162840,1,0,1:0:0:0:
256,192,162955,1,8,1:0:0:0:
256,192,162993,1,8,1:0:0:0:
256,192,163032,1,8,1:0:0:0:
256,192,163070,1,0,1:0:0:0:
256,192,163128,1,0,1:0:0:0:
256,192,163186,1,8,1:0:0:0:
256,192,163301,1,0,1:0:0:0:
256,192,163417,1,8,1:0:0:0:
256,192,163474,1,8,1:0:0:0:
256,192,163532,1,0,1:0:0:0:
256,192,163590,1,0,1:0:0:0:
256,192,163647,1,8,1:0:0:0:
256,192,163686,1,8,1:0:0:0:
256,192,163724,1,0,1:0:0:0:
256,192,163763,1,0,1:0:0:0:
256,192,163878,1,8,1:0:0:0:
256,192,163917,1,8,1:0:0:0:
256,192,163955,1,8,1:0:0:0:
256,192,163993,1,0,1:0:0:0:
256,192,164051,1,0,1:0:0:0:
256,192,164109,1,8,1:0:0:0:
256,192,164224,1,0,1:0:0:0:
256,192,164340,1,8,1:0:0:0:
256,192,164397,1,8,1:0:0:0:
256,192,164455,1,0,1:0:0:0:
256,192,164570,1,8,1:0:0:0:
256,192,164647,1,0,1:0:0:0:
256,192,164724,1,0,1:0:0:0:
256,192,164801,1,8,1:0:0:0:
256,192,164917,1,0,1:0:0:0:
256,192,165032,1,8,1:0:0:0:
256,192,165090,1,8,1:0:0:0:
256,192,165147,1,0,1:0:0:0:
256,192,165205,1,0,1:0:0:0:
256,192,165263,1,8,1:0:0:0:
256,192,165378,1,0,1:0:0:0:
256,192,165436,1,0,1:0:0:0:
256,192,165493,1,8,1:0:0:0:
256,192,165609,1,8,1:0:0:0:
256,192,165724,1,0,1:0:0:0:
256,192,165840,1,0,1:0:0:0:
256,192,165897,1,0,1:0:0:0:
256,192,165955,1,8,1:0:0:0:
256,192,166013,1,0,1:0:0:0:
256,192,166070,1,8,1:0:0:0:
256,192,166128,1,0,1:0:0:0:
256,192,166186,1,8,1:0:0:0:
256,192,166243,1,8,1:0:0:0:
256,192,166301,1,0,1:0:0:0:
256,192,166359,1,8,1:0:0:0:
256,192,166417,1,0,1:0:0:0:
256,192,166532,1,8,1:0:0:0:
256,192,166647,1,0,1:0:0:0:
256,192,166686,1,0,1:0:0:0:
256,192,166724,1,0,1:0:0:0:
256,192,166763,1,8,1:0:0:0:
256,192,166820,1,0,1:0:0:0:
256,192,166878,1,8,1:0:0:0:
256,192,166993,1,0,1:0:0:0:
256,192,167109,1,8,1:0:0:0:
256,192,167167,1,8,1:0:0:0:
256,192,167224,1,0,1:0:0:0:
256,192,167282,1,0,1:0:0:0:
256,192,167340,1,8,1:0:0:0:
256,192,167378,1,8,1:0:0:0:
256,192,167417,1,8,1:0:0:0:
256,192,167455,1,8,1:0:0:0:
256,192,167570,1,0,1:0:0:0:
256,192,167609,1,0,1:0:0:0:
256,192,167647,1,0,1:0:0:0:
256,192,167686,1,8,1:0:0:0:
256,192,167743,1,0,1:0:0:0:
256,192,167801,1,8,1:0:0:0:
256,192,167917,1,0,1:0:0:0:
256,192,168032,1,8,1:0:0:0:
256,192,168090,1,8,1:0:0:0:
256,192,168147,1,0,1:0:0:0:
256,192,168205,1,0,1:0:0:0:
256,192,168263,1,8,1:0:0:0:
256,192,168292,1,8,1:0:0:0:
256,192,168378,1,8,1:0:0:0:
256,192,168407,1,8,1:0:0:0:
256,192,168493,1,0,1:0:0:0:
256,192,168609,1,8,1:0:0:0:
256,192,168667,1,0,1:0:0:0:
256,192,168724,1,8,1:0:0:0:
256,192,168782,1,8,1:0:0:0:
256,192,168840,1,0,1:0:0:0:
256,192,168897,1,0,1:0:0:0:
256,192,168955,1,8,1:0:0:0:
256,192,169070,1,0,1:0:0:0:
256,192,169128,1,0,1:0:0:0:
256,192,169186,1,8,1:0:0:0:
256,192,169301,1,8,1:0:0:0:
256,192,169417,1,0,1:0:0:0:
256,192,169474,1,0,1:0:0:0:
256,192,169532,1,0,1:0:0:0:
256,192,169590,1,0,1:0:0:0:
256,192,169647,1,8,1:0:0:0:
256,192,169705,1,8,1:0:0:0:
256,192,169763,1,0,1:0:0:0:
256,192,169820,1,0,1:0:0:0:
256,192,169878,1,8,1:0:0:0:
256,192,169993,1,0,1:0:0:0:
256,192,170109,1,8,1:0:0:0:
256,192,170167,1,8,1:0:0:0:
256,192,170224,1,8,1:0:0:0:
256,192,170282,1,8,1:0:0:0:
256,192,170340,1,0,1:0:0:0:
256,192,170455,1,0,1:0:0:0:
256,192,170513,1,0,1:0:0:0:
256,192,170570,1,8,1:0:0:0:
256,192,170686,1,0,1:0:0:0:
256,192,170801,1,8,1:0:0:0:
256,192,170840,1,8,1:0:0:0:
256,192,170878,1,8,1:0:0:0:
256,192,170917,1,8,1:0:0:0:
256,192,171032,1,0,1:0:0:0:
256,192,171090,1,0,1:0:0:0:
256,192,171147,1,8,1:0:0:0:
256,192,171205,1,0,1:0:0:0:
256,192,171263,1,8,1:0:0:0:
256,192,171378,1,0,1:0:0:0:
256,192,171436,1,0,1:0:0:0:
256,192,171493,1,8,1:0:0:0:
256,192,171609,1,0,1:0:0:0:
256,192,171724,1,8,1:0:0:0:
256,192,171763,1,8,1:0:0:0:
256,192,171801,1,8,1:0:0:0:
256,192,171840,1,8,1:0:0:0:
256,192,171955,1,0,1:0:0:0:
256,192,172013,1,0,1:0:0:0:
256,192,172070,1,8,1:0:0:0:
256,192,172128,1,0,1:0:0:0:
256,192,172186,1,8,1:0:0:0:
256,192,172224,1,8,1:0:0:0:
256,192,172263,1,8,1:0:0:0:
256,192,172301,1,8,1:0:0:0:
256,192,172417,1,0,1:0:0:0:
256,192,172532,1,0,1:0:0:0:
256,192,172590,1,0,1:0:0:0:
256,192,172647,1,8,1:0:0:0:
256,192,172686,1,8,1:0:0:0:
256,192,172724,1,8,1:0:0:0:
256,192,172763,1,0,1:0:0:0:
256,192,172820,1,0,1:0:0:0:
256,192,172878,1,8,1:0:0:0:
256,192,172993,1,0,1:0:0:0:
256,192,173109,1,8,1:0:0:0:
256,192,173224,1,0,1:0:0:0:
256,192,173282,1,0,1:0:0:0:
256,192,173340,1,8,1:0:0:0:
256,192,173397,1,0,1:0:0:0:
256,192,173455,1,8,1:0:0:0:
256,192,173513,1,0,1:0:0:0:
256,192,173570,1,8,1:0:0:0:
256,192,173686,1,0,1:0:0:0:
256,192,173743,1,0,1:0:0:0:
256,192,173801,1,8,1:0:0:0:
256,192,173859,1,0,1:0:0:0:
256,192,173917,1,8,1:0:0:0:
256,192,173974,1,8,1:0:0:0:
256,192,174032,1,0,1:0:0:0:
256,192,174090,1,0,1:0:0:0:
256,192,174147,1,8,1:0:0:0:
256,192,174205,1,0,1:0:0:0:
256,192,174263,1,8,1:0:0:0:
256,192,174378,1,0,1:0:0:0:
256,192,174493,1,8,1:0:0:0:
256,192,174532,1,8,1:0:0:0:
256,192,174570,1,8,1:0:0:0:
256,192,174609,1,8,1:0:0:0:
256,192,174724,1,0,1:0:0:0:
256,192,174782,1,0,1:0:0:0:
256,192,174840,1,8,1:0:0:0:
256,192,174897,1,0,1:0:0:0:
256,192,174955,1,8,1:0:0:0:
256,192,175013,1,8,1:0:0:0:
256,192,175070,1,0,1:0:0:0:
256,192,175128,1,0,1:0:0:0:
256,192,175186,1,8,1:0:0:0:
256,192,175301,1,0,1:0:0:0:
256,192,175417,1,8,1:0:0:0:
256,192,175455,1,8,1:0:0:0:
256,192,175493,1,8,1:0:0:0:
256,192,175532,1,8,1:0:0:0:
256,192,175647,1,0,1:0:0:0:
256,192,175705,1,0,1:0:0:0:
256,192,175763,1,8,1:0:0:0:
256,192,175820,1,0,1:0:0:0:
256,192,175878,1,8,1:0:0:0:
256,192,175917,1,8,1:0:0:0:
256,192,175955,1,8,1:0:0:0:
256,192,175993,1,8,1:0:0:0:
256,192,176109,1,0,1:0:0:0:
256,192,176147,1,0,1:0:0:0:
256,192,176186,1,0,1:0:0:0:
256,192,176224,1,0,1:0:0:0:
256,192,176340,1,8,1:0:0:0:
256,192,176397,1,8,1:0:0:0:
256,192,176455,1,0,1:0:0:0:
256,192,176513,1,0,1:0:0:0:
256,192,176570,1,8,1:0:0:0:
256,192,176628,1,0,1:0:0:0:
256,192,176686,1,0,1:0:0:0:
256,192,176743,1,0,1:0:0:0:
256,192,176801,1,8,1:0:0:0:
256,192,176917,1,0,1:0:0:0:
256,192,176974,1,0,1:0:0:0:
256,192,177032,1,8,1:0:0:0:
256,192,177090,1,0,1:0:0:0:
256,192,177147,1,8,1:0:0:0:
256,192,177205,1,0,1:0:0:0:
256,192,177263,1,8,1:0:0:0:
256,192,177320,1,8,1:0:0:0:
256,192,177378,1,0,1:0:0:0:
256,192,177436,1,0,1:0:0:0:
256,192,177493,1,8,1:0:0:0:
256,192,177609,1,8,1:0:0:0:
256,192,177724,1,0,1:0:0:0:
256,192,177782,1,0,1:0:0:0:
256,192,177840,1,0,1:0:0:0:
256,192,177897,1,0,1:0:0:0:
256,192,177955,1,8,1:0:0:0:
256,192,178070,1,0,1:0:0:0:
256,192,178186,1,8,1:0:0:0:
256,192,178224,1,8,1:0:0:0:
256,192,178263,1,0,1:0:0:0:
256,192,178301,1,0,1:0:0:0:
256,192,178340,1,0,1:0:0:0:
256,192,178378,1,0,1:0:0:0:
256,192,178417,1,8,1:0:0:0:
256,192,178532,1,8,1:0:0:0:
256,192,178647,1,0,1:0:0:0:
256,192,178705,1,0,1:0:0:0:
256,192,178763,1,0,1:0:0:0:
256,192,178820,1,0,1:0:0:0:
256,192,178878,1,8,1:0:0:0:
256,192,178993,1,0,1:0:0:0:
256,192,179109,1,8,1:0:0:0:
256,192,179147,1,8,1:0:0:0:
256,192,179186,1,0,1:0:0:0:
256,192,179224,1,0,1:0:0:0:
256,192,179263,1,0,1:0:0:0:
256,192,179301,1,0,1:0:0:0:
256,192,179340,1,8,1:0:0:0:
256,192,179455,1,8,1:0:0:0:
256,192,179570,1,0,1:0:0:0:
256,192,179628,1,0,1:0:0:0:
256,192,179686,1,0,1:0:0:0:
256,192,179743,1,0,1:0:0:0:
256,192,179801,1,8,1:0:0:0:
256,192,179859,1,8,1:0:0:0:
256,192,179917,1,0,1:0:0:0:
256,192,179974,1,0,1:0:0:0:
256,192,180032,1,8,1:0:0:0:
256,192,180090,1,8,1:0:0:0:
256,192,180147,1,0,1:0:0:0:
256,192,180205,1,0,1:0:0:0:
256,192,180263,1,8,1:0:0:0:
256,192,180320,1,0,1:0:0:0:
256,192,180378,1,0,1:0:0:0:
256,192,180436,1,0,1:0:0:0:
256,192,180493,1,8,1:0:0:0:
256,192,180609,1,0,1:0:0:0:
256,192,180724,1,8,1:0:0:0:
256,192,180782,1,0,1:0:0:0:
256,192,180840,1,8,1:0:0:0:
256,192,180897,1,0,1:0:0:0:
256,192,180955,1,8,1:0:0:0:
256,192,181013,1,8,1:0:0:0:
256,192,181070,1,0,1:0:0:0:
256,192,181128,1,0,1:0:0:0:
256,192,181186,1,8,1:0:0:0:
256,192,181301,1,8,1:0:0:0:
256,192,181417,1,0,1:0:0:0:
256,192,181474,1,0,1:0:0:0:
256,192,181532,1,0,1:0:0:0:
256,192,181590,1,0,1:0:0:0:
256,192,181647,1,8,1:0:0:0:
256,192,181763,1,0,1:0:0:0:
256,192,181878,1,8,1:0:0:0:
256,192,181917,1,8,1:0:0:0:
256,192,181955,1,0,1:0:0:0:
256,192,181993,1,0,1:0:0:0:
256,192,182032,1,0,1:0:0:0:
256,192,182070,1,0,1:0:0:0:
256,192,182109,1,8,1:0:0:0:
256,192,182224,1,8,1:0:0:0:
256,192,182340,1,0,1:0:0:0:
256,192,182397,1,0,1:0:0:0:
256,192,182455,1,0,1:0:0:0:
256,192,182513,1,0,1:0:0:0:
256,192,182570,1,8,1:0:0:0:
256,192,182686,1,0,1:0:0:0:
256,192,182801,1,8,1:0:0:0:
256,192,182840,1,8,1:0:0:0:
256,192,182878,1,0,1:0:0:0:
256,192,182917,1,0,1:0:0:0:
256,192,182955,1,0,1:0:0:0:
256,192,182993,1,0,1:0:0:0:
256,192,183032,1,8,1:0:0:0:
256,192,183147,1,8,1:0:0:0:
256,192,183263,1,0,1:0:0:0:
256,192,183320,1,0,1:0:0:0:
256,192,183378,1,8,1:0:0:0:
256,192,183436,1,0,1:0:0:0:
256,192,183493,1,8,1:0:0:0:
256,192,183551,1,8,1:0:0:0:
256,192,183609,1,0,1:0:0:0:
256,192,183667,1,0,1:0:0:0:
256,192,183724,1,8,1:0:0:0:
256,192,183840,1,0,1:0:0:0:
256,192,183955,1,8,1:0:0:0:
256,192,184013,1,8,1:0:0:0:
256,192,184070,1,8,1:0:0:0:
256,192,184128,1,8,1:0:0:0:
256,192,184186,1,0,1:0:0:0:
256,192,184243,1,0,1:0:0:0:
256,192,184301,1,8,1:0:0:0:
256,192,184359,1,0,1:0:0:0:
256,192,184417,1,8,1:0:0:0:
256,192,184474,1,0,1:0:0:0:
256,192,184532,1,8,1:0:0:0:
256,192,184590,1,0,1:0:0:0:
256,192,184647,1,8,1:0:0:0:
256,192,184705,1,8,1:0:0:0:
256,192,184763,1,0,1:0:0:0:
256,192,184820,1,0,1:0:0:0:
256,192,184878,1,8,1:0:0:0:
256,192,184993,1,8,1:0:0:0:
256,192,185109,1,4,1:0:0:0:
256,192,185340,1,8,1:0:0:0:
256,192,185455,1,0,1:0:0:0:
256,192,185570,1,8,1:0:0:0:
256,192,185609,1,8,1:0:0:0:
256,192,185647,1,8,1:0:0:0:
256,192,185686,1,0,1:0:0:0:
256,192,185801,1,8,1:0:0:0:
256,192,185859,1,0,1:0:0:0:
256,192,185917,1,8,1:0:0:0:
256,192,185974,1,8,1:0:0:0:
256,192,186032,1,0,1:0:0:0:
256,192,186147,1,8,1:0:0:0:
256,192,186205,1,0,1:0:0:0:
256,192,186263,1,8,1:0:0:0:
256,192,186378,1,0,1:0:0:0:
256,192,186493,1,8,1:0:0:0:
256,192,186551,1,8,1:0:0:0:
256,192,186609,1,0,1:0:0:0:
256,192,186667,1,0,1:0:0:0:
256,192,186724,1,8,1:0:0:0:
256,192,186782,1,8,1:0:0:0:
256,192,186840,1,0,1:0:0:0:
256,192,186897,1,8,1:0:0:0:
256,192,186955,1,0,1:0:0:0:
256,192,186993,1,0,1:0:0:0:
256,192,187032,1,0,1:0:0:0:
256,192,187070,1,0,1:0:0:0:
256,192,187186,1,8,1:0:0:0:
256,192,187224,1,8,1:0:0:0:
256,192,187263,1,8,1:0:0:0:
256,192,187301,1,0,1:0:0:0:
256,192,187417,1,8,1:0:0:0:
256,192,187474,1,8,1:0:0:0:
256,192,187532,1,0,1:0:0:0:
256,192,187590,1,0,1:0:0:0:
256,192,187647,1,8,1:0:0:0:
256,192,187686,1,8,1:0:0:0:
256,192,187724,1,8,1:0:0:0:
256,192,187763,1,0,1:0:0:0:
256,192,187878,1,8,1:0:0:0:
256,192,187907,1,8,1:0:0:0:
256,192,187993,1,0,1:0:0:0:
256,192,188022,1,0,1:0:0:0:
256,192,188109,1,0,1:0:0:0:
256,192,188138,1,0,1:0:0:0:
256,192,188224,1,0,1:0:0:0:
256,192,188253,1,0,1:0:0:0:
256,192,188340,1,8,1:0:0:0:
256,192,188378,1,8,1:0:0:0:
256,192,188417,1,8,1:0:0:0:
256,192,188455,1,0,1:0:0:0:
256,192,188513,1,0,1:0:0:0:
256,192,188570,1,8,1:0:0:0:
256,192,188686,1,0,1:0:0:0:
256,192,188801,1,8,1:0:0:0:
256,192,188840,1,8,1:0:0:0:
256,192,188878,1,8,1:0:0:0:
256,192,188917,1,0,1:0:0:0:
256,192,188974,1,0,1:0:0:0:
256,192,189032,1,8,1:0:0:0:
256,192,189147,1,8,1:0:0:0:
256,192,189205,1,8,1:0:0:0:
256,192,189263,1,0,1:0:0:0:
256,192,189320,1,0,1:0:0:0:
256,192,189378,1,8,1:0:0:0:
256,192,189436,1,0,1:0:0:0:
256,192,189493,1,8,1:0:0:0:
256,192,189609,1,8,1:0:0:0:
256,192,189724,1,0,1:0:0:0:
256,192,189840,1,8,1:0:0:0:
256,192,189897,1,0,1:0:0:0:
256,192,189955,1,8,1:0:0:0:
256,192,190070,1,0,1:0:0:0:
256,192,190186,1,8,1:0:0:0:
256,192,190243,1,8,1:0:0:0:
256,192,190301,1,0,1:0:0:0:
256,192,190359,1,0,1:0:0:0:
256,192,190417,1,8,1:0:0:0:
256,192,190474,1,8,1:0:0:0:
256,192,190532,1,0,1:0:0:0:
256,192,190590,1,8,1:0:0:0:
256,192,190647,1,0,1:0:0:0:
256,192,190705,1,0,1:0:0:0:
256,192,190763,1,0,1:0:0:0:
256,192,190820,1,0,1:0:0:0:
256,192,190878,1,8,1:0:0:0:
256,192,190936,1,8,1:0:0:0:
256,192,190993,1,0,1:0:0:0:
256,192,191051,1,0,1:0:0:0:
256,192,191109,1,8,1:0:0:0:
256,192,191167,1,8,1:0:0:0:
256,192,191224,1,8,1:0:0:0:
256,192,191282,1,8,1:0:0:0:
256,192,191340,1,0,1:0:0:0:
256,192,191397,1,0,1:0:0:0:
256,192,191455,1,8,1:0:0:0:
256,192,191513,1,8,1:0:0:0:
256,192,191570,1,0,1:0:0:0:
256,192,191686,1,0,1:0:0:0:
256,192,191743,1,0,1:0:0:0:
256,192,191801,1,8,1:0:0:0:
256,192,191859,1,8,1:0:0:0:
256,192,191917,1,0,1:0:0:0:
256,192,191974,1,0,1:0:0:0:
256,192,192032,1,8,1:0:0:0:
256,192,192147,1,0,1:0:0:0:
256,192,192205,1,0,1:0:0:0:
256,192,192263,1,8,1:0:0:0:
256,192,192378,1,8,1:0:0:0:
256,192,192493,1,0,1:0:0:0:
256,192,192532,1,0,1:0:0:0:
256,192,192570,1,0,1:0:0:0:
256,192,192609,1,0,1:0:0:0:
256,192,192724,1,8,1:0:0:0:
256,192,192753,1,8,1:0:0:0:
256,192,192840,1,8,1:0:0:0:
256,192,192868,1,8,1:0:0:0:
256,192,192955,1,0,1:0:0:0:
256,192,193013,1,0,1:0:0:0:
256,192,193070,1,8,1:0:0:0:
256,192,193128,1,0,1:0:0:0:
256,192,193186,1,8,1:0:0:0:
256,192,193215,1,8,1:0:0:0:
256,192,193301,1,8,1:0:0:0:
256,192,193330,1,8,1:0:0:0:
256,192,193417,1,0,1:0:0:0:
256,192,193532,1,8,1:0:0:0:
256,192,193590,1,0,1:0:0:0:
256,192,193647,1,8,1:0:0:0:
256,192,193763,1,0,1:0:0:0:
256,192,193878,1,8,1:0:0:0:
256,192,193936,1,8,1:0:0:0:
256,192,193993,1,0,1:0:0:0:
256,192,194051,1,0,1:0:0:0:
256,192,194109,1,8,1:0:0:0:
256,192,194147,1,8,1:0:0:0:
256,192,194186,1,8,1:0:0:0:
256,192,194224,1,8,1:0:0:0:
256,192,194340,1,0,1:0:0:0:
256,192,194397,1,0,1:0:0:0:
256,192,194455,1,8,1:0:0:0:
256,192,194513,1,0,1:0:0:0:
256,192,194570,1,8,1:0:0:0:
256,192,194599,1,8,1:0:0:0:
256,192,194686,1,8,1:0:0:0:
256,192,194715,1,8,1:0:0:0:
256,192,194801,1,0,1:0:0:0:
256,192,194917,1,8,1:0:0:0:
256,192,194974,1,0,1:0:0:0:
256,192,195032,1,8,1:0:0:0:
256,192,195061,1,8,1:0:0:0:
256,192,195147,1,8,1:0:0:0:
256,192,195176,1,8,1:0:0:0:
256,192,195263,1,0,1:0:0:0:
256,192,195378,1,8,1:0:0:0:
256,192,195436,1,8,1:0:0:0:
256,192,195493,1,0,1:0:0:0:
256,192,195551,1,0,1:0:0:0:
256,192,195609,1,8,1:0:0:0:
256,192,195667,1,0,1:0:0:0:
256,192,195724,1,8,1:0:0:0:
256,192,195763,1,8,1:0:0:0:
256,192,195801,1,8,1:0:0:0:
256,192,195840,1,8,1:0:0:0:
256,192,195878,1,8,1:0:0:0:
256,192,195917,1,8,1:0:0:0:
256,192,195955,1,0,1:0:0:0:
256,192,196070,1,8,1:0:0:0:
256,192,196186,1,0,1:0:0:0:
256,192,196243,1,0,1:0:0:0:
256,192,196301,1,8,1:0:0:0:
256,192,196359,1,8,1:0:0:0:
256,192,196417,1,0,1:0:0:0:
256,192,196474,1,0,1:0:0:0:
256,192,196532,1,0,1:0:0:0:
256,192,196590,1,0,1:0:0:0:
256,192,196647,1,8,1:0:0:0:
256,192,196686,1,8,1:0:0:0:
256,192,196724,1,8,1:0:0:0:
256,192,196763,1,8,1:0:0:0:
256,192,196801,1,8,1:0:0:0:
256,192,196840,1,8,1:0:0:0:
256,192,196878,1,0,1:0:0:0:
256,192,196993,1,8,1:0:0:0:
256,192,197109,1,0,1:0:0:0:
256,192,197167,1,0,1:0:0:0:
256,192,197224,1,8,1:0:0:0:
256,192,197282,1,8,1:0:0:0:
256,192,197340,1,0,1:0:0:0:
256,192,197397,1,0,1:0:0:0:
256,192,197455,1,8,1:0:0:0:
256,192,197513,1,0,1:0:0:0:
256,192,197570,1,8,1:0:0:0:
256,192,197628,1,8,1:0:0:0:
256,192,197686,1,0,1:0:0:0:
256,192,197743,1,0,1:0:0:0:
256,192,197801,1,8,1:0:0:0:
256,192,197917,1,8,1:0:0:0:
256,192,198032,1,0,1:0:0:0:
256,192,198090,1,0,1:0:0:0:
256,192,198147,1,8,1:0:0:0:
256,192,198205,1,0,1:0:0:0:
256,192,198263,1,8,1:0:0:0:
256,192,198320,1,8,1:0:0:0:
256,192,198378,1,0,1:0:0:0:
256,192,198436,1,0,1:0:0:0:
256,192,198493,1,8,1:0:0:0:
256,192,198609,1,8,1:0:0:0:
256,192,198724,1,0,1:0:0:0:
256,192,198763,1,0,1:0:0:0:
256,192,198801,1,0,1:0:0:0:
256,192,198840,1,0,1:0:0:0:
256,192,198878,1,0,1:0:0:0:
256,192,198917,1,0,1:0:0:0:
256,192,198955,1,8,1:0:0:0:
256,192,199070,1,0,1:0:0:0:
256,192,199128,1,0,1:0:0:0:
256,192,199186,1,8,1:0:0:0:
256,192,199243,1,0,1:0:0:0:
256,192,199301,1,8,1:0:0:0:
256,192,199359,1,8,1:0:0:0:
256,192,199417,1,0,1:0:0:0:
256,192,199474,1,0,1:0:0:0:
256,192,199532,1,8,1:0:0:0:
256,192,199590,1,0,1:0:0:0:
256,192,199647,1,8,1:0:0:0:
256,192,199763,1,8,1:0:0:0:
256,192,199878,1,0,1:0:0:0:
256,192,199993,1,0,1:0:0:0:
256,192,200051,1,0,1:0:0:0:
256,192,200109,1,8,1:0:0:0:
256,192,200167,1,8,1:0:0:0:
256,192,200224,1,0,1:0:0:0:
256,192,200282,1,8,1:0:0:0:
256,192,200340,1,0,1:0:0:0:
256,192,200397,1,0,1:0:0:0:
256,192,200455,1,8,1:0:0:0:
256,192,200513,1,0,1:0:0:0:
256,192,200570,1,8,1:0:0:0:
256,192,200599,1,8,1:0:0:0:
256,192,200686,1,8,1:0:0:0:
256,192,200715,1,8,1:0:0:0:
256,192,200801,1,0,1:0:0:0:
256,192,200859,1,0,1:0:0:0:
256,192,200917,1,0,1:0:0:0:
256,192,200974,1,0,1:0:0:0:
256,192,201032,1,8,1:0:0:0:
256,192,201147,1,0,1:0:0:0:
256,192,201263,1,8,1:0:0:0:
256,192,201320,1,8,1:0:0:0:
256,192,201378,1,0,1:0:0:0:
256,192,201436,1,0,1:0:0:0:
256,192,201493,1,8,1:0:0:0:
256,192,201522,1,8,1:0:0:0:
256,192,201609,1,8,1:0:0:0:
256,192,201638,1,8,1:0:0:0:
256,192,201724,1,0,1:0:0:0:
256,192,201840,1,8,1:0:0:0:
256,192,201897,1,8,1:0:0:0:
256,192,201955,1,0,1:0:0:0:
256,192,202013,1,0,1:0:0:0:
256,192,202070,1,8,1:0:0:0:
256,192,202128,1,8,1:0:0:0:
256,192,202186,1,0,1:0:0:0:
256,192,202243,1,0,1:0:0:0:
256,192,202301,1,8,1:0:0:0:
256,192,202359,1,0,1:0:0:0:
256,192,202417,1,8,1:0:0:0:
256,192,202445,1,8,1:0:0:0:
256,192,202532,1,8,1:0:0:0:
256,192,202561,1,8,1:0:0:0:
256,192,202647,1,0,1:0:0:0:
256,192,202686,1,0,1:0:0:0:
256,192,202724,1,0,1:0:0:0:
256,192,202763,1,8,1:0:0:0:
256,192,202878,1,8,1:0:0:0:
256,192,202917,1,8,1:0:0:0:
256,192,202955,1,8,1:0:0:0:
256,192,202993,1,0,1:0:0:0:
256,192,203109,1,0,1:0:0:0:
256,192,203147,1,0,1:0:0:0:
256,192,203186,1,0,1:0:0:0:
256,192,203224,1,8,1:0:0:0:
256,192,203340,1,8,1:0:0:0:
256,192,203378,1,8,1:0:0:0:
256,192,203417,1,8,1:0:0:0:
256,192,203455,1,0,1:0:0:0:
256,192,203570,1,8,1:0:0:0:
256,192,203628,1,8,1:0:0:0:
256,192,203686,1,0,1:0:0:0:
256,192,203743,1,0,1:0:0:0:
256,192,203801,1,8,1:0:0:0:
256,192,203859,1,0,1:0:0:0:
256,192,203917,1,0,1:0:0:0:
256,192,203974,1,0,1:0:0:0:
256,192,204032,1,8,1:0:0:0:
256,192,204061,1,8,1:0:0:0:
256,192,204147,1,8,1:0:0:0:
256,192,204176,1,8,1:0:0:0:
256,192,204263,1,0,1:0:0:0:
256,192,204292,1,0,1:0:0:0:
256,192,204378,1,8,1:0:0:0:
256,192,204407,1,8,1:0:0:0:
256,192,204493,1,0,1:0:0:0:
256,192,204551,1,0,1:0:0:0:
256,192,204609,1,8,1:0:0:0:
256,192,204667,1,0,1:0:0:0:
256,192,204724,1,8,1:0:0:0:
256,192,204753,1,8,1:0:0:0:
256,192,204840,1,8,1:0:0:0:
256,192,204868,1,8,1:0:0:0:
256,192,204955,1,0,1:0:0:0:
256,192,205013,1,0,1:0:0:0:
256,192,205070,1,0,1:0:0:0:
256,192,205128,1,0,1:0:0:0:
256,192,205186,1,8,1:0:0:0:
256,192,205301,1,8,1:0:0:0:
256,192,205417,1,0,1:0:0:0:
256,192,205455,1,0,1:0:0:0:
256,192,205493,1,0,1:0:0:0:
256,192,205532,1,8,1:0:0:0:
256,192,205647,1,8,1:0:0:0:
256,192,205686,1,8,1:0:0:0:
256,192,205724,1,8,1:0:0:0:
256,192,205763,1,0,1:0:0:0:
256,192,205878,1,8,1:0:0:0:
256,192,205917,1,8,1:0:0:0:
256,192,205955,1,8,1:0:0:0:
256,192,205993,1,8,1:0:0:0:
256,192,206109,1,8,1:0:0:0:
256,192,206147,1,8,1:0:0:0:
256,192,206186,1,8,1:0:0:0:
256,192,206224,1,8,1:0:0:0:
256,192,206340,1,0,1:0:0:0:
256,192,206455,1,0,1:0:0:0:
256,192,206513,1,0,1:0:0:0:
256,192,206570,1,8,1:0:0:0:
256,192,206686,1,0,1:0:0:0:
256,192,206801,1,8,1:0:0:0:
256,192,206859,1,8,1:0:0:0:
256,192,206917,1,0,1:0:0:0:
256,192,206974,1,0,1:0:0:0:
256,192,207032,1,8,1:0:0:0:
256,192,207090,1,0,1:0:0:0:
256,192,207147,1,8,1:0:0:0:
256,192,207205,1,8,1:0:0:0:
256,192,207263,1,0,1:0:0:0:
256,192,207378,1,0,1:0:0:0:
256,192,207436,1,8,1:0:0:0:
256,192,207493,1,0,1:0:0:0:
256,192,207551,1,0,1:0:0:0:
256,192,207609,1,0,1:0:0:0:
256,192,207724,1,8,1:0:0:0:
256,192,207840,1,0,1:0:0:0:
256,192,207897,1,0,1:0:0:0:
256,192,207955,1,8,1:0:0:0:
256,192,208013,1,0,1:0:0:0:
256,192,208070,1,8,1:0:0:0:
256,192,208186,1,0,1:0:0:0:
256,192,208301,1,8,1:0:0:0:
256,192,208359,1,0,1:0:0:0:
256,192,208417,1,8,1:0:0:0:
256,192,208474,1,8,1:0:0:0:
256,192,208532,1,0,1:0:0:0:
256,192,208570,1,0,1:0:0:0:
256,192,208609,1,0,1:0:0:0:
256,192,208647,1,8,1:0:0:0:
256,192,208763,1,0,1:0:0:0:
256,192,208820,1,0,1:0:0:0:
256,192,208878,1,8,1:0:0:0:
256,192,208917,1,8,1:0:0:0:
256,192,208955,1,8,1:0:0:0:
256,192,208993,1,0,1:0:0:0:
256,192,209051,1,8,1:0:0:0:
256,192,209109,1,0,1:0:0:0:
256,192,209224,1,0,1:0:0:0:
256,192,209340,1,8,1:0:0:0:
256,192,209397,1,8,1:0:0:0:
256,192,209455,1,0,1:0:0:0:
256,192,209513,1,0,1:0:0:0:
256,192,209570,1,8,1:0:0:0:
256,192,209628,1,0,1:0:0:0:
256,192,209686,1,8,1:0:0:0:
256,192,209743,1,0,1:0:0:0:
256,192,209801,1,8,1:0:0:0:
256,192,209917,1,8,1:0:0:0:
256,192,210032,1,0,1:0:0:0:
256,192,210070,1,0,1:0:0:0:
256,192,210109,1,0,1:0:0:0:
256,192,210147,1,8,1:0:0:0:
256,192,210263,1,0,1:0:0:0:
256,192,210378,1,8,1:0:0:0:
256,192,210436,1,0,1:0:0:0:
256,192,210493,1,8,1:0:0:0:
256,192,210609,1,0,1:0:0:0:
256,192,210667,1,0,1:0:0:0:
256,192,210724,1,8,1:0:0:0:
256,192,210763,1,8,1:0:0:0:
256,192,210801,1,8,1:0:0:0:
256,192,210840,1,0,1:0:0:0:
256,192,210897,1,8,1:0:0:0:
256,192,210955,1,0,1:0:0:0:
256,192,211070,1,0,1:0:0:0:
256,192,211128,1,0,1:0:0:0:
256,192,211186,1,8,1:0:0:0:
256,192,211224,1,8,1:0:0:0:
256,192,211263,1,8,1:0:0:0:
256,192,211301,1,0,1:0:0:0:
256,192,211359,1,0,1:0:0:0:
256,192,211417,1,8,1:0:0:0:
256,192,211532,1,0,1:0:0:0:
256,192,211590,1,0,1:0:0:0:
256,192,211647,1,8,1:0:0:0:
256,192,211686,1,8,1:0:0:0:
256,192,211724,1,8,1:0:0:0:
256,192,211763,1,0,1:0:0:0:
256,192,211820,1,8,1:0:0:0:
256,192,211878,1,0,1:0:0:0:
256,192,211993,1,8,1:0:0:0:
256,192,212051,1,0,1:0:0:0:
256,192,212109,1,8,1:0:0:0:
256,192,212167,1,8,1:0:0:0:
256,192,212224,1,0,1:0:0:0:
256,192,212282,1,0,1:0:0:0:
256,192,212340,1,8,1:0:0:0:
256,192,212455,1,0,1:0:0:0:
256,192,212570,1,8,1:0:0:0:
256,192,212609,1,8,1:0:0:0:
256,192,212647,1,8,1:0:0:0:
256,192,212686,1,0,1:0:0:0:
256,192,212801,1,8,1:0:0:0:
256,192,212859,1,8,1:0:0:0:
256,192,212917,1,0,1:0:0:0:
256,192,212974,1,0,1:0:0:0:
256,192,213032,1,8,1:0:0:0:
256,192,213147,1,8,1:0:0:0:
256,192,213263,1,0,1:0:0:0:
256,192,213320,1,0,1:0:0:0:
256,192,213378,1,8,1:0:0:0:
256,192,213436,1,0,1:0:0:0:
256,192,213493,1,8,1:0:0:0:
256,192,213609,1,8,1:0:0:0:
256,192,213724,1,0,1:0:0:0:
256,192,213782,1,0,1:0:0:0:
256,192,213840,1,8,1:0:0:0:
256,192,213897,1,0,1:0:0:0:
256,192,213955,1,8,1:0:0:0:
256,192,214013,1,8,1:0:0:0:
256,192,214070,1,0,1:0:0:0:
256,192,214128,1,0,1:0:0:0:
256,192,214186,1,8,1:0:0:0:
256,192,214243,1,0,1:0:0:0:
256,192,214301,1,8,1:0:0:0:
256,192,214359,1,0,1:0:0:0:
256,192,214417,1,8,1:0:0:0:
256,192,214445,1,8,1:0:0:0:
256,192,214532,1,8,1:0:0:0:
256,192,214561,1,8,1:0:0:0:
256,192,214647,1,4,1:0:0:0:
256,192,214878,1,8,1:0:0:0:
256,192,215109,1,8,1:0:0:0:
256,192,215340,1,8,1:0:0:0:
256,192,215570,1,8,1:0:0:0:
256,192,215801,1,8,1:0:0:0:
256,192,216032,1,8,1:0:0:0:
256,192,216263,1,8,1:0:0:0:
256,192,216493,1,0,1:0:0:0:
256,192,216724,1,8,1:0:0:0:
256,192,216955,1,8,1:0:0:0:
256,192,217186,1,8,1:0:0:0:
256,192,217417,1,8,1:0:0:0:
256,192,217647,1,8,1:0:0:0:
256,192,217878,1,8,1:0:0:0:
256,192,218109,1,8,1:0:0:0:
256,192,218340,1,0,1:0:0:0:
256,192,218455,1,8,1:0:0:0:
256,192,218513,1,8,1:0:0:0:
256,192,218570,1,0,1:0:0:0:
256,192,218686,1,8,1:0:0:0:
256,192,218801,1,0,1:0:0:0:
256,192,218859,1,0,1:0:0:0:
256,192,218917,1,8,1:0:0:0:
256,192,218974,1,8,1:0:0:0:
256,192,219032,1,0,1:0:0:0:
256,192,219147,1,8,1:0:0:0:
256,192,219263,1,0,1:0:0:0:
256,192,219378,1,8,1:0:0:0:
256,192,219436,1,8,1:0:0:0:
256,192,219493,1,0,1:0:0:0:
256,192,219609,1,8,1:0:0:0:
256,192,219724,1,0,1:0:0:0:
256,192,219782,1,0,1:0:0:0:
256,192,219840,1,8,1:0:0:0:
256,192,219897,1,8,1:0:0:0:
256,192,219955,1,0,1:0:0:0:
256,192,220070,1,8,1:0:0:0:
256,192,220186,1,0,1:0:0:0:
256,192,220243,1,0,1:0:0:0:
256,192,220301,1,8,1:0:0:0:
256,192,220359,1,0,1:0:0:0:
256,192,220417,1,8,1:0:0:0:
256,192,220474,1,8,1:0:0:0:
256,192,220532,1,0,1:0:0:0:
256,192,220590,1,0,1:0:0:0:
256,192,220647,1,8,1:0:0:0:
256,192,220705,1,8,1:0:0:0:
256,192,220763,1,8,1:0:0:0:
256,192,220820,1,8,1:0:0:0:
256,192,220878,1,0,1:0:0:0:
256,192,220936,1,0,1:0:0:0:
256,192,220993,1,0,1:0:0:0:
256,192,221051,1,0,1:0:0:0:
256,192,221109,1,8,1:0:0:0:
256,192,222032,1,0,1:0:0:0:
256,192,222205,1,8,1:0:0:0:
256,192,222263,1,0,1:0:0:0:
256,192,222378,1,8,1:0:0:0:
256,192,222493,1,0,1:0:0:0:
256,192,222551,1,0,1:0:0:0:
256,192,222609,1,8,1:0:0:0:
256,192,222724,1,0,1:0:0:0:
256,192,222840,1,8,1:0:0:0:
256,192,222897,1,8,1:0:0:0:
256,192,222955,1,0,1:0:0:0:
256,192,223013,1,0,1:0:0:0:
256,192,223070,1,8,1:0:0:0:
256,192,223128,1,0,1:0:0:0:
256,192,223186,1,8,1:0:0:0:
256,192,223243,1,8,1:0:0:0:
256,192,223301,1,0,1:0:0:0:
256,192,223359,1,0,1:0:0:0:
256,192,223417,1,8,1:0:0:0:
256,192,223532,1,0,1:0:0:0:
256,192,223647,1,12,1:0:0:0:
256,192,223878,1,4,1:0:0:0:
256,192,224109,1,8,1:0:0:0:
256,192,224147,1,8,1:0:0:0:
256,192,224186,1,8,1:0:0:0:
256,192,224224,1,0,1:0:0:0:
256,192,224340,1,8,1:0:0:0:
256,192,224455,1,0,1:0:0:0:
256,192,224513,1,8,1:0:0:0:
256,192,224570,1,0,1:0:0:0:
256,192,224686,1,8,1:0:0:0:
256,192,224743,1,8,1:0:0:0:
256,192,224801,1,0,1:0:0:0:
256,192,224859,1,0,1:0:0:0:
256,192,224917,1,8,1:0:0:0:
256,192,224974,1,0,1:0:0:0:
256,192,225032,1,8,1:0:0:0:
256,192,225147,1,0,1:0:0:0:
256,192,225205,1,0,1:0:0:0:
256,192,225263,1,8,1:0:0:0:
256,192,225378,1,0,1:0:0:0:
256,192,225493,1,8,1:0:0:0:
256,192,225532,1,8,1:0:0:0:
256,192,225570,1,8,1:0:0:0:
256,192,225609,1,0,1:0:0:0:
256,192,225724,1,0,1:0:0:0:
256,192,225782,1,0,1:0:0:0:
256,192,225840,1,0,1:0:0:0:
256,192,225897,1,0,1:0:0:0:
256,192,225955,1,8,1:0:0:0:
256,192,226013,1,8,1:0:0:0:
256,192,226070,1,0,1:0:0:0:
256,192,226128,1,0,1:0:0:0:
256,192,226186,1,8,1:0:0:0:
256,192,226301,1,0,1:0:0:0:
256,192,226417,1,8,1:0:0:0:
256,192,226474,1,0,1:0:0:0:
256,192,226532,1,8,1:0:0:0:
256,192,226570,1,8,1:0:0:0:
256,192,226609,1,8,1:0:0:0:
256,192,226647,1,0,1:0:0:0:
256,192,226763,1,0,1:0:0:0:
256,192,226820,1,0,1:0:0:0:
256,192,226878,1,8,1:0:0:0:
256,192,226993,1,0,1:0:0:0:
256,192,227109,1,8,1:0:0:0:
256,192,227167,1,8,1:0:0:0:
256,192,227224,1,0,1:0:0:0:
256,192,227282,1,0,1:0:0:0:
256,192,227340,1,8,1:0:0:0:
256,192,227378,1,8,1:0:0:0:
256,192,227417,1,8,1:0:0:0:
256,192,227455,1,0,1:0:0:0:
256,192,227570,1,0,1:0:0:0:
256,192,227609,1,0,1:0:0:0:
256,192,227647,1,0,1:0:0:0:
256,192,227686,1,0,1:0:0:0:
256,192,227801,1,8,1:0:0:0:
256,192,227840,1,8,1:0:0:0:
256,192,227878,1,8,1:0:0:0:
256,192,227917,1,0,1:0:0:0:
256,192,228032,1,8,1:0:0:0:
256,192,228147,1,0,1:0:0:0:
256,192,228205,1,8,1:0:0:0:
256,192,228320,1,0,1:0:0:0:
256,192,228378,1,0,1:0:0:0:
256,192,228436,1,8,1:0:0:0:
256,192,228493,1,8,1:0:0:0:
256,192,228609,1,0,1:0:0:0:
256,192,228667,1,8,1:0:0:0:
256,192,228724,1,0,1:0:0:0:
256,192,228782,1,0,1:0:0:0:
256,192,228840,1,8,1:0:0:0:
256,192,228897,1,0,1:0:0:0:
256,192,228955,1,8,1:0:0:0:
256,192,229070,1,0,1:0:0:0:
256,192,229128,1,0,1:0:0:0:
256,192,229186,1,8,1:0:0:0:
256,192,229243,1,8,1:0:0:0:
256,192,229301,1,0,1:0:0:0:
256,192,229417,1,12,1:0:0:0:
256,192,229647,1,12,1:0:0:0:
256,192,229878,1,0,1:0:0:0:
256,192,229936,1,0,1:0:0:0:
256,192,229993,1,8,1:0:0:0:
256,192,230051,1,0,1:0:0:0:
256,192,230109,1,8,1:0:0:0:
256,192,230224,1,0,1:0:0:0:
256,192,230340,1,8,1:0:0:0:
256,192,230455,1,0,1:0:0:0:
256,192,230513,1,0,1:0:0:0:
256,192,230570,1,8,1:0:0:0:
256,192,230686,1,0,1:0:0:0:
256,192,230801,1,8,1:0:0:0:
256,192,230859,1,8,1:0:0:0:
256,192,230917,1,0,1:0:0:0:
256,192,230974,1,0,1:0:0:0:
256,192,231032,1,8,1:0:0:0:
256,192,231090,1,0,1:0:0:0:
256,192,231147,1,0,1:0:0:0:
256,192,231205,1,0,1:0:0:0:
256,192,231263,1,8,1:0:0:0:
256,192,231378,1,0,1:0:0:0:
256,192,231436,1,0,1:0:0:0:
256,192,231493,1,8,1:0:0:0:
256,192,231551,1,0,1:0:0:0:
256,192,231609,1,8,1:0:0:0:
256,192,231647,1,8,1:0:0:0:
256,192,231686,1,8,1:0:0:0:
256,192,231724,1,0,1:0:0:0:
256,192,231840,1,0,1:0:0:0:
256,192,231897,1,0,1:0:0:0:
256,192,231955,1,8,1:0:0:0:
256,192,232070,1,0,1:0:0:0:
256,192,232186,1,8,1:0:0:0:
256,192,232243,1,8,1:0:0:0:
256,192,232301,1,0,1:0:0:0:
256,192,232359,1,0,1:0:0:0:
256,192,232417,1,8,1:0:0:0:
256,192,232532,1,0,1:0:0:0:
256,192,232647,1,8,1:0:0:0:
256,192,232763,1,0,1:0:0:0:
256,192,232820,1,0,1:0:0:0:
256,192,232878,1,8,1:0:0:0:
256,192,232936,1,0,1:0:0:0:
256,192,232993,1,8,1:0:0:0:
256,192,233109,1,4,1:0:0:0:
256,192,233340,1,4,1:0:0:0:
256,192,233570,1,8,1:0:0:0:
256,192,233686,1,0,1:0:0:0:
256,192,233743,1,0,1:0:0:0:
256,192,233801,1,8,1:0:0:0:
256,192,233859,1,8,1:0:0:0:
256,192,233917,1,0,1:0:0:0:
256,192,233974,1,0,1:0:0:0:
256,192,234032,1,8,1:0:0:0:
256,192,234147,1,0,1:0:0:0:
256,192,234186,1,0,1:0:0:0:
256,192,234224,1,0,1:0:0:0:
256,192,234263,1,8,1:0:0:0:
256,192,234320,1,0,1:0:0:0:
256,192,234378,1,8,1:0:0:0:
256,192,234493,1,0,1:0:0:0:
256,192,234609,1,8,1:0:0:0:
256,192,234667,1,0,1:0:0:0:
256,192,234724,1,8,1:0:0:0:
256,192,234782,1,8,1:0:0:0:
256,192,234840,1,0,1:0:0:0:
256,192,234898,1,0,1:0:0:0:
256,192,234955,1,8,1:0:0:0:
256,192,235070,1,0,1:0:0:0:
256,192,235109,1,0,1:0:0:0:
256,192,235147,1,0,1:0:0:0:
256,192,235186,1,8,1:0:0:0:
256,192,235243,1,0,1:0:0:0:
256,192,235301,1,8,1:0:0:0:
256,192,235417,1,0,1:0:0:0:
256,192,235532,1,8,1:0:0:0:
256,192,235590,1,0,1:0:0:0:
256,192,235647,1,8,1:0:0:0:
256,192,235705,1,8,1:0:0:0:
256,192,235763,1,0,1:0:0:0:
256,192,235821,1,8,1:0:0:0:
256,192,235878,1,0,1:0:0:0:
256,192,235993,1,8,1:0:0:0:
256,192,236051,1,8,1:0:0:0:
256,192,236109,1,0,1:0:0:0:
256,192,236167,1,0,1:0:0:0:
256,192,236224,1,8,1:0:0:0:
256,192,236282,1,8,1:0:0:0:
256,192,236340,1,0,1:0:0:0:
256,192,236378,1,0,1:0:0:0:
256,192,236417,1,0,1:0:0:0:
256,192,236455,1,8,1:0:0:0:
256,192,236513,1,0,1:0:0:0:
256,192,236570,1,8,1:0:0:0:
256,192,236686,1,0,1:0:0:0:
256,192,236801,1,8,1:0:0:0:
256,192,236917,1,0,1:0:0:0:
256,192,236974,1,0,1:0:0:0:
256,192,237032,1,8,1:0:0:0:
256,192,237090,1,8,1:0:0:0:
256,192,237147,1,0,1:0:0:0:
256,192,237205,1,0,1:0:0:0:
256,192,237263,1,8,1:0:0:0:
256,192,237320,1,8,1:0:0:0:
256,192,237378,1,0,1:0:0:0:
256,192,237436,1,8,1:0:0:0:
256,192,237493,1,0,1:0:0:0:
256,192,237551,1,0,1:0:0:0:
256,192,237609,1,8,1:0:0:0:
256,192,237647,1,8,1:0:0:0:
256,192,237686,1,8,1:0:0:0:
256,192,237724,1,0,1:0:0:0:
256,192,237840,1,0,1:0:0:0:
256,192,237897,1,0,1:0:0:0:
256,192,237955,1,8,1:0:0:0:
256,192,238013,1,0,1:0:0:0:
256,192,238070,1,0,1:0:0:0:
256,192,238128,1,0,1:0:0:0:
256,192,238186,1,8,1:0:0:0:
256,192,238301,1,0,1:0:0:0:
256,192,238359,1,0,1:0:0:0:
256,192,238417,1,8,1:0:0:0:
256,192,238474,1,8,1:0:0:0:
256,192,238532,1,8,1:0:0:0:
256,192,238590,1,8,1:0:0:0:
256,192,238647,1,0,1:0:0:0:
256,192,238763,1,0,1:0:0:0:
256,192,238820,1,0,1:0:0:0:
256,192,238878,1,8,1:0:0:0:
256,192,238936,1,8,1:0:0:0:
256,192,238993,1,0,1:0:0:0:
256,192,239051,1,0,1:0:0:0:
256,192,239109,1,8,1:0:0:0:
256,192,239224,1,0,1:0:0:0:
256,192,239282,1,0,1:0:0:0:
256,192,239340,1,8,1:0:0:0:
256,192,239378,1,8,1:0:0:0:
256,192,239417,1,8,1:0:0:0:
256,192,239455,1,0,1:0:0:0:
256,192,239513,1,8,1:0:0:0:
256,192,239570,1,0,1:0:0:0:
256,192,239686,1,8,1:0:0:0:
256,192,239743,1,0,1:0:0:0:
256,192,239801,1,8,1:0:0:0:
256,192,239917,1,0,1:0:0:0:
256,192,239974,1,0,1:0:0:0:
256,192,240032,1,8,1:0:0:0:
256,192,240090,1,0,1:0:0:0:
256,192,240147,1,8,1:0:0:0:
256,192,240205,1,8,1:0:0:0:
256,192,240263,1,0,1:0:0:0:
256,192,240378,1,8,1:0:0:0:
256,192,240493,1,0,1:0:0:0:
256,192,240609,1,0,1:0:0:0:
256,192,240667,1,0,1:0:0:0:
256,192,240724,1,8,1:0:0:0:
256,192,240782,1,8,1:0:0:0:
256,192,240840,1,0,1:0:0:0:
256,192,240897,1,0,1:0:0:0:
256,192,240955,1,8,1:0:0:0:
256,192,240993,1,8,1:0:0:0:
256,192,241032,1,8,1:0:0:0:
256,192,241070,1,8,1:0:0:0:
256,192,241109,1,8,1:0:0:0:
256,192,241147,1,8,1:0:0:0:
256,192,241186,1,8,1:0:0:0:
256,192,241301,1,0,1:0:0:0:
256,192,241417,1,8,1:0:0:0:
256,192,241474,1,8,1:0:0:0:
256,192,241532,1,8,1:0:0:0:
256,192,241590,1,0,1:0:0:0:
256,192,241647,1,8,1:0:0:0:
256,192,241705,1,8,1:0:0:0:
256,192,241763,1,0,1:0:0:0:
256,192,241820,1,0,1:0:0:0:
256,192,241878,1,8,1:0:0:0:
256,192,241936,1,8,1:0:0:0:
256,192,241993,1,8,1:0:0:0:
256,192,242051,1,0,1:0:0:0:
256,192,242109,1,8,1:0:0:0:
256,192,242167,1,8,1:0:0:0:
256,192,242224,1,0,1:0:0:0:
256,192,242282,1,0,1:0:0:0:
256,192,242340,1,8,1:0:0:0:
256,192,242455,1,0,1:0:0:0:
256,192,242493,1,0,1:0:0:0:
256,192,242532,1,0,1:0:0:0:
256,192,242570,1,8,1:0:0:0:
256,192,242628,1,0,1:0:0:0:
256,192,242686,1,8,1:0:0:0:
256,192,242801,1,0,1:0:0:0:
256,192,242859,1,0,1:0:0:0:
256,192,242917,1,8,1:0:0:0:
256,192,242974,1,8,1:0:0:0:
256,192,243032,1,0,1:0:0:0:
256,192,243070,1,0,1:0:0:0:
256,192,243109,1,0,1:0:0:0:
256,192,243147,1,8,1:0:0:0:
256,192,243263,1,0,1:0:0:0:
256,192,243378,1,8,1:0:0:0:
256,192,243436,1,8,1:0:0:0:
256,192,243493,1,0,1:0:0:0:
256,192,243551,1,0,1:0:0:0:
256,192,243609,1,8,1:0:0:0:
256,192,243647,1,8,1:0:0:0:
256,192,243686,1,8,1:0:0:0:
256,192,243724,1,0,1:0:0:0:
256,192,243840,1,8,1:0:0:0:
256,192,243955,1,0,1:0:0:0:
256,192,244186,1,12,1:0:0:0:
256,192,244647,1,8,1:0:0:0:
256,192,244878,1,8,1:0:0:0:
256,192,245109,1,0,1:0:0:0:
256,192,245570,1,8,1:0:0:0:
256,192,246032,1,0,1:0:0:0:
256,192,246493,1,8,1:0:0:0:
256,192,246724,1,8,1:0:0:0:
256,192,246955,1,0,1:0:0:0:
256,192,247416,2,0,L|292:192,3,36.7566483523208,0|0|0|0,1:0|1:0|1:0|1:0,1:0:0:0:
256,192,247762,1,8,1:0:0:0:
256,192,247878,1,0,1:0:0:0:
256,192,248339,1,0,1:0:0:0:
256,192,248570,1,8,1:0:0:0:
256,192,248801,1,0,1:0:0:0:
256,192,249262,1,8,1:0:0:0:
256,192,249724,1,0,1:0:0:0:
256,192,250186,1,8,1:0:0:0:
256,192,250416,1,8,1:0:0:0:
256,192,250647,1,0,1:0:0:0:
256,192,250762,1,0,1:0:0:0:
256,192,250878,1,8,1:0:0:0:
256,192,250993,1,0,1:0:0:0:
256,192,251109,1,8,1:0:0:0:
256,192,251224,1,8,1:0:0:0:
256,192,251339,1,8,1:0:0:0:
256,192,251570,1,0,1:0:0:0:
256,192,251801,1,0,1:0:0:0:
256,192,252032,1,8,1:0:0:0:
256,192,252262,1,0,1:0:0:0:
256,192,252493,1,8,1:0:0:0:
256,192,252955,1,8,1:0:0:0:
256,192,253186,1,8,1:0:0:0:
256,192,253416,1,0,1:0:0:0:
256,192,253878,1,8,1:0:0:0:
256,192,254339,1,0,1:0:0:0:
256,192,254570,1,0,1:0:0:0:
256,192,254801,2,0,L|286:192,3,30.8817615313355,0|0|0|0,1:0|1:0|1:0|1:0,1:0:0:0:
256,192,255186,1,8,1:0:0:0:
256,192,255262,1,0,1:0:0:0:
256,192,255416,1,0,1:0:0:0:
256,192,255570,1,0,1:0:0:0:
256,192,255724,1,8,1:0:0:0:
256,192,255955,1,8,1:0:0:0:
256,192,256186,1,0,1:0:0:0:
256,192,256647,1,8,1:0:0:0:
256,192,256878,1,8,1:0:0:0:
256,192,257109,1,0,1:0:0:0:
256,192,257224,1,8,1:0:0:0:
256,192,257339,1,0,1:0:0:0:
256,192,257570,1,8,1:0:0:0:
256,192,257801,1,8,1:0:0:0:
256,192,257916,1,8,1:0:0:0:
256,192,258032,1,0,1:0:0:0:
256,192,258147,1,8,1:0:0:0:
256,192,258262,1,0,1:0:0:0:
256,192,258378,1,0,1:0:0:0:
256,192,258493,1,8,1:0:0:0:
256,192,258609,1,8,1:0:0:0:
256,192,258724,1,8,1:0:0:0:
256,192,258839,1,8,1:0:0:0:
256,192,258955,8,0,265416,1:0:0:0:
