osu file format v14

[General]
AudioFilename: audio.mp3
AudioLeadIn: 0
PreviewTime: -1
Countdown: 0
SampleSet: Normal
StackLeniency: 0.7
Mode: 0
LetterboxInBreaks: 0
WidescreenStoryboard: 0

[Editor]
Bookmarks: 11453,23062,25409,26192,27757,28279,31801,36627,44975,61670,78366,94996
DistanceSpacing: 0.8
BeatDivisor: 4
GridSize: 32
TimelineZoom: 1

[Metadata]
Title:Keisei Memehinters
TitleUnicode:Keisei Memehinters
Artist:Katagiri
ArtistUnicode:かたぎり
Creator:Kalesy
Version:Lol
Source:
Tags:
BeatmapID:1873258
BeatmapSetID:896644

[Difficulty]
HPDrainRate:6
CircleSize:4
OverallDifficulty:7
ApproachRate:9.3
SliderMultiplier:2.2
SliderTickRate:2

[Events]
//Background and Video events
0,0,"10847042_p0.jpg",0,0
//Break Periods
//Storyboard Layer 0 (Background)
//Storyboard Layer 1 (Fail)
//Storyboard Layer 2 (Pass)
//Storyboard Layer 3 (Foreground)
//Storyboard Sound Samples

[TimingPoints]
1149,260.869565217391,4,1,0,100,1,0
11583,-66.6666666666667,4,1,0,100,0,0
14714,-200,4,1,0,100,0,0
15757,-66.6666666666667,4,1,0,100,0,0
19018,-76.9230769230769,4,1,0,100,0,0
19670,-133.333333333333,4,1,0,100,0,0
19931,-133.333333333333,4,1,0,100,0,0
23062,-200,4,1,0,100,0,0
23322,-250,4,1,0,100,0,0
23583,-333.333333333333,4,1,0,100,0,0
23844,-500,4,1,0,100,0,0
24105,-66.6666666666667,4,1,0,100,0,0
24888,-57.1428571428571,4,1,0,100,0,0
27757,-500,4,1,0,100,0,0

[HitObjects]
56,78,627,5,0,0:0:0:0:
121,53,757,1,0,0:0:0:0:
178,94,888,1,0,0:0:0:0:
186,164,1018,1,0,0:0:0:0:
112,135,1149,2,0,P|110:202|180:243,2,110
286,90,1540,5,0,0:0:0:0:
286,90,1801,1,0,0:0:0:0:
201,111,1931,2,0,L|271:220,1,110
348,313,2192,1,0,0:0:0:0:
348,313,2453,1,0,0:0:0:0:
291,177,2714,5,0,0:0:0:0:
266,112,2844,1,0,0:0:0:0:
307,55,2975,1,0,0:0:0:0:
377,47,3105,1,0,0:0:0:0:
348,121,3236,2,0,P|415:123|456:53,2,110
365,239,3627,1,0,0:0:0:0:
307,55,3888,5,0,0:0:0:0:
275,135,4018,1,0,0:0:0:0:
236,223,4148,2,0,P|178:244|111:120,1,220
106,73,4801,5,0,0:0:0:0:
91,157,4931,1,0,0:0:0:0:
114,241,5062,1,0,0:0:0:0:
160,313,5192,1,0,0:0:0:0:
192,216,5322,2,0,L|297:269,2,110
183,101,5714,1,0,0:0:0:0:
307,110,5975,5,0,0:0:0:0:
379,62,6105,1,0,0:0:0:0:
384,146,6235,2,0,P|345:220|308:222,1,110
304,144,6496,2,0,P|246:183|262:252,1,110
222,51,6888,5,0,0:0:0:0:
204,137,7018,1,0,0:0:0:0:
180,219,7148,1,0,0:0:0:0:
159,302,7279,1,0,0:0:0:0:
342,264,7409,5,0,0:0:0:0:
232,223,7540,1,0,0:0:0:0:
365,187,7670,5,0,0:0:0:0:
255,146,7801,1,0,0:0:0:0:
386,115,7931,5,0,0:0:0:0:
138,64,8062,2,0,L|172:185,1,110
256,110,8323,2,0,L|290:231,1,110
405,283,8714,5,0,0:0:0:0:
405,283,8975,1,0,0:0:0:0:
405,283,9235,1,0,0:0:0:0:
405,283,9496,1,0,0:0:0:0:
256,192,9627,12,0,11322,0:0:0:0:
141,156,11453,5,0,0:0:0:0:
160,62,11583,1,0,0:0:0:0:
235,128,11714,1,0,0:0:0:0:
235,128,11844,1,0,0:0:0:0:
371,156,11975,5,0,0:0:0:0:
352,62,12105,1,0,0:0:0:0:
277,128,12235,1,0,0:0:0:0:
277,128,12366,1,0,0:0:0:0:
199,224,12496,2,0,P|283:277|378:254,2,165.000006294251
371,156,12888,1,0,0:0:0:0:
64,96,13148,1,0,0:0:0:0:
94,161,13279,1,0,0:0:0:0:
128,224,13409,1,0,0:0:0:0:
160,288,13540,1,0,0:0:0:0:
265,278,13670,5,0,0:0:0:0:
323,220,13801,1,0,0:0:0:0:
341,297,13931,1,0,0:0:0:0:
341,297,14062,1,0,0:0:0:0:
398,241,14192,5,0,0:0:0:0:
416,316,14322,1,0,0:0:0:0:
361,371,14453,1,0,0:0:0:0:
266,303,14714,2,0,L|155:319,1,110
163,245,15235,2,0,L|50:235,1,110
44,335,15757,5,0,0:0:0:0:
36,250,15888,1,0,0:0:0:0:
111,287,16018,1,0,0:0:0:0:
111,287,16083,1,0,0:0:0:0:
111,287,16148,1,0,0:0:0:0:
103,202,16279,5,0,0:0:0:0:
183,243,16409,1,0,0:0:0:0:
171,345,16540,1,0,0:0:0:0:
171,345,16605,1,0,0:0:0:0:
171,345,16670,1,0,0:0:0:0:
242,308,16801,5,0,0:0:0:0:
263,231,16931,1,0,0:0:0:0:
211,172,17061,1,0,0:0:0:0:
211,172,17127,1,0,0:0:0:0:
211,172,17192,1,0,0:0:0:0:
224,65,17322,2,0,L|333:198,1,165.000006294251
323,68,17583,2,0,L|465:239,1,165.000006294251
381,307,17844,5,0,0:0:0:0:
300,271,17975,1,0,0:0:0:0:
371,230,18105,1,0,0:0:0:0:
298,190,18235,1,0,0:0:0:0:
239,236,18366,1,0,0:0:0:0:
231,161,18496,1,0,0:0:0:0:
302,120,18626,1,0,0:0:0:0:
236,84,18757,1,0,0:0:0:0:
169,122,18888,1,0,0:0:0:0:
165,196,19018,2,0,L|223:342,1,142.99999345398
251,209,19279,2,0,L|309:355,1,142.99999345398
418,205,19670,6,0,L|356:152,1,82.5000031471254
346,48,19931,2,0,L|268:66,1,41.2500015735627
241,81,20062,2,0,L|191:61,1,41.2500015735627
137,93,20192,2,0,L|59:111,1,41.2500015735627
368,129,20453,6,0,L|290:147,1,41.2500015735627
263,162,20584,2,0,L|213:142,1,41.2500015735627
159,174,20714,2,0,L|81:192,1,41.2500015735627
372,214,20975,6,0,L|294:232,1,41.2500015735627
267,247,21106,2,0,L|217:227,1,41.2500015735627
163,259,21236,2,0,L|85:277,1,41.2500015735627
72,115,21496,6,0,L|100:195,1,82.5000031471254
202,194,21757,2,0,L|242:287,1,82.5000031471254
339,293,22018,5,0,0:0:0:0:
386,231,22148,1,0,0:0:0:0:
418,306,22279,1,0,0:0:0:0:
418,306,22344,1,0,0:0:0:0:
418,306,22409,1,0,0:0:0:0:
460,241,22540,5,0,0:0:0:0:
428,169,22670,1,0,0:0:0:0:
395,238,22801,1,0,0:0:0:0:
395,238,22866,1,0,0:0:0:0:
395,238,22931,1,0,0:0:0:0:
308,133,23062,6,0,L|232:146,1,55
233,212,23322,2,0,L|180:212,1,44
170,134,23583,2,0,L|128:145,1,32.99999899292
123,216,23844,2,0,L|94:207,1,22
257,100,24105,6,0,L|133:296,1,165.000006294251
174,243,24366,2,0,L|366:243,1,165.000006294251
339,243,24627,2,0,L|249:86,1,165.000006294251
176,145,24888,6,0,L|285:350,1,165.000006294251
259,288,25149,2,0,L|355:122,1,165.000006294251
341,145,25410,2,0,L|160:145,1,165.000006294251
76,114,25670,1,0,0:0:0:0:
101,185,25801,1,0,0:0:0:0:
128,258,25931,1,0,0:0:0:0:
160,332,26062,1,0,0:0:0:0:
256,334,26192,1,0,0:0:0:0:
297,316,26257,1,0,0:0:0:0:
320,276,26322,1,0,0:0:0:0:
314,231,26387,1,0,0:0:0:0:
282,199,26452,1,0,0:0:0:0:
237,193,26518,1,0,0:0:0:0:
197,215,26583,1,0,0:0:0:0:
168,246,26649,1,0,0:0:0:0:
132,274,26714,1,0,0:0:0:0:
87,274,26779,1,0,0:0:0:0:
50,248,26844,1,0,0:0:0:0:
37,204,26909,1,0,0:0:0:0:
46,158,26910,1,0,0:0:0:0:
81,124,26975,1,0,0:0:0:0:
127,118,27040,1,0,0:0:0:0:
168,141,27105,1,0,0:0:0:0:
208,91,27235,5,0,0:0:0:0:
292,22,27366,1,0,0:0:0:0:
255,155,27496,5,0,0:0:0:0:
339,86,27627,1,0,0:0:0:0:
333,167,27757,2,0,L|363:208,1,44
414,323,28344,6,0,P|338:341|269:323,1,143
224,277,29322,2,0,P|137:242|83:258,1,154
143,328,30366,2,0,P|228:357|284:328,1,154
339,275,31409,2,0,P|388:208|391:140,1,154
312,178,32453,2,0,P|206:191|162:167,1,154
240,115,33496,2,0,P|317:99|392:121,1,154
440,193,34540,2,0,P|366:250|311:243,1,154
