osu file format v14

[General]
AudioFilename: audio.mp3
AudioLeadIn: 0
PreviewTime: 42881
Countdown: 0
SampleSet: None
StackLeniency: 0.7
Mode: 1
LetterboxInBreaks: 0
WidescreenStoryboard: 1

[Editor]
Bookmarks: 11577,28272,44968,61664,78359,95055,111751,136794,145142,149316,174359,193142
DistanceSpacing: 0.1
BeatDivisor: 2
GridSize: 32
TimelineZoom: 3.899997

[Metadata]
Title:Heisei Memehunters
TitleUnicode:Heisei Memehunters
Artist:Katagiri
ArtistUnicode:かたぎり
Creator:Capu
Version:Kantan
Source:
Tags:
BeatmapID:4257177
BeatmapSetID:882798

[Difficulty]
HPDrainRate:8
CircleSize:2
OverallDifficulty:3
ApproachRate:10
SliderMultiplier:1.4
SliderTickRate:1

[Events]
//Background and Video events
0,0,"902449.png",0,0
//Break Periods
//Storyboard Layer 0 (Background)
//Storyboard Layer 1 (Fail)
//Storyboard Layer 2 (Pass)
//Storyboard Layer 3 (Foreground)
//Storyboard Layer 4 (Overlay)
//Storyboard Sound Samples

[TimingPoints]
99,260.869565217391,4,1,0,100,1,0
620,-125,4,1,0,65,0,0
10533,-125,4,1,0,65,0,0
10794,-117.682917500744,4,1,0,65,0,0
10925,-114.336545046884,4,1,0,65,0,0
11055,-111.175098556725,4,1,0,65,0,0
11185,-108.183895312608,4,1,0,65,0,0
11316,-105.349322551181,4,1,0,65,0,0
11381,-103.987072327168,4,1,0,65,0,0
11446,-102.659602317233,4,1,0,65,0,0
11512,-101.365597327192,4,1,0,65,0,0
11577,-100.103707440909,4,1,0,80,0,0
14707,-100,4,1,0,80,0,0
14838,-106.060622130397,4,1,0,75,0,0
14968,-112.903262226859,4,1,0,70,0,0
15229,-129.629557613209,4,1,0,60,0,0
15294,-134.615410502964,4,1,0,50,0,0
15359,-139.999944000022,4,1,0,40,0,0
15490,-152.1738799622,4,1,0,30,0,0
15620,-166.666666666667,4,1,0,20,0,0
15751,-100,4,1,0,80,0,0
23055,-100,4,1,0,80,0,0
23185,-106.060622130397,4,1,0,90,0,0
23316,-112.903262226859,4,1,0,80,0,0
23577,-129.629557613209,4,1,0,70,0,0
23707,-139.999944000022,4,1,0,60,0,0
23772,-145.833394097248,4,1,0,50,0,0
23838,-152.1738799622,4,1,0,40,0,0
23968,-166.666666666667,4,1,0,30,0,0
24098,-100,4,1,0,80,0,0
28272,-111.111111111111,4,1,0,80,0,0
29316,-125,4,1,0,80,0,0
30359,-142.857142857143,4,1,0,80,0,0
31403,-166.666666666667,4,1,0,80,0,0
32446,-200,4,1,0,80,0,0
33490,-250,4,1,0,80,0,0
34533,-333.333333333333,4,1,0,80,0,0
35577,-500,4,1,0,80,0,0
36359,-1000,4,1,0,80,0,0
36620,-100,4,1,0,100,0,0
43012,-100,4,1,0,100,0,0
43533,-100,4,1,0,100,0,0
44055,-100,4,1,0,100,0,0
44575,-100,4,1,0,100,0,0
44968,-100,4,1,0,100,0,1
61664,-100,4,1,0,100,0,0
67925,-100,4,1,0,100,0,0
68055,-106.060622130397,4,1,0,88,0,0
68185,-112.903262226859,4,1,0,77,0,0
68446,-129.629557613209,4,1,0,65,0,0
68512,-133.333333333333,4,1,0,65,0,0
68577,-136.986301369863,4,1,0,65,0,0
68707,-152.1738799622,4,1,0,53,0,0
68772,-159.091017562057,4,1,0,42,0,0
68838,-166.666666666667,4,1,0,30,0,0
68968,-100,4,1,0,100,0,0
72359,-125,4,1,0,70,0,0
76012,-117.647058823529,4,1,0,70,0,0
76142,-111.111111111111,4,1,0,70,0,0
76207,-105.263157894737,4,1,0,70,0,0
76272,-100,4,1,0,100,0,0
85664,-100,4,1,0,100,0,0
85794,-107.142895408177,4,1,0,100,0,0
85925,-115.384571005934,4,1,0,100,0,0
86055,-125,4,1,0,100,0,0
86185,-136.363698347136,4,1,0,100,0,0
86316,-149.999925000038,4,1,0,100,0,0
86446,-166.666666666667,4,1,0,100,0,0
86707,-100,4,1,0,100,0,0
86903,-100,4,1,0,100,0,0
88990,-100,4,1,0,100,0,0
94012,-100,4,1,0,100,0,0
94142,-111.111111111111,4,1,0,100,0,0
94272,-125,4,1,0,100,0,0
94403,-142.857142857143,4,1,0,100,0,0
94533,-142.857142857143,4,1,0,100,0,0
94664,-129.161085831416,4,1,0,100,0,0
94729,-123.252890280277,4,1,0,100,0,0
94794,-117.861427961917,4,1,0,100,0,0
94925,-108.379936706117,4,1,0,100,0,0
94990,-104.189023894711,4,1,0,100,0,0
95055,-100.310259633045,4,1,0,100,0,0
145142,-100,4,1,0,100,0,0
145403,-105.248755433467,4,1,0,60,0,0
145533,-108.085322553624,4,1,0,60,0,0
145794,-114.243281067032,4,1,0,60,0,0
145925,-117.593104340361,4,1,0,60,0,0
146316,-128.935099228452,4,1,0,60,0,0
146577,-137.795329840681,4,1,0,60,0,0
146707,-142.698339990211,4,1,0,60,0,0
146968,-153.631306373087,4,1,0,100,0,0
147229,-166.378554469843,4,1,0,100,0,0
148272,-142.857142857143,4,1,0,100,0,0
148403,-135.628897635446,4,1,0,100,0,0
148533,-129.097056458016,4,1,0,100,0,0
148664,-123.165298916022,4,1,0,100,0,0
148794,-117.754700473256,4,1,0,100,0,0
148925,-112.799595726249,4,1,0,100,0,0
149055,-108.244554757673,4,1,0,100,0,0
149316,-100.155641867462,4,1,0,100,0,0
157664,-100.155641867462,4,1,0,100,0,1
173185,-100.155641867462,4,1,0,100,0,0
174359,-100.155641867462,4,1,0,100,0,1
182512,-91.0377023540529,4,1,0,100,0,1
182577,-83.4413899332969,4,1,0,100,0,1
182642,-77.0151396361497,4,1,0,100,0,1
182707,-71.4285714285714,4,1,0,100,0,1
190794,-100,4,1,0,100,0,0
211664,-40,4,1,0,100,0,0

[HitObjects]
256,192,1142,5,12,0:0:0:0:
256,192,1403,1,8,0:0:0:0:
256,192,1925,1,8,0:0:0:0:
256,192,2185,1,8,0:0:0:0:
256,192,2446,1,8,0:0:0:0:
256,192,2968,1,8,0:0:0:0:
256,192,3229,1,8,0:0:0:0:
256,192,3490,1,8,0:0:0:0:
256,192,4012,1,8,0:0:0:0:
256,192,4272,1,8,0:0:0:0:
256,192,4533,1,8,0:0:0:0:
256,192,5316,1,12,0:0:0:0:
256,192,5577,1,8,0:0:0:0:
256,192,6098,1,8,0:0:0:0:
256,192,6359,1,8,0:0:0:0:
256,192,6620,1,8,0:0:0:0:
256,192,7142,1,8,0:0:0:0:
256,192,7403,1,8,0:0:0:0:
256,192,7664,1,8,0:0:0:0:
256,192,8185,1,8,0:0:0:0:
256,192,8446,1,8,0:0:0:0:
256,192,8707,1,8,0:0:0:0:
256,192,9229,1,8,0:0:0:0:
256,192,9490,1,12,0:0:0:0:
256,192,10533,1,8,0:0:0:0:
256,192,11055,1,8,0:0:0:0:
256,192,11316,1,8,0:0:0:0:
256,192,11577,1,12,0:0:0:0:
256,192,12098,1,12,0:0:0:0:
256,192,12620,1,12,0:0:0:0:
256,192,13142,1,8,0:0:0:0:
256,192,13403,1,8,0:0:0:0:
256,192,13664,1,12,0:0:0:0:
256,192,14185,1,12,0:0:0:0:
256,192,14707,1,12,0:0:0:0:
256,192,15751,1,12,0:0:0:0:
256,192,16272,1,12,0:0:0:0:
256,192,16794,1,12,0:0:0:0:
256,192,17316,1,8,0:0:0:0:
256,192,17838,1,8,0:0:0:0:
256,192,18098,1,8,0:0:0:0:
256,192,18359,1,8,0:0:0:0:
256,192,18620,1,8,0:0:0:0:
256,192,18881,1,8,0:0:0:0:
256,192,19925,1,12,0:0:0:0:
256,192,20446,1,12,0:0:0:0:
256,192,20968,1,12,0:0:0:0:
256,192,21490,1,8,0:0:0:0:
256,192,21751,1,8,0:0:0:0:
256,192,22012,1,12,0:0:0:0:
256,192,22533,1,12,0:0:0:0:
256,192,23055,1,12,0:0:0:0:
256,192,24098,1,12,0:0:0:0:
256,192,24620,1,12,0:0:0:0:
256,192,25142,1,12,0:0:0:0:
256,192,25664,1,8,0:0:0:0:
256,192,26185,1,8,0:0:0:0:
256,192,26446,1,8,0:0:0:0:
256,192,26707,1,8,0:0:0:0:
256,192,26968,1,8,0:0:0:0:
256,192,27229,1,8,0:0:0:0:
256,192,27751,1,8,0:0:0:0:
256,192,28012,1,8,0:0:0:0:
256,192,28272,1,12,0:0:0:0:
256,192,29316,1,8,0:0:0:0:
256,192,30359,1,8,0:0:0:0:
256,192,31403,1,8,0:0:0:0:
256,192,32446,1,12,0:0:0:0:
256,192,33490,1,8,0:0:0:0:
256,192,34533,1,8,0:0:0:0:
256,192,35577,1,8,0:0:0:0:
256,192,36359,1,8,0:0:0:0:
256,192,36620,1,8,0:0:0:0:
256,192,36881,1,8,0:0:0:0:
256,192,37403,1,8,0:0:0:0:
256,192,37664,1,8,0:0:0:0:
256,192,37925,1,8,0:0:0:0:
256,192,38446,1,8,0:0:0:0:
256,192,38707,1,8,0:0:0:0:
256,192,38968,1,8,0:0:0:0:
256,192,39490,1,8,0:0:0:0:
256,192,39751,1,8,0:0:0:0:
256,192,40794,1,12,0:0:0:0:
256,192,41055,1,8,0:0:0:0:
256,192,41577,1,8,0:0:0:0:
256,192,41838,1,8,0:0:0:0:
256,192,42098,1,8,0:0:0:0:
256,192,42359,1,8,0:0:0:0:
256,192,42881,1,12,0:0:0:0:
256,192,43403,1,12,0:0:0:0:
256,192,43925,1,12,0:0:0:0:
256,192,44446,1,12,0:0:0:0:
256,192,44968,1,8,0:0:0:0:
256,192,45229,1,8,0:0:0:0:
256,192,45490,1,8,0:0:0:0:
256,192,46012,1,8,0:0:0:0:
256,192,46272,1,8,0:0:0:0:
256,192,46533,1,8,0:0:0:0:
256,192,46794,1,8,0:0:0:0:
256,192,47055,1,8,0:0:0:0:
256,192,47577,1,8,0:0:0:0:
256,192,48098,1,8,0:0:0:0:
256,192,49142,1,8,0:0:0:0:
256,192,49403,1,8,0:0:0:0:
256,192,49664,1,8,0:0:0:0:
256,192,50185,1,8,0:0:0:0:
256,192,50446,1,8,0:0:0:0:
256,192,50707,1,8,0:0:0:0:
256,192,50968,1,8,0:0:0:0:
256,192,51229,1,8,0:0:0:0:
256,192,51751,1,8,0:0:0:0:
256,192,52272,1,8,0:0:0:0:
256,192,53316,1,12,0:0:0:0:
256,192,53838,1,8,0:0:0:0:
256,192,54098,1,8,0:0:0:0:
256,192,54359,1,8,0:0:0:0:
256,192,54620,1,8,0:0:0:0:
256,192,54881,1,8,0:0:0:0:
256,192,55403,1,8,0:0:0:0:
256,192,55664,1,8,0:0:0:0:
256,192,55925,1,8,0:0:0:0:
256,192,56185,1,8,0:0:0:0:
256,192,56446,1,8,0:0:0:0:
256,192,57490,1,8,0:0:0:0:
256,192,57751,1,8,0:0:0:0:
256,192,58012,1,8,0:0:0:0:
256,192,58533,1,8,0:0:0:0:
256,192,58794,1,8,0:0:0:0:
256,192,59055,1,8,0:0:0:0:
256,192,59316,1,8,0:0:0:0:
256,192,59577,1,8,0:0:0:0:
256,192,60098,1,8,0:0:0:0:
256,192,60359,1,8,0:0:0:0:
256,192,60620,1,8,0:0:0:0:
256,192,61664,1,12,0:0:0:0:
256,192,62185,1,8,0:0:0:0:
256,192,62707,1,8,0:0:0:0:
256,192,62968,1,8,0:0:0:0:
256,192,63229,1,8,0:0:0:0:
256,192,63751,1,8,0:0:0:0:
256,192,64272,1,8,0:0:0:0:
256,192,64794,1,8,0:0:0:0:
256,192,65055,1,8,0:0:0:0:
256,192,65316,1,8,0:0:0:0:
256,192,65838,1,12,0:0:0:0:
256,192,66359,1,8,0:0:0:0:
256,192,66620,1,8,0:0:0:0:
256,192,66881,1,8,0:0:0:0:
256,192,67403,1,8,0:0:0:0:
256,192,67925,1,8,0:0:0:0:
256,192,68968,1,8,0:0:0:0:
256,192,69229,1,8,0:0:0:0:
256,192,69490,1,8,0:0:0:0:
256,192,69751,1,8,0:0:0:0:
256,192,70012,1,12,0:0:0:0:
256,192,70533,1,8,0:0:0:0:
256,192,71055,1,8,0:0:0:0:
256,192,71316,1,8,0:0:0:0:
256,192,71577,1,8,0:0:0:0:
256,192,71838,1,8,0:0:0:0:
256,192,73925,1,8,0:0:0:0:
256,192,74185,1,12,0:0:0:0:
256,192,74707,1,8,0:0:0:0:
256,192,75229,1,8,0:0:0:0:
256,192,75751,1,8,0:0:0:0:
256,192,76012,1,8,0:0:0:0:
256,192,76272,1,8,0:0:0:0:
256,192,76664,1,8,0:0:0:0:
256,192,76925,1,8,0:0:0:0:
256,192,77185,1,8,0:0:0:0:
256,192,77577,1,8,0:0:0:0:
256,192,78359,1,8,0:0:0:0:
256,192,78620,1,8,0:0:0:0:
256,192,78881,1,8,0:0:0:0:
256,192,79142,1,8,0:0:0:0:
256,192,79403,1,8,0:0:0:0:
256,192,79925,1,8,0:0:0:0:
256,192,80446,1,8,0:0:0:0:
256,192,80707,1,8,0:0:0:0:
256,192,80968,1,8,0:0:0:0:
256,192,81229,1,8,0:0:0:0:
256,192,81490,1,8,0:0:0:0:
256,192,82533,1,8,0:0:0:0:
256,192,83055,1,8,0:0:0:0:
256,192,83577,1,8,0:0:0:0:
256,192,84098,1,8,0:0:0:0:
256,192,84620,1,8,0:0:0:0:
256,192,84881,1,8,0:0:0:0:
256,192,85142,1,8,0:0:0:0:
256,192,85403,1,8,0:0:0:0:
256,192,85664,1,8,0:0:0:0:
256,192,86707,1,12,0:0:0:0:
256,192,87359,1,12,0:0:0:0:
256,192,87751,1,8,0:0:0:0:
256,192,88272,1,8,0:0:0:0:
256,192,88794,1,12,0:0:0:0:
256,192,89838,1,8,0:0:0:0:
256,192,90359,1,8,0:0:0:0:
256,192,90620,1,12,0:0:0:0:
256,192,90881,1,8,0:0:0:0:
256,192,91403,1,8,0:0:0:0:
256,192,91925,1,8,0:0:0:0:
256,192,92185,1,8,0:0:0:0:
256,192,92446,1,8,0:0:0:0:
256,192,92968,1,8,0:0:0:0:
256,192,93229,1,8,0:0:0:0:
256,192,93490,1,8,0:0:0:0:
256,192,93751,1,8,0:0:0:0:
256,192,94012,1,8,0:0:0:0:
256,192,95055,1,12,0:0:0:0:
256,192,95577,1,8,0:0:0:0:
256,192,96098,1,8,0:0:0:0:
256,192,96359,1,8,0:0:0:0:
256,192,96620,1,8,0:0:0:0:
256,192,97142,1,8,0:0:0:0:
256,192,97664,1,8,0:0:0:0:
256,192,97925,1,8,0:0:0:0:
256,192,98185,1,8,0:0:0:0:
256,192,99229,1,12,0:0:0:0:
256,192,99751,1,8,0:0:0:0:
256,192,100272,1,8,0:0:0:0:
256,192,100533,1,8,0:0:0:0:
256,192,100794,1,8,0:0:0:0:
256,192,101316,1,8,0:0:0:0:
256,192,101838,1,8,0:0:0:0:
256,192,102359,1,8,0:0:0:0:
256,192,102620,1,8,0:0:0:0:
256,192,103403,1,12,0:0:0:0:
256,192,103925,1,8,0:0:0:0:
256,192,104446,1,12,0:0:0:0:
256,192,104707,1,12,0:0:0:0:
256,192,104968,1,12,0:0:0:0:
256,192,105229,1,12,0:0:0:0:
256,192,105490,1,8,0:0:0:0:
256,192,106012,1,8,0:0:0:0:
256,192,106533,1,12,0:0:0:0:
256,192,106794,1,12,0:0:0:0:
256,192,107055,1,12,0:0:0:0:
256,192,107316,1,12,0:0:0:0:
256,192,107577,1,8,0:0:0:0:
256,192,108098,1,8,0:0:0:0:
256,192,108620,1,12,0:0:0:0:
256,192,108881,1,12,0:0:0:0:
256,192,109142,1,12,0:0:0:0:
256,192,109403,1,12,0:0:0:0:
256,192,109664,1,8,0:0:0:0:
256,192,110185,1,8,0:0:0:0:
256,192,110707,1,8,0:0:0:0:
256,192,111751,1,12,0:0:0:0:
256,192,112272,1,8,0:0:0:0:
256,192,112794,1,8,0:0:0:0:
256,192,113055,1,8,0:0:0:0:
256,192,113316,1,8,0:0:0:0:
256,192,113838,1,8,0:0:0:0:
256,192,114359,1,8,0:0:0:0:
256,192,114620,1,8,0:0:0:0:
256,192,114881,1,8,0:0:0:0:
256,192,115403,1,8,0:0:0:0:
256,192,115925,1,8,0:0:0:0:
256,192,116446,1,8,0:0:0:0:
256,192,116707,1,8,0:0:0:0:
256,192,116968,1,8,0:0:0:0:
256,192,117490,1,8,0:0:0:0:
256,192,118012,1,8,0:0:0:0:
256,192,118272,1,8,0:0:0:0:
256,192,118533,1,8,0:0:0:0:
256,192,119055,1,8,0:0:0:0:
256,192,120098,1,12,0:0:0:0:
256,192,120620,1,8,0:0:0:0:
256,192,120881,1,8,0:0:0:0:
256,192,121142,1,8,0:0:0:0:
256,192,121664,1,8,0:0:0:0:
256,192,121925,1,8,0:0:0:0:
256,192,122185,1,8,0:0:0:0:
256,192,122707,1,8,0:0:0:0:
256,192,123229,1,8,0:0:0:0:
256,192,123490,1,8,0:0:0:0:
256,192,124272,1,8,0:0:0:0:
256,192,124533,1,8,0:0:0:0:
256,192,125055,1,8,0:0:0:0:
256,192,125316,1,8,0:0:0:0:
256,192,125838,1,8,0:0:0:0:
256,192,126359,1,8,0:0:0:0:
256,192,126620,1,8,0:0:0:0:
256,192,126881,1,8,0:0:0:0:
256,192,127403,1,8,0:0:0:0:
256,192,128446,1,12,0:0:0:0:
256,192,128968,1,8,0:0:0:0:
256,192,129229,1,8,0:0:0:0:
256,192,129490,1,8,0:0:0:0:
256,192,130012,1,8,0:0:0:0:
256,192,130272,1,8,0:0:0:0:
256,192,130533,1,8,0:0:0:0:
256,192,131055,1,8,0:0:0:0:
256,192,131316,1,8,0:0:0:0:
256,192,131577,1,8,0:0:0:0:
256,192,131838,1,8,0:0:0:0:
256,192,132098,1,8,0:0:0:0:
256,192,132620,1,8,0:0:0:0:
256,192,133142,1,8,0:0:0:0:
256,192,133403,1,8,0:0:0:0:
256,192,133664,1,8,0:0:0:0:
256,192,134185,1,8,0:0:0:0:
256,192,134446,1,8,0:0:0:0:
256,192,134707,1,8,0:0:0:0:
256,192,135229,1,8,0:0:0:0:
256,192,135751,1,8,0:0:0:0:
256,192,136794,1,12,0:0:0:0:
256,192,137316,1,8,0:0:0:0:
256,192,137838,1,8,0:0:0:0:
256,192,138098,1,8,0:0:0:0:
256,192,138359,1,8,0:0:0:0:
256,192,138881,1,8,0:0:0:0:
256,192,139403,1,8,0:0:0:0:
256,192,139925,1,8,0:0:0:0:
256,192,140185,1,8,0:0:0:0:
256,192,140446,1,8,0:0:0:0:
256,192,140968,1,8,0:0:0:0:
256,192,141751,1,8,0:0:0:0:
256,192,142012,1,8,0:0:0:0:
256,192,142272,1,8,0:0:0:0:
256,192,142533,1,8,0:0:0:0:
256,192,143055,1,8,0:0:0:0:
256,192,143577,1,8,0:0:0:0:
256,192,144098,1,8,0:0:0:0:
256,192,144620,1,8,0:0:0:0:
256,192,144881,1,8,0:0:0:0:
256,192,145142,1,8,0:0:0:0:
256,192,147229,1,8,0:0:0:0:
256,192,148272,1,8,0:0:0:0:
256,192,148794,1,8,0:0:0:0:
256,192,149055,1,8,0:0:0:0:
256,192,149316,1,12,0:0:0:0:
256,192,150098,1,8,0:0:0:0:
256,192,150359,1,8,0:0:0:0:
256,192,150881,1,8,0:0:0:0:
256,192,151142,1,8,0:0:0:0:
256,192,151403,1,8,0:0:0:0:
256,192,151925,1,8,0:0:0:0:
256,192,152446,1,8,0:0:0:0:
256,192,152707,1,8,0:0:0:0:
256,192,152968,1,8,0:0:0:0:
256,192,153229,1,8,0:0:0:0:
256,192,153490,1,8,0:0:0:0:
256,192,154012,1,8,0:0:0:0:
256,192,154533,1,8,0:0:0:0:
256,192,155055,1,8,0:0:0:0:
256,192,155577,1,8,0:0:0:0:
256,192,155968,1,8,0:0:0:0:
256,192,156229,1,8,0:0:0:0:
256,192,156490,1,8,0:0:0:0:
256,192,157664,1,12,0:0:0:0:
256,192,158185,1,8,0:0:0:0:
256,192,158446,1,8,0:0:0:0:
256,192,158707,1,8,0:0:0:0:
256,192,159229,1,8,0:0:0:0:
256,192,159490,1,8,0:0:0:0:
256,192,159751,1,8,0:0:0:0:
256,192,160272,1,8,0:0:0:0:
256,192,160794,1,8,0:0:0:0:
256,192,161055,1,8,0:0:0:0:
256,192,161316,1,8,0:0:0:0:
256,192,161577,1,8,0:0:0:0:
256,192,161838,1,8,0:0:0:0:
256,192,162359,1,8,0:0:0:0:
256,192,162881,1,8,0:0:0:0:
256,192,163403,1,8,0:0:0:0:
256,192,163925,1,8,0:0:0:0:
256,192,164707,1,8,0:0:0:0:
256,192,164968,1,8,0:0:0:0:
256,192,165490,1,8,0:0:0:0:
256,192,165751,1,8,0:0:0:0:
256,192,166012,1,8,0:0:0:0:
256,192,166794,1,8,0:0:0:0:
256,192,167055,1,8,0:0:0:0:
256,192,167316,1,8,0:0:0:0:
256,192,167577,1,8,0:0:0:0:
256,192,167968,1,12,0:0:0:0:
256,192,168490,1,12,0:0:0:0:
256,192,169012,1,12,0:0:0:0:
256,192,169664,1,8,0:0:0:0:
256,192,170185,1,8,0:0:0:0:
256,192,170446,1,8,0:0:0:0:
256,192,170707,1,8,0:0:0:0:
256,192,171229,1,8,0:0:0:0:
256,192,171490,1,8,0:0:0:0:
256,192,171751,1,8,0:0:0:0:
256,192,172272,1,12,0:0:0:0:
256,192,172664,1,12,0:0:0:0:
256,192,173055,1,12,0:0:0:0:
256,192,173838,1,8,0:0:0:0:
256,192,174359,1,12,0:0:0:0:
256,192,174881,1,8,0:0:0:0:
256,192,175403,1,8,0:0:0:0:
256,192,175664,1,8,0:0:0:0:
256,192,175925,1,8,0:0:0:0:
256,192,176446,1,8,0:0:0:0:
256,192,176707,1,8,0:0:0:0:
256,192,176968,1,8,0:0:0:0:
256,192,177229,1,8,0:0:0:0:
256,192,177490,1,8,0:0:0:0:
256,192,178533,1,12,0:0:0:0:
256,192,179055,1,8,0:0:0:0:
256,192,179316,1,8,0:0:0:0:
256,192,179577,1,8,0:0:0:0:
256,192,179838,1,8,0:0:0:0:
256,192,180098,1,8,0:0:0:0:
256,192,180620,1,8,0:0:0:0:
256,192,181142,1,8,0:0:0:0:
256,192,181403,1,8,0:0:0:0:
256,192,181664,1,8,0:0:0:0:
256,192,182707,1,12,0:0:0:0:
256,192,182968,1,12,0:0:0:0:
256,192,183229,1,12,0:0:0:0:
256,192,183751,1,12,0:0:0:0:
256,192,184012,1,12,0:0:0:0:
256,192,184272,1,12,0:0:0:0:
256,192,184794,1,12,0:0:0:0:
256,192,185055,1,12,0:0:0:0:
256,192,185316,1,12,0:0:0:0:
256,192,185838,1,12,0:0:0:0:
256,192,186881,1,12,0:0:0:0:
256,192,187403,1,8,0:0:0:0:
256,192,187664,1,8,0:0:0:0:
256,192,187925,1,8,0:0:0:0:
256,192,188185,1,8,0:0:0:0:
256,192,188446,1,8,0:0:0:0:
256,192,188968,1,8,0:0:0:0:
256,192,189490,1,8,0:0:0:0:
256,192,189751,1,8,0:0:0:0:
256,192,190012,1,8,0:0:0:0:
256,192,190272,1,8,0:0:0:0:
256,192,190533,1,8,0:0:0:0:
256,192,191055,1,12,0:0:0:0:
256,192,191577,1,8,0:0:0:0:
256,192,191838,1,8,0:0:0:0:
256,192,192098,1,8,0:0:0:0:
256,192,192359,1,8,0:0:0:0:
256,192,192620,1,8,0:0:0:0:
256,192,193142,1,12,0:0:0:0:
256,192,193664,1,8,0:0:0:0:
256,192,194055,1,8,0:0:0:0:
256,192,194446,1,8,0:0:0:0:
256,192,194707,1,8,0:0:0:0:
256,192,195229,1,8,0:0:0:0:
256,192,195490,1,8,0:0:0:0:
256,192,195751,1,8,0:0:0:0:
256,192,196272,1,8,0:0:0:0:
256,192,197055,1,8,0:0:0:0:
256,192,197316,1,12,0:0:0:0:
256,192,197838,1,8,0:0:0:0:
256,192,198229,1,8,0:0:0:0:
256,192,198620,1,8,0:0:0:0:
256,192,198881,1,8,0:0:0:0:
256,192,199403,1,8,0:0:0:0:
256,192,199925,1,8,0:0:0:0:
256,192,200446,1,8,0:0:0:0:
256,192,201229,1,8,0:0:0:0:
256,192,201490,1,12,0:0:0:0:
256,192,202012,1,8,0:0:0:0:
256,192,202403,1,8,0:0:0:0:
256,192,202794,1,8,0:0:0:0:
256,192,203055,1,8,0:0:0:0:
256,192,203577,1,8,0:0:0:0:
256,192,203838,1,8,0:0:0:0:
256,192,204098,1,8,0:0:0:0:
256,192,204359,1,8,0:0:0:0:
256,192,204620,1,8,0:0:0:0:
256,192,205403,1,8,0:0:0:0:
256,192,205664,1,12,0:0:0:0:
256,192,206185,1,8,0:0:0:0:
256,192,206577,1,8,0:0:0:0:
256,192,206968,1,8,0:0:0:0:
256,192,207229,1,8,0:0:0:0:
256,192,207751,1,8,0:0:0:0:
256,192,208012,1,8,0:0:0:0:
256,192,208272,1,8,0:0:0:0:
256,192,208794,1,8,0:0:0:0:
256,192,209055,1,8,0:0:0:0:
256,192,209316,1,8,0:0:0:0:
256,192,209838,1,8,0:0:0:0:
256,192,210359,1,8,0:0:0:0:
256,192,210881,1,12,0:0:0:0:
256,192,211403,1,12,0:0:0:0:
256,192,211664,1,8,0:0:0:0:
