osu file format v14

[General]
AudioFilename: audio.mp3
AudioLeadIn: 0
PreviewTime: 67831
Countdown: 0
SampleSet: Soft
StackLeniency: 0.7
Mode: 0
LetterboxInBreaks: 0
WidescreenStoryboard: 1

[Editor]
Bookmarks: 7387,24276,99831,198054,300276
DistanceSpacing: 0.3
BeatDivisor: 4
GridSize: 32
TimelineZoom: 2.799999

[Metadata]
Title:Todokanai Koi
TitleUnicode:届かない恋
Artist:Kasumigaoka Utaha
ArtistUnicode:霞ヶ丘詩羽
Creator:Yugu
Version:Kanawanai Koi
Source:WHITE ALBUM2
Tags:冴えない彼女の育てかた♭ Saenai heroine no sodate-kata. flat sodatekata 上原れな Uehara Rena
BeatmapID:1520653
BeatmapSetID:720247

[Difficulty]
HPDrainRate:6
CircleSize:5
OverallDifficulty:8.7
ApproachRate:8.5
SliderMultiplier:2.2
SliderTickRate:1

[Events]
//Background and Video events
0,0,"61.jpg",0,0
//Break Periods
//Storyboard Layer 0 (Background)
//Storyboard Layer 1 (Fail)
//Storyboard Layer 2 (Pass)
//Storyboard Layer 3 (Foreground)
//Storyboard Sound Samples

[TimingPoints]
276,444.444444444444,4,2,1,5,1,0
498,-100,4,2,1,10,0,0
720,-100,4,2,1,15,0,0
942,-100,4,2,1,20,0,0
1164,-100,4,2,1,30,0,0
1387,-100,4,2,1,40,0,0
1609,-100,4,2,1,50,0,0
2053,-100,4,2,1,60,0,0
2498,-100,4,2,1,70,0,0
2942,-100,4,2,1,80,0,0
3387,-100,4,2,1,90,0,0
3831,-100,4,2,1,100,0,0
6942,-100,4,2,1,80,0,0
7387,-100,4,2,1,85,0,0
19831,-133.333333333333,4,2,1,85,0,0
24609,-133.333333333333,4,2,1,5,0,0
24720,-133.333333333333,4,2,1,85,0,0
25164,-133.333333333333,4,2,1,50,0,0
28720,-105.263157894737,4,2,1,50,0,0
29387,-133.333333333333,4,2,1,50,0,0
30498,-105.263157894737,4,2,1,50,0,0
30942,-133.333333333333,4,2,1,50,0,0
35831,-105.263157894737,4,2,1,50,0,0
38498,-133.333333333333,4,2,1,50,0,0
42942,-105.263157894737,4,2,1,50,0,0
43609,-133.333333333333,4,2,1,50,0,0
44720,-105.263157894737,4,2,1,50,0,0
45164,-133.333333333333,4,2,1,50,0,0
50053,-105.263157894737,4,2,1,50,0,0
52720,-100,4,2,1,50,0,0
53609,-200,4,2,1,30,0,0
53942,-200,4,2,1,5,0,0
54053,-200,4,2,1,30,0,0
57498,-200,4,2,1,5,0,0
57609,-200,4,2,1,30,0,0
61053,-200,4,2,1,5,0,0
61164,-200,4,2,1,40,0,0
62387,-200,4,2,1,5,0,0
62498,-200,4,2,1,50,0,0
64275,-200,4,2,1,60,0,0
65164,-200,4,2,1,70,0,0
66053,-200,4,2,1,80,0,0
67831,-100,4,2,1,85,0,1
89164,-133.333333333333,4,2,1,85,0,1
92720,-100,4,2,1,85,0,1
96275,-133.333333333333,4,2,1,85,0,1
97609,-100,4,2,1,85,0,1
98053,-200,4,2,1,85,0,0
99053,-200,4,2,1,5,0,0
99164,-100,4,2,1,85,0,0
99831,-100,4,2,1,85,0,0
112275,-133.333333333333,4,2,1,85,0,0
117609,-133.333333333333,4,2,1,50,0,0
121164,-105.263157894737,4,2,1,50,0,0
121831,-133.333333333333,4,2,1,50,0,0
122942,-105.263157894737,4,2,1,50,0,0
123387,-133.333333333333,4,2,1,50,0,0
128275,-105.263157894737,4,2,1,50,0,0
131831,-105.263157894737,4,2,1,30,0,0
138275,-105.263157894737,4,2,1,50,0,0
138498,-200,4,2,1,70,0,0
138942,-133.333333333333,4,2,1,70,0,0
140275,-105.263157894737,4,2,1,70,0,0
141387,-133.333333333333,4,2,1,70,0,0
142053,-105.263157894737,4,2,1,70,0,0
146053,-200,4,2,1,30,0,0
146387,-200,4,2,1,5,0,0
146498,-200,4,2,1,30,0,0
149942,-200,4,2,1,5,0,0
150053,-200,4,2,1,30,0,0
153498,-200,4,2,1,5,0,0
153609,-200,4,2,1,40,0,0
154831,-200,4,2,1,5,0,0
154942,-200,4,2,1,50,0,0
156720,-200,4,2,1,60,0,0
157609,-200,4,2,1,70,0,0
158498,-200,4,2,1,80,0,0
160275,-100,4,2,1,85,0,1
181609,-133.333333333333,4,2,1,85,0,1
185164,-100,4,2,1,85,0,1
188720,-133.333333333333,4,2,1,85,0,1
190053,-100,4,2,1,85,0,1
190498,-100,4,2,1,85,0,0
191831,-200,4,2,1,85,0,0
192275,-100,4,2,1,85,0,0
194942,-76.9230769230769,4,2,1,85,0,0
195275,-76.9230769230769,4,2,1,5,0,0
195387,-76.9230769230769,4,2,1,85,0,0
195720,-76.9230769230769,4,2,1,5,0,0
195831,-100,4,2,1,85,0,0
197164,-76.9230769230769,4,2,1,85,0,0
198053,-100,4,2,1,85,0,0
198498,-80,4,2,1,85,0,0
198942,-66.6666666666667,4,2,1,85,0,0
203831,-80,4,2,1,85,0,0
204275,-100,4,2,1,85,0,0
204720,-133.333333333333,4,2,1,85,0,0
206498,-66.6666666666667,4,2,1,85,0,0
210053,-58.8235294117647,4,2,1,85,0,0
210720,-142.857142857143,4,2,1,85,0,0
211164,-66.6666666666667,4,2,1,85,0,0
211387,-200,4,2,1,85,0,0
213609,-58.8235294117647,4,2,1,85,0,0
214275,-142.857142857143,4,2,1,85,0,0
214720,-66.6666666666667,4,2,1,85,0,0
214942,-200,4,2,1,85,0,0
217164,-200,4,2,1,30,0,0
217498,-200,4,2,1,5,0,0
217609,-200,4,2,1,30,0,0
221053,-200,4,2,1,5,0,0
221164,-200,4,2,1,30,0,0
224609,-200,4,2,1,5,0,0
224720,-200,4,2,1,40,0,0
225942,-200,4,2,1,5,0,0
226053,-200,4,2,1,50,0,0
227831,-200,4,2,1,60,0,0
228720,-200,4,2,1,70,0,0
229609,-200,4,2,1,80,0,0
241387,-66.6666666666667,4,2,1,85,0,0
241609,-133.333333333333,4,2,1,85,0,0
241942,-133.333333333333,4,2,1,5,0,0
242053,-133.333333333333,4,2,1,85,0,1
243387,-100,4,2,1,85,0,1
248387,-100,4,2,1,5,0,1
248498,-100,4,2,1,85,0,1
253387,-133.333333333333,4,2,1,85,0,1
256942,-100,4,2,1,85,0,1
261609,-200,4,2,1,85,0,0
263275,-100,4,2,1,5,0,0
263387,-100,4,2,1,85,0,0
288275,-66.6666666666667,4,2,1,85,0,0
288942,-80,4,2,1,90,0,0
289609,-100,4,2,1,80,0,0
290275,-133.333333333333,4,2,1,70,0,0
291831,-133.333333333333,4,2,1,60,0,0
292498,-200,4,2,1,50,0,0
292942,-200,4,2,1,40,0,0
298498,-200,4,2,1,30,0,0
298942,-200,4,2,1,20,0,0
299387,-200,4,2,1,10,0,0
299831,-200,4,2,1,5,0,0

[Colours]
Combo1 : 192,192,192
Combo2 : 194,163,78
Combo3 : 22,51,165

[HitObjects]
256,192,276,12,8,6943,0:0:0:0:
144,192,7387,6,0,P|168:158|245:141,1,110,6|0,0:0|0:0,0:0:0:0:
337,294,7831,1,8,0:0:0:0:
214,271,8054,2,0,P|213:244|218:217,1,55
293,85,8276,2,0,P|313:136|302:189,1,110,2|2,0:0|0:0,0:0:0:0:
114,289,8720,1,8,0:0:0:0:
274,317,8943,6,0,P|228:346|176:337,1,110,0|2,0:0|0:0,0:0:0:0:
154,225,9387,2,0,P|199:195|252:205,1,110,2|8,0:0|0:0,0:0:0:0:
389,252,9831,2,0,P|418:262|454:260,1,55
481,201,10054,2,0,P|452:191|416:193,1,55,0|8,0:0|0:0,0:0:0:0:
478,340,10276,1,2,0:0:0:0:
356,178,10498,2,0,P|382:132|451:123,1,110,8|0,0:0|0:0,0:0:0:0:
325,347,10943,6,0,L|314:224,1,110,2|0,0:0|0:0,0:0:0:0:
119,215,11387,1,8,0:0:0:0:
242,229,11609,2,0,L|249:142,1,55
75,153,11831,2,0,P|130:143|177:166,1,110,2|2,0:0|0:0,0:0:0:0:
47,302,12276,1,8,0:0:0:0:
167,367,12498,6,0,P|183:325|171:245,1,110,0|2,0:0|0:0,0:0:0:0:
252,123,12943,2,0,P|236:165|248:245,1,110,2|8,0:0|0:0,0:0:0:0:
390,73,13387,2,0,L|335:68,1,55
445,144,13609,2,0,L|499:148,1,55,0|8,0:0|0:0,0:0:0:0:
373,346,13831,1,2,0:0:0:0:
390,214,14054,2,0,P|335:212|290:242,1,110,12|0,0:0|0:0,0:0:0:0:
252,123,14498,6,0,P|221:179|240:248,1,110,6|0,0:0|0:0,0:0:0:0:
354,278,14943,1,8,0:0:0:0:
130,243,15165,2,0,P|152:259|178:268,1,55
291,319,15387,2,0,P|237:317|197:353,1,110,2|2,0:0|0:0,0:0:0:0:
184,196,15831,1,8,0:0:0:0:
321,130,16054,6,0,P|338:65|315:19,1,110,0|2,0:0|0:0,0:0:0:0:
191,26,16498,2,0,P|174:91|197:137,1,110,2|8,0:0|0:0,0:0:0:0:
298,202,16943,2,0,P|334:206|382:182,1,55
214,202,17165,2,0,P|178:206|130:182,1,55,0|8,0:0|0:0,0:0:0:0:
256,78,17387,1,2,0:0:0:0:
311,303,17609,2,0,B|256:318|256:318|205:304,1,110,8|0,0:0|0:0,0:0:0:0:
39,233,18054,5,6,0:0:0:0:
256,78,18276,1,0,0:0:0:0:
204,303,18498,1,8,0:0:0:0:
104,118,18720,1,0,0:0:0:0:
104,118,18831,1,2,0:0:0:0:
104,118,18943,5,0,0:0:0:0:
278,179,19165,1,2,0:0:0:0:
169,212,19387,1,8,0:0:0:0:
280,65,19609,1,0,0:0:0:0:
280,65,19720,1,2,0:0:0:0:
280,65,19831,6,0,L|378:59,1,82.5000031471254,0|2,0:0|0:0,0:0:0:0:
183,229,20276,1,8,0:0:0:0:
294,82,20498,2,0,L|392:76,2,82.5000031471254,0|0|2,0:0|0:0|0:0,0:0:0:0:
417,257,21165,1,8,0:0:0:0:
432,31,21387,1,0,0:0:0:0:
288,167,21609,5,6,0:0:0:0:
479,226,21831,1,2,0:0:0:0:
324,303,22054,1,8,0:0:0:0:
476,343,22276,1,0,0:0:0:0:
476,343,22387,1,0,0:0:0:0:
476,343,22498,5,2,0:0:0:0:
315,324,22720,1,2,0:0:0:0:
315,324,22831,1,2,0:0:0:0:
315,324,22943,5,8,0:0:0:0:
395,217,23165,2,0,L|332:218,1,41.2500015735627
240,256,23387,6,0,L|151:258,1,82.5000031471254,12|2,0:0|0:0,0:0:0:0:
386,346,23831,1,2,0:0:0:0:
249,235,24054,1,12,0:0:0:0:
347,153,24276,6,0,P|410:144|464:176,1,123.750004720688,2|0,0:0|0:0,0:0:0:0:
470,190,24720,1,12,0:0:0:0:
470,189,25165,6,0,P|422:253|448:328,1,165.000006294251,2|8,0:0|0:0,0:0:0:0:
504,267,25831,1,2,0:0:0:0:
359,325,26054,2,0,P|349:278|353:233,1,82.5000031471254,2|2,0:0|0:0,0:0:0:0:
280,127,26498,2,0,P|290:174|286:219,1,82.5000031471254,10|0,0:0|0:0,0:0:0:0:
140,181,26943,2,0,P|177:172|236:184,1,82.5000031471254,2|0,0:0|0:0,0:0:0:0:
186,247,27387,1,8,0:0:0:0:
72,148,27609,1,2,0:0:0:0:
140,181,27831,2,0,L|146:98,1,82.5000031471254,0|2,0:0|0:0,0:0:0:0:
227,20,28276,6,0,L|233:102,1,82.5000031471254,8|0,0:0|0:0,0:0:0:0:
382,122,28720,2,0,B|404:108|404:108|201:123,1,208.999994419098,2|8,0:0|0:0,0:0:0:0:
348,190,29387,6,0,P|382:196|434:180,2,82.5000031471254,0|2|2,0:0|0:0|0:0,0:0:0:0:
382,122,30054,1,8,0:0:0:0:
369,310,30276,1,0,0:0:0:0:
420,356,30498,2,0,P|438:308|418:262,1,104.499997209549,2|0,0:0|0:0,0:0:0:0:
319,263,30943,2,0,P|301:310|317:355,1,82.5000031471254,8|0,0:0|0:0,0:0:0:0:
433,189,31387,6,0,B|377:169|367:211|290:180,1,123.750004720688
292,178,31831,1,8,0:0:0:0:
292,178,32276,6,0,P|279:90|358:51,1,165.000006294251,6|8,0:0|0:0,0:0:0:0:
344,125,32943,1,2,0:0:0:0:
206,79,33165,2,0,P|197:127|203:170,1,82.5000031471254,2|2,0:0|0:0,0:0:0:0:
118,236,33609,2,0,P|127:188|121:145,1,82.5000031471254,8|2,0:0|0:0,0:0:0:0:
63,113,34054,2,0,P|54:155|63:199,1,82.5000031471254,2|0,0:0|0:0,0:0:0:0:
124,155,34498,1,8,0:0:0:0:
271,53,34720,1,0,0:0:0:0:
201,93,34943,2,0,P|190:57|201:9,1,82.5000031471254,0|2,0:0|0:0,0:0:0:0:
273,134,35387,6,0,P|284:170|273:218,1,82.5000031471254,8|0,0:0|0:0,0:0:0:0:
151,244,35831,2,0,B|127:221|127:221|313:239,1,208.999994419098,2|8,0:0|0:0,0:0:0:0:
360,310,36498,1,2,0:0:0:0:
426,181,36720,1,2,0:0:0:0:
426,181,36943,2,0,B|307:169,2,104.499997209549,2|8|0,0:0|0:0|0:0,0:0:0:0:
253,204,37609,2,0,P|247:153|273:109,1,104.499997209549,2|0,0:0|0:0,0:0:0:0:
321,170,38054,1,8,0:0:0:0:
106,223,38276,1,6,0:0:0:0:
148,98,38498,6,0,P|197:74|278:111,1,123.750004720688
272,109,38943,1,8,0:0:0:0:
272,109,39387,6,0,P|346:83|414:126,1,165.000006294251,6|8,0:0|0:0,0:0:0:0:
337,167,40054,1,2,0:0:0:0:
417,288,40276,2,0,P|424:237|408:188,1,82.5000031471254,2|2,0:0|0:0,0:0:0:0:
269,253,40720,2,0,L|352:249,1,82.5000031471254,8|0,0:0|0:0,0:0:0:0:
204,213,41165,2,0,P|197:264|213:313,1,82.5000031471254,2|0,0:0|0:0,0:0:0:0:
272,330,41609,1,8,0:0:0:0:
138,173,41831,1,0,0:0:0:0:
204,213,42054,2,0,P|211:162|195:113,1,82.5000031471254,0|2,0:0|0:0,0:0:0:0:
146,81,42497,6,0,P|180:59|246:73,1,82.5000031471254,8|0,0:0|0:0,0:0:0:0:
353,103,42942,2,0,P|261:93|278:2,1,208.999994419098,2|8,0:0|0:0,0:0:0:0:
411,57,43609,2,0,P|424:101|412:150,2,82.5000031471254,0|2|2,0:0|0:0|0:0,0:0:0:0:
353,103,44276,1,8,0:0:0:0:
441,267,44498,1,0,0:0:0:0:
453,199,44720,2,0,P|401:212|372:267,1,104.499997209549,2|0,0:0|0:0,0:0:0:0:
429,335,45165,2,0,P|481:322|509:278,1,82.5000031471254,8|0,0:0|0:0,0:0:0:0:
304,221,45609,6,0,P|253:213|179:283,1,123.750004720688,2|0,0:0|0:0,0:0:0:0:
188,269,46054,1,8,0:0:0:0:
263,290,46276,1,4,0:0:0:0:
252,139,46498,6,0,P|300:80|388:92,1,165.000006294251,6|8,0:0|0:0,0:0:0:0:
334,156,47165,1,2,0:0:0:0:
199,87,47387,2,0,P|182:129|186:170,1,82.5000031471254,2|2,0:0|0:0,0:0:0:0:
237,216,47831,2,0,P|254:174|250:133,1,82.5000031471254,8|0,0:0|0:0,0:0:0:0:
162,246,48276,2,0,P|188:279|229:295,1,82.5000031471254,2|0,0:0|0:0,0:0:0:0:
237,216,48720,1,8,0:0:0:0:
35,284,48943,1,2,0:0:0:0:
91,180,49165,2,0,L|97:262,1,82.5000031471254,0|2,0:0|0:0,0:0:0:0:
165,103,49609,6,0,L|171:185,1,82.5000031471254,8|0,0:0|0:0,0:0:0:0:
323,171,50054,2,0,B|357:136|357:136|198:166,1,208.999994419098,2|8,0:0|0:0,0:0:0:0:
271,232,50720,1,0,0:0:0:0:
319,73,50943,1,2,0:0:0:0:
319,73,51165,2,0,B|421:53,2,104.499997209549,2|8|0,0:0|0:0|0:0,0:0:0:0:
431,210,51831,2,0,B|465:111,1,104.499997209549,2|0,0:0|0:0,0:0:0:0:
390,127,52276,1,8,0:0:0:0:
512,199,52498,1,0,0:0:0:0:
339,351,52720,6,0,L|333:292,1,55,6|0,0:0|0:0,0:0:0:0:
407,294,52943,2,0,L|466:300,1,55,8|0,0:0|0:0,0:0:0:0:
271,269,53165,2,0,P|314:231|371:241,1,110,10|2,0:0|0:0,0:0:0:0:
178,341,53609,6,0,L|173:244,1,82.5,6|0,0:0|0:0,0:0:0:0:
170,203,54054,2,0,L|173:258,1,55,0|2,0:0|0:0,0:0:0:0:
115,150,54498,2,0,L|68:179,1,55
133,75,54943,2,0,L|84:49,1,55,8|0,0:0|0:0,0:0:0:0:
216,97,55387,6,0,L|275:89,1,55,2|0,0:0|0:0,0:0:0:0:
282,20,55831,2,0,L|223:28,1,55,0|2,0:0|0:0,0:0:0:0:
259,159,56276,6,0,L|318:151,1,55
324,81,56720,2,0,L|265:89,1,55,8|0,0:0|0:0,0:0:0:0:
247,228,57165,6,0,L|350:214,1,82.5,2|0,0:0|0:0,0:0:0:0:
383,209,57609,2,0,L|328:216,1,55,0|2,0:0|0:0,0:0:0:0:
314,291,58054,2,0,L|259:298,1,55
245,373,58498,2,0,L|190:380,1,55,8|0,0:0|0:0,0:0:0:0:
102,325,58943,6,0,P|95:306|94:266,1,55,2|0,0:0|0:0,0:0:0:0:
165,232,59387,2,0,P|172:251|173:291,1,55,0|2,0:0|0:0,0:0:0:0:
22,224,59831,6,0,P|20:203|29:164,1,55,0|2,0:0|0:0,0:0:0:0:
106,150,60276,2,0,P|107:170|98:209,1,55,8|0,0:0|0:0,0:0:0:0:
63,80,60720,6,0,P|96:70|160:87,1,82.5,6|0,0:0|0:0,0:0:0:0:
195,91,61165,2,0,P|167:86|142:76,1,55,0|2,0:0|0:0,0:0:0:0:
188,17,61609,1,0,0:0:0:0:
188,17,61831,1,0,0:0:0:0:
180,172,62054,2,0,P|227:167|267:141,1,82.5,8|0,0:0|0:0,0:0:0:0:
277,116,62498,2,0,P|265:167|281:233,1,110,2|0,0:0|0:0,0:0:0:0:
337,171,63165,1,2,0:0:0:0:
246,280,63387,2,0,P|280:286|303:282,1,55,12|2,0:0|0:0,0:0:0:0:
409,244,63831,2,0,P|375:238|352:242,1,55,12|0,0:0|0:0,0:0:0:0:
381,314,64276,5,2,0:0:0:0:
422,212,64498,1,0,0:0:0:0:
473,358,64720,1,8,0:0:0:0:
284,317,64943,1,0,0:0:0:0:
497,258,65165,1,2,0:0:0:0:
297,123,65387,1,0,0:0:0:0:
385,373,65609,1,8,0:0:0:0:
385,373,65720,1,8,0:0:0:0:
385,373,65831,5,8,0:0:0:0:
393,89,66054,2,0,B|462:74|493:145|478:210|450:226|392:219|392:258|390:303,1,275,6|2,0:0|0:0,0:0:0:0:
385,373,67387,1,8,0:0:0:0:
322,192,67609,5,2,0:0:0:0:
321,178,67720,1,2,0:0:0:0:
320,164,67831,2,0,L|326:47,1,110,6|0,0:0|0:0,0:0:0:0:
393,89,68276,1,8,0:0:0:0:
257,108,68498,2,0,P|240:53|258:2,1,110,2|0,0:0|0:0,0:0:0:0:
325,54,68943,1,2,0:0:0:0:
192,164,69165,1,8,0:0:0:0:
192,164,69276,1,2,0:0:0:0:
192,164,69387,1,2,0:0:0:0:
261,211,69609,6,0,P|273:148|244:93,1,110,2|0,0:0|0:0,0:0:0:0:
192,164,70054,1,8,0:0:0:0:
347,142,70276,1,2,0:0:0:0:
219,287,70498,1,0,0:0:0:0:
357,129,70720,1,2,0:0:0:0:
448,242,70943,6,0,L|437:351,1,110,8|0,0:0|0:0,0:0:0:0:
374,235,71387,2,0,P|400:184|464:168,1,110,2|0,0:0|0:0,0:0:0:0:
448,242,71831,1,8,0:0:0:0:
336,338,72054,1,2,0:0:0:0:
347,142,72276,1,0,0:0:0:0:
257,218,72498,1,2,0:0:0:0:
375,222,72720,2,0,L|241:232,1,110,8|0,0:0|0:0,0:0:0:0:
54,271,73165,6,0,L|108:275,1,55,2|0,0:0|0:0,0:0:0:0:
180,356,73387,2,0,L|184:301,1,55,2|0,0:0|0:0,0:0:0:0:
265,230,73609,2,0,L|210:225,1,55,8|0,0:0|0:0,0:0:0:0:
139,145,73831,2,0,L|134:199,1,55,2|0,0:0|0:0,0:0:0:0:
180,356,74054,5,0,0:0:0:0:
265,230,74276,1,2,0:0:0:0:
139,145,74498,1,12,0:0:0:0:
249,300,74720,6,0,P|284:301|320:282,1,55
278,122,74943,2,0,P|264:175|265:230,1,110,6|0,0:0|0:0,0:0:0:0:
348,195,75387,1,8,0:0:0:0:
139,145,75609,1,2,0:0:0:0:
321,67,75831,2,0,P|264:55|215:94,1,110,0|2,0:0|0:0,0:0:0:0:
87,52,76276,2,0,P|130:104|132:182,1,110,8|0,0:0|0:0,0:0:0:0:
56,256,76720,6,0,P|94:158|176:212,1,220,2|8,0:0|0:0,0:0:0:0:
111,220,77387,1,2,0:0:0:0:
286,284,77609,2,0,P|325:290|388:246,1,110,0|2,0:0|0:0,0:0:0:0:
248,218,78054,2,0,P|213:296|229:333,1,110,12|0,0:0|0:0,0:0:0:0:
319,221,78498,5,6,0:0:0:0:
218,314,78720,1,0,0:0:0:0:
187,180,78943,1,8,0:0:0:0:
312,195,79165,5,2,0:0:0:0:
206,162,79387,1,0,0:0:0:0:
288,87,79609,1,2,0:0:0:0:
336,303,79831,6,0,P|374:240|311:195,1,165,12|0,0:0|0:0,0:0:0:0:
283,257,80276,5,6,0:0:0:0:
350,129,80498,1,2,0:0:0:0:
264,243,80720,1,8,0:0:0:0:
341,55,80943,6,0,P|424:125|353:204,1,220,6|2,0:0|0:0,0:0:0:0:
344,202,81498,1,8,0:0:0:0:
317,195,81609,2,0,P|289:173|277:140,1,55,8|0,0:0|0:0,0:0:0:0:
209,163,81831,2,0,P|214:127|236:100,1,55,8|0,0:0|0:0,0:0:0:0:
266,53,82054,2,0,P|209:44|158:80,1,110,6|0,0:0|0:0,0:0:0:0:
153,94,82387,1,0,0:0:0:0:
153,94,82498,1,8,0:0:0:0:
215,272,82720,6,0,L|208:157,1,110,2|0,0:0|0:0,0:0:0:0:
153,94,83165,1,2,0:0:0:0:
142,287,83387,2,0,P|183:338|248:341,1,110,8|0,0:0|0:0,0:0:0:0:
215,272,83831,1,2,0:0:0:0:
48,322,84054,1,0,0:0:0:0:
138,162,84276,1,8,0:0:0:0:
142,287,84498,6,0,L|149:172,1,110,2|0,0:0|0:0,0:0:0:0:
66,197,84943,1,2,0:0:0:0:
214,160,85165,2,0,P|178:117|94:135,1,110,8|0,0:0|0:0,0:0:0:0:
261,224,85609,2,0,P|285:187|274:106,1,110,2|0,0:0|0:0,0:0:0:0:
214,160,86054,5,8,0:0:0:0:
394,134,86276,1,2,0:0:0:0:
304,300,86498,1,0,0:0:0:0:
401,119,86720,1,2,0:0:0:0:
261,224,86943,2,0,P|312:212|378:252,1,110,8|0,0:0|0:0,0:0:0:0:
230,291,87387,6,0,P|196:257|187:228,1,55,2|0,0:0|0:0,0:0:0:0:
98,228,87609,2,0,P|132:193|161:184,1,55,2|0,0:0|0:0,0:0:0:0:
161,95,87831,2,0,P|195:129|204:158,1,55,8|0,0:0|0:0,0:0:0:0:
294,158,88054,2,0,P|260:192|231:201,1,55,2|0,0:0|0:0,0:0:0:0:
98,228,88276,5,0,0:0:0:0:
161,95,88498,1,2,0:0:0:0:
294,158,88720,1,12,0:0:0:0:
230,291,88943,6,0,P|197:288|160:268,1,55,2|0,0:0|0:0,0:0:0:0:
225,143,89165,2,0,L|217:226,1,82.5000031471254,4|0,0:0|0:0,0:0:0:0:
294,158,89609,1,8,0:0:0:0:
371,226,89831,2,0,L|363:144,1,82.5000031471254,0|2,0:0|0:0,0:0:0:0:
294,158,90276,1,2,0:0:0:0:
432,130,90498,1,8,0:0:0:0:
301,234,90720,1,0,0:0:0:0:
431,276,90943,6,0,P|398:299|326:291,1,82.5000031471254,2|2,0:0|0:0,0:0:0:0:
371,226,91387,1,12,0:0:0:0:
432,130,91609,2,0,P|388:77|293:133,1,165.000006294251,2|2,0:0|0:0,0:0:0:0:
363,144,92276,2,0,P|370:72|305:31,1,123.750004720688,8|0,0:0|0:0,0:0:0:0:
271,37,92720,5,4,0:0:0:0:
212,217,92943,1,0,0:0:0:0:
222,105,93165,5,8,0:0:0:0:
281,285,93387,2,0,P|229:212|206:311,1,220,4|2,0:0|0:0,0:0:0:0:
240,348,94054,1,12,0:0:0:0:
240,348,94276,1,0,0:0:0:0:
401,313,94498,5,4,0:0:0:0:
189,295,94720,1,0,0:0:0:0:
320,343,94943,5,8,0:0:0:0:
107,361,95165,2,0,P|108:262|191:319,1,220,4|2,0:0|0:0,0:0:0:0:
183,368,95831,1,12,0:0:0:0:
183,368,96054,1,0,0:0:0:0:
16,345,96276,6,0,P|14:280|39:237,1,82.5000031471254,6|0,0:0|0:0,0:0:0:0:
113,169,96720,1,8,0:0:0:0:
113,169,96943,2,0,P|115:104|90:61,1,82.5000031471254,4|0,0:0|0:0,0:0:0:0:
41,133,97387,1,2,0:0:0:0:
195,153,97609,2,8,P|217:147|237:130,1,27.5,8|8,0:0|0:0,0:0:0:0:
222,156,97720,2,8,P|243:143|252:125,1,27.5
249,153,97831,1,8,0:0:0:0:
274,143,97943,1,8,0:0:0:0:
290,120,98054,6,0,P|256:227|345:210,1,247.5,12|0,0:0|0:0,0:0:0:0:
344,210,99165,6,0,P|389:188|453:214,1,110,2|8,0:0|0:0,0:0:0:0:
456,214,99498,1,8,0:0:0:0:
461,230,99609,2,0,P|468:259|449:302,1,55,8|8,0:0|0:0,0:0:0:0:
411,359,99831,6,0,P|389:309|396:255,1,110,6|0,0:0|0:0,0:0:0:0:
456,135,100276,1,8,0:0:0:0:
313,37,100498,2,0,P|285:32|245:42,1,55
190,113,100720,2,0,P|245:128|288:95,1,110,2|2,0:0|0:0,0:0:0:0:
130,47,101165,1,8,0:0:0:0:
182,217,101387,6,0,P|197:186|185:104,1,110,0|2,0:0|0:0,0:0:0:0:
58,101,101831,2,0,P|43:132|55:214,1,110,2|8,0:0|0:0,0:0:0:0:
192,292,102276,2,0,L|265:287,1,55,2|0,0:0|0:0,0:0:0:0:
134,343,102498,2,0,L|61:338,1,55
121,160,102720,1,2,0:0:0:0:
192,292,102943,2,0,L|200:136,1,110,8|0,0:0|0:0,0:0:0:0:
297,224,103387,6,0,L|289:68,1,110,2|0,0:0|0:0,0:0:0:0:
379,164,103831,1,8,0:0:0:0:
219,198,104054,6,0,L|214:109,1,55,2|0,0:0|0:0,0:0:0:0:
148,24,104276,2,0,L|140:180,1,110,2|2,0:0|0:0,0:0:0:0:
54,110,104720,1,8,0:0:0:0:
164,255,104943,6,0,P|223:275|273:257,1,110,0|2,0:0|0:0,0:0:0:0:
274,141,105387,2,0,P|215:121|165:139,1,110,2|8,0:0|0:0,0:0:0:0:
321,302,105831,2,0,P|333:252|327:228,1,55
278,208,106054,2,0,P|266:258|272:282,1,55
400,271,106276,1,2,0:0:0:0:
206,194,106498,2,0,P|197:237|218:344,1,110,8|0,0:0|0:0,0:0:0:0:
278,208,106943,6,0,P|287:165|266:58,1,110,6|0,0:0|0:0,0:0:0:0:
147,150,107387,1,8,0:0:0:0:
281,99,107609,2,0,P|252:91|204:103,1,55
147,150,107831,2,0,P|199:172|263:142,1,110,2|2,0:0|0:0,0:0:0:0:
202,20,108276,1,8,0:0:0:0:
107,209,108498,6,0,P|78:157|101:96,1,110,0|2,0:0|0:0,0:0:0:0:
187,91,108943,2,0,P|216:143|193:204,1,110,2|8,0:0|0:0,0:0:0:0:
114,279,109387,2,0,P|85:276|52:261,1,55
191,255,109609,2,0,P|220:252|253:237,1,55
147,150,109831,1,2,0:0:0:0:
171,328,110054,2,0,P|225:328|301:290,1,110,8|0,0:0|0:0,0:0:0:0:
204,189,110498,5,6,0:0:0:0:
458,243,110720,1,2,0:0:0:0:
321,52,110943,1,8,0:0:0:0:
303,264,111165,1,0,0:0:0:0:
303,264,111276,1,0,0:0:0:0:
303,264,111387,5,2,0:0:0:0:
435,143,111609,1,2,0:0:0:0:
277,189,111831,1,8,0:0:0:0:
409,68,112054,1,0,0:0:0:0:
409,68,112165,1,0,0:0:0:0:
409,68,112276,6,0,P|451:67|504:98,1,82.5000031471254,6|2,0:0|0:0,0:0:0:0:
262,175,112720,1,8,0:0:0:0:
435,143,112943,2,0,P|456:178|456:240,2,82.5000031471254,6|0|2,0:0|0:0|0:0,0:0:0:0:
321,52,113609,1,8,0:0:0:0:
379,208,113831,1,0,0:0:0:0:
208,108,114054,5,2,0:0:0:0:
350,130,114276,1,2,0:0:0:0:
146,187,114498,1,8,0:0:0:0:
222,33,114720,1,0,0:0:0:0:
222,33,114831,1,0,0:0:0:0:
222,33,114943,5,2,0:0:0:0:
203,245,115165,1,2,0:0:0:0:
203,245,115276,1,0,0:0:0:0:
203,245,115387,5,8,0:0:0:0:
263,121,115609,1,0,0:0:0:0:
104,104,115831,6,0,P|62:106|13:133,1,82.5000031471254,12|2,0:0|0:0,0:0:0:0:
278,109,116276,1,2,0:0:0:0:
146,187,116498,2,0,P|126:224|125:280,1,82.5000031471254,12|2,0:0|0:0,0:0:0:0:
129,283,116831,1,2,0:0:0:0:
140,300,116943,1,2,0:0:0:0:
155,314,117054,1,2,0:0:0:0:
173,323,117165,6,0,P|220:325|282:273,1,123.750004720688,8|0,0:0|0:0,0:0:0:0:
290,263,117609,2,0,P|328:233|372:235,1,82.5000031471254,6|0,0:0|0:0,0:0:0:0:
351,306,118054,1,8,0:0:0:0:
370,158,118276,1,0,0:0:0:0:
370,158,118498,2,0,P|414:175|435:215,1,82.5000031471254,2|2,0:0|0:0,0:0:0:0:
457,327,118943,6,0,L|461:256,1,41.2500015735627,8|0,0:0|0:0,0:0:0:0:
511,198,119165,2,0,L|507:145,1,41.2500015735627
416,67,119387,2,0,B|401:70|393:88|393:88|451:108|477:69|514:70,1,123.750004720688,2|0,0:0|0:0,0:0:0:0:
480,77,119831,1,8,0:0:0:0:
353,26,120054,2,0,P|330:60|326:100,1,82.5000031471254
375,157,120498,1,2,0:0:0:0:
193,143,120720,2,0,L|302:152,1,82.5000031471254,8|0,0:0|0:0,0:0:0:0:
319,312,121165,6,0,P|306:263|323:198,2,104.499997209549,2|0|8,0:0|0:0|0:0,0:0:0:0:
444,271,121831,2,0,B|454:259|454:259|291:267,1,165.000006294251,0|2,0:0|0:0,0:0:0:0:
217,322,122498,1,8,0:0:0:0:
193,143,122720,1,0,0:0:0:0:
118,216,122942,2,0,B|240:222,1,104.499997209549,2|0,0:0|0:0,0:0:0:0:
275,138,123387,2,0,B|152:144,1,82.5000031471254,8|0,0:0|0:0,0:0:0:0:
118,60,123831,2,0,B|240:66,1,82.5000031471254,0|2,0:0|0:0,0:0:0:0:
275,138,124276,1,12,0:0:0:0:
57,127,124498,1,4,0:0:0:0:
151,281,124720,6,0,P|165:232|154:188,1,82.5000031471254,6|0,0:0|0:0,0:0:0:0:
77,232,125165,1,8,0:0:0:0:
241,292,125387,1,0,0:0:0:0:
275,138,125609,2,0,P|270:178|283:217,1,82.5000031471254,2|2,0:0|0:0,0:0:0:0:
450,229,126054,6,0,P|475:231|497:226,1,41.2500015735627,8|0,0:0|0:0,0:0:0:0:
399,165,126275,2,0,P|374:163|352:168,1,41.2500015735627,8|0,0:0|0:0,0:0:0:0:
365,352,126498,2,0,B|377:229,1,123.750004720688,2|0,0:0|0:0,0:0:0:0:
377,229,126943,1,8,0:0:0:0:
199,309,127165,2,0,P|241:293|298:303,1,82.5000031471254
346,329,127609,1,2,0:0:0:0:
129,351,127831,2,0,P|120:317|143:246,1,82.5000031471254,8|0,0:0|0:0,0:0:0:0:
10,192,128276,6,0,P|43:183|115:206,2,104.499997209549,2|0|8,0:0|0:0|0:0,0:0:0:0:
54,266,128943,1,0,0:0:0:0:
166,142,129165,1,2,0:0:0:0:
166,142,129387,2,0,P|141:117|125:44,1,104.499997209549,2|8,0:0|0:0,0:0:0:0:
208,65,129831,1,0,0:0:0:0:
287,307,130054,5,2,0:0:0:0:
258,127,130276,1,2,0:0:0:0:
405,331,130498,5,12,0:0:0:0:
439,114,130720,1,6,0:0:0:0:
282,208,130943,5,0,0:0:0:0:
245,210,131054,1,0,0:0:0:0:
211,198,131165,1,2,0:0:0:0:
186,172,131276,1,8,0:0:0:0:
174,138,131387,2,0,L|182:68,1,52.2499986047745,8|0,0:0|0:0,0:0:0:0:
252,75,131609,2,0,L|257:126,1,52.2499986047745,2|0,0:0|0:0,0:0:0:0:
205,311,131831,5,4,0:0:0:0:
142,275,132053,1,0,0:0:0:0:
115,209,132275,1,0,0:0:0:0:
190,322,132498,5,0,0:0:0:0:
127,286,132720,1,0,0:0:0:0:
100,220,132942,1,0,0:0:0:0:
120,151,133164,1,0,0:0:0:0:
178,109,133386,1,0,0:0:0:0:
289,158,133609,5,0,0:0:0:0:
289,158,133831,1,0,0:0:0:0:
289,158,134054,1,0,0:0:0:0:
289,158,134276,1,0,0:0:0:0:
289,158,134498,5,0,0:0:0:0:
274,229,134720,1,0,0:0:0:0:
289,158,134943,1,0,0:0:0:0:
274,229,135165,1,0,0:0:0:0:
353,319,135387,5,0,0:0:0:0:
416,283,135609,1,0,0:0:0:0:
443,217,135831,1,0,0:0:0:0:
368,330,136054,5,0,0:0:0:0:
430,294,136276,1,0,0:0:0:0:
457,228,136498,1,0,0:0:0:0:
437,159,136720,1,0,0:0:0:0:
379,117,136942,1,0,0:0:0:0:
262,145,137165,5,0,0:0:0:0:
262,145,137387,1,0,0:0:0:0:
262,145,137609,1,0,0:0:0:0:
262,145,137831,1,0,0:0:0:0:
262,145,138054,5,0,0:0:0:0:
225,81,138276,6,0,L|230:24,1,52.2499986047745,2|0,0:0|0:0,0:0:0:0:
144,219,138498,6,0,P|97:227|54:214,1,82.5,8|0,0:0|0:0,0:0:0:0:
66,198,138943,6,0,P|113:190|156:203,1,82.5000031471254,6|0,0:0|0:0,0:0:0:0:
104,295,139387,1,8,0:0:0:0:
80,108,139609,1,0,0:0:0:0:
194,252,139831,2,0,P|217:211|203:152,1,82.5000031471254,2|2,0:0|0:0,0:0:0:0:
270,11,140276,6,0,L|293:58,1,52.2499986047745,8|0,0:0|0:0,0:0:0:0:
372,69,140498,2,0,L|342:112,1,52.2499986047745
371,187,140720,2,0,L|171:173,1,156.749995814324,2|0,0:0|0:0,0:0:0:0:
214,176,141165,1,8,0:0:0:0:
380,257,141387,2,0,L|260:248,1,82.5000031471254
389,327,141831,1,2,0:0:0:0:
482,218,142054,2,0,P|493:156|472:99,1,104.499997209549,12|0,0:0|0:0,0:0:0:0:
406,64,142498,6,0,P|395:126|416:183,2,104.499997209549,6|0|8,0:0|0:0|0:0,0:0:0:0:
482,116,143165,1,0,0:0:0:0:
280,153,143387,1,2,0:0:0:0:
280,153,143609,2,0,P|321:185|328:261,1,104.499997209549,2|8,0:0|0:0,0:0:0:0:
259,225,144054,1,0,0:0:0:0:
77,107,144276,5,6,0:0:0:0:
280,153,144498,1,12,0:0:0:0:
16,281,144720,5,2,0:0:0:0:
259,225,144942,1,2,0:0:0:0:
259,225,145054,1,2,0:0:0:0:
259,225,145165,1,2,0:0:0:0:
238,297,145387,5,2,0:0:0:0:
230,59,145609,1,8,0:0:0:0:
212,282,145831,1,2,0:0:0:0:
204,74,146054,6,0,P|247:77|296:112,1,82.5,6|0,0:0|0:0,0:0:0:0:
304,144,146498,2,0,P|295:117|280:95,1,55
245,209,146943,2,0,P|218:203|190:205,1,55
271,292,147387,2,0,P|252:312|240:337,1,55
353,319,147831,6,0,L|346:259,1,55,2|0,0:0|0:0,0:0:0:0:
264,237,148276,2,0,L|271:297,1,55,0|2,0:0|0:0,0:0:0:0:
429,291,148720,6,0,L|422:231,1,55
340,209,149165,2,0,L|347:269,1,55
399,161,149609,6,0,P|363:138|311:140,1,82.5,2|0,0:0|0:0,0:0:0:0:
279,166,150054,2,0,P|299:147|324:136,1,55,0|2,0:0|0:0,0:0:0:0:
205,202,150498,2,0,P|197:175|200:148,1,55
198,284,150943,2,0,P|171:276|149:260,1,55
60,178,151387,6,0,L|67:238,1,55,2|0,0:0|0:0,0:0:0:0:
149,260,151832,2,0,L|142:200,1,55,0|2,0:0|0:0,0:0:0:0:
46,52,152276,6,0,L|53:112,1,55
135,134,152721,2,0,L|128:74,1,55
224,24,153165,6,0,P|264:24|306:47,1,82.5,6|0,0:0|0:0,0:0:0:0:
351,64,153609,2,0,P|324:55|300:42,1,55,0|2,0:0|0:0,0:0:0:0:
246,96,154054,1,0,0:0:0:0:
246,96,154276,1,0,0:0:0:0:
278,183,154498,2,0,P|313:152|368:145,1,82.5
384,154,154943,2,0,P|393:199|363:266,1,110,2|0,0:0|0:0,0:0:0:0:
294,263,155609,1,2,0:0:0:0:
424,310,155831,2,0,P|384:332|372:333,1,55,12|2,0:0|0:0,0:0:0:0:
245,285,156276,2,0,P|285:263|297:262,1,55,12|0,0:0|0:0,0:0:0:0:
297,339,156720,5,2,0:0:0:0:
370,257,156943,1,0,0:0:0:0:
197,230,157165,1,2,0:0:0:0:
383,255,157387,1,0,0:0:0:0:
179,346,157609,1,2,0:0:0:0:
396,253,157831,1,0,0:0:0:0:
114,220,158054,1,2,0:0:0:0:
409,251,158276,1,0,0:0:0:0:
103,372,158498,6,0,B|64:213|164:231|119:83,1,275,6|2,0:0|0:0,0:0:0:0:
56,156,159831,1,0,0:0:0:0:
223,50,160054,5,2,0:0:0:0:
236,50,160165,1,2,0:0:0:0:
249,51,160276,2,0,P|288:83|297:167,1,110,6|0,0:0|0:0,0:0:0:0:
221,129,160720,1,8,0:0:0:0:
362,187,160943,2,0,P|310:213|256:196,1,110,2|0,0:0|0:0,0:0:0:0:
303,138,161387,1,2,0:0:0:0:
263,356,161609,1,8,0:0:0:0:
263,356,161720,1,0,0:0:0:0:
263,356,161831,1,0,0:0:0:0:
205,304,162054,6,0,P|257:278|311:295,1,110,2|0,0:0|0:0,0:0:0:0:
263,356,162498,1,8,0:0:0:0:
218,189,162720,1,0,0:0:0:0:
133,363,162943,1,0,0:0:0:0:
225,174,163165,1,2,0:0:0:0:
45,232,163387,6,0,L|163:237,1,110,8|0,0:0|0:0,0:0:0:0:
229,64,163831,2,0,L|224:182,1,110,2|0,0:0|0:0,0:0:0:0:
145,161,164276,1,8,0:0:0:0:
300,173,164498,1,2,0:0:0:0:
202,315,164720,1,0,0:0:0:0:
356,249,164943,1,2,0:0:0:0:
374,363,165165,2,0,P|383:309|369:257,1,110,8|0,0:0|0:0,0:0:0:0:
301,118,165609,6,0,P|296:146|301:177,1,55,2|0,0:0|0:0,0:0:0:0:
198,246,165831,2,0,P|226:251|257:246,1,55,2|0,0:0|0:0,0:0:0:0:
326,349,166054,2,0,P|331:321|326:290,1,55,8|0,0:0|0:0,0:0:0:0:
429,221,166276,2,0,P|401:216|370:221,1,55,2|0,0:0|0:0,0:0:0:0:
198,246,166498,5,0,0:0:0:0:
326,349,166720,1,2,0:0:0:0:
429,221,166943,1,8,0:0:0:0:
239,306,167165,6,0,P|210:316|172:314,1,55
196,137,167387,2,0,P|205:191|198:246,1,110,6|0,0:0|0:0,0:0:0:0:
118,197,167831,1,8,0:0:0:0:
315,155,168054,1,2,0:0:0:0:
143,84,168276,2,0,P|164:71|249:82,1,110,0|2,0:0|0:0,0:0:0:0:
319,261,168720,2,0,P|304:208|314:154,1,110,8|0,0:0|0:0,0:0:0:0:
452,219,169165,6,0,P|376:215|455:197,1,220,2|8,0:0|0:0,0:0:0:0:
500,274,169831,1,2,0:0:0:0:
358,107,170054,2,0,P|410:92|464:102,1,110,0|2,0:0|0:0,0:0:0:0:
500,274,170498,2,0,P|454:304|394:308,1,110,8|0,0:0|0:0,0:0:0:0:
195,235,170943,5,6,0:0:0:0:
328,278,171165,1,0,0:0:0:0:
226,370,171387,1,8,0:0:0:0:
320,250,171609,5,2,0:0:0:0:
296,143,171832,1,0,0:0:0:0:
213,217,172053,1,2,0:0:0:0:
452,106,172276,6,0,P|381:108|403:176,1,165,8|0,0:0|0:0,0:0:0:0:
474,173,172720,1,6,0:0:0:0:
296,143,172943,1,0,0:0:0:0:
480,189,173165,1,8,0:0:0:0:
290,127,173387,6,0,P|334:38|451:12,1,220,2|2,0:0|0:0,0:0:0:0:
467,24,173943,1,8,0:0:0:0:
472,50,174054,2,0,P|457:77|409:95,1,55,8|8,0:0|0:0,0:0:0:0:
449,160,174276,2,0,P|418:160|378:127,1,55,8|0,0:0|0:0,0:0:0:0:
333,117,174498,2,0,P|292:103|220:123,1,110,6|2,0:0|0:0,0:0:0:0:
213,140,174831,1,2,0:0:0:0:
213,140,174943,1,8,0:0:0:0:
56,39,175165,6,0,L|59:168,1,110,2|0,0:0|0:0,0:0:0:0:
90,213,175609,1,2,0:0:0:0:
180,75,175831,2,0,P|145:119|169:197,1,110,8|0,0:0|0:0,0:0:0:0:
213,140,176276,1,2,0:0:0:0:
248,304,176498,1,0,0:0:0:0:
65,279,176720,1,8,0:0:0:0:
207,237,176943,6,0,P|266:230|313:258,1,110
248,304,177387,1,2,0:0:0:0:
351,182,177609,2,0,P|386:229|385:284,1,110,8|0,0:0|0:0,0:0:0:0:
316,362,178054,2,0,P|377:344|417:361,1,110,2|0,0:0|0:0,0:0:0:0:
459,299,178498,5,8,0:0:0:0:
410,105,178720,1,2,0:0:0:0:
320,250,178943,1,0,0:0:0:0:
419,91,179165,1,2,0:0:0:0:
493,194,179387,2,0,P|441:224|369:209,1,110,8|0,0:0|0:0,0:0:0:0:
263,165,179831,6,0,P|231:160|179:175,1,55,2|0,0:0|0:0,0:0:0:0:
135,52,180054,2,0,P|130:84|145:136,1,55,2|0,0:0|0:0,0:0:0:0:
22,180,180276,2,0,P|54:185|106:170,1,55,8|0,0:0|0:0,0:0:0:0:
150,293,180498,2,0,P|155:261|140:209,1,55,6|0,0:0|0:0,0:0:0:0:
135,52,180720,5,0,0:0:0:0:
22,180,180943,1,2,0:0:0:0:
150,293,181165,1,12,0:0:0:0:
263,165,181387,6,0,P|265:130|248:87,1,55,2|0,0:0|0:0,0:0:0:0:
115,140,181609,2,0,L|197:144,1,82.5000031471254,6|0,0:0|0:0,0:0:0:0:
334,144,182054,1,8,0:0:0:0:
219,235,182276,2,0,L|301:238,1,82.5000031471254,0|2,0:0|0:0,0:0:0:0:
318,308,182720,1,2,0:0:0:0:
334,144,182943,1,8,0:0:0:0:
435,276,183165,1,0,0:0:0:0:
451,112,183387,6,0,P|448:54|425:18,1,82.5000031471254,2|2,0:0|0:0,0:0:0:0:
370,86,183831,1,12,0:0:0:0:
289,60,184054,2,0,P|292:118|380:170,1,165.000006294251,0|2,0:0|0:0,0:0:0:0:
227,159,184720,2,0,P|264:208|318:239,1,123.750004720688,8|0,0:0|0:0,0:0:0:0:
393,242,185165,5,4,0:0:0:0:
189,282,185387,1,0,0:0:0:0:
310,350,185609,5,8,0:0:0:0:
105,308,185831,2,0,P|139:217|188:282,1,220,4|2,0:0|0:0,0:0:0:0:
171,355,186498,1,12,0:0:0:0:
171,355,186720,1,2,0:0:0:0:
213,173,186943,5,4,0:0:0:0:
415,222,187165,1,0,0:0:0:0:
283,304,187387,5,8,0:0:0:0:
484,255,187609,2,0,P|490:170|415:224,1,220,4|2,0:0|0:0,0:0:0:0:
421,296,188276,1,12,0:0:0:0:
421,296,188498,2,0,L|436:361,1,55,0|2,0:0|0:0,0:0:0:0:
346,234,188720,6,0,P|343:193|362:149,1,82.5000031471254,4|0,0:0|0:0,0:0:0:0:
300,113,189165,1,8,0:0:0:0:
300,113,189387,2,0,P|303:72|284:28,1,82.5000031471254,0|2,0:0|0:0,0:0:0:0:
232,87,189831,1,2,0:0:0:0:
168,124,190054,2,8,P|148:107|137:84,1,27.5
140,128,190165,2,8,P|129:109|124:85,1,27.5
112,126,190276,1,8,0:0:0:0:
85,119,190387,1,8,0:0:0:0:
61,103,190498,6,0,P|70:78|100:43,1,55,6|0,0:0|0:0,0:0:0:0:
92,227,190720,2,0,P|112:209|155:194,1,55,8|0,0:0|0:0,0:0:0:0:
56,349,190943,2,0,P|82:344|127:352,1,55,8|0,0:0|0:0,0:0:0:0:
250,198,191165,1,2,0:0:0:0:
389,346,191387,6,0,P|416:344|444:349,1,55,8|0,0:0|0:0,0:0:0:0:
361,198,191610,2,0,P|386:209|408:227,1,55,2|0,0:0|0:0,0:0:0:0:
413,54,191831,6,0,P|430:78|436:129,1,82.5,8|0,0:0|0:0,0:0:0:0:
364,112,192276,5,6,0:0:0:0:
96,68,192498,1,0,0:0:0:0:
285,232,192720,1,8,0:0:0:0:
67,272,192943,5,6,0:0:0:0:
186,114,193165,1,0,0:0:0:0:
207,288,193387,1,8,0:0:0:0:
55,259,193609,5,2,0:0:0:0:
188,206,193831,1,0,0:0:0:0:
48,243,194054,1,8,0:0:0:0:
135,309,194276,5,6,0:0:0:0:
174,218,194498,1,0,0:0:0:0:
135,309,194720,1,8,0:0:0:0:
359,263,194943,6,0,P|276:199|173:217,1,214.49999018097,6|0,0:0|0:0,0:0:0:0:
236,272,195387,2,0,P|251:189|109:163,1,214.49999018097,12|0,0:0|0:0,0:0:0:0:
91,200,195831,5,6,0:0:0:0:
302,319,196054,1,0,0:0:0:0:
173,217,196276,1,8,0:0:0:0:
233,361,196498,5,6,0:0:0:0:
298,187,196720,1,0,0:0:0:0:
167,232,196943,1,8,0:0:0:0:
161,247,197054,1,8,0:0:0:0:
155,262,197165,2,0,P|213:161|112:260,1,428.999980361939,12|8,0:0|0:0,0:0:0:0:
137,184,197943,5,8,0:0:0:0:
137,184,198054,2,0,L|126:119,1,55,8|0,0:0|0:0,0:0:0:0:
199,136,198276,2,0,L|221:74,1,55,2|0,0:0|0:0,0:0:0:0:
276,125,198498,6,0,L|342:70,1,68.75,2|0,0:0|0:0,0:0:0:0:
348,153,198720,2,0,L|432:138,1,68.75,2|2,0:0|0:0,0:0:0:0:
396,213,198943,6,0,L|492:248,1,82.5000031471254,8|0,0:0|0:0,0:0:0:0:
407,288,199164,2,0,L|464:357,1,82.5000031471254
328,239,199387,6,0,P|249:232|201:302,1,165.000006294251,6|0,0:0|0:0,0:0:0:0:
163,326,199720,1,0,0:0:0:0:
115,338,199831,2,0,P|65:337|18:302,1,82.5000031471254,8|0,0:0|0:0,0:0:0:0:
8,281,200053,2,0,P|21:192|161:190,1,247.500009441376
169,232,200498,1,2,0:0:0:0:
393,346,200720,6,0,L|398:230,1,82.5000031471254
324,156,200942,2,0,L|327:238,1,82.5000031471254
420,339,201164,2,0,L|430:96,1,165.000006294251,2|0,0:0|0:0,0:0:0:0:
210,346,201609,6,0,P|260:317|322:333,1,110.000004196167,8|0,0:0|0:0,0:0:0:0:
309,325,201831,2,0,P|262:287|285:152,1,165.000006294251,2|0,0:0|0:0,0:0:0:0:
111,366,202276,2,0,P|129:330|131:289,1,82.5000031471254,2|0,0:0|0:0,0:0:0:0:
55,227,202498,2,0,L|63:359,1,82.5000031471254,8|0,0:0|0:0,0:0:0:0:
125,207,202720,2,0,L|133:339,1,82.5000031471254
199,269,202943,2,0,L|188:79,1,165.000006294251,2|0,0:0|0:0,0:0:0:0:
449,246,203387,6,0,L|441:378,1,82.5000031471254,8|0,0:0|0:0,0:0:0:0:
411,173,203609,2,0,L|406:90,1,82.5000031471254,2|0,0:0|0:0,0:0:0:0:
372,244,203831,6,0,L|364:376,1,68.75
334,175,204054,2,0,L|326:43,1,68.75,2|0,0:0|0:0,0:0:0:0:
296,242,204276,6,0,L|290:334,1,55,8|0,0:0|0:0,0:0:0:0:
258,177,204498,2,0,L|252:84,1,55
220,240,204720,6,0,L|214:332,2,82.5000031471254,2|0|8,0:0|0:0|0:0,0:0:0:0:
110,368,205387,1,2,0:0:0:0:
110,368,205609,2,0,L|106:303,2,41.2500015735627,0|0|2,0:0|0:0|0:0,0:0:0:0:
53,248,206054,1,8,0:0:0:0:
82,219,206165,1,0,0:0:0:0:
101,182,206276,1,0,0:0:0:0:
104,140,206387,1,0,0:0:0:0:
92,100,206498,6,0,P|168:141|269:69,1,165.000006294251,6|0,0:0|0:0,0:0:0:0:
274,84,206831,1,0,0:0:0:0:
306,46,206942,2,0,P|341:24|419:41,1,82.5000031471254,8|0,0:0|0:0,0:0:0:0:
428,36,207164,2,0,P|465:97|418:197,1,165.000006294251
370,113,207609,1,2,0:0:0:0:
477,243,207831,1,8,0:0:0:0:
442,264,207942,1,0,0:0:0:0:
401,266,208053,1,0,0:0:0:0:
365,248,208164,1,0,0:0:0:0:
341,215,208276,6,0,P|280:172|146:223,1,165.000006294251,2|0,0:0|0:0,0:0:0:0:
153,208,208609,1,0,0:0:0:0:
115,175,208720,2,0,L|122:78,1,82.5000031471254,8|0,0:0|0:0,0:0:0:0:
123,43,208942,2,0,P|49:25|21:100,1,165.000006294251,2|0,0:0|0:0,0:0:0:0:
17,220,209387,5,2,0:0:0:0:
115,321,209609,2,0,P|157:300|207:302,1,82.5000031471254,8|0,0:0|0:0,0:0:0:0:
238,314,209831,2,0,P|274:333|314:336,1,82.5000031471254
360,317,210054,6,0,L|372:103,2,187.000003566742,6|2|8,0:0|0:0|0:0,0:0:0:0:
435,112,210720,2,0,P|400:72|352:66,1,76.9999976501466,2|0,0:0|0:0,0:0:0:0:
431,264,211165,6,0,L|438:126,1,82.5000031471254,8|0,0:0|0:0,0:0:0:0:
435,112,211387,2,0,P|454:90|486:75,2,55,6|0|0,0:0|0:0|0:0,0:0:0:0:
266,101,212054,5,6,0:0:0:0:
396,121,212275,1,12,0:0:0:0:
407,189,212498,5,2,0:0:0:0:
241,165,212720,1,2,0:0:0:0:
216,229,212942,5,2,0:0:0:0:
418,257,213165,1,8,0:0:0:0:
429,325,213387,5,0,0:0:0:0:
191,293,213609,6,0,L|-11:306,2,187.000003566742,6|2|8,0:0|0:0|0:0,0:0:0:0:
26,235,214276,6,0,L|102:230,1,76.9999976501466,6|0,0:0|0:0,0:0:0:0:
192,363,214720,6,0,L|30:373,1,82.5000031471254,2|0,0:0|0:0,0:0:0:0:
137,297,214943,6,0,L|213:292,1,55,12|0,0:0|0:0,0:0:0:0:
191,293,215276,1,0,0:0:0:0:
191,293,215387,1,0,0:0:0:0:
263,31,215609,5,2,0:0:0:0:
204,154,215831,1,12,0:0:0:0:
429,62,216054,1,2,0:0:0:0:
338,255,216276,1,2,0:0:0:0:
331,65,216498,1,2,0:0:0:0:
395,205,216720,1,12,0:0:0:0:
286,129,216943,1,0,0:0:0:0:
374,180,217165,6,0,L|462:186,1,82.5,6|0,0:0|0:0,0:0:0:0:
512,190,217609,2,0,L|457:186,1,55,2|0,0:0|0:0,0:0:0:0:
460,85,218054,2,0,L|410:109,1,55,2|0,0:0|0:0,0:0:0:0:
362,20,218498,2,0,L|331:65,1,55,0|2,0:0|0:0,0:0:0:0:
210,114,218943,6,0,P|241:119|273:113,1,55,2|0,0:0|0:0,0:0:0:0:
242,42,219387,2,0,P|211:37|179:43,1,55,2|0,0:0|0:0,0:0:0:0:
178,186,219831,6,0,P|209:191|241:185,1,55,2|2,0:0|0:0,0:0:0:0:
210,114,220275,2,0,P|179:109|147:115,1,55,8|0,0:0|0:0,0:0:0:0:
112,217,220720,6,0,P|143:250|193:256,1,82.5,2|0,0:0|0:0,0:0:0:0:
232,257,221165,2,0,P|205:254|178:258,1,55,2|0,0:0|0:0,0:0:0:0:
298,301,221609,2,0,P|281:323|270:348,1,55,2|0,0:0|0:0,0:0:0:0:
367,265,222054,2,0,P|377:290|394:312,1,55,12|0,0:0|0:0,0:0:0:0:
439,198,222498,6,0,L|442:253,1,55,6|0,0:0|0:0,0:0:0:0:
512,214,222943,2,0,L|509:159,1,55,2|0,0:0|0:0,0:0:0:0:
372,179,223276,1,2,0:0:0:0:
367,183,223387,6,0,L|369:237,1,55,2|0,0:0|0:0,0:0:0:0:
439,198,223831,2,0,L|436:143,1,55,6|0,0:0|0:0,0:0:0:0:
301,137,224276,6,0,P|291:173|301:232,1,82.5,6|0,0:0|0:0,0:0:0:0:
305,271,224720,2,0,P|303:243|295:217,1,55,8|2,0:0|0:0,0:0:0:0:
234,262,225165,1,0,0:0:0:0:
234,262,225387,1,2,0:0:0:0:
372,227,225609,2,0,P|417:233|452:265,1,82.5,8|0,0:0|0:0,0:0:0:0:
455,289,226054,2,0,P|444:239|462:169,1,110,0|8,0:0|0:0,0:0:0:0:
512,237,226720,1,2,0:0:0:0:
446,360,226943,2,0,P|417:351|395:329,1,55,0|2,0:0|0:0,0:0:0:0:
323,239,227387,2,0,P|352:248|374:270,1,55,8|0,0:0|0:0,0:0:0:0:
314,306,227831,5,2,0:0:0:0:
359,177,228054,1,0,0:0:0:0:
191,244,228276,1,8,0:0:0:0:
287,103,228498,1,0,0:0:0:0:
309,289,228720,1,2,0:0:0:0:
116,321,228943,1,0,0:0:0:0:
239,173,229165,5,8,0:0:0:0:
239,173,229276,1,8,0:0:0:0:
239,173,229387,1,2,0:0:0:0:
246,213,229498,1,2,0:0:0:0:
234,252,229609,2,0,B|188:157|273:143|231:52|231:52|217:83|186:102,1,275,6|0,0:0|0:0,0:0:0:0:
186,101,230943,1,8,0:0:0:0:
186,101,231387,5,0,0:0:0:0:
158,340,232054,1,0,0:0:0:0:
186,101,232720,1,0,0:0:0:0:
303,55,233165,5,0,0:0:0:0:
331,294,233832,1,0,0:0:0:0:
303,55,234498,1,0,0:0:0:0:
404,146,234943,6,0,B|421:134|440:139|440:139|462:157|464:191|416:217|405:200|379:206|366:210|366:210|363:197|356:172|335:171|334:116|364:101|390:110|390:110|405:124|404:146,1,330
404,146,236498,5,0,0:0:0:0:
336,183,236720,1,0,0:0:0:0:
260,197,236943,1,0,0:0:0:0:
184,183,237165,1,0,0:0:0:0:
116,146,237387,6,0,P|188:107|253:150,1,165
184,183,238276,1,0,0:0:0:0:
86,68,238498,5,0,0:0:0:0:
58,307,239165,1,0,0:0:0:0:
86,68,239831,1,0,0:0:0:0:
214,109,240276,5,0,0:0:0:0:
242,348,240942,1,0,0:0:0:0:
337,250,241387,6,0,P|353:158|317:112,1,123.750004720688
340,135,241609,6,0,P|285:159|264:245,1,123.750004720688,6|0,0:0|0:0,0:0:0:0:
337,250,242054,5,6,0:0:0:0:
201,290,242276,1,0,0:0:0:0:
305,383,242498,1,8,0:0:0:0:
232,156,242720,5,6,0:0:0:0:
207,264,242943,1,0,0:0:0:0:
313,230,243164,1,2,0:0:0:0:
126,190,243387,6,0,L|120:119,1,55,8|0,0:0|0:0,0:0:0:0:
232,156,243609,2,0,L|238:85,1,55,2|2,0:0|0:0,0:0:0:0:
343,160,243831,5,6,0:0:0:0:
169,83,244054,1,8,0:0:0:0:
354,148,244276,1,8,0:0:0:0:
207,264,244498,6,0,P|202:296|218:344,1,55,2|0,0:0|0:0,0:0:0:0:
272,212,244720,2,0,P|277:180|261:132,1,55,2|0,0:0|0:0,0:0:0:0:
298,291,244943,1,8,0:0:0:0:
298,291,245054,1,8,0:0:0:0:
341,298,245165,1,8,0:0:0:0:
383,287,245276,1,8,0:0:0:0:
414,256,245387,2,0,P|426:228|424:192,1,55,8|0,0:0|0:0,0:0:0:0:
392,145,245609,6,0,P|329:126|264:152,1,110,2|0,0:0|0:0,0:0:0:0:
334,209,246054,1,8,0:0:0:0:
235,75,246276,6,0,P|217:97|210:154,1,55
104,197,246498,2,0,P|132:201|184:179,1,55,2|0,0:0|0:0,0:0:0:0:
275,249,246720,2,0,P|264:222|219:187,1,55,2|0,0:0|0:0,0:0:0:0:
129,134,246943,1,8,0:0:0:0:
205,257,247165,1,0,0:0:0:0:
51,276,247387,6,0,P|113:277|161:334,1,110,2|0,0:0|0:0,0:0:0:0:
77,349,247831,1,8,0:0:0:0:
205,257,248054,2,0,P|292:258|327:338,1,165
325,346,248498,1,2,0:0:0:0:
368,153,248720,2,0,P|391:224|455:249,1,110,8|0,0:0|0:0,0:0:0:0:
436,69,249165,2,0,P|454:120|440:173,1,110,2|0,0:0|0:0,0:0:0:0:
368,153,249609,5,8,0:0:0:0:
171,196,249831,1,0,0:0:0:0:
312,227,250054,1,2,0:0:0:0:
154,192,250276,1,2,0:0:0:0:
235,361,250498,2,0,L|241:241,1,110,8|0,0:0|0:0,0:0:0:0:
197,59,250943,6,0,L|200:124,1,55,2|0,0:0|0:0,0:0:0:0:
99,194,251165,2,0,L|164:190,1,55,2|0,0:0|0:0,0:0:0:0:
234,291,251387,2,0,L|230:225,1,55,8|0,0:0|0:0,0:0:0:0:
331,156,251609,2,0,L|265:159,1,55,2|0,0:0|0:0,0:0:0:0:
99,194,251831,5,0,0:0:0:0:
234,291,252054,1,2,0:0:0:0:
331,156,252276,1,12,0:0:0:0:
197,59,252498,2,0,L|197:126,1,55
234,291,252720,2,0,P|251:212|228:158,1,110,6|0,0:0|0:0,0:0:0:0:
172,232,253165,1,8,0:0:0:0:
117,43,253387,6,0,L|117:136,1,82.5000031471254,0|2,0:0|0:0,0:0:0:0:
197,59,253831,1,2,0:0:0:0:
42,190,254054,1,8,0:0:0:0:
243,185,254276,1,0,0:0:0:0:
243,185,254498,2,0,P|257:141|248:99,1,82.5000031471254,2|0,0:0|0:0,0:0:0:0:
176,139,254943,1,8,0:0:0:0:
345,94,255165,6,0,L|432:92,2,82.5000031471254,0|0|2,0:0|0:0|0:0,0:0:0:0:
455,166,255831,2,0,L|372:167,1,82.5000031471254,12|0,0:0|0:0,0:0:0:0:
482,239,256276,5,4,0:0:0:0:
297,290,256498,1,0,0:0:0:0:
388,240,256720,5,8,0:0:0:0:
203,189,256943,2,0,P|197:249|292:191,1,220,4|8,0:0|0:0,0:0:0:0:
269,150,257609,1,8,0:0:0:0:
269,150,257831,1,0,0:0:0:0:
129,67,258054,5,4,0:0:0:0:
157,257,258276,1,2,0:0:0:0:
53,245,258498,5,8,0:0:0:0:
52,260,258572,5,8,0:0:0:0:
51,275,258646,5,8,0:0:0:0:
50,290,258720,6,0,P|130:284|71:262,1,220,12|2,0:0|0:0,0:0:0:0:
204,326,259387,1,12,0:0:0:0:
204,326,259609,1,0,0:0:0:0:
194,123,259831,5,2,0:0:0:0:
294,319,260054,1,8,0:0:0:0:
315,67,260276,1,8,0:0:0:0:
145,219,260498,5,2,0:0:0:0:
145,219,260609,1,2,0:0:0:0:
145,219,260720,1,6,0:0:0:0:
380,185,260943,1,2,0:0:0:0:
380,185,261054,1,2,0:0:0:0:
380,185,261165,1,2,0:0:0:0:
391,148,261276,1,2,0:0:0:0:
382,110,261387,1,2,0:0:0:0:
355,82,261498,1,2,0:0:0:0:
316,74,261609,6,0,B|225:118|158:56|158:56|202:14|256:37,1,275,6|2,0:0|0:0,0:0:0:0:
245,156,262794,5,2,0:0:0:0:
244,167,262869,5,2,0:0:0:0:
243,178,262943,6,0,L|251:271,1,82.5,8|0,0:0|0:0,0:0:0:0:
320,271,263387,6,0,L|307:131,1,110,6|0,0:0|0:0,0:0:0:0:
176,234,263831,1,8,0:0:0:0:
294,338,264054,2,0,P|328:343|357:333,1,55
426,275,264276,2,0,P|373:262|320:271,1,110,2|2,0:0|0:0,0:0:0:0:
419,349,264720,1,8,0:0:0:0:
467,163,264943,6,0,L|456:33,1,110,0|2,0:0|0:0,0:0:0:0:
387,183,265387,2,0,L|376:53,1,110,2|8,0:0|0:0,0:0:0:0:
307,203,265831,2,0,L|300:125,1,55
291,26,266054,2,0,L|295:80,1,55,0|8,0:0|0:0,0:0:0:0:
232,123,266276,1,2,0:0:0:0:
362,257,266498,2,0,P|291:241|247:271,1,110,12|0,0:0|0:0,0:0:0:0:
87,302,266943,6,0,P|158:318|202:288,1,110,6|0,0:0|0:0,0:0:0:0:
139,251,267387,1,8,0:0:0:0:
312,306,267609,2,0,P|287:319|260:324,1,55
254,146,267831,2,0,L|260:256,1,110,2|2,0:0|0:0,0:0:0:0:
336,207,268276,1,8,0:0:0:0:
182,84,268498,6,0,L|187:193,1,110,0|2,0:0|0:0,0:0:0:0:
109,21,268943,2,0,L|114:130,1,110,2|8,0:0|0:0,0:0:0:0:
242,31,269387,1,2,0:0:0:0:
44,139,269609,2,0,L|40:73,1,55,0|8,0:0|0:0,0:0:0:0:
34,177,269831,1,8,0:0:0:0:
35,215,269943,1,8,0:0:0:0:
50,250,270054,1,8,0:0:0:0:
75,278,270165,1,8,0:0:0:0:
110,291,270276,2,0,P|144:285|189:292,1,55,8|0,0:0|0:0,0:0:0:0:
228,299,270498,6,0,P|287:311|360:290,1,110,6|0,0:0|0:0,0:0:0:0:
418,333,270943,1,8,0:0:0:0:
285,188,271165,2,0,P|282:222|289:267,1,55
460,219,271387,2,0,P|401:207|328:228,1,110,2|2,0:0|0:0,0:0:0:0:
418,333,271831,1,8,0:0:0:0:
354,137,272054,6,0,P|340:90|372:27,1,110,0|2,0:0|0:0,0:0:0:0:
490,45,272498,2,0,P|504:92|472:155,1,110,2|8,0:0|0:0,0:0:0:0:
422,91,272943,1,0,0:0:0:0:
339,246,273165,6,0,L|346:321,1,55,0|8,0:0|0:0,0:0:0:0:
418,333,273387,2,0,L|425:258,1,55,2|0,0:0|0:0,0:0:0:0:
267,224,273609,2,0,L|278:349,1,110,12|0,0:0|0:0,0:0:0:0:
98,144,274054,6,0,L|102:62,1,55,6|0,0:0|0:0,0:0:0:0:
166,159,274276,2,0,L|170:77,1,55
264,59,274498,2,0,L|268:141,1,55,8|0,0:0|0:0,0:0:0:0:
332,44,274720,2,0,L|336:126,1,55
368,307,274943,5,2,0:0:0:0:
398,135,275165,1,2,0:0:0:0:
302,252,275387,5,8,0:0:0:0:
465,191,275609,1,0,0:0:0:0:
274,160,275831,6,0,L|198:149,1,55,6|0,0:0|0:0,0:0:0:0:
191,152,276054,1,2,0:0:0:0:
164,158,276165,1,2,0:0:0:0:
144,177,276276,6,0,P|138:214|153:251,1,55,8|8,0:0|0:0,0:0:0:0:
160,298,276498,1,2,0:0:0:0:
160,298,276609,2,0,P|148:332|116:358,1,55,2|2,0:0|0:0,0:0:0:0:
38,287,276831,2,0,L|93:293,2,55,2|2|2,0:0|0:0|0:0,0:0:0:0:
225,336,277165,6,0,L|280:329,1,55,12|0,0:0|0:0,0:0:0:0:
263,252,277387,2,0,L|318:258,1,55
374,314,277609,6,0,P|389:270|365:193,1,110,4|0,0:0|0:0,0:0:0:0:
491,326,278054,1,8,0:0:0:0:
449,192,278276,2,0,P|445:157|470:113,1,55
476,51,278498,2,0,P|429:72|346:51,1,110,2|2,0:0|0:0,0:0:0:0:
301,28,278943,1,8,0:0:0:0:
133,78,279165,5,0,0:0:0:0:
133,78,279387,2,0,P|186:65|240:76,1,110,2|2,0:0|0:0,0:0:0:0:
267,102,279720,1,2,0:0:0:0:
282,137,279831,2,0,L|277:207,1,55,8|0,0:0|0:0,0:0:0:0:
322,253,280054,2,0,L|258:283,1,55
241,345,280276,2,0,L|182:305,1,55,0|8,0:0|0:0,0:0:0:0:
106,199,280498,1,2,0:0:0:0:
127,346,280720,2,0,P|122:292|154:249,1,110,12|0,0:0|0:0,0:0:0:0:
363,327,281165,6,0,P|405:331|473:270,1,110,6|0,0:0|0:0,0:0:0:0:
393,251,281609,1,8,0:0:0:0:
297,356,281831,2,0,P|293:322|300:284,1,55
313,130,282054,2,0,P|326:176|315:253,1,110,2|2,0:0|0:0,0:0:0:0:
227,191,282498,1,8,0:0:0:0:
381,94,282720,6,0,P|328:57|260:73,1,110,0|2,0:0|0:0,0:0:0:0:
451,175,283165,1,12,0:0:0:0:
164,137,283387,1,12,0:0:0:0:
302,336,283609,1,2,0:0:0:0:
310,298,283720,1,2,0:0:0:0:
302,260,283831,1,2,0:0:0:0:
310,222,283943,1,8,0:0:0:0:
302,183,284054,2,0,L|316:112,1,55,2|0,0:0|0:0,0:0:0:0:
461,121,284276,2,0,L|450:174,1,55,12|0,0:0|0:0,0:0:0:0:
221,191,284498,1,0,0:0:0:0:
379,207,284720,6,0,P|373:144|323:102,1,110,4|0,0:0|0:0,0:0:0:0:
271,66,285165,1,8,0:0:0:0:
221,191,285387,2,0,L|210:125,1,55
159,17,285609,2,0,L|133:168,1,110,2|2,0:0|0:0,0:0:0:0:
159,333,286054,1,8,0:0:0:0:
33,206,286276,6,0,P|29:174|49:130,1,55
108,184,286498,2,0,P|116:237|85:300,2,110,2|2|8,0:0|0:0|0:0,0:0:0:0:
260,102,287165,1,6,0:0:0:0:
274,316,287387,1,4,0:0:0:0:
195,47,287609,1,6,0:0:0:0:
185,217,287831,1,12,0:0:0:0:
222,207,287943,1,8,0:0:0:0:
260,209,288054,2,0,L|322:221,1,55,2|0,0:0|0:0,0:0:0:0:
405,345,288276,6,0,L|379:152,2,165.000006294251,6|0|8,0:0|0:0|0:0,0:0:0:0:
278,72,288943,6,0,L|259:208,2,137.5,6|0|8,0:0|0:0|0:0,0:0:0:0:
155,323,289609,6,0,L|135:181,2,110,6|0|0,0:0|0:0|0:0,0:0:0:0:
27,99,290276,6,0,L|16:181,2,82.5000031471254,6|8|2,0:0|0:0|0:0,0:0:0:0:
27,99,290943,5,8,0:0:0:0:
405,345,291387,1,8,0:0:0:0:
304,129,291831,6,0,L|419:114,2,82.5000031471254,2|0|8,0:0|0:0|0:0,0:0:0:0:
372,218,292498,6,0,L|314:210,1,55,6|8,0:0|0:0,0:0:0:0:
309,307,292943,6,0,L|406:293,1,91.6666666666667,2|2,0:0|0:0,0:0:0:0:
399,294,293609,5,6,0:0:0:0:
256,192,293720,12,0,300276,0:0:0:0:
